#TITLE:CIRCUS U CRIC;
#SUBTITLE:;
#ARTIST:Nanako;
#TITLETRANSLIT:;
#SUBTITLETRANSLIT:;
#ARTISTTRANSLIT:;
#GENRE:;
#CREDIT:;
#BANNER:;
#BACKGROUND:;
#LYRICSPATH:;
#CDTITLE:cdtitle.png;
#MUSIC:CIRCUS U CRIC.mp3;
#OFFSET:0.114800;
#SAMPLESTART:60.833000;
#SAMPLELENGTH:15.000000;
#SELECTABLE:YES;
#BPMS:0.000000=185.000000
;
#STOPS:
;
#BGCHANGES:;
#KEYSOUNDS:;
#ATTACKS:;

//---------------dance-single - ----------------
#NOTES:
     dance-single:
     :
     Beginner:
     3:
     0.130307,0.180772,0.031184,0.054573,0.000000,117.000000,113.000000,4.000000,7.000000,0.000000,0.000000,0.130307,0.180772,0.031184,0.054573,0.000000,117.000000,113.000000,4.000000,7.000000,0.000000,0.000000:
0000
0000
0000
0000
,
0000
0000
0000
0000
,
0000
0000
0000
0000
,
0000
0000
0000
0000
,
0000
0000
0000
0000
,
0000
0000
0000
0000
,
0000
0000
0000
0000
,
0000
0000
0000
0000
,
0000
0000
0000
0000
,
1000
0000
0000
1000
,
0000
0000
0001
0000
,
0000
0001
0000
0000
,
0100
0000
0000
0100
,
0000
0000
0010
0000
,
0000
0010
0000
0000
,
1000
0000
1000
0000
,
1000
0000
0010
0000
,
0010
0000
0010
0000
,
0100
0000
0100
0000
,
0100
0000
0001
0000
,
0001
0000
0001
0000
,
2000
0000
0000
0000
,
3000
0000
0000
0000
,
0010
0000
0010
0000
,
0010
0000
0000
0000
,
0100
0000
0100
0000
,
0100
0000
0000
0000
,
0001
0000
1000
0000
,
0001
0000
0000
0000
,
1000
0000
0010
0000
,
0200
0000
0300
0000
,
0010
0000
0010
0000
,
0010
0000
0000
0000
,
1000
0000
1000
0000
,
1000
0000
0000
0000
,
0001
0000
0100
0000
,
0001
0000
0000
0000
,
1000
0000
0001
0000
,
2000
0000
3000
0000
,
0001
0000
0000
0010
,
0000
0000
0001
0000
,
0000
0100
0000
0000
,
1000
0000
0010
0000
,
1000
0000
0000
0000
,
1000
0000
0000
0000
,
0001
0000
0000
0000
,
1001
0000
0000
0000
,
1000
0000
0000
0010
,
0000
0000
0100
0000
,
0000
0001
0000
0000
,
1000
0000
0000
0100
,
0000
0000
0010
0000
,
0000
0001
0000
0000
,
1000
0000
0000
0001
,
0000
0000
1000
0000
,
0000
0001
0000
0000
,
0100
0000
0000
0010
,
0000
0000
1000
0000
,
0000
0001
0000
0000
,
0220
0000
0000
0000
,
0000
0000
0000
0000
,
0330
0000
0000
0000
,
0000
0000
1000
0000
,
0001
0000
0001
0000
,
0001
0000
0000
0000
,
0000
0000
1000
0000
,
0000
0000
0000
0000
,
0010
0000
0000
0010
,
0000
0000
0010
0000
,
0000
0010
0000
0000
,
1000
0000
0000
0100
,
0000
0000
1000
0000
,
0000
0001
0000
0000
,
0010
0000
0000
0001
,
0000
0000
0100
0000
,
0000
0001
0000
0000
,
2000
0000
0000
0000
,
0000
0000
3000
0000
,
0110
0000
0000
0000
,
0001
0000
0000
1000
,
0000
0000
0001
0000
,
0000
0100
0000
0000
,
0010
0000
0000
1000
,
0000
0000
0010
0000
,
0000
0100
0000
0000
,
0001
0000
0001
0000
,
0001
0000
1000
0000
,
1000
0000
1000
0000
,
0010
0000
0010
0000
,
0010
0000
0100
0000
,
0100
0000
0100
0000
,
0020
0000
0000
0000
,
0030
0000
0000
1001
;

//---------------dance-single - ----------------
#NOTES:
     dance-single:
     :
     Easy:
     7:
     0.308503,0.361545,0.210495,0.077961,0.000000,277.000000,250.000000,27.000000,10.000000,0.000000,0.000000,0.308503,0.361545,0.210495,0.077961,0.000000,277.000000,250.000000,27.000000,10.000000,0.000000,0.000000:
0000
0000
0000
0000
,
0000
0000
0000
0000
,
0000
0000
0000
0000
,
0000
0000
0000
0000
,
0000
0000
0000
0000
,
0000
0000
0000
0000
,
0000
0000
0000
0000
,
0000
0000
0000
0000
,
0000
0000
0000
0000
,
1000
0000
0000
0010
0000
0000
1000
0000
,
0000
0010
0000
0000
1000
0000
0000
0010
,
0000
0100
0001
1000
,
0010
0000
0000
0100
0000
0000
0010
0000
,
0000
0100
0000
0000
0010
0000
0000
0100
,
0000
0001
1000
0100
,
1000
1000
0010
0010
,
1000
0100
0010
0010
,
0001
0001
1000
0100
,
1000
1000
0010
0010
,
0100
0001
0010
0010
,
0100
0100
1000
0010
,
0200
0000
0000
0020
0000
0000
0000
0000
,
0330
0000
0000
0000
,
1001
0000
0001
0000
,
1000
1000
0000
0000
,
1001
0000
1000
0000
,
0001
0001
0000
0000
,
1010
0000
0100
0000
,
0101
0000
0001
0000
,
1000
1000
0010
0010
,
0110
0000
0000
1001
0000
0000
0000
0000
,
0001
0100
0001
0100
,
0010
1000
0000
0100
,
1000
0010
1000
0010
,
0100
0001
0000
0010
,
0110
0000
1001
0000
,
1100
0000
0001
0000
,
1000
1000
0010
0010
,
0200
0000
0300
0000
,
1001
0000
0000
0010
0000
0000
1001
0000
,
0000
0100
0000
0000
1000
0000
0100
0000
,
0010
0001
0010
0010
,
1000
0100
0010
0000
,
1001
0000
0100
0000
,
0100
0000
0010
0000
,
1001
0000
0000
0000
0100
0000
0000
1000
,
0000
1000
0000
1000
0000
0000
0000
0000
,
0001
0010
0100
1000
,
0010
0100
0001
0010
,
0100
1000
1000
1000
,
0001
0010
0100
1000
,
0010
0100
0001
0010
,
0100
1000
1000
0000
,
0001
0001
1000
0100
,
0100
0001
0100
0100
,
1000
0010
0100
0100
,
0001
0001
1000
0100
,
0100
0010
0100
0100
,
1000
0010
0100
0002
,
2000
0000
0000
0000
,
0000
0000
3003
0000
,
1001
0000
0000
1001
0000
0000
0110
0000
,
0000
0110
0000
0000
2000
0000
0000
0000
,
3001
0000
0000
1000
0000
0000
0001
0000
,
1000
0000
1000
0010
,
0000
0010
0001
0000
,
0001
0100
0000
0100
,
1100
0000
0010
1000
,
0000
0100
0010
0000
,
0001
1000
0000
0110
,
1000
1000
0100
0010
,
0010
0100
0001
0001
,
0100
1000
0010
0100
,
0001
0001
0100
1000
,
1000
0100
0010
0010
,
1000
0001
0010
0002
,
2000
0000
0000
0000
,
0000
0000
3003
0000
,
1001
0000
0000
0000
,
0001
0000
0000
1001
0000
0000
1000
0000
,
0000
1001
0000
0000
0001
0000
0000
0011
,
0000
0001
1000
0100
,
1000
0000
0000
0110
0000
0000
0001
0000
,
0000
0110
0000
0000
1000
0000
0000
0110
,
0000
0001
0010
0100
,
1000
1000
1000
1000
,
0001
0010
0100
0100
,
0100
0100
0001
0100
,
1000
1000
1000
1000
,
0010
0001
0010
0010
,
0010
0010
0100
0001
,
0200
0000
0000
0020
0000
0000
0000
0000
,
0330
0000
0000
1001
;

//---------------dance-single - ----------------
#NOTES:
     dance-single:
     :
     Medium:
     10:
     0.403171,0.506163,0.265068,0.077961,0.015592,362.000000,328.000000,34.000000,10.000000,0.000000,0.000000,0.403171,0.506163,0.265068,0.077961,0.015592,362.000000,328.000000,34.000000,10.000000,0.000000,0.000000:
0000
0000
0000
0000
,
0000
0000
0000
0000
,
0000
0000
0000
0000
,
0000
0000
0000
0000
,
0000
0000
0000
0000
,
0000
0000
0000
0000
,
0000
0000
0000
0000
,
0000
0000
0000
0000
,
0000
0000
0000
0000
,
0001
0000
1000
0010
0000
0000
1000
0000
,
0100
0010
0000
0000
0001
0000
0100
0010
,
0000
0100
0010
0000
1000
0000
1001
0000
,
0001
0000
0010
0100
0000
0000
1000
0000
,
0010
0100
0000
0000
0001
0000
0010
0100
,
0000
1000
0001
0000
0100
0000
0110
0000
,
0001
0001
0001
0001
,
0010
0100
1000
1000
,
1000
0000
1000
0010
1000
0000
0100
0000
,
0010
0010
0010
0010
,
0100
1000
0001
0001
,
0001
1000
0001
0000
0010
0000
0100
0000
,
2000
0000
0000
0002
0000
0000
0000
0000
,
3003
0000
0000
0000
,
1001
0000
0010
0000
,
0100
0100
0000
0000
,
1001
0000
0100
0000
,
0010
0010
0000
1000
,
1010
0000
0101
0001
,
1001
0000
0100
1000
,
0010
0010
0100
0100
,
1000
0000
0001
1000
0000
0100
0010
0000
,
0001
0001
1000
1000
,
0100
0000
0100
0000
1000
0010
1000
0000
,
0001
0001
0100
0100
,
0010
0000
0010
0000
1000
0100
0010
0000
,
0101
0000
0110
0000
,
1000
0010
0110
0000
,
0101
0001
1001
1000
,
1200
0000
0010
0310
,
0011
0000
0000
0100
0000
0000
1010
0000
,
0000
0100
0000
0000
0001
1000
0100
0000
,
1000
0010
0100
0100
,
0001
0010
0001
0000
0100
0000
0110
0000
,
0020
1000
0100
0030
,
0001
0010
0100
0000
1000
0000
0000
0000
,
0002
0000
0010
0000
1000
0000
0003
0110
,
0000
0110
0000
0110
0000
0000
0000
0000
,
0001
0000
1000
0100
0010
0000
0001
0000
,
0100
0010
1000
0000
0001
0000
0010
0100
,
1000
0010
0100
0101
,
1000
0000
0010
0100
0001
0000
1000
0000
,
0001
0010
0100
0000
1000
0000
0100
0010
,
0001
1000
1001
0000
,
1000
0000
0100
0010
0000
0001
0100
0000
,
0010
1000
0000
0100
0010
0000
0100
1000
,
0000
0010
0100
0000
0001
0000
1001
0000
,
1000
0000
0010
0100
0000
0001
0010
0000
,
0100
0010
0000
1000
0001
0000
0100
0010
,
0000
0001
1000
0000
0010
0000
2000
0000
,
0002
0000
0000
0000
,
0000
0000
3003
0000
,
1100
0000
0000
1010
0000
0000
0011
0000
,
0000
1001
0000
0000
2000
0000
0000
0000
,
3001
0000
1000
0000
0100
0000
0010
0000
0001
0000
1000
0000
,
0010
0000
0010
0000
,
0010
0000
0010
0000
,
0010
0000
0010
0000
,
1010
0010
0010
0101
,
0001
0001
1100
0100
,
0001
1100
0010
0000
,
0001
1000
0100
0010
0000
0000
0100
1000
,
0010
0100
0000
0000
0010
1000
0100
0010
,
0000
0001
0100
0101
,
0001
0010
0100
0010
0000
0000
0001
0010
,
0100
1000
0000
0000
0100
1000
0010
1000
,
0000
0001
0100
0000
0010
0000
2000
0000
,
0002
0000
0000
0000
,
0000
0000
3003
0000
,
0100
0100
0000
0000
0000
0000
0000
0000
,
0001
0000
1000
0100
0000
0010
0001
0000
,
1000
0010
0000
0100
0001
0000
0010
0100
,
0000
1000
0001
0000
0100
0000
0101
0000
,
0001
0000
1000
0100
0000
0010
0100
0000
,
0001
0100
0000
0010
0100
0000
1000
0100
,
0000
1000
0010
0000
1000
0000
1001
0000
,
0001
0001
0001
0001
,
0001
1000
0100
0000
0010
0000
0010
0000
,
0010
0000
0010
0001
0100
0010
1000
0000
,
0100
0000
0100
0000
0100
0000
0100
1000
,
0010
0100
0001
0001
,
0001
0000
0001
1000
0100
0000
0010
0000
,
0001
1000
0010
0100
0001
1000
0010
0100
,
0001
0000
0000
1001
;

//---------------dance-single - ----------------
#NOTES:
     dance-single:
     :
     Hard:
     13:
     0.601415,0.795399,0.319641,0.031184,0.031184,540.000000,499.000000,41.000000,4.000000,0.000000,0.000000,0.601415,0.795399,0.319641,0.031184,0.031184,540.000000,499.000000,41.000000,4.000000,0.000000,0.000000:
0000
0000
0000
0000
,
0000
0000
0000
0000
,
0000
0000
0000
0000
,
0000
0000
0000
0000
,
0000
0000
0000
0000
,
0000
0000
0000
0000
,
0000
0000
0000
0000
,
0000
0000
0000
0000
,
0000
0000
0000
0000
,
0001
0010
0100
1000
0000
0000
1000
0010
,
0001
0010
0000
0000
0010
1000
0100
0010
,
0000
0001
0010
0100
1000
0010
0000
0100
,
0001
0010
0100
1000
0000
0000
1000
0100
,
0010
0001
0000
0000
0001
0100
0010
1000
,
0000
0100
0010
0000
1001
0000
0110
0000
,
0001
0100
0001
0100
0010
0100
0010
0100
,
1000
0100
0001
0010
0100
1000
0100
1000
,
0100
0001
0100
0001
0100
1000
0010
0100
,
0001
0010
0001
0010
1000
0010
1000
0010
,
0100
1000
0001
1000
0010
1000
0010
1000
,
0100
1000
0100
0010
0001
0100
0010
1000
,
0002
0000
0000
2000
0000
0000
0000
0000
,
3003
0000
1000
0000
,
0001
0000
1000
0010
1000
0000
0001
0010
,
0001
1000
1001
0000
,
0010
0000
1000
0100
1000
0000
0010
1000
,
0010
0000
1000
0000
1001
0000
0001
0010
,
0100
0000
1000
0010
0000
0100
0000
0001
,
0000
0100
0010
0100
0000
0001
1000
0100
,
0010
0010
0100
0100
,
1001
0000
0000
1001
0000
0000
0010
1000
,
0100
0000
0010
0100
1000
0000
0010
0100
,
0001
0000
0101
0000
0010
1000
0100
0000
,
0011
0000
0100
1000
0010
0000
0100
0001
,
0100
0000
0110
0000
0001
1000
0100
0000
,
1100
0000
0010
0001
0000
1000
0010
0000
,
0100
0001
0010
0100
0000
0001
0100
0000
,
1100
0010
0101
0010
,
0100
1000
0001
1000
0001
0000
0001
0000
,
1010
0010
1000
0100
0000
0000
1001
0001
,
0010
0100
0000
1000
0010
0100
0000
0001
,
0110
0000
1000
1001
0000
0010
1000
0001
,
1000
0100
0000
0100
0000
0100
0010
1000
,
0001
0001
1000
1000
,
0010
0100
0001
0000
0100
0010
0100
0000
,
0001
0000
0001
0000
0010
0000
0100
1100
,
0000
1001
0000
1001
0000
0000
0000
0000
,
0010
1000
0100
0010
0100
0000
0100
1000
,
0010
0100
1000
0000
1000
0100
0010
1000
,
0100
0010
0001
0000
0110
0000
1010
0000
,
0001
0010
0100
0001
0100
0000
0100
0010
,
0001
0100
0010
0000
0010
0001
0010
0100
,
0001
0010
0100
0000
1100
0000
0001
0000
,
0100
0010
1000
0100
0010
0001
0010
0100
,
1000
0010
1000
0000
1000
0001
0100
1000
,
0100
0001
0100
0001
0010
0100
1000
0000
,
1000
0001
0010
1000
0010
0100
0010
0001
,
1000
0010
0000
0010
1000
0100
0010
0100
,
1000
0010
0100
0000
0001
0000
1001
0000
,
0110
0010
0000
0010
0010
0000
1000
1000
,
0000
0001
0001
0000
0010
0100
1000
0010
,
0100
0001
0100
1000
0000
0000
1000
0100
,
0001
0000
0000
0100
0000
0000
0000
0000
0000
0000
0000
0000
0001
0000
1000
0000
0100
0000
0001
0000
0100
0000
1000
0000
,
0010
0000
1010
0000
0101
0000
0110
0000
1001
0000
0011
0000
,
1000
0100
0010
0001
0010
0000
0001
0010
,
0100
1000
0100
0000
1000
0010
0100
0001
,
0010
0100
1001
1010
,
0001
0010
0100
1000
0100
0000
0100
1000
,
0010
0100
0010
0000
0010
1000
0001
0010
,
0100
1000
0001
0000
1010
0000
1100
0000
,
0001
0010
0100
1000
0000
1000
0010
0100
,
0001
0010
0000
0010
0100
0001
0100
1000
,
0000
1000
0010
0001
1000
0100
0000
0100
,
0001
0010
0100
0001
0000
0001
0100
1000
,
0010
0100
0000
0100
1000
0100
0001
0010
,
0000
0010
0001
0000
1001
0000
1010
0000
,
0001
1000
0100
0001
0000
0100
1000
0000
,
0010
0000
0100
0000
0001
0010
0000
0000
,
0110
0110
0000
0000
0001
1000
0100
0000
,
0010
1000
0100
0010
0000
0010
0100
0001
,
0100
1000
0000
1000
0010
0100
0001
0010
,
0100
1000
0001
0100
0010
0000
0101
0000
,
0010
1000
0100
0010
0000
0010
0001
0100
,
1000
0100
0000
0100
0001
0010
0100
1000
,
0000
1000
0010
0000
1001
0000
1100
0000
,
0001
0010
0001
0010
0100
0010
0100
0010
,
1000
0010
0100
1000
0001
0100
0001
0100
,
1000
0100
1000
0100
0001
0010
0100
1000
,
0010
1000
0010
0001
0010
0001
0010
0100
,
0001
0010
0100
1000
0010
0100
0010
0100
,
0001
0100
0001
0010
0100
1000
0010
0100
,
0002
0000
0000
2000
0000
0000
0000
0000
,
3003
0000
0000
1001
;

//---------------dance-double - ----------------
#NOTES:
     dance-double:
     :
     Easy:
     7:
     0.295139,0.361545,0.101350,0.070165,0.000000,265.000000,252.000000,13.000000,9.000000,0.000000,0.000000,0.295139,0.361545,0.101350,0.070165,0.000000,265.000000,252.000000,13.000000,9.000000,0.000000,0.000000:
00000000
00000000
00000000
00000000
,
00000000
00000000
00000000
00000000
,
00000000
00000000
00000000
00000000
,
00000000
00000000
00000000
00000000
,
00000000
00000000
00000000
00000000
,
00000000
00000000
00000000
00000000
,
00000000
00000000
00000000
00000000
,
00000000
00000000
00000000
00000000
,
00000000
00000000
00000000
00000000
,
10000000
00000000
00000000
00010000
00000000
00000000
00001000
00000000
,
00000000
00000010
00000000
00000000
00001000
00000000
00000000
00010000
,
00000000
00100000
01000000
10000000
,
00100000
00000000
00000000
01000000
00000000
00000000
00010000
00000000
,
00000000
01000000
00000000
00000000
00001000
00000000
00000000
00000010
,
00000000
00000001
00001000
00000001
,
00000001
00001000
00010000
00100000
,
00010000
00001000
00000010
00000100
,
00000010
00001000
00010000
01000000
,
00100000
10000000
00100000
00010000
,
00001000
00010000
00000100
00000010
,
00000001
00000010
00000100
00001000
,
00000020
00000000
00000000
00000200
00000000
00000000
00000000
00000000
,
00000330
00000000
00000000
00000000
,
00000001
00000000
00001000
00000000
,
00000010
00000010
00000000
00000000
,
00001000
00000000
00010000
00000000
,
10000000
10000000
00000000
00000000
,
01010000
00000000
00010000
00000000
,
10100000
00000000
00010000
00000000
,
00000100
00000100
00000010
00000010
,
00001001
00000000
00000000
00000110
00000000
00000000
00000000
00000000
,
00000001
00001000
00000001
00001000
,
00000100
00000100
00000010
00001000
,
01000000
00100000
01000000
00100000
,
10000000
00010000
00100000
00100000
,
10010000
00000000
10100000
00000000
,
00011000
00000000
00001100
00000000
,
00000001
00000001
00001000
00001000
,
00000010
00000010
00000010
00000000
,
00001001
00000001
00001000
00001000
,
00010000
00000000
00001000
00010000
,
00100000
00000000
00000000
10000000
00000000
00010000
00000000
00000000
,
00100000
00001000
00001000
00000010
,
00000001
00000000
00000001
00000000
,
00001000
00000100
00001000
00000000
,
00010000
00000000
00000000
00000000
00010000
00000000
00000000
00100000
,
00000000
00100000
00000000
00100000
00000000
00000000
00000000
00000000
,
00010000
10000000
00100000
00010000
,
00001000
00100000
00010000
00001000
,
00000010
00000100
00000001
00001000
,
00001000
00010000
00100000
01000000
,
10000000
00010000
00100000
01000000
,
10000000
00100000
00020000
00000000
,
00031000
00010000
00000100
00000010
,
00001000
00000010
00000001
00001000
,
00010000
10000000
00100000
01000000
,
00010000
00001000
00000100
00010000
,
00100000
01000000
00010000
00100000
,
01000000
10000000
00010000
00001000
,
00000020
00000000
00000000
00000000
,
00000000
00000000
00000030
00000000
,
00001000
00000000
00000000
00000001
,
00000000
00000000
00002000
00000000
,
00023000
00000000
00000000
00000000
,
01030000
00000000
00000000
00010000
,
00000000
00000000
00001000
00000000
,
00000000
00000100
00000000
00000000
,
00001001
00000000
00000000
00000110
,
00000000
00000000
00001100
00000000
,
00000000
00011000
00001000
00000000
,
00001000
00100000
01000000
01000000
,
10000000
00100000
00010000
00010000
,
00001000
00000100
00000001
00000010
,
00001000
00001000
00010000
00000100
,
00000010
00001000
00010000
00010000
,
00100000
10000000
00010000
00001000
,
00000020
00000000
00000000
00000000
,
00000000
00000000
00000030
00000000
,
00000001
00000001
00000000
00000000
00000000
00000000
00000000
00000000
,
00001000
00000100
00001000
00010000
,
00001000
00010000
00100000
01000000
,
10000000
00100000
00010000
00001000
,
00000010
00000100
00000010
00000001
,
00001000
00000001
00000010
00000100
,
00001000
00010000
10000000
10000000
,
00100000
00010000
00100000
01000000
,
00010000
00001000
00000010
00000100
,
00000010
00001000
00010000
00100000
,
01000000
10000000
01000000
00100000
,
00010000
00100000
00001000
00000010
,
00001000
00000010
00000001
00001000
,
00020000
00000000
00000000
20000000
00000000
00000000
00000000
00000000
,
30030000
00000000
00000000
00010000
;

//---------------dance-double - ----------------
#NOTES:
     dance-double:
     :
     Medium:
     9:
     0.363076,0.470008,0.163718,0.062369,0.023388,326.000000,305.000000,21.000000,8.000000,0.000000,0.000000,0.363076,0.470008,0.163718,0.062369,0.023388,326.000000,305.000000,21.000000,8.000000,0.000000,0.000000:
00000000
00000000
00000000
00000000
,
00000000
00000000
00000000
00000000
,
00000000
00000000
00000000
00000000
,
00000000
00000000
00000000
00000000
,
00000000
00000000
00000000
00000000
,
00000000
00000000
00000000
00000000
,
00000000
00000000
00000000
00000000
,
00000000
00000000
00000000
00000000
,
00000000
00000000
00000000
00000000
,
00100000
00000000
10000000
00010000
00000000
00000000
00100000
00000000
,
00001000
00010000
00000000
00000000
00000100
00000000
00000010
00000100
,
00000000
00001000
00000001
00000000
00001000
00000000
00010000
00000000
,
10000000
00000000
00100000
01000000
00000000
00000000
00010000
00000000
,
01000000
00100000
00000000
00000000
00010000
00000000
00001000
00010000
,
00000000
00000100
00001000
00000010
,
00000010
00001000
00000100
00000010
,
00001000
00010000
00100000
00000000
01000000
00000000
00010000
00000000
,
00100000
00000000
01000000
00000000
00100000
00000000
00010000
00001000
,
00000100
00000010
00001000
00000010
,
00000001
00000000
00001000
00010000
00100000
00000000
01000000
00000000
,
10000000
00100000
00010000
00001000
,
00000020
00000000
00000000
00000002
00000000
00000000
00000000
00000000
,
00000033
00000000
00000000
00000000
,
00000001
00000000
00001000
00000000
,
00000010
00000010
00000000
00000000
,
00001000
00000000
00010000
00000000
,
01000000
01000000
00000000
00000000
,
10100000
00000000
01010000
00000000
,
10010000
00000000
00010000
00000000
,
00100000
00100000
00001000
00001000
,
00001100
00000000
00000000
00000110
00000000
00000000
00000001
00001000
,
00000100
00000000
00000010
00000100
00001000
00000000
00000010
00000000
,
00001000
00001000
00010000
01000000
,
00100000
00000000
10000000
01000000
00100000
00000000
00010000
01000000
,
00100000
10000000
00010000
00001000
,
00001001
00000000
00001010
00000000
,
00011000
00000000
10010000
00000000
,
10000000
10000000
00010000
00010000
,
00100000
01000000
00100000
01000000
00100000
00000000
00000000
00000000
,
01010000
00000000
00000000
00001000
00000000
00000000
00010100
00000000
,
00000000
00000010
00000000
00000000
00000001
00000000
00001000
00000000
,
00000010
00000000
00001000
00001000
,
00010000
10000000
00100000
00010000
,
00000100
00000000
00000010
00000000
,
00000001
00000001
00001000
00000000
,
00000010
00000000
00000000
00000000
00010000
00000000
00000000
00011000
,
00000000
00011000
00000000
00011000
00000000
00000000
00000000
00000000
,
00001000
00100000
01000000
00100000
,
00001000
00010000
00000100
00000010
,
00001000
00010000
00100000
10000000
,
00010000
00001000
00000100
00001000
,
00010000
01000000
00001000
00010000
,
00100000
00010000
00000100
00001000
,
00000010
00001000
00000010
00000100
00000000
00000000
00000001
00001000
,
00000001
00001000
00000000
00000000
00000100
00001000
00000100
00001000
,
00000000
00010000
10000000
00100000
,
01000000
00010000
01000000
00010000
00000000
00000000
00100000
00001000
,
00100000
00001000
00000000
00000000
00010000
00000000
00000100
00000000
,
00000010
00000001
00000100
00002000
,
00020000
00000000
00000000
00000000
,
00000000
00000000
00033000
00000000
,
00001000
00000000
00000000
00011000
00000000
00000000
00010000
00000000
,
00000000
00000000
00000000
00011000
00000000
00000000
00000000
00000000
00000000
00000000
00000000
00000000
00001000
00000000
00010000
00000000
00001000
00000000
00010000
00000000
00000000
00000000
00000000
00000000
,
00100000
00000000
10000000
00000000
00010000
00000000
00001000
00000000
00000100
00000000
00001000
00000000
,
00000010
00000000
00000010
00001000
,
00000000
00001000
00010000
00000000
,
00010000
10000000
00000000
10000000
,
00110000
00000000
00010000
00011000
,
00000000
00001000
00001010
00000000
,
00000001
00000101
00000000
00000001
,
00001000
00000100
00001000
00000100
00000000
00000000
00000010
00000100
,
00000010
00000100
00000000
00000000
00001000
00010000
00001000
00010000
,
00000000
10000000
00100000
00010000
,
00001000
00010000
00001000
00010000
00000000
00000000
00000100
00000010
,
00000100
00000010
00000000
00000000
00000001
00001000
00000001
00001000
,
00000000
00000010
00001000
00020000
,
20000000
00000000
00000000
00000000
,
00000000
00000000
30030000
00000000
,
00010000
00001000
00000000
00000000
00000000
00000000
00000000
00000000
,
00000001
00001000
00000010
00001000
,
00010000
10000000
00100000
01000000
,
00010000
00001000
00000100
00001000
,
00010000
01000000
00100000
00010000
,
00001000
00010000
00000100
00000010
,
00001000
00010000
00100000
10000000
,
10000000
00000000
00010000
00100000
00010000
00000000
10000000
00100000
,
10000000
00000000
01000000
00000000
00100000
00000000
00001000
00010000
,
00001000
00000000
00010000
00000100
00010000
00000000
00000010
00000000
,
00000100
00000000
00000001
00001000
00000001
00000000
00000010
00000100
,
00000010
00000000
00001000
00000000
00010000
00000000
00100000
00010000
,
00100000
00000000
00010000
00001000
00010000
00000000
00000100
00000000
,
00000020
00000000
00000000
00000002
00000000
00000000
00000000
00000000
,
00000033
00000000
00000000
00011000
;

//---------------dance-double - ----------------
#NOTES:
     dance-double:
     :
     Hard:
     13:
     0.542387,0.614626,0.311845,0.031184,0.031184,487.000000,447.000000,40.000000,4.000000,0.000000,0.000000,0.542387,0.614626,0.311845,0.031184,0.031184,487.000000,447.000000,40.000000,4.000000,0.000000,0.000000:
00000000
00000000
00000000
00000000
,
00000000
00000000
00000000
00000000
,
00000000
00000000
00000000
00000000
,
00000000
00000000
00000000
00000000
,
00000000
00000000
00000000
00000000
,
00000000
00000000
00000000
00000000
,
00000000
00000000
00000000
00000000
,
00000000
00000000
00000000
00000000
,
00000000
00000000
00000000
00000000
,
10000000
00010000
00100000
01000000
00000000
00000000
01000000
10000000
,
00100000
00010000
00000000
00000000
00010000
00001000
00010000
00000100
,
00000000
00000010
00001000
00000000
00010000
00000000
00011000
00000000
,
00000100
00000010
00000001
00000010
00000000
00000000
00000010
00000100
,
00001000
00010000
00000000
00000000
00010000
01000000
00100000
10000000
,
00000000
00010000
00100000
00000000
00011000
00000000
00001100
00000000
,
00000001
00001000
00000001
00001000
00000010
00001000
00000010
00001000
,
00010000
00100000
01000000
10000000
00100000
01000000
00100000
01000000
,
00010000
01000000
00010000
01000000
00100000
00010000
00001000
00000010
,
00000100
00000010
00000100
00000010
00000001
00000010
00000001
00000010
,
00000100
00001000
00000010
00000100
00001000
00010000
00001000
00010000
,
00100000
00010000
00100000
00010000
00001000
00100000
01000000
10000000
,
00020000
00000000
00000000
20000000
00000000
00000000
00000000
00000000
,
30030000
00000000
00000000
00000000
,
10000000
00000000
10010000
00000000
,
00001000
00001000
00000000
00000000
,
00001001
00000000
00001000
00000000
,
00010000
00010000
00000000
00000000
,
10100000
01000000
00110000
00000000
,
00011000
00000100
00000110
00000000
,
00000001
00000001
00001000
00001000
,
00001010
00000000
00000000
00011000
00000000
00000000
00001000
00100000
,
00010000
00000000
00100000
01000000
10000000
00000000
00100000
01000000
,
00010000
00100000
00011000
00001100
,
00000011
00000000
00000001
00001000
00000010
00000000
00000100
00000001
,
00000010
00000000
00001000
00000000
00000000
00010000
00001000
00000000
,
00110000
00000000
00100000
01000000
00000000
10000000
00100000
00000000
,
01010000
00000000
00100000
00001000
00000000
00010000
00000010
00000000
,
00000101
00000010
00011000
00100000
,
00010000
00010000
00001000
00001000
00000100
00000000
00000010
00000000
,
00011000
00000000
00000000
10100000
00000000
00000000
01000000
10000000
,
00100000
00010000
00000000
00000000
00011000
00000000
00000100
00000000
,
00000010
00000100
00000000
00001000
00000001
00000100
00000010
00001000
,
00000000
00001000
00010000
00000000
01000000
00100000
00010000
00001000
,
00100000
00100000
01000000
01000000
,
10000000
00100000
00010000
00000100
,
00000010
00000000
00000010
00000000
00000001
00000000
00001000
00011000
,
00000000
00011000
00000000
00011000
00000000
00000000
00000000
00000000
,
00010000
00100000
01000000
10000000
00100000
00000000
00100000
00010000
,
00001000
00010000
00001000
00000000
00001000
00000010
00000100
00000010
,
00000001
00001000
00000010
00000000
00001001
00000000
00000110
00000000
,
00000010
00001000
00000100
00000010
00001000
00000000
00001000
00010000
,
00100000
10000000
00010000
00000000
00010000
00100000
01000000
00100000
,
00010000
00100000
00001000
00000000
00011000
00000000
00010000
00000000
,
00000100
00000010
00000100
00000010
00000001
00000010
00000100
00001000
,
00000100
00001000
00010000
00001000
00010000
00100000
00010000
01000000
,
00100000
00010000
00100000
10000000
01000000
00100000
00010000
00000010
,
00001000
00010000
00001000
00010000
00000100
00000010
00000001
00001000
,
00000001
00001000
00000010
00000100
00001000
00010000
00001000
00010000
,
00100000
10000000
01000000
00000000
00100000
00000000
00010000
00000000
,
00001000
00001000
00000000
00000001
00000001
00000000
00001000
00001000
,
00000000
00010000
00010000
00000000
10000000
10000000
00100000
00010000
,
00001000
00010000
00000100
00000010
00000000
00000000
00000001
00000010
,
00001000
00000000
00000000
00010000
00000000
00000000
00000000
00000000
00000000
00000000
00000000
00000000
00100000
00000000
10000000
00000000
00100000
00000000
10000000
00000000
01000000
00000000
00100000
00000000
,
00010000
00000000
00001000
00000000
00000001
00000000
00000010
00000000
00001000
00000000
00010000
00000000
,
00100000
00000000
00100000
00010000
,
00000000
00010000
00000100
00000000
,
00000100
00000010
00000000
00000010
,
00011000
00000000
00001000
01100000
,
00000000
00010000
00001100
00000000
,
00000001
00001100
00000000
00010000
,
00100000
10000000
00100000
01000000
00010000
00000000
00010000
00100000
,
01000000
10000000
00100000
00000000
00100000
00010000
00001000
00000010
,
00000100
00000000
00000100
00001000
00000010
00000100
00001000
00010000
,
00000100
00000010
00000100
00001000
00000000
00001000
00000100
00001000
,
00010000
00100000
00000000
00100000
01000000
10000000
00100000
00010000
,
00000000
00001000
00010000
00000000
00000101
00000000
00001010
00000000
,
00000001
00000010
00001000
00010000
,
00100000
10000000
00010000
00001000
,
00001010
00001010
00000000
00000000
00000000
00000000
00000000
00000000
,
00000001
00000010
00001000
00010000
00000000
00010000
00001000
00100000
,
00010000
00100000
00000000
00100000
01000000
10000000
00100000
00010000
,
00000000
00010000
00001000
00000000
00001010
00000000
00001001
00000000
,
00000010
00000100
00000001
00000010
00000000
00000010
00000100
00001000
,
00000010
00001000
00000000
00001000
00010000
01000000
00100000
00010000
,
00000000
00010000
00001000
00000000
00110000
00000000
11000000
00000000
,
00100000
01000000
00100000
01000000
00010000
01000000
00010000
01000000
,
00100000
00010000
00001000
00000010
00000001
00001000
00000001
00001000
,
00000010
00001000
00000010
00001000
00000100
00000010
00001000
00010000
,
00100000
00010000
00100000
00010000
00001000
00010000
00001000
00100000
,
00010000
10000000
01000000
10000000
00010000
00100000
00010000
00100000
,
00001000
00100000
00001000
00010000
00000100
00000010
00000001
00001000
,
00000020
00000000
00000000
00000200
00000000
00000000
00000000
00000000
,
00000330
00000000
00000000
00011000
;
