#TITLE:BroGamer;
#SUBTITLE:;
#ARTIST:USAO;
#TITLETRANSLIT:;
#SUBTITLETRANSLIT:;
#ARTISTTRANSLIT:;
#GENRE:;
#CREDIT:;
#BANNER:BroGamer-bn.png;
#BACKGROUND:BroGamer-bg.jpg;
#LYRICSPATH:;
#CDTITLE:;
#MUSIC:BroGamer.mp3;
#OFFSET:-0.194000;
#SAMPLESTART:89.429008;
#SAMPLELENGTH:15.000000;
#SELECTABLE:YES;
#BPMS:0.000000=207.000000
;
#STOPS:
;
#BGCHANGES:3.000=BroGamer.avi=1.000=1=0=0=StretchNoLoop==CrossFade==,
99999=-nosongbg-=1.000=0=0=0 // don't automatically add -songbackground-
;
#KEYSOUNDS:;
#ATTACKS:;

//---------------dance-single - ----------------
#NOTES:
     dance-single:
     :
     Medium:
     13:
     0.702956,0.761170,0.584332,0.199903,0.130706,640.000000,564.000000,76.000000,26.000000,0.000000,0.000000,0.702956,0.761170,0.584332,0.199903,0.130706,640.000000,564.000000,76.000000,26.000000,0.000000,0.000000:
0000
0000
0000
0000
,
0000
0000
0000
0000
,
2002
0000
0000
0000
,
3000
0000
0000
0000
,
0203
0000
0000
0000
,
0000
0000
0000
0000
,
0310
0010
1000
1000
,
0100
0001
0100
0000
0010
1000
0010
0000
,
1000
0100
0010
0001
0010
0100
1000
0001
,
0210
1000
0010
0310
,
1000
1100
1000
1100
,
0001
0000
0011
0000
0010
0100
0110
0000
,
1000
1010
0001
0011
,
1000
0000
1010
0000
0001
0100
1000
0100
,
0001
1000
1001
0000
0100
0000
1100
0000
,
1000
0011
0100
1100
,
0001
0010
0001
0010
1000
0010
0001
0010
,
1100
0000
0201
0000
0310
0010
0100
0000
,
0001
0100
1000
0100
0001
0000
0001
0000
,
0001
1000
0100
0001
0100
0000
0100
0000
,
0001
1000
0010
0000
0001
1000
0100
0000
,
0001
0100
1000
0000
0001
0010
0100
0000
,
1000
0001
1000
0001
0100
0000
0100
0000
,
0001
1000
0100
0000
0001
0100
0100
0000
,
1000
0010
1000
0100
1000
0010
1000
0001
,
0010
0100
0010
0001
1000
0100
1020
0000
,
0031
0001
0010
1000
1100
0000
0101
0000
,
1000
1000
0100
0001
0100
1000
1100
0000
,
1000
0100
0001
0010
1000
0000
1010
0000
,
1000
0010
0001
1000
0001
0100
0010
0000
,
1000
0000
1100
0000
0100
0100
1100
0000
,
0010
0000
0000
0000
0011
0000
0000
0000
0100
0000
0010
0000
1000
0001
0000
0000
,
0001
0100
1000
0000
0001
0010
1000
0000
,
0001
0100
0001
0100
0010
1000
1001
0000
,
0101
0101
1100
0011
,
0100
1000
0100
1000
0101
0000
0101
0000
,
0010
1000
0100
0010
0001
0010
1000
0000
,
0001
0100
1000
0000
0001
0010
0100
1000
,
1010
0000
1010
0000
0100
0010
0011
0000
,
0101
0000
0101
0000
0001
0010
1100
0000
,
1000
0000
0001
0000
0011
0000
1000
0000
0100
0000
1100
0000
,
0120
1000
0001
0130
,
0001
0010
0100
1000
0000
0000
1000
0000
,
0010
0100
0010
1000
0000
0000
0100
0000
,
0100
0010
0001
1000
0001
1000
0100
0001
,
0200
0000
0000
0300
,
1000
0000
0000
0010
0000
0000
0100
0000
0000
0001
0000
0000
1001
0000
0000
0000
,
0001
0000
0000
0010
0000
0000
0100
0000
0000
1000
0000
0000
1001
0000
0000
0000
,
1000
0000
0000
0010
0000
0000
1000
0000
0000
0010
0000
0000
1001
0000
0000
0000
,
0001
0000
0000
0010
0000
0000
0001
0000
0010
0001
0000
0000
1001
0000
0000
0000
,
0001
0000
0000
0100
0000
0000
1000
0000
0000
0010
0000
0000
1000
0000
0000
0000
,
1000
0000
0000
0100
0000
0000
0001
0000
0000
0010
0000
0000
0001
0000
0000
0000
,
0001
0000
0000
1000
0000
0000
0100
0000
0000
0010
0000
0000
1001
0000
0000
0000
,
0001
0000
0000
0010
0000
0000
1000
0000
0001
0000
0001
0000
0100
0000
0000
0000
,
2010
0000
0000
0000
,
3020
0000
0000
0000
,
0230
0000
0010
0000
,
0320
0000
1000
0000
,
2030
0000
0000
0000
,
3200
0000
0000
0000
,
0310
0000
0010
0000
,
0100
0100
0110
1001
,
0010
1000
0010
0000
0010
0000
0010
0100
,
0001
0100
0001
0010
0000
0000
0100
0000
,
1000
0001
1000
0000
0001
0010
0001
0000
,
0001
0100
1000
0000
0010
0000
0101
0000
,
1010
0010
0010
0010
,
0001
1000
0100
0000
0010
0100
1000
0000
,
0011
0000
1000
0000
0001
0100
0001
0000
,
2010
0000
0001
0000
,
3010
0100
0001
0000
0001
0000
0001
1000
,
0100
0000
0010
0100
0000
0100
1000
0000
,
0101
0000
0001
0010
0001
0010
0001
0000
,
1000
0100
1000
0010
0100
0010
0100
0000
,
0001
0010
1000
0000
0001
0100
1000
0000
,
1000
0010
0001
0000
1000
0100
0001
0000
,
0001
1000
0010
0100
0001
0010
0100
0010
,
1002
0100
1000
1003
,
1000
0010
1000
0100
0210
0000
0301
0100
,
0120
0000
0031
0010
0100
1000
0001
1000
,
2010
0000
3100
0010
0021
0000
0031
0010
,
1100
0000
0100
1000
0010
0010
0100
0001
,
0021
0000
0031
0100
1200
0000
0301
0010
,
1100
0000
0001
0010
0100
0100
1000
0010
,
0100
0001
0200
0000
0301
0100
0002
0000
,
1003
0100
0010
0001
0010
0000
1001
0000
,
0001
1000
0010
0100
0001
0000
0001
0000
,
0001
0000
0001
0000
0001
0001
1000
0000
,
0100
0010
0001
1000
0010
0000
1000
0000
,
0100
0010
0001
0000
1000
0001
1000
0000
,
1000
0100
1000
0100
1000
0000
1000
0000
,
1000
1000
0010
0000
0001
1000
1000
0000
,
0001
0000
0010
0100
0000
0100
0010
0000
0001
0000
1000
0000
0010
0000
0000
0000
,
1100
0101
0011
1010
,
0001
0000
0001
1000
0100
0000
1100
0000
,
0100
0000
0100
0010
0001
0000
0101
0000
,
1000
0100
0001
0000
1000
0010
0001
0000
,
0001
1000
1000
0000
0100
0001
0001
0000
,
1000
1000
0010
0100
0010
0000
1010
0000
,
1000
0001
0010
0100
0010
0001
1000
0000
,
1000
0010
0001
0000
0001
0010
1000
0000
,
1000
0100
0001
0100
1000
0000
1001
0000
,
0001
0000
0000
0010
0000
0000
0100
0000
0000
1000
0000
0000
1001
0000
0000
0000
,
1000
0000
0000
0010
0000
0000
0100
0000
0000
0001
0000
0000
1001
0000
0000
0000
,
0001
0000
0000
0010
0000
0000
0001
0000
0000
0010
0000
0000
1001
0000
0000
0000
,
1000
0000
0000
0100
0000
0000
1000
0000
0100
1000
0000
0000
1001
0000
0000
0000
,
0001
0000
0000
0010
0000
0000
1000
0000
0000
0100
0000
0000
0101
0000
0000
0000
,
1000
0000
0000
0100
0000
0000
0001
0000
0000
0010
0000
0000
0001
0000
0001
0000
,
1000
0100
0010
0001
0010
1000
0010
0001
,
0100
2000
0000
3100
0002
0000
1003
0000
,
1001
0000
0000
0000
;

//---------------dance-single - ----------------
#NOTES:
     dance-single:
     :
     Hard:
     16:
     0.981942,1.014893,0.745792,0.161460,0.526668,894.000000,797.000000,97.000000,21.000000,0.000000,0.000000,0.981942,1.014893,0.745792,0.161460,0.526668,894.000000,797.000000,97.000000,21.000000,0.000000,0.000000:
0000
0000
0000
0000
,
0000
0000
0000
0000
,
2002
0000
0000
0000
,
3000
0000
0000
0000
,
0103
0100
0100
0100
,
0100
0100
0010
0010
,
1000
1100
0001
0011
,
1000
1010
0001
0101
,
1000
0000
0001
0000
1000
0000
0001
0000
0010
0100
0010
0100
0010
0100
1000
0001
,
0200
0310
1001
1001
,
0001
0000
0100
0000
0010
1000
0010
0000
1000
0000
0100
0000
0010
0000
0001
0000
,
0010
0000
0100
0000
1000
0000
0001
0000
1000
0010
1000
0100
0010
0000
0000
0000
,
0001
0000
0100
0000
0010
0100
0010
0000
0100
0000
0001
0000
0010
0100
0010
0000
,
0001
0000
1000
0000
0010
1000
0010
0000
1001
0000
0000
0000
1001
0000
0000
0000
,
0100
0000
1000
0000
0010
1000
0100
0000
1000
0000
0010
0000
1000
0100
0010
0000
,
0001
0000
0100
0000
0001
0010
0001
0000
0010
0100
1000
0001
1000
0010
0000
0010
,
0100
0000
0001
0000
1000
0001
1000
0000
0100
0000
0010
0000
0100
0010
0100
0000
,
1000
0001
0100
1000
0010
0001
0011
0000
,
0001
0000
0010
0000
1000
0010
0001
0000
0010
0000
0100
0000
1000
0010
1000
0000
,
0100
0000
0010
0000
0001
0010
0100
0000
1000
0000
0001
0000
1000
0010
1000
0000
,
0100
1000
0100
1000
0010
0001
0010
0001
,
0100
0010
1001
0000
0100
0001
1010
0000
,
0010
0000
0100
0000
0001
0100
0010
0000
0100
0000
0001
0000
0010
0100
0010
0000
,
0001
0000
1000
0000
0010
1000
0100
0000
0010
0000
0001
0000
1000
0010
1000
0000
,
0010
0100
0010
0100
1000
0010
1000
0010
,
0110
0000
0101
0000
0010
0010
0010
0000
,
0001
0100
1000
0100
0011
0000
1100
0000
,
1000
0100
0001
0100
0011
0100
1100
0000
,
0010
0000
1000
0000
0010
0000
1000
0001
0100
0000
0010
0000
1010
0000
0000
0000
,
1000
0000
0100
0000
1000
0000
0100
0000
0010
0001
0100
0010
1000
0000
0000
0000
,
1000
0010
1000
0100
0010
0001
0011
0000
,
0001
0000
1000
0000
0001
0000
1000
0000
0100
0000
1000
0000
0001
0010
0000
0100
,
1000
0010
0000
0010
0100
0010
0000
0010
,
2010
0000
0100
0000
0001
0001
3001
0000
,
0001
0000
0100
0000
1000
0000
0100
0000
0001
0000
0010
0001
0010
0000
0000
0000
,
1000
0000
0001
0000
0100
0000
0010
0000
0001
0000
1000
0001
1000
0000
1000
0000
,
0110
0010
1000
0100
0110
0010
0100
1000
,
0010
1000
0010
0000
0100
0000
0010
0000
0100
0000
0001
0000
1001
0000
0100
0000
,
0101
0001
1000
0100
0000
0100
0101
0100
,
0010
0000
0100
0000
0010
0000
0001
0000
1000
0001
1000
0001
0100
0010
0000
1000
,
0100
0000
1000
0000
0001
0010
0100
0000
1000
0000
0010
0100
,
2001
0010
3100
0110
,
0001
0100
0001
0100
0001
0100
1000
0010
,
0001
1000
0100
1000
0100
1000
0001
0000
,
0001
0000
0100
0000
1000
0000
0100
0000
0001
0000
1000
0000
0001
0100
0010
1000
,
0200
0000
0000
0300
,
1100
0000
0000
0110
0000
0000
0011
0000
0000
0110
0000
0000
1001
0000
0000
0000
,
0011
0000
0000
0110
0000
0000
1100
0000
0000
0110
0000
0000
1001
0000
0000
0000
,
0011
0000
0000
1010
0000
0000
0101
0000
0000
1100
0000
0000
1001
0000
0000
0000
,
1010
0000
0000
0011
0000
0000
0101
0000
1000
0100
0000
1000
0001
0000
0100
0000
,
0011
0000
0000
0011
0000
0000
0011
0000
0000
1100
0000
0000
0101
0000
0000
0000
,
1100
0000
0000
1100
0000
0000
1100
0000
0000
1010
0000
0000
0011
0000
0000
0000
,
0001
0010
0000
0010
0100
0000
0100
1000
0000
1000
0010
0000
0010
0000
0100
0000
,
0001
0100
0000
0100
0010
0000
0010
1000
0100
0000
1001
0000
0001
0000
0100
0000
,
2000
0001
0001
0002
,
3000
0000
0000
0000
,
0023
0000
0000
0000
,
2030
0000
0100
3001
,
1001
0000
0001
0010
0001
0000
1000
0010
,
1000
0100
1000
0010
0000
0010
0000
0010
,
0101
0000
0001
0010
0001
0010
0000
0001
,
1100
0000
1000
0100
0001
0100
1000
0000
,
1001
0000
0001
0010
0001
0000
0001
0100
,
0010
0000
1000
0010
0000
0010
1000
0100
,
1000
0000
1000
0001
0010
0001
1000
0100
,
0001
1000
0010
0001
1000
0000
0001
1000
,
0110
0000
1000
0100
0010
0000
0001
0100
,
0010
0000
0100
0010
0000
0010
0100
0001
,
1001
0000
0100
1000
0010
0000
0001
0100
,
0110
0110
2002
3003
,
1000
0000
1000
0010
1000
0000
1000
0100
,
0010
0100
0010
0001
0000
0001
0100
0001
,
1000
0001
0010
0001
0010
0100
1000
0100
,
0001
0010
0001
0010
1000
0100
1000
0100
,
0021
0000
0130
0000
2010
0000
3100
0100
,
0020
0130
0200
0310
0100
1000
0100
1000
,
0001
0000
0010
0000
0100
0010
0100
0010
0001
0000
1000
0000
0001
0100
0001
0010
,
2000
3010
0110
0110
,
0001
0000
0001
0000
0100
1000
0100
0000
0001
0000
0001
0000
0010
0001
0010
0000
,
0100
0000
0100
0000
1000
0010
1000
0000
0001
0000
0010
0000
0100
0000
1000
0000
,
0001
0000
0001
0000
0010
1000
0010
0000
0100
0000
0010
0000
0001
0100
0010
0000
,
0100
0000
0010
0000
0100
0001
0010
0000
0100
0010
0100
0000
0010
0100
1000
0010
,
1000
0000
0100
0000
0010
1000
0010
0000
0001
0000
0100
0000
0001
0010
0001
0000
,
1000
0000
0100
0000
1000
0010
1000
0000
0100
0000
0010
0000
1001
0000
0010
1000
,
0001
0000
0100
0000
0010
0100
0010
0000
0100
0000
0001
0000
0100
0010
0100
0000
,
0001
1000
0100
0010
0011
0100
1100
0000
,
1000
0000
0010
0000
1000
0100
0010
0000
0001
0000
0100
0000
0001
0010
0100
0000
,
1000
0000
0010
0000
1000
0100
0010
0000
0001
0000
0100
0000
0001
0100
0010
1000
,
0001
0000
1000
0000
0010
1000
0100
0000
0010
0000
0001
0000
0100
0010
1000
0000
,
0100
0000
0010
0000
0001
0010
0100
0000
1000
0000
0100
0000
1000
0100
0010
0100
,
1000
0000
0010
0000
0100
0001
1000
0000
0010
0000
0100
0000
0001
0010
0100
0000
,
0010
0000
0001
0000
1000
0010
0100
0000
1000
0000
0100
0000
0001
1000
0100
1000
,
0100
0000
1000
0100
0010
0000
0100
0010
0001
0000
0001
0000
0100
0010
0100
0000
,
0101
0001
0010
0100
2000
0000
3100
0000
,
1000
0000
0000
0000
1000
0000
0000
0000
1000
0000
0000
0000
0100
1000
0010
1000
,
0100
0000
0000
0000
0001
0000
0000
0000
0001
0000
0000
0000
0001
0010
0001
1000
,
0001
0000
1000
0000
0100
0000
0100
0000
0010
0001
0100
0000
0100
0000
0010
1000
,
0100
0010
1000
0001
1000
0010
0001
0100
,
0010
0000
1010
0000
1001
0000
0010
0000
0001
0000
1000
0000
0001
0010
1000
0000
,
0010
0000
1000
0000
0001
0100
1000
0000
0001
0000
1000
0000
0100
0000
0010
0000
,
1000
0010
0001
0100
1000
0001
0010
0100
,
0001
1000
0001
0010
1200
0000
1300
0000
,
1100
0000
0000
0110
0000
0000
0011
0000
0000
0110
0000
0000
1001
0000
0000
0000
,
0011
0000
0000
0110
0000
0000
1100
0000
0000
0110
0000
0000
1001
0000
0000
0000
,
0011
0000
0000
1010
0000
0000
1100
0000
0000
0101
0000
0000
1001
0000
0000
0000
,
1010
0000
0000
0011
0000
0000
0101
0000
1000
0100
0000
1000
0001
0000
0001
0000
,
1000
0100
0000
0001
0100
0000
1000
0100
0000
0001
0100
0000
1100
0000
0001
0000
,
0001
0100
0000
1000
0100
0000
0001
0100
0000
1000
0100
0000
1001
0000
1000
0000
,
0001
0010
0000
1000
0010
0000
0001
0100
0000
0010
1000
0000
0100
0010
0001
0010
,
0100
0000
2000
0000
0000
0000
3100
0000
0002
0000
0000
0000
0103
1000
0010
0100
,
0001
0000
0000
0000
;

//---------------dance-single - ----------------
#NOTES:
     dance-single:
     :
     Easy:
     9:
     0.421774,0.549734,0.476692,0.107640,0.000000,384.000000,322.000000,62.000000,14.000000,0.000000,0.000000,0.421774,0.549734,0.476692,0.107640,0.000000,384.000000,322.000000,62.000000,14.000000,0.000000,0.000000:
0000
0000
0000
0000
,
0000
0000
0000
0000
,
2002
0000
0000
0000
,
3000
0000
0000
0000
,
0203
0000
0000
0000
,
0000
0000
0000
0000
,
0310
0010
0000
1000
,
0000
0001
0000
1000
,
0100
0010
0001
0100
,
0120
0100
1000
1030
,
1000
0100
1000
0100
,
0010
0010
0001
0100
,
0010
1000
0010
1000
,
0001
0010
0100
0100
,
1001
1000
0001
1000
,
0100
1000
0001
0001
,
0100
0000
1010
0000
,
0100
0010
0010
1001
,
0001
0100
0001
0010
,
0100
1000
1000
0010
,
0001
0100
0001
0100
,
0001
1000
0100
0000
,
1000
0010
0010
0100
,
0001
1000
0001
0010
,
0100
0000
0100
0000
,
0100
0110
1001
0000
,
0001
0100
0001
1000
,
0100
1000
0001
0100
,
0011
0100
1100
0000
,
0010
0100
0010
0100
,
0101
0000
0011
0001
,
0000
0001
1001
0000
,
1100
0000
1010
0000
,
1000
1000
1000
0001
,
0100
0100
0010
1010
,
1000
1000
0000
1001
,
0001
0100
0001
0010
,
1000
0001
0010
0000
,
1001
0001
0000
0001
,
1001
0100
0010
0010
,
0110
0000
1001
0000
,
0220
0000
0000
0330
,
0002
0000
0000
0000
,
2003
0000
0000
0000
,
3020
0000
0230
0000
,
0310
0000
0110
0000
,
1100
0000
0000
0101
,
0011
0000
0000
1001
,
1100
0000
0000
1010
,
0101
0000
0000
1001
,
1000
0000
0100
0000
1000
0000
1000
0010
,
1000
0000
1000
0000
0100
0000
0100
0010
,
0100
0001
0001
0000
,
1000
0000
0001
0000
1000
0001
0100
0000
,
0002
0000
0000
0000
,
0000
0000
0000
0000
,
0203
0000
0000
0000
,
0320
0000
0000
0000
,
1030
0000
0000
0000
,
1000
0000
0000
0000
,
1100
0000
0001
0000
,
0100
0000
0000
0000
,
0010
0010
0000
0010
,
0000
0010
0000
0100
,
0001
1000
0000
1000
,
0000
1000
1100
0000
,
0001
0100
0000
0100
,
0000
0100
0000
0100
,
0010
0000
0110
0000
,
0010
1000
1001
0000
,
0001
1000
0000
1000
,
0100
0001
0000
0001
,
0010
1000
0000
1000
,
0100
0001
0000
0001
,
0010
0000
0110
0000
,
1001
1001
0000
0000
,
0001
0001
1000
1000
,
0210
0001
0010
0310
,
0001
1100
1000
1100
,
0100
1100
1000
0010
,
0100
0101
0001
0101
,
0000
0001
0010
0100
,
1000
1010
0010
1010
,
1000
0001
0010
0001
,
0100
0101
0001
0101
,
0010
0100
1000
0000
,
0010
1000
0100
0001
,
0100
1000
0001
1000
,
0010
0100
0001
0010
,
0100
0100
0110
0000
,
0001
0100
1000
0100
,
0001
1000
0100
0010
,
0001
0000
1001
0010
,
0110
0000
0110
0000
,
1000
0000
0100
0000
1000
0000
0000
1000
,
0001
0000
0100
0000
0001
0000
0000
0001
,
0010
1000
0010
0001
,
1000
0010
0110
0000
,
1000
0000
0010
0000
1000
0000
0000
1000
,
0010
0000
0100
0000
0001
0000
0000
0001
,
0100
1000
0100
0001
,
1000
0010
0110
0000
,
1100
0000
0000
1010
,
0101
0000
0000
0011
,
1100
0000
0000
1001
,
0110
0000
0000
0110
,
0001
0000
0010
0000
0100
0000
1000
0100
,
0010
0000
0100
0000
1000
0000
0001
1000
,
0100
1000
0010
0100
,
0010
0100
0000
0010
0100
0000
0000
0000
,
1001
0000
0000
0000
;

//---------------dance-single - ----------------
#NOTES:
     dance-single:
     :
     Beginner:
     3:
     0.169149,0.211436,0.053820,0.053820,0.000000,154.000000,147.000000,7.000000,7.000000,0.000000,0.000000,0.169149,0.211436,0.053820,0.053820,0.000000,154.000000,147.000000,7.000000,7.000000,0.000000,0.000000:
0000
0000
0000
0000
,
0000
0000
0000
0000
,
0200
0000
0000
0000
,
0000
0000
0000
0000
,
0000
0000
0000
0000
,
0000
0000
0300
0000
,
0000
1000
0000
1000
,
0000
1000
0000
1000
,
0000
0001
0000
0001
,
0000
0000
0000
0000
,
0000
0001
0000
0001
,
0000
0001
0000
0001
,
0000
1000
0000
1000
,
0000
1000
0000
1000
,
0000
0010
0000
0010
,
0000
0010
0000
0010
,
0000
0100
0000
0100
,
0000
0000
0000
0000
,
0000
0001
0000
0001
,
0000
1000
0000
1000
,
0000
0001
0000
0001
,
0000
1000
0000
1000
,
0000
0010
0000
0010
,
0000
0100
0000
0100
,
0000
0010
0000
0010
,
0000
0000
0000
0000
,
1000
0000
0000
1000
,
0000
0000
1000
0000
,
0001
0000
0000
0001
,
0000
0000
0001
0000
,
0100
0000
0010
0000
,
0100
0000
0000
0000
,
1001
0000
0000
0000
,
0110
0000
0000
0000
,
0010
0000
0010
0000
,
1000
0000
1000
0000
,
0001
0000
0001
0000
,
0010
0000
0001
0000
,
0100
0000
0100
0000
,
0010
0000
0010
0000
,
1000
0000
1000
0000
,
0002
0000
0003
0000
,
0200
0000
0000
0000
,
0000
0000
0000
0000
,
0000
0000
0000
0000
,
0300
0000
0000
0000
,
0001
0000
0000
0000
,
1000
0000
0000
0000
,
0001
0000
0000
0000
,
0100
0000
0000
0000
,
1010
0000
0000
0000
,
0001
0000
0000
0000
,
1000
0000
0000
0000
,
0010
0000
0000
0000
,
0000
0000
0000
2000
,
0000
0000
0000
0000
,
0000
0000
0000
0000
,
0000
0000
0000
0000
,
3002
0000
0000
0000
,
0000
0000
0000
0000
,
0203
0000
0000
0000
,
0310
0000
0000
0000
,
0010
0000
0000
0000
,
0010
0000
0000
0000
,
0100
0000
0000
0000
,
0100
0000
0000
0000
,
0001
0000
0000
0000
,
1000
0000
0000
0000
,
0010
0000
0000
0000
,
0020
0000
0130
0000
,
0100
0000
0000
0000
,
0100
0000
0000
0000
,
0001
0000
0000
0000
,
1000
0000
0000
0000
,
0010
0000
0010
0000
,
0100
0100
0000
0000
,
0001
0000
1000
0000
,
0010
0000
0000
0000
,
1000
0000
1000
0000
,
1000
0000
1000
0000
,
0100
0000
0100
0000
,
0010
0000
0001
0000
,
1000
0000
1000
0000
,
1000
0000
1000
0000
,
0001
0000
0001
0000
,
0100
0000
0000
0000
,
0001
0000
0100
0000
,
0001
0000
0100
0000
,
0010
0000
0010
0000
,
1000
0000
1000
0000
,
0010
0000
0100
0000
,
0010
0000
0100
0000
,
0001
0000
0000
0000
,
1001
0000
0000
0000
,
0010
0000
0010
0000
,
1000
0000
0100
0000
,
0010
0000
0010
0000
,
0001
0000
0100
0000
,
0010
0000
0010
0000
,
1000
0000
0100
0000
,
0010
0000
0010
0000
,
0001
0000
0000
0000
,
1000
0000
0000
0000
,
1000
0000
0000
0000
,
0010
0000
0000
0000
,
0010
0000
0000
0000
,
0101
0000
0000
0000
,
0001
0000
0000
0000
,
1010
0000
0000
0000
,
0100
0000
0000
0000
,
1001
0000
0000
0000
;

//---------------dance-double - ----------------
#NOTES:
     dance-double:
     :
     Easy:
     10:
     0.403101,0.465159,0.330609,0.084574,0.000000,367.000000,324.000000,43.000000,11.000000,0.000000,0.000000,0.403101,0.465159,0.330609,0.084574,0.000000,367.000000,324.000000,43.000000,11.000000,0.000000,0.000000:
00000000
00000000
00000000
00000000
,
00000000
00000000
00000000
00000000
,
02000000
00000000
00000000
00000000
,
00000000
00000000
00000000
00000000
,
03200000
00000000
00000000
00000000
,
00000000
00000000
00000000
00000000
,
01300000
00010000
00000000
00010000
,
00000000
00100000
00000000
00100000
,
00001000
00000100
00000001
00001000
,
00000110
00000001
00001000
00001000
,
00000001
00000100
00000001
00000100
,
00000001
00000010
00001000
00000000
,
00010000
00100000
00010000
00100000
,
10000000
01000000
00100000
00000000
,
00010000
01000000
00001000
00010000
,
00000100
00000010
00000100
00000000
,
00001000
00010000
01000000
00100000
,
01100000
00000000
10010000
00000000
,
10000000
01000000
10000000
01000000
,
00100000
00010000
01000000
00000000
,
00001000
00010000
00001000
00010000
,
00000010
00000100
00000001
00000001
,
00000010
00000100
00000010
00000100
,
00001000
00010000
01000000
00100000
,
01100000
00000000
10010000
00000000
,
10000000
00100000
10010000
00000000
,
01000000
00100000
00010000
00110000
,
01000000
00100000
00100000
01000000
,
00010000
00001000
00000100
00010100
,
00001000
00010000
00100000
00000000
,
00010000
01000000
00100000
00100000
,
10000000
00010000
00100000
00000000
,
00001000
00000100
00000001
00000010
,
00001001
00000000
00000000
00000000
,
00000001
00000100
00000010
00000010
,
00001000
00000100
00010000
00010000
,
01000000
10000000
01000000
01000000
,
00010000
01000000
00100000
00100000
,
00010000
00001000
00000000
00001000
,
00000001
00000010
00000010
00000100
,
00001000
00110000
01000000
10000000
,
00020000
00000000
00000000
01030000
,
00200000
00000000
00000000
00000000
,
00320000
00000000
00000000
00000000
,
00030020
00000000
00000130
00000000
,
00001001
00000000
00000000
00000000
,
00000101
00000000
00000000
00001100
,
00011000
00000000
00000000
00011000
,
00110000
00000000
00000000
00110000
,
11000000
00000000
00000000
11000000
,
00010000
00000000
01000000
00000000
00001000
00000000
00000000
00000100
,
00000001
00000000
00000010
00000000
00001000
00000000
00000000
00010000
,
01000000
10000000
00010000
00000000
,
01000000
00100000
01100000
00000000
,
00020000
00000000
00000000
00000000
,
00000000
00000000
00000000
00000000
,
00032000
00000000
00000000
00000000
,
00000010
00000000
00000010
00000000
,
00003002
00000000
00000000
00000000
,
00000100
00000000
00000000
00000000
,
00002003
00000000
00003020
00000000
,
00000130
00000000
00000000
00000000
,
00000001
00001000
00000000
00001000
,
00000000
00001000
00000000
00001000
,
00010000
01000000
00000000
01000000
,
00000000
01000000
00100000
00100000
,
00010000
00000100
00000000
00000100
,
00000000
00000100
00000000
00000100
,
00010000
00100000
00000000
00100000
,
10000000
00010000
10010000
00000000
,
10000000
01000000
10000000
01000000
,
00100000
00010000
00100000
00001000
,
00010000
00000100
00010000
00001000
,
00010000
00000100
00000010
00000001
,
00001001
00000000
00000110
00000000
,
00001100
00001100
00000000
00000000
,
00000001
00000000
00001000
00000000
00000100
00010000
00001000
00000000
,
00100000
00010000
01000000
01000000
,
00100000
10100000
10000000
10100000
,
10000000
01000000
00100000
00000000
,
00001000
00011000
00000100
00010100
,
00001000
00000010
00000100
00000000
,
00000001
00001100
00000100
00000101
,
00000001
00000010
00000001
00000000
,
00001000
00010000
01000000
00100000
,
10000000
00010000
10010000
00000000
,
10000000
01000000
10000000
01000000
,
00100000
00001000
00010000
00000000
,
00000001
00000100
00000001
00000100
,
00000010
00001000
00010000
00000000
,
01000000
00100000
00010000
00001000
,
00010000
00000100
00000010
00000000
,
00000100
00001000
00010000
10000000
,
01100000
00000000
00100000
00000000
,
10000000
10000000
10000000
00100000
,
00010000
00010000
00010000
00000100
,
00000010
00001000
00010000
00000100
,
00010000
01000000
10000000
00000000
,
00100000
10000000
01000000
10000000
,
00100000
00010000
00001000
00010000
,
00000001
00000010
00000100
00001000
,
00000010
00000100
00001001
00000000
,
00001001
00000000
00000000
00001100
,
00010100
00000000
00000000
00011000
,
00101000
00000000
00000000
00110000
,
10010000
00000000
00000000
11000000
,
00010000
01000000
00100000
00010000
,
00001000
00010000
00100000
10000000
,
00010000
00000000
00001000
00000000
00000100
00001000
00000100
00000000
,
00000010
00000001
00000000
00000010
00000001
00000000
00000000
00000000
,
00000110
00000000
00000000
00000000
;

//---------------dance-double - ----------------
#NOTES:
     dance-double:
     :
     Medium:
     13:
     0.657923,0.676595,0.492069,0.161460,0.138394,599.000000,535.000000,64.000000,21.000000,0.000000,0.000000,0.657923,0.676595,0.492069,0.161460,0.138394,599.000000,535.000000,64.000000,21.000000,0.000000,0.000000:
00000000
00000000
00000000
00000000
,
00000000
00000000
00000000
00000000
,
02200000
00000000
00000000
00000000
,
03000000
00000000
00000000
00000000
,
20300000
00000000
00000000
00000000
,
30020000
00000000
00000000
00000000
,
00130000
00110000
00000000
00011000
,
00000000
00001100
00000000
00000011
,
00000001
00000010
00000100
00001000
00010000
00100000
01000000
10000000
,
00010000
01000000
01100000
01100000
,
10000000
11000000
01000000
11000000
,
10000000
00000000
11000000
00000000
10000000
01000000
00100000
00000000
,
00001000
00011000
00010000
00011000
,
00010000
00000000
00010100
00000000
00000100
00000010
00000001
00001000
,
00000100
00001100
00010000
00011000
,
00000100
00000000
00001100
00000000
00100000
00010000
01000000
00000000
,
00100000
01000000
00100000
10000000
01000000
00100000
00010000
00000000
,
01000000
00001000
00011000
00000000
,
00000100
00001000
00000100
00000000
00000010
00000001
00000010
00000000
,
00000100
00000000
00001000
00000000
00010000
01000000
00100000
00000000
,
10000000
01000000
00100000
00000000
00010000
00100000
01000000
00000000
,
10000000
00000000
00100000
00000000
00010000
00001000
00010000
00000000
,
00000100
00000010
00000001
00000000
00000010
00001000
00010000
00000000
,
00001000
00000000
00010000
00000000
00100000
01000000
00010000
00000000
,
11000000
00000000
01010000
00000000
00001000
00010000
00001000
00000000
,
00010100
00000000
00000100
00000000
00000010
00000001
00000010
00000000
,
00000001
00000010
00000100
00001000
00000010
00000000
00000010
00000000
,
00000010
00001000
00000100
00010000
00001000
01000000
00001000
00000000
,
00100000
01000000
10000000
00000000
00100000
00010000
00001000
00000000
,
00010000
00001000
00010000
00000100
00000010
00000000
00000001
00000000
,
00000011
00000000
00000100
00001000
00010000
00000000
01000000
00100000
,
10000000
00000000
10000000
01000000
10000000
00000000
00010000
00100000
,
00001000
00001100
00000001
00000011
,
00000220
00000000
00000000
00000330
,
00000001
00001000
00000001
00001000
00000010
00000000
00000010
00000000
,
00010000
00001000
00010000
00001000
01000000
00100000
01000000
00000000
,
00010000
00100000
01000000
00000000
01000000
10000000
00010000
00000000
,
00010000
00100000
00101000
00000000
00010100
00000000
00000010
00000000
,
00000001
00000010
00000001
00000010
00000000
00001000
00001000
00000000
,
00010000
00100000
01000000
00010000
00010000
00100000
01000000
00000000
,
10000000
00000000
00010000
00000000
01000000
00010000
00100000
00000000
00010000
00000000
00001000
00000100
,
00020000
00030200
00000310
00001001
,
00000120
00000000
00000000
00000000
,
00000230
00000000
00000000
00000000
,
00000310
00001000
00000010
00001000
00000100
00010000
01000000
00100000
,
00010000
00100000
10100000
00000000
,
10000000
00000000
00000000
00100000
00000000
00000000
01000000
00000000
00000000
00010000
00000000
00000000
00011000
00000000
00000000
00000000
,
00001000
00000000
00000000
00000100
00000000
00000000
00000010
00000000
00000000
00001000
00000000
00000000
00011000
00000000
00000000
00000000
,
01000000
00000000
00000000
00100000
00000000
00000000
00010000
00000000
00000000
00001000
00000000
00000000
00011000
00000000
00000000
00000000
,
00000001
00000000
00000000
00000010
00000000
00000000
00000100
00000000
00010000
00001000
00000000
00000000
00011000
00000000
00000000
00000000
,
00001000
00000000
00000000
00100000
00000000
00000000
01000000
00000000
00000000
10000000
00000000
00000000
10100000
00000000
00000000
00000000
,
10000000
00000000
00000000
00100000
00000000
00000000
00010000
00000000
00000000
00001000
00000000
00000000
00011000
00000000
00000000
00000000
,
00000100
00000000
00000000
00000010
00000000
00000000
00000001
00000000
00000000
00001000
00000000
00000000
00001100
00000000
00000000
00000000
,
00000001
00000000
00000000
00000010
00000000
00000000
00001000
00000000
00010000
00001000
00000000
00000000
00011000
00000000
00000000
00000000
,
00002000
00000000
00000000
00000000
,
00000000
00000000
00000000
00000000
,
00203000
00000000
00000000
00000000
,
02300000
00000000
00000000
00000000
,
13000000
00010000
00000000
00010000
,
01000000
00000000
00100000
01000000
00000000
00010000
00000000
00010000
,
00001000
00000000
00000010
00001000
00000000
00000010
00010000
00001000
,
00000000
00001100
00000011
00000001
,
00000001
00000001
00000100
00000001
,
00000010
00000000
00001000
00000000
00010000
00001000
00010000
00000000
,
01000000
10000000
01000000
10000000
,
00100000
10000000
01000000
00000000
00100000
01000000
00010000
00000000
,
00001100
00010000
00000010
00001000
,
00000001
00000010
00000001
00000000
00001000
00000000
00001000
00000000
,
00000001
00000010
00000100
00000000
00000010
00001000
00000010
00000000
,
00010100
00101000
00110000
00000000
,
01000000
00000000
10000000
00000000
01000000
10000000
00100000
00000000
,
00010000
00000000
00001000
00000000
00010000
00001000
00010000
00000000
,
00000100
00000000
00000010
00000000
00000100
00000010
00000001
00000000
,
00001000
00000000
00000100
00000000
00010000
00100000
01000000
00000000
,
10010000
01000000
10010000
00100000
,
01010000
00101000
00001000
00001000
,
00010000
00001000
00010000
00000100
00000010
00000100
00010000
00001000
,
00100000
01000000
10010000
10010000
,
00100000
10000000
01000000
00100000
00020000
00000000
01030000
00100000
,
20000000
00000000
31000000
00010000
00001000
00010000
00000100
00001000
,
00000020
00000000
00000130
00000010
00002000
00000000
00003001
00000100
,
00000010
00000001
00000010
00001000
00000100
00100000
00001000
00010000
,
02000000
00000000
03010000
00001000
00000200
00000000
00001300
00010000
,
01000000
00010000
00001000
00010000
00000000
00000100
00010000
00001000
,
00000200
00000000
00000310
00001000
00010000
00100000
00010000
01000000
,
00100000
00010000
00001000
00010000
00000100
00000000
00000110
00000000
,
00010000
00001000
00100000
00000000
01000000
00100000
00010000
00000000
,
00001000
00000100
00001000
00000000
00000010
00000100
00000001
00000010
,
00000100
00001000
00000010
00000000
00000100
00001000
00010000
00000000
,
00100000
00010000
00001000
00000000
00010000
00000100
00000100
00001000
,
00000010
00000100
00000001
00000000
00000010
00000100
00001000
00000000
,
00000010
00000100
00000001
00000000
00010000
00001000
00100000
00000000
,
01000000
10000000
10100000
00000000
01000000
00000000
00110000
00000000
,
00102000
00010000
00103000
01100000
,
10000000
01000000
00010000
00000000
01000000
00000000
10000000
00000000
,
00100000
00010000
00001000
00000000
00000100
00000000
00000001
00000000
,
00000010
00000100
00001000
00000000
00000010
00000100
00000001
00000000
,
00000010
00001000
00010000
00001000
00010000
00000000
00000110
00000000
,
00000001
00000100
00001000
00000000
00010000
01000000
10000000
00000000
,
10000000
00100000
01000000
00000000
00001000
00100000
00001000
00000000
,
00010000
00000100
00001000
00000000
00000001
00000100
00001000
00000000
,
00010000
00000100
00000010
00000100
00001000
00000000
00001001
00000000
,
00000001
00000000
00000000
00000010
00000000
00000000
00001000
00000000
00000000
00010000
00000000
00000000
00011000
00000000
00000000
00000000
,
10000000
00000000
00000000
00100000
00000000
00000000
00010000
00000000
00000000
00001000
00000000
00000000
00011000
00000000
00000000
00000000
,
00000100
00000000
00000000
00001000
00000000
00000000
00010000
00000000
00000000
00100000
00000000
00000000
00011000
00000000
00000000
00000000
,
00100000
00000000
00000000
00010000
00000000
00000000
00001000
00000000
00000100
00001000
00000000
00000000
00011000
00000000
00000000
00000000
,
00010000
00000000
00000000
01000000
00000000
00000000
10000000
00000000
00000000
01000000
00000000
00000000
01010000
00000000
00000000
00000000
,
00001000
00000000
00000000
00000100
00000000
00000000
00000001
00000000
00000000
00000100
00000000
00000000
00001100
00000000
00000000
00000000
,
00010000
00000000
00000000
00100000
00000000
00000000
10000000
00000000
01000000
00100000
00000000
00000000
10010000
00000000
00000000
00000000
,
00100000
00010000
00000000
00010000
00000100
00000000
00001000
00000001
,
00000110
00000000
00000000
00000000
;

//---------------dance-double - ----------------
#NOTES:
     dance-double:
     :
     Hard:
     16:
     0.945696,1.014893,0.861121,0.161460,0.430561,861.000000,749.000000,112.000000,21.000000,0.000000,0.000000,0.945696,1.014893,0.861121,0.161460,0.430561,861.000000,749.000000,112.000000,21.000000,0.000000,0.000000:
// measure 0
00000000
00000000
00000000
00000000
,  // measure 1
00000000
00000000
00000000
00000000
,  // measure 2
02200000
00000000
00000000
00000000
,  // measure 3
03000000
00000000
00000000
00000000
,  // measure 4
20300000
00000000
00000000
00000000
,  // measure 5
30020000
00000000
00000000
00000000
,  // measure 6
00130000
00110000
00001000
00001100
,  // measure 7
00010000
00110000
00001000
00001100
,  // measure 8
00000001
00000000
00000010
00000000
00001000
00000000
00000010
00000000
00000001
00000100
00000001
00000100
00000001
00000100
00000010
00001000
,  // measure 9
00000200
00010300
00011000
00011000
,  // measure 10
00001000
00010000
01000000
10000000
00100000
01000000
00010000
00100000
,  // measure 11
01000000
00000000
10000000
00000000
00100000
00000000
01000000
00000000
00010000
01000000
00100000
00000000
01000000
00000000
00000000
00000000
,  // measure 12
00001000
00010000
00000100
00000010
00000001
00000010
00000100
00001000
,  // measure 13
00000001
00000100
00001000
00010000
00011000
00000000
00101000
00000000
,  // measure 14
01010000
10000000
00100000
00010000
00001000
00010000
00000100
00000010
,  // measure 15
00000001
00000000
00000010
00000000
00000100
00000000
00001000
00000000
00000010
00000100
00000001
00000000
00000100
00000000
00000001
00000000
,  // measure 16
00000011
00000000
00000000
00000010
00001000
00000000
00010000
00000000
00100000
00000000
00000000
01000000
00100000
00000000
10000000
00000000
,  // measure 17
00010000
01000000
00100000
10000000
01100000
00010000
10010000
00000000
,  // measure 18
10000000
00000000
00100000
00000000
10000000
01000000
10000000
00000000
00100000
00000000
10000000
00000000
01000000
00100000
00010000
00000000
,  // measure 19
00100000
00000000
00001000
00000000
00010000
00000100
00010000
00000000
00000010
00000000
00001000
00000000
00000001
00000000
00000010
00000000
,  // measure 20
00000100
00000000
00001000
00000000
00000010
00000100
00000001
00000000
00000100
00000000
00000010
00000000
00001000
00000100
00001000
00000000
,  // measure 21
00000100
00000000
00001000
00000000
00010000
00100000
00001000
00000000
00100000
00000000
00010000
00000000
01000000
00000000
00100000
00000000
,  // measure 22
10000000
00000000
00100000
00000000
10000000
01000000
00100000
00000000
00010000
00000000
01000000
00000000
00100000
01000000
00010000
00000000
,  // measure 23
00100000
00000000
00001000
00000000
00010000
00000100
00001000
00000000
00000010
00000000
00001000
00000000
00000001
00000000
00000010
00000000
,  // measure 24
00000100
00000000
00001000
00000000
00000100
00010000
00001000
00000000
00010000
00000000
00001000
00000000
00100000
00010000
01000000
00000000
,  // measure 25
00200000
00000000
20300000
00000000
00010000
00010000
30010000
00000000
,  // measure 26
10000000
00100000
00010000
00001000
00010100
00000000
00001001
00000000
,  // measure 27
00000010
00000100
00010000
01000000
10100000
01000000
01010000
00000000
,  // measure 28
10000000
00100000
00010000
00001000
00010010
00000000
00000110
00000000
,  // measure 29
00000010
00001000
00010000
00000000
00010000
00001000
00000100
00000000
,  // measure 30
01000000
00010000
00001000
00010000
00100000
01000000
10100000
00000000
,  // measure 31
01000000
00000000
00010000
00000000
00001000
00000000
00000010
00000000
00000100
00000001
00000010
00000000
00000001
00001000
00000000
00001000
,  // measure 32
00000001
00000100
00000000
00000100
00000001
00000100
00000000
00000100
,  // measure 33
00002100
00000000
00013000
00100000
10000000
00100000
00010000
00000000
,  // measure 34
00001000
00000010
00000001
00000100
00001010
00000000
00000101
00000000
,  // measure 35
00010000
01000000
10000000
00100000
01010000
00100000
11000000
00000000
,  // measure 36
00102000
00000000
00013000
00000000
00020100
00000000
00031000
00010000
,  // measure 37
01000000
00000000
10000000
00100000
00010000
00001000
00010000
00000010
,  // measure 38
00000110
00000000
00001000
00001001
00000000
00001010
00000010
00000101
,  // measure 39
00000100
00000000
00000010
00000000
00001000
00000000
00010000
00000000
01000000
00000000
00100000
00000000
10000000
00010000
01000000
00100000
,  // measure 40
10000000
00000000
01000000
00000000
00010000
01000000
10000000
00000000
00100000
00000000
10000000
00100000
,  // measure 41
00020000
10000000
10000000
10030000
,  // measure 42
01000000
00100000
10000000
00010000
01000000
00100000
00010000
00001000
,  // measure 43
00000100
00000001
00000010
00000100
00000010
00001000
00010000
00001000
,  // measure 44
00100000
00000000
01000000
00000000
00100000
00000000
00010000
00000000
10000000
00100000
10000000
00100000
10000000
00100000
01000000
00010000
,  // measure 45
00200000
01000000
01300000
10010000
,  // measure 46
11000000
00000000
00000000
01100000
00000000
00000000
00110000
00000000
00000000
00011000
00000000
00000000
00010100
00000000
00000000
00000000
,  // measure 47
00000011
00000000
00000000
00000110
00000000
00000000
00001100
00000000
00000000
00011000
00000000
00000000
01001000
00000000
00000000
00000000
,  // measure 48
00101000
00000000
00000000
00011000
00000000
00000000
00010010
00000000
00000000
00001010
00000000
00000000
00000101
00000000
00000000
00000000
,  // measure 49
00010010
00000000
00000000
00011000
00000000
00000000
00101000
00000000
00010000
01000000
00000000
00010000
01000000
00000000
00100000
00000000
,  // measure 50
10100000
00000000
00000000
01010000
00000000
00000000
00101000
00000000
00000000
00010100
00000000
00000000
00000110
00000000
00000000
00000000
,  // measure 51
00000101
00000000
00000000
00001010
00000000
00000000
00010100
00000000
00000000
00101000
00000000
00000000
01100000
00000000
01000000
00000000
,  // measure 52
00100000
00001000
00000000
00001000
00010000
00000000
00010000
00000010
00000000
00000010
00000100
00000000
00000001
00000000
00000010
00000000
,  // measure 53
00000100
00001000
00000000
00001000
00010000
00000000
00010000
01000000
00000000
01000000
00100000
00000000
10000000
00000000
01000000
00000000
,  // measure 54
00020000
00000000
00000000
00000000
,  // measure 55
00000000
00000000
00000000
00000000
,  // measure 56
00032000
00000000
00000000
00000000
,  // measure 57
00003020
00000000
00000000
00000000
,  // measure 58
00000130
00000000
00000001
00000100
00000010
00000000
00001000
00000100
,  // measure 59
00010000
00100000
00010000
00001000
00000000
00000100
00001000
00000000
,  // measure 60
00010000
01000000
00100000
00000000
00001000
00010000
00100000
00000000
,  // measure 61
10000000
01000000
00100000
00010000
10010000
00000000
01100000
00000000
,  // measure 62
00010000
00000000
10000000
01000000
10000000
00000000
10000000
01000000
,  // measure 63
00100000
00010000
01000000
00100000
00000000
00010000
00000000
00001000
,  // measure 64
00010100
00000000
00000010
00001000
00000001
00000010
00000100
00001000
,  // measure 65
00010000
01000000
10000000
01000000
00010000
00001000
00000100
00001000
,  // measure 66
00010100
00000000
00100000
00010000
01000000
00000000
00010000
01000000
,  // measure 67
00100000
01000000
00010000
01000000
00000000
01000000
00000000
00001000
,  // measure 68
00011000
00000000
00000100
00000010
00000001
00000000
00000001
00001000
,  // measure 69
00001010
00000101
00002002
00003003
,  // measure 70
00000001
00000000
00000001
00000010
00000100
00000000
00000100
00001000
,  // measure 71
00000100
00001000
00000100
00000010
00000000
00000010
00000000
00000010
,  // measure 72
00001010
00000000
00001000
00010000
00100000
00000000
01000000
00010000
,  // measure 73
10000000
01000000
00100000
00010000
00000000
00010000
00100000
00001000
,  // measure 74
00011000
00000000
00000100
00000000
00000110
00000000
00001000
00100000
,  // measure 75
00110000
00000000
11000000
00000000
10000000
01000000
00100000
00010000
,  // measure 76
01000000
00000000
01000000
00000000
00100000
10000000
00100000
10000000
00010000
00000000
00010000
00000000
00100000
00001000
00010000
00001000
,  // measure 77
00100000
00001000
00000110
00000110
,  // measure 78
00000001
00000000
00000010
00000000
00000100
00001000
00000010
00000000
00010000
00000000
00001000
00000000
00100000
00001000
00010000
00000000
,  // measure 79
00100000
00000000
01000000
00000000
00100000
01000000
00010000
00000000
10000000
00000000
01000000
00000000
00100000
00010000
00100000
00000000
,  // measure 80
10000000
00000000
00100000
00000000
00010000
00100000
00001000
00000000
00010000
00000000
00000100
00000000
00001000
00000010
00000100
00000000
,  // measure 81
00000001
00000010
00000100
00001000
00010000
00001000
01000000
00001000
,  // measure 82
00010000
00000000
00100000
00000000
01000000
10000000
00100000
00000000
01000000
00000000
00010000
00000000
00100000
00001000
00010000
00000000
,  // measure 83
00000100
00000000
00001000
00000000
00000010
00000100
00000001
00000000
00000010
00000000
00000100
00000000
00011000
00000000
00100000
00000000
,  // measure 84
01000000
00000000
10000000
00000000
00100000
01000000
00010000
00000000
00100000
00000000
00001000
00000000
00010000
00000100
00001000
00000000
,  // measure 85
00000010
00000100
00000001
00000010
00000100
00000010
00001001
00000000
,  // measure 86
00000001
00000000
00000010
00000000
00000100
00001000
00000010
00000000
00010000
00000000
00001000
00000000
00100000
00001000
01000000
00000000
,  // measure 87
00010000
00000000
00100000
00000000
01000000
10000000
00010000
00000000
10000000
00000000
00100000
00000000
01000000
10000000
01000000
00000000
,  // measure 88
00100000
00000000
00010000
00000000
00001000
00010000
00000010
00000000
00000100
00000000
00000001
00000000
00000010
00000100
00001000
00000000
,  // measure 89
00000010
00000000
00001000
00000000
00000010
00000100
00000001
00000000
00010000
00000000
00010010
00000000
00000110
00000000
00000000
00000000
,  // measure 90
00001000
00000000
00010000
00000000
00100000
01000000
00010000
00000000
00100000
00000000
01000000
00000000
10000000
00010000
01000000
00000000
,  // measure 91
00100000
00000000
10000000
00000000
00010000
00100000
01000000
00000000
00100000
00000000
00010000
00000000
00001000
00000010
00000100
00000000
,  // measure 92
00000010
00000000
00001000
00000100
00001000
00000000
00001000
00000001
00001000
00000000
00000010
00000000
00000001
00000010
00000100
00000000
,  // measure 93
00002000
00000000
00023000
00000000
00130000
10000000
11000000
00000000
,  // measure 94
10000000
00000000
10000000
00000000
10000000
00000000
10000000
00100000
,  // measure 95
00010000
00001000
00000100
00000001
00000000
00000001
00000010
00001000
,  // measure 96
00011000
00000000
00010000
00000000
00100000
01000000
00100000
00000000
10000000
00000000
00010000
00000000
01000000
00100000
01000000
00000000
,  // measure 97
00001000
00010000
00000100
00000010
00000100
00010000
00100000
01000000
,  // measure 98
00100000
00000000
01100000
00000000
10010000
00000000
00010000
00000000
10000000
00000000
00010000
00000000
01000000
00001000
00100000
00000000
,  // measure 99
00000100
00000000
00001000
00000000
00000100
00010000
00001000
00000000
00100000
00000000
00010000
00000000
00100000
00001000
00010000
00000000
,  // measure 100
00000010
00000000
00000100
00000000
00000010
00001000
00000100
00000000
00010000
00000000
00001000
00000000
00100000
00010000
01000000
00000000
,  // measure 101
00100000
10000000
00100000
01000000
01010000
00000000
00010000
00000000
,  // measure 102
11000000
00000000
00000000
01100000
00000000
00000000
00110000
00000000
00000000
00011000
00000000
00000000
00010100
00000000
00000000
00000000
,  // measure 103
00000011
00000000
00000000
00000110
00000000
00000000
00001100
00000000
00000000
00011000
00000000
00000000
01001000
00000000
00000000
00000000
,  // measure 104
00101000
00000000
00000000
00011000
00000000
00000000
00010010
00000000
00000000
00001010
00000000
00000000
00000101
00000000
00000000
00000000
,  // measure 105
00010010
00000000
00000000
00011000
00000000
00000000
00101000
00000000
00010000
01000000
00000000
00010000
01000000
00000000
00100000
00000000
,  // measure 106
10100000
00000000
00000000
01010000
00000000
00000000
00101000
00000000
00000000
00010100
00000000
00000000
00000110
00000000
00000000
00000000
,  // measure 107
00000101
00000000
00000000
00001010
00000000
00000000
00010100
00000000
00000000
00101000
00000000
00000000
01100000
00000000
01000000
00000000
,  // measure 108
10000000
00100000
00000000
01000000
00010000
00000000
00001000
00000100
00000000
00001000
00000010
00000000
00000100
00000001
00000010
00000100
,  // measure 109
00001000
00000000
00020000
00000000
00000000
00000000
01030000
00000000
00002000
00000000
00000000
00000000
00013000
00000100
00001000
00000010
,  // measure 110
00001000
00000000
00000000
00000000
;
