#TITLE:Booths of Fighters;
#SUBTITLE:;
#ARTIST:RoughSketch + DD"ナカタ"Metal;
#TITLETRANSLIT:;
#SUBTITLETRANSLIT:;
#ARTISTTRANSLIT:;
#GENRE:;
#CREDIT:;
#BANNER:Booths of Fighters-bn.png;
#BACKGROUND:Booths of Fighters-bg.png;
#LYRICSPATH:;
#CDTITLE:;
#MUSIC:Booths of Fighters.mp3;
#OFFSET:0.290000;
#SAMPLESTART:84.760025;
#SAMPLELENGTH:15.000000;
#SELECTABLE:YES;
#BPMS:0.000000=225.000000
,192.000000=200.000000
,196.000000=175.000000
,256.000000=155.000000
,260.000000=225.000000
;
#STOPS:
;
#BGCHANGES:;
#KEYSOUNDS:;
#ATTACKS:;

//---------------dance-single - ----------------
#NOTES:
     dance-single:
     :
     Beginner:
     3:
     0.157943,0.262365,0.086375,0.077738,0.000000,128.000000,118.000000,10.000000,9.000000,0.000000,0.000000,0.157943,0.262365,0.086375,0.077738,0.000000,128.000000,118.000000,10.000000,9.000000,0.000000,0.000000:
0000
0000
0000
0000
,
0000
0000
0000
0000
,
0000
0000
0000
0000
,
0000
0000
0000
0000
,
0000
0000
0000
0000
,
0000
0000
0000
0000
,
0000
0000
0000
0000
,
0000
0000
0000
0000
,
0000
0000
0000
0000
,
0200
0000
0000
0000
,
0300
0000
0000
0000
,
0020
0000
0000
0000
,
0030
0000
0000
0000
,
1000
0000
0000
0000
,
1000
0000
0000
0000
,
0001
0000
0000
0000
,
0001
0000
0000
0000
,
1001
0000
0000
0000
,
1001
0000
0000
0000
,
1001
0000
0000
0000
,
1001
0000
0000
0000
,
0110
0000
0000
0000
,
0110
0000
0000
0000
,
1001
0000
0000
0000
,
0110
0000
0000
0000
,
1000
0000
1000
0000
,
1000
0000
0000
0000
,
0001
0000
0001
0000
,
1000
0000
0000
0000
,
0001
0000
0000
0000
,
1000
0000
0000
0000
,
0001
0000
0001
0000
,
1000
0000
0000
0000
,
0100
0000
0100
0000
,
0100
0000
0100
0000
,
0000
0000
0010
0000
,
0010
0000
0010
0000
,
0000
0000
0100
0000
,
0100
0000
0100
0000
,
0000
0000
0001
0000
,
0001
0000
0001
0000
,
0000
0000
1000
0000
,
1000
0000
0010
0000
,
0000
0000
0010
0000
,
0010
0000
0100
0000
,
0000
0000
0100
0000
,
0100
0000
0001
0000
,
0000
0000
0001
0000
,
1000
0000
0000
0000
,
0020
0000
0000
0000
,
0030
0000
0000
0000
,
0002
0000
0000
0000
,
0003
0000
0000
0000
,
2000
0000
0000
0000
,
3000
0000
0000
0000
,
0200
0000
0000
0000
,
0300
0000
0000
0000
,
0001
0000
0010
0000
,
1000
0000
0100
0000
,
0000
0000
1000
0000
,
0010
0000
0001
0000
,
0100
0000
1000
0000
,
0010
0000
1000
0000
,
0100
0000
0001
0000
,
0010
0000
0000
0000
,
0110
0000
0000
0000
,
0000
0000
0000
0000
,
0010
0000
0000
0000
,
0100
0000
0000
0000
,
1000
0000
0000
0000
,
1000
0000
0000
0000
,
1000
0000
0000
0000
,
1000
0000
0000
0000
,
0001
0000
0010
0000
,
0100
0000
0000
0000
,
1000
0000
1000
0000
,
0100
0000
0000
0000
,
0001
0000
0001
0000
,
0100
0000
0010
0000
,
1000
0000
1000
0000
,
0100
0000
0000
0000
,
0001
0000
0001
0000
,
0100
0000
0100
0000
,
0000
0000
0010
0000
,
0010
0000
0010
0000
,
0000
0000
0100
0000
,
0100
0000
0010
0000
,
0000
0000
1000
0000
,
0001
0000
1000
0000
,
0010
0000
0010
0000
,
0100
0000
0100
0000
,
0000
0000
1000
0000
,
1000
0000
1000
0000
,
0000
0000
0010
0000
,
0010
0000
0010
0000
,
0000
0000
0100
0000
,
0100
0000
0100
0000
,
0000
0000
0001
0000
,
1000
0000
1000
0000
,
0020
0000
0000
0000
,
0030
0000
0000
0000
,
2002
3003
0000
0000
;

//---------------dance-single - ----------------
#NOTES:
     dance-single:
     :
     Easy:
     7:
     0.322056,0.437274,0.380051,0.129563,0.000000,261.000000,217.000000,44.000000,15.000000,0.000000,0.000000,0.322056,0.437274,0.380051,0.129563,0.000000,261.000000,217.000000,44.000000,15.000000,0.000000,0.000000:
0000
0000
0000
0000
,
0000
0000
0000
0000
,
0000
0000
0000
0000
,
0000
0000
0000
0000
,
0000
0000
0000
0000
,
0000
0000
0000
0000
,
0000
0000
0000
0000
,
0000
0000
0000
0000
,
0000
0000
0000
0000
,
0100
0000
0020
0000
,
0000
0030
0000
0000
0000
0000
0010
0000
,
0010
0000
1000
0000
,
0001
0000
1000
1000
,
0010
0000
0010
0000
,
1000
0000
1000
0000
,
0100
0000
0010
0000
,
0001
1000
0001
0000
,
1001
0000
1001
0000
,
0110
0000
0110
0000
,
1001
0000
1001
0000
,
0110
0000
1001
0000
,
1100
0000
1100
0000
,
0011
0000
0011
0000
,
1100
0000
0011
0000
,
1001
0000
0000
0000
,
0001
0000
0100
0000
,
0001
0001
0100
0000
,
0100
0100
0001
0000
,
0001
0000
0100
0000
,
0010
1000
0010
0000
,
1000
0001
1000
0000
,
0110
0000
1001
0000
,
0001
0010
0001
0000
,
1000
0100
1000
0100
,
1000
0100
1000
0000
,
0001
0100
0001
0100
,
0001
0100
0001
0000
,
1000
0010
1000
0010
,
1000
0010
1000
0000
,
0001
0100
0001
0100
,
0001
0100
0001
0000
,
0010
0100
1000
0100
,
0010
0001
0010
0000
,
0010
0001
0100
0010
,
1000
0010
0100
0000
,
0100
0001
0010
0100
,
1000
0100
0010
0000
,
0010
0001
1000
0000
,
1001
0000
0110
0000
,
1002
0000
0000
0000
,
0100
0000
0100
0000
,
2003
0000
0000
0000
,
0100
0000
0010
0000
,
3002
0000
0000
0000
,
0010
0000
0010
0000
,
2003
0000
0000
0000
,
0010
0000
0100
0000
,
3002
0000
0010
0000
,
1000
0000
0100
0000
,
0203
0000
1000
0000
,
0010
0000
0001
0000
,
0320
0000
0001
0000
,
0100
0000
1000
0000
,
0230
0000
0310
0000
,
0110
0000
0110
0000
,
1001
0000
0000
0000
,
0000
0000
0000
0000
,
0100
0000
0000
0000
,
0100
0000
0000
0000
,
1000
0000
1000
0000
,
1000
0000
1000
0000
,
0001
0000
0001
0000
,
0001
0000
0001
0000
,
1000
0100
0010
0001
,
1000
0001
0000
0000
,
0110
0000
0110
0000
,
0101
0000
0101
0000
,
1010
0000
1010
0000
,
0001
0010
0100
1000
,
0110
0000
0110
0000
,
1010
0000
1010
0000
,
0101
0000
0101
0000
,
1000
0100
0010
0001
,
1000
0001
1001
0000
,
0110
0000
1001
0000
,
0011
0000
1001
0000
,
0100
0001
0100
1000
,
0010
0100
0110
0000
,
0101
0000
0110
0000
,
1000
0000
0001
0000
,
1000
0100
0010
0001
,
2000
0000
0100
0000
,
0100
0000
0100
0000
,
3002
0000
0010
0000
,
0010
0000
0010
0000
,
0203
0000
1000
0000
,
1000
0000
1000
0000
,
0320
0000
0001
0000
,
0001
0000
0001
0000
,
1030
0000
0001
0000
,
1000
0001
0100
0010
,
0220
0330
0000
0000
;

//---------------dance-single - ----------------
#NOTES:
     dance-single:
     :
     Medium:
     12:
     0.519485,0.743366,0.345501,0.259126,0.155475,421.000000,381.000000,40.000000,30.000000,0.000000,0.000000,0.519485,0.743366,0.345501,0.259126,0.155475,421.000000,381.000000,40.000000,30.000000,0.000000,0.000000:
0000
0000
0000
0000
,
0000
0000
0000
0000
,
0000
0000
0000
0000
,
0000
0000
0000
0000
,
0000
0000
0000
0000
,
0000
0000
0000
0000
,
0000
0000
0000
0000
,
0000
0000
0000
0000
,
0000
0000
0000
0000
0100
0010
0100
0010
,
2000
0000
0000
0000
0000
0000
0000
0001
,
0000
3002
0000
0000
0000
0000
0000
0000
,
0203
0000
0000
0000
0310
0200
0000
0320
,
0000
2030
0000
3002
0000
0013
0100
0000
,
1000
1000
1000
1000
,
0001
0001
0001
0001
,
1000
0001
1000
0001
,
1000
0001
0000
0110
0000
0000
0000
0000
,
1000
0010
1000
0000
1000
0000
1000
0000
,
0010
0010
1000
1000
,
0001
0001
0100
0100
,
0001
0001
0100
0100
,
1010
0010
1000
1000
,
0001
0001
0010
0010
,
0110
0100
0110
0010
,
0110
1000
0001
1000
,
0001
0101
1000
1010
,
0001
0101
1000
1010
,
0001
0011
1000
1010
,
0101
0101
0101
0101
,
1001
1010
1010
0000
,
1100
0000
1001
0000
,
0110
0110
1001
0000
,
0001
0010
0100
1000
0001
0000
0000
0000
,
0100
0010
0010
0010
,
0010
0000
0010
0000
0010
0000
0001
0010
,
1000
0100
0100
0100
,
0100
0000
0100
0000
0100
0000
0001
0100
,
1000
0010
0010
0010
,
0010
0000
0010
0000
0010
0000
1000
0100
,
0001
0100
0100
0100
,
0100
0000
0100
0000
0100
0000
1000
0010
,
0001
0100
1000
0100
,
0010
0000
0100
0000
0010
0000
0100
0001
,
1000
0010
0001
1000
,
0010
0000
0100
0000
0010
0000
0100
0010
,
0001
1000
0001
1000
,
0010
0000
0100
0000
0010
0000
0100
0001
,
0010
1000
0010
0100
,
0001
0000
0001
0000
1000
0000
1000
0000
0000
0000
0000
0000
,
1002
0000
0010
0000
,
1003
1000
0100
0000
0100
0000
1000
0000
,
2001
0000
0001
0000
,
3100
0010
0100
0010
0001
0000
0100
0000
,
1002
0000
1000
0000
,
0103
0010
0100
0000
0010
0000
0010
0000
,
2001
0000
0100
0000
,
3010
0100
0010
0010
0100
0000
0010
0100
,
1002
0010
2003
0000
,
0100
0001
0010
0000
,
3002
0010
0203
0000
,
0320
0000
0100
1030
,
2001
0100
3002
0000
,
0010
0000
1000
0000
,
0203
0000
0000
0000
0010
0010
0010
0000
,
0310
0000
0010
0000
0100
0000
0100
0000
0000
0110
0000
0000
,
1001
0000
0000
0000
,
0000
0000
0000
0000
,
0100
0000
0000
0000
,
0100
0000
0100
0000
,
1000
1000
1000
1000
,
0001
0001
0001
0001
,
0100
0100
0100
0100
,
0010
0010
0010
0010
,
1000
0000
1000
0100
0000
0100
0010
0000
0010
0001
0000
0001
,
0100
0000
0100
0010
0000
0000
0000
0000
0000
0000
0000
0000
,
0010
0100
0010
0100
0000
0000
0010
0000
0000
0010
0000
0000
,
1000
0000
0000
1000
0000
0000
0100
0000
0000
0100
0000
0100
,
0010
0000
0001
0010
0000
0000
0100
0000
0000
1000
0000
0000
,
0001
0000
0010
0001
0000
0000
0100
0000
0100
0001
0000
0001
,
1000
0100
1000
0100
0000
0000
1000
0000
0000
1000
0000
0000
,
0010
0010
0100
0100
,
0001
0000
0010
0001
0000
0000
0010
0000
0000
0100
0000
0000
,
1000
0010
0100
0010
0000
0000
0100
0010
0100
0001
0000
0000
,
1000
1001
0001
1001
,
1000
1001
0001
1001
,
0100
0110
0010
0110
,
1000
0000
0100
0000
0010
0000
0001
0000
0010
0000
0100
0000
,
1000
0001
1000
0001
0000
0000
0001
0000
0000
0001
0010
0000
,
0100
0010
0100
0010
0000
0000
1000
0000
0100
0000
0010
0000
,
0002
0103
2000
3001
,
2000
3200
0320
0031
,
2000
0100
0100
0100
,
0100
0000
0100
0000
0100
0000
0100
0100
,
3000
0002
0010
0010
,
0010
0000
0010
0000
0010
0000
0010
0010
,
0003
2000
0010
0010
,
0010
0000
0010
0000
0010
0000
0010
0010
,
3000
0002
0100
0100
,
0103
0000
0110
0000
0010
0000
1001
0000
0000
0000
0000
0000
,
1000
0000
0001
0000
1000
0000
0001
1000
,
0001
0000
1000
0000
0010
0100
0010
0100
,
0220
0330
0000
0000
;

//---------------dance-single - ----------------
#NOTES:
     dance-single:
     :
     Hard:
     16:
     0.707043,0.962004,0.423238,0.172750,0.418920,573.000000,524.000000,49.000000,20.000000,0.000000,0.000000,0.707043,0.962004,0.423238,0.172750,0.418920,573.000000,524.000000,49.000000,20.000000,0.000000,0.000000:
// measure 0
0000
0000
0000
0000
,  // measure 1
0000
0000
0000
0000
,  // measure 2
0000
0000
0000
0000
,  // measure 3
0000
0000
0000
0000
,  // measure 4
0000
0000
0000
0000
,  // measure 5
0000
0000
0000
0000
,  // measure 6
0000
0000
0000
0000
,  // measure 7
0000
0000
0000
0000
,  // measure 8
0000
0000
0000
0000
0010
0100
0010
0100
,  // measure 9
0002
0000
0000
0000
0010
0010
0000
0200
,  // measure 10
0000
0300
0000
0000
0000
1003
0010
1000
,  // measure 11
2000
0000
0000
0000
0010
0010
0000
0200
,  // measure 12
0000
0300
0000
0100
0000
3010
0100
0000
,  // measure 13
1001
0001
0001
0001
,  // measure 14
1000
1000
1000
1000
,  // measure 15
0010
0100
0010
0000
0001
0010
0100
0000
,  // measure 16
0010
0010
0000
1000
0000
0010
0110
0000
,  // measure 17
0001
0001
0001
0000
0001
0000
0001
0000
,  // measure 18
1000
1000
0001
0001
,  // measure 19
0100
0100
0010
0010
,  // measure 20
0100
0100
0010
0010
,  // measure 21
1000
1000
1000
0000
0001
0000
0001
0000
,  // measure 22
1000
1000
0001
0001
,  // measure 23
0100
0100
0010
0000
0010
0010
0100
0000
,  // measure 24
0010
1000
0010
0001
0011
0000
1100
0000
,  // measure 25
0001
0011
0001
0011
,  // measure 26
1000
1100
0001
0011
,  // measure 27
0100
0110
0010
0110
,  // measure 28
0100
1000
0100
1000
0010
0001
0010
0001
,  // measure 29
1000
1000
0100
0000
0001
0000
0101
0000
,  // measure 30
1000
1100
0001
0012
,  // measure 31
0103
0100
0010
0000
0010
0010
0100
0000
,  // measure 32
0010
0001
0010
1000
1100
0000
0011
0000
,  // measure 33
0001
0100
0001
0100
0001
0100
0001
0100
,  // measure 34
1000
0100
1000
0100
1000
0100
1000
1000
,  // measure 35
0100
0010
0001
0010
0001
0010
0001
0010
,  // measure 36
1000
0010
1000
0010
0100
0100
0001
0001
,  // measure 37
0010
1000
0010
0001
0010
1000
0010
0001
,  // measure 38
0010
0001
0010
1000
0010
1000
0010
0010
,  // measure 39
0100
1000
0100
0001
0100
1000
0100
0001
,  // measure 40
0100
1000
0100
1000
0100
0001
0100
0001
,  // measure 41
0101
0000
1000
0010
0001
0010
1000
0010
,  // measure 42
0100
0010
0001
0010
0100
0010
1000
0010
,  // measure 43
0110
0000
1000
0100
0010
0100
0001
0100
,  // measure 44
0010
0100
1000
0100
0010
0010
0100
0100
,  // measure 45
1001
0000
1000
0001
0100
1000
0100
0001
,  // measure 46
0010
1000
0010
0001
0100
1000
0100
0000
,  // measure 47
0011
0000
1000
0010
0100
0010
0001
0000
,  // measure 48
1001
0000
0001
0000
1000
0000
1001
0000
0000
0000
0000
0000
,  // measure 49
1002
0000
0100
0000
,  // measure 50
0010
0010
0010
0000
0010
0000
1000
0000
,  // measure 51
2003
0000
0100
0000
,  // measure 52
0001
0000
0010
0010
0010
0000
0010
0000
,  // measure 53
3002
0000
0100
0000
,  // measure 54
0010
1000
0100
0000
1000
0000
1000
0000
,  // measure 55
2003
0000
0100
0000
,  // measure 56
0010
0010
0001
0001
0100
0000
0001
0000
,  // measure 57
3002
0010
1000
0000
,  // measure 58
0100
0100
0100
0000
1000
0000
0100
0000
,  // measure 59
2003
0010
0100
0000
0001
0000
0010
0000
,  // measure 60
0100
0100
0001
0001
0010
0000
0100
0000
,  // measure 61
3002
0000
0010
0000
,  // measure 62
0100
0100
0100
0000
0100
0000
0000
0000
,  // measure 63
2003
0000
0000
0000
0001
0001
3001
0000
,  // measure 64
0110
0000
0000
0000
0110
0000
0000
0000
0110
0000
0000
0000
0110
0000
0000
0000
0000
0000
0110
0000
0000
0010
0000
0000
,  // measure 65
0101
0000
0000
0000
,  // measure 66
0000
0000
0000
0000
,  // measure 67
0000
0000
0000
0000
,  // measure 68
0000
0000
0000
0000
,  // measure 69
0001
0000
0010
0001
0000
0000
0001
0000
0010
0001
0000
0000
,  // measure 70
0001
0000
0010
0001
0000
0000
0001
0000
0010
0001
0000
0000
,  // measure 71
1000
0000
0100
1000
0000
0000
1000
0000
0100
1000
0000
0000
,  // measure 72
0010
0000
0100
0010
0000
0000
0010
0000
0100
0010
0000
0000
,  // measure 73
1000
0100
0010
0001
0100
0010
1000
0100
0010
0001
0100
0010
,  // measure 74
1000
0100
0010
0002
0000
0000
1003
0001
1000
0001
0000
0000
,  // measure 75
0001
0010
0100
1000
0000
0000
1000
0000
0000
0010
1000
0001
,  // measure 76
0010
0001
0100
0010
0000
0010
0100
0000
0100
0010
0000
0010
,  // measure 77
1000
0100
0010
0001
0000
0001
1000
0000
1000
0001
0000
0001
,  // measure 78
0100
0010
1000
0100
0000
0010
0100
0010
0001
1000
0001
0100
,  // measure 79
0010
1000
0100
0010
0000
0000
0010
0000
0000
0001
0010
0100
,  // measure 80
0010
0001
1000
0010
0000
0010
1000
0000
1000
0001
0010
0001
,  // measure 81
0100
0010
1000
0010
0000
0010
0100
0000
0100
0001
0000
0001
,  // measure 82
1000
0010
1000
0001
0100
0001
1000
0010
1000
0001
0100
0001
,  // measure 83
1000
0100
0010
0010
0000
0000
0010
0000
0000
0100
0010
1000
,  // measure 84
0001
0010
0100
0100
0000
0001
0100
0000
0100
0010
0000
0010
,  // measure 85
1000
0100
0010
0010
0000
1000
0001
0000
0100
0010
0000
1000
,  // measure 86
1001
0000
0011
0000
1010
0000
1100
0000
0101
0000
0011
0000
,  // measure 87
0010
0100
0010
0010
0000
0000
0010
0000
0000
1000
0100
0010
,  // measure 88
0001
0010
0100
0100
0000
0001
0100
0000
0010
0000
0100
0000
,  // measure 89
1001
0010
1001
0100
,  // measure 90
0011
0110
1100
1001
,  // measure 91
1020
0001
0001
0001
,  // measure 92
1000
0000
1000
0000
1000
0000
1030
0010
,  // measure 93
2010
0001
0001
0001
,  // measure 94
0100
0000
0100
0000
0100
0100
3001
1000
,  // measure 95
1002
0100
0100
0100
,  // measure 96
1000
0000
1000
0000
1000
0000
0013
0001
,  // measure 97
0201
1000
0001
1300
,  // measure 98
0011
0000
1010
0000
1100
0000
0101
0000
0000
0000
0000
0000
,  // measure 99
1000
0000
0001
0000
1000
0000
0001
0010
,  // measure 100
0001
0000
1000
0010
0100
0010
0100
0010
,  // measure 101
0220
0330
0000
0000
;
