#VERSION:0.83;
#TITLE:Boom, Boom, Boom, Boom!!;
#SUBTITLE:;
#ARTIST:Vengaboys;
#TITLETRANSLIT:;
#SUBTITLETRANSLIT:;
#ARTISTTRANSLIT:;
#GENRE:;
#ORIGIN:;
#CREDIT:;
#BANNER:Boom, Boom, Boom, Boom!!-bn.png;
#BACKGROUND:Boom, Boom, Boom, Boom!!-bg.png;
#PREVIEWVID:;
#JACKET:Boom, Boom, Boom, Boom!!-jacket.png;
#CDIMAGE:;
#DISCIMAGE:;
#LYRICSPATH:;
#CDTITLE:;
#MUSIC:Boom, Boom, Boom, Boom!!.mp3;
#OFFSET:1.593999;
#SAMPLESTART:54.238998;
#SAMPLELENGTH:15.000000;
#SELECTABLE:YES;
#BPMS:0.000=138.480;
#STOPS:;
#DELAYS:;
#WARPS:;
#TIMESIGNATURES:0.000=4=4;
#TICKCOUNTS:0.000=4;
#COMBOS:0.000=1;
#SPEEDS:0.000=1.000=0.000=0;
#SCROLLS:0.000=1.000;
#FAKES:;
#LABELS:0.000=Song Start;
#BGCHANGES:;
#KEYSOUNDS:;
#ATTACKS:
;

//---------------dance-single - ----------------
#NOTEDATA:;
#CHARTNAME:;
#STEPSTYPE:dance-single;
#DESCRIPTION:;
#CHARTSTYLE:;
#DIFFICULTY:Beginner;
#METER:1;
#RADARVALUES:0.127489,0.228999,0.092610,0.000000,0.000000,106.000000,95.000000,11.000000,0.000000,0.000000,0.000000,0.000000,0.000000,0.000000,0.127489,0.228999,0.092610,0.000000,0.000000,106.000000,95.000000,11.000000,0.000000,0.000000,0.000000,0.000000,0.000000,0.000000;
#CREDIT:;
#NOTES:
0000
0000
0000
0000
,
0000
0000
0000
0000
,
0000
0000
0000
0000
,
0000
0000
0000
0000
,
0000
0000
0000
0000
,
0001
0000
0001
0000
,
0000
0000
0000
0000
,
0001
0000
0001
0000
,
1001
0000
0000
0000
,
1000
0000
1000
0000
,
0000
0000
0000
0000
,
0010
0000
0010
0000
,
0000
0000
0000
0000
,
0100
0000
0100
0000
,
0000
0000
0000
0000
,
0001
0000
0001
0000
,
0000
0000
0000
0000
,
1000
0000
1000
0000
,
1000
0000
0000
0000
,
0100
0000
0100
0000
,
0100
0000
0000
0000
,
0010
0000
0010
0000
,
0010
0000
0000
0000
,
0001
0000
0001
0000
,
0001
0000
0000
0000
,
0100
0000
0100
0000
,
0010
0000
0000
0000
,
0010
0000
0010
0000
,
0100
0000
0000
0000
,
1000
0000
1000
0000
,
0001
0000
0000
0000
,
0001
0000
0001
0000
,
0000
1001
0000
0000
,
1001
0000
1000
0000
,
1000
0000
0010
0000
,
0010
0000
0100
0000
,
0100
0000
0000
0000
,
1001
0000
0001
0000
,
0001
0000
0010
0000
,
0010
0000
0100
0000
,
0100
0000
0000
0000
,
1000
0000
1000
0000
,
1000
0000
1000
0000
,
0001
0000
0001
0000
,
0100
0000
0000
0000
,
0001
0000
0001
0000
,
0001
0000
0001
0000
,
1000
0000
1000
0000
,
0100
0000
0000
0000
,
1000
0000
1000
0000
,
0001
0000
0000
0000
,
0001
0000
0001
0000
,
0100
0000
0000
0000
,
1000
0000
1000
0000
,
0000
0000
0000
0000
,
0001
0000
0001
0000
,
0000
0000
0000
0000
,
0010
0000
0010
0000
,
0100
0000
0100
0000
,
0010
0000
0010
0000
,
0000
1001
0000
0000
,
1001
0000
1000
0000
,
1000
0000
0010
0000
,
0010
0000
0100
0000
,
0100
0000
0000
0000
,
1001
0000
0001
0000
,
1001
0000
0000
0000
,
1001
0000
1001
0000
,
1001
0000
0000
0000
;

//---------------dance-single - ----------------
#NOTEDATA:;
#CHARTNAME:;
#STEPSTYPE:dance-single;
#DESCRIPTION:;
#CHARTSTYLE:;
#DIFFICULTY:Easy;
#METER:6;
#RADARVALUES:0.318722,0.429372,0.294667,0.000000,0.000000,265.000000,230.000000,35.000000,0.000000,0.000000,0.000000,0.000000,0.000000,0.000000,0.318722,0.429372,0.294667,0.000000,0.000000,265.000000,230.000000,35.000000,0.000000,0.000000,0.000000,0.000000,0.000000,0.000000;
#CREDIT:;
#NOTES:
0000
0000
0000
0000
,
0000
0000
0000
0000
,
0000
0000
0000
0000
,
0000
0000
0000
0000
,
0000
0000
0000
0000
,
1000
0000
1000
0000
,
0001
0000
0001
0000
,
1000
0000
1000
0000
,
1001
0000
0000
0000
,
0001
0100
0001
0100
,
0010
1000
0010
1000
,
0001
0010
0001
0010
,
1000
0100
1000
0100
,
1001
0010
1000
0010
,
0100
0001
0100
0001
,
0010
0100
0010
0100
,
1000
0100
0010
0001
,
1001
1000
0100
1000
,
0010
0010
0100
0100
,
0001
0010
1000
0100
,
0010
0010
0001
0001
,
1000
0100
0001
0100
,
1000
0100
0001
0001
,
0010
1000
0010
0001
,
0010
0100
1000
1000
,
1001
0001
1000
0001
,
0010
0010
0010
0010
,
0100
0010
0100
0010
,
1000
0100
0010
0000
,
0001
0100
0001
0100
,
0010
0010
0100
0100
,
0001
1000
0001
1000
,
0000
1001
1001
1001
,
1001
0010
0100
0010
,
1000
0100
0010
0001
,
1000
1000
0001
1000
,
0001
1001
1001
1001
,
1001
1000
0100
0100
,
0010
0001
0100
0100
,
0001
0010
0100
1000
,
1001
0000
0010
0000
,
1000
0100
1000
0100
,
0010
0001
0010
0001
,
0001
0100
0001
0100
,
0010
1000
0010
1000
,
1000
0100
1000
0100
,
1000
0001
1000
0001
,
0001
0010
0001
0010
,
0001
0100
0001
0100
,
0010
0100
0010
0100
,
1000
0001
1000
0001
,
0010
0100
0010
0100
,
1000
0100
0010
0001
,
1001
0000
1001
0000
,
0001
0001
0100
0100
,
1001
0000
1001
0000
,
1000
0100
0010
0000
,
0110
0000
0110
0000
,
0001
0100
0010
1000
,
0110
0000
0110
0000
,
0000
1001
1001
1001
,
1001
0010
0100
0010
,
1000
0100
0010
0001
,
1000
1000
0001
1000
,
0001
1001
1001
1001
,
1001
1000
0100
0100
,
1001
0010
0010
0100
,
1001
1001
1001
0110
,
1001
0000
0000
0000
;

//---------------dance-single - ----------------
#NOTEDATA:;
#CHARTNAME:;
#STEPSTYPE:dance-single;
#DESCRIPTION:;
#CHARTSTYLE:;
#DIFFICULTY:Medium;
#METER:9;
#RADARVALUES:0.436589,0.515247,0.521982,0.000000,0.012629,363.000000,301.000000,62.000000,0.000000,0.000000,0.000000,0.000000,0.000000,0.000000,0.436589,0.515247,0.521982,0.000000,0.012629,363.000000,301.000000,62.000000,0.000000,0.000000,0.000000,0.000000,0.000000,0.000000;
#CREDIT:;
#NOTES:
0000
0000
0000
0000
,
0000
0000
0000
0000
,
0000
0000
0000
0000
,
0000
0000
0000
0000
,
0000
0000
0000
0000
,
1000
1000
1000
1000
,
0000
0000
0000
0000
,
0001
0001
0001
0001
,
1001
0000
0000
0000
,
1000
0000
1000
0100
0010
0000
0010
0100
,
1000
0001
1000
0001
,
0010
0000
0010
0001
0100
0000
0100
0001
,
0010
0100
0010
0100
,
1001
0000
0001
1000
0010
0000
0010
1000
,
0001
1000
0001
1000
,
1000
0000
1000
0001
0100
0000
0100
0001
,
1000
0001
0100
0010
,
1000
0000
1000
0000
0100
0000
0100
0010
,
0001
1001
0001
0100
,
0010
0000
0010
1000
0100
0000
0010
0000
,
0011
1100
0011
1001
,
1000
0000
1000
0100
0010
0000
0001
0000
,
0001
1000
0100
0000
1000
0000
0100
0000
,
0000
0001
0010
0100
1000
0100
0010
0001
,
1000
0001
0100
0100
,
0110
0000
0010
0100
0010
0000
0100
0010
,
0100
0100
0010
0010
,
1001
0000
0001
1000
0001
0000
1000
0001
,
1000
0100
0010
0000
,
0101
0000
0001
0100
0001
0000
0100
0001
,
0010
0010
0100
0100
,
1010
0000
1000
0100
0010
0000
0010
0100
,
0000
1100
0011
1100
,
1001
0000
0010
0000
1000
0100
0010
0100
,
1000
0000
0010
0000
1000
0100
0010
0100
,
1000
0000
0000
1001
0000
0000
0000
0000
0001
0000
0100
0000
0010
0000
0100
0000
,
0001
0101
1100
0101
,
1100
0000
1000
0000
0010
0100
0001
0100
,
0010
0000
1000
0000
0010
0100
0001
0010
,
0100
0000
0000
0110
0000
0000
0001
0000
1000
0000
0100
0000
0001
0000
0100
0000
,
1000
0000
1000
1001
,
0001
0000
0101
0000
0001
0100
0010
0000
,
1000
0000
1100
0000
1000
0010
0100
0000
,
0001
0000
1001
0000
1000
0001
1000
0000
,
0010
0000
0110
0000
0100
0010
0100
0000
,
0011
0000
0001
0000
0010
0100
1000
0000
,
1100
0000
1000
0000
0100
0010
0001
0000
,
1100
0000
0001
0000
0100
0010
1000
0000
,
0011
0000
0100
0000
1000
0010
0100
0000
,
0101
0000
0001
0100
0010
0000
0010
0100
,
0001
0100
0001
0100
,
0010
0000
0010
1000
0100
0000
0100
0010
,
0001
0010
0001
1000
,
1100
0110
0011
0101
,
0100
0001
0100
0001
,
0101
0011
0110
1100
,
1000
0001
1000
0001
,
0110
1100
0110
0011
,
0001
1000
0100
1000
,
1010
0110
0101
0011
,
0000
1100
0011
1100
,
1001
0000
0010
0000
1000
0100
0010
0100
,
1000
0000
0010
0000
1000
0100
0010
0100
,
1000
0000
0000
1001
0000
0000
0000
0000
0001
0000
0100
0000
0010
0000
0100
0000
,
0001
0101
1100
0101
,
1100
0000
1000
0000
0010
0100
0001
0100
,
1001
0000
0010
0000
1000
0100
0010
0100
,
1001
0000
1010
0000
1010
0000
0011
0100
,
1001
0000
0000
0000
;

//---------------dance-single - ----------------
#NOTEDATA:;
#CHARTNAME:;
#STEPSTYPE:dance-single;
#DESCRIPTION:;
#CHARTSTYLE:;
#DIFFICULTY:Hard;
#METER:11;
#RADARVALUES:0.567686,0.629746,0.496725,0.000000,0.109448,472.000000,413.000000,59.000000,0.000000,0.000000,0.000000,0.000000,0.000000,0.000000,0.567686,0.629746,0.496725,0.000000,0.109448,472.000000,413.000000,59.000000,0.000000,0.000000,0.000000,0.000000,0.000000,0.000000;
#CREDIT:;
#NOTES:
0000
0000
0000
0000
,
0000
0000
0000
0000
,
0000
0000
0000
0000
,
0000
0000
0000
0000
,
0000
0000
0000
0000
,
1000
0000
1000
0100
1000
0000
1000
0100
,
0001
0000
0001
0010
0001
0000
0001
0100
,
1000
0000
1000
0100
1000
0000
1000
0100
,
1001
0000
0000
0000
,
1001
0000
1000
0000
0001
0000
1000
0001
1000
0000
0001
0000
1000
0000
0001
0000
,
0100
0000
0010
0000
0100
0000
0010
0100
0010
0000
0100
0000
0010
0000
0100
0000
,
1001
0000
1000
0000
0001
0000
1000
0001
1000
0000
0001
0000
1000
0000
0001
0000
,
0010
0000
0100
0000
0010
0000
0100
0010
0100
0000
0010
0000
0010
0000
0000
0000
,
1100
0000
1000
0000
0100
0000
1000
0100
1000
0000
0100
0000
1000
0000
0100
0000
,
0010
0000
0001
0000
0010
0000
0001
0010
0001
0000
0010
0000
0001
0000
0010
0000
,
0100
0000
0010
0000
0100
0000
0010
0100
0010
0000
0100
0000
0010
0000
0100
0000
,
1000
0000
0001
0000
1000
0000
0000
0001
1000
0000
1000
0000
1000
0000
0000
0000
,
0001
0010
0100
1000
0100
0000
1000
0100
,
0001
0100
1000
0000
0001
0100
1000
0000
,
1000
0010
0100
0001
0010
0000
0001
0010
,
0110
1100
0110
0011
,
0001
1000
0100
1000
0001
0000
0001
1000
,
0100
1000
0001
0000
0010
0100
0010
0000
,
1000
0100
0001
0010
1000
0100
0010
0001
,
1000
0000
0001
0000
1000
0000
0100
1000
0010
0000
0010
0000
0100
0000
0000
0000
,
1000
0000
1000
0100
0010
0000
0010
0100
,
1000
1000
0010
0010
0001
0001
0100
0000
,
0001
0000
0001
0010
0100
0000
0100
0010
,
0000
0100
0010
0100
0110
0000
0000
0000
,
1000
0000
1000
0100
0010
0000
0010
0100
,
1000
1000
0010
0010
0001
0001
0100
0000
,
0001
0000
0001
0010
0100
0000
0100
0010
,
0000
0110
0110
0110
,
1001
1000
0100
1000
0001
1000
0100
1000
,
0001
0010
0001
1000
0001
0010
0001
1000
,
0001
0000
0000
1001
0000
0000
1000
0000
0100
0000
1000
0000
0001
0000
0010
0000
,
0001
0000
0000
1000
0001
0000
0000
0000
1100
0000
0000
0000
0101
0000
0000
0000
,
1001
0000
1000
0100
0001
0100
1000
0100
,
0100
0000
0001
0010
1000
0010
0001
1000
,
0001
0000
0000
1001
0000
0000
1000
0000
0010
0000
0100
0000
0010
0000
0100
0000
,
0110
0000
0000
0000
0000
0000
0010
0100
0010
0000
0010
0000
1000
0000
1000
0000
,
0100
0000
0000
0110
0000
0000
0010
0000
0001
0000
1000
0000
0001
0000
0100
0000
,
0010
0000
0000
0110
0000
0000
1000
0100
0010
0000
0001
0000
0010
0000
0100
0000
,
1000
0000
0000
1100
0000
0000
1000
0000
0010
0000
1000
0000
0100
0000
0010
0000
,
0100
0000
0000
1100
0000
0000
0001
0010
0100
0000
0010
0000
0001
0000
1000
0000
,
0100
0000
0000
1100
0000
0000
1000
0000
0010
0000
0100
0000
1000
0000
0010
0000
,
0100
0000
0000
0110
0000
0000
0100
0001
0010
0000
0100
0000
0010
0000
0001
0000
,
0100
0000
0000
0101
0000
0000
0001
0000
0001
0000
1000
0000
0001
0000
1000
0000
,
0010
0000
0000
1010
0000
0000
0000
0000
1000
0000
1000
0000
1000
0000
0000
0000
,
0001
0000
0001
0010
0100
0000
0100
0010
,
0001
1000
0001
1000
0001
1000
0001
0000
,
1000
0000
1000
0100
0010
0000
0010
0100
,
1000
0010
0100
0001
0100
0010
1000
0000
,
1100
0110
0011
0101
,
0001
1000
0001
1000
0010
1000
0010
0000
,
0101
0011
0101
1001
,
1000
0100
0010
0001
1000
0000
0100
0000
,
1010
1100
0101
0011
,
0001
1000
0100
1000
0001
1000
0100
0000
,
1010
0110
0011
0101
,
0000
0110
0110
0110
,
1001
1000
0100
1000
0001
1000
0100
1000
,
0001
0010
0001
1000
0001
0010
0001
1000
,
0001
0000
0000
1001
0000
0000
1000
0000
0100
0000
1000
0000
0001
0000
0010
0000
,
0001
0000
0000
1000
0001
0000
0000
0000
1100
0000
0000
0000
0101
0000
0000
0000
,
1001
0000
1000
0100
0001
0100
1000
0100
,
0110
0000
0001
0010
1000
0010
0001
1000
,
1001
0000
0110
0000
0101
0101
1010
0110
,
0101
0000
0000
0000
;

//---------------dance-single - ----------------
#NOTEDATA:;
#CHARTNAME:;
#STEPSTYPE:dance-single;
#DESCRIPTION:;
#CHARTSTYLE:;
#DIFFICULTY:Challenge;
#METER:11;
#RADARVALUES:0.484698,0.601121,0.218896,0.000000,0.109448,403.000000,377.000000,26.000000,0.000000,144.000000,0.000000,0.000000,0.000000,0.000000,0.484698,0.601121,0.218896,0.000000,0.109448,403.000000,377.000000,26.000000,0.000000,144.000000,0.000000,0.000000,0.000000,0.000000;
#CREDIT:;
#NOTES:
0000
0000
0000
0000
,
0000
0000
0000
0000
,
0000
0000
0000
0000
,
0000
0000
0000
0000
,
0000
0000
0000
0000
,
1000
0000
1000
0100
1000
0000
1000
0100
,
0001
0000
0001
0010
0001
0000
0001
0100
,
1000
0000
1000
0100
1000
0000
1000
0100
,
MMMM
0000
0000
0000
,
1001
0000
1000
0000
0001
0000
1000
0001
1000
0000
0001
0000
1000
0000
0001
0000
,
0100
0000
0010
0000
0100
0000
0010
0100
0010
0000
0100
0000
0010
0000
0100
0000
,
1001
0000
1000
0000
0001
0000
1000
0001
1000
0000
0001
0000
1000
0000
0001
0000
,
0010
0000
0100
0000
0010
0000
0100
0010
0100
0000
0010
0000
0010
0000
0000
0000
,
1100
0000
1000
0000
0100
0000
1000
0100
1000
0000
0100
0000
1000
0000
0100
0000
,
0010
0000
0001
0000
0010
0000
0001
0010
0001
0000
0010
0000
0001
0000
0010
0000
,
0100
0000
0010
0000
0100
0000
0010
0100
0010
0000
0100
0000
0010
0000
0100
0000
,
1000
0000
0001
0000
1000
0000
0000
0001
1000
0000
1000
0000
MMMM
0000
0000
0000
,
0001
0010
0100
1000
0100
0000
1000
0100
,
0001
0100
1000
0000
0001
0100
1000
0000
,
1000
0010
0100
0001
0010
0000
0001
0010
,
0110
MMMM
0110
MMMM
,
0001
1000
0100
1000
0001
0000
0001
1000
,
0100
1000
0001
0000
0010
0100
0010
0000
,
1000
0100
0001
0010
1000
0100
0010
0001
,
1000
0000
0001
0000
1000
0000
0100
1000
0010
0000
0010
0000
0100
0000
0000
0000
,
1000
0000
1000
0100
0010
0000
0010
0100
,
1000
1000
0010
0010
0001
0001
0100
0000
,
0001
0000
0001
0010
0100
0000
0100
0010
,
0000
0100
0010
0100
0110
0000
0000
0000
,
1000
0000
1000
0100
0010
0000
0010
0100
,
1000
1000
0010
0010
0001
0001
0100
0000
,
0001
0000
0001
0010
0100
0000
0100
0010
,
0000
MMMM
MMMM
MMMM
,
MMMM
1000
0100
1000
0001
1000
0100
1000
,
0001
0010
0001
1000
0001
0010
0001
1000
,
0001
0000
0000
MMMM
0000
0000
1000
0000
0100
0000
1000
0000
0001
0000
0010
0000
,
0001
0000
0000
1000
MMMM
0000
0000
0000
MMMM
0000
0000
0000
MMMM
0000
0000
0000
,
MMMM
0000
1000
0100
0001
0100
1000
0100
,
0100
0000
0001
0010
1000
0010
0001
1000
,
0001
0000
0000
MMMM
0000
0000
1000
0000
0010
0000
0100
0000
0010
0000
0100
0000
,
0110
0000
0000
0000
0000
0000
0010
0100
0010
0000
0010
0000
1000
0000
1000
0000
,
0100
0000
0000
MMMM
0000
0000
0010
0000
0001
0000
1000
0000
0001
0000
0100
0000
,
0010
0000
0000
MMMM
0000
0000
1000
0100
0010
0000
0001
0000
0010
0000
0100
0000
,
1000
0000
0000
MMMM
0000
0000
1000
0000
0010
0000
1000
0000
0100
0000
0010
0000
,
0100
0000
0000
MMMM
0000
0000
0001
0010
0100
0000
0010
0000
0001
0000
1000
0000
,
0100
0000
0000
MMMM
0000
0000
1000
0000
0010
0000
0100
0000
1000
0000
0010
0000
,
0100
0000
0000
MMMM
0000
0000
0100
0001
0010
0000
0100
0000
0010
0000
0001
0000
,
0100
0000
0000
MMMM
0000
0000
0001
0000
0001
0000
1000
0000
0001
0000
1000
0000
,
0010
0000
0000
MMMM
0000
0000
0000
0000
1000
0000
1000
0000
1000
0000
0000
0000
,
0001
0000
0001
0010
0100
0000
0100
0010
,
0001
1000
0001
1000
0001
1000
0001
0000
,
1000
0000
1000
0100
0010
0000
0010
0100
,
1000
0010
0100
0001
0100
0010
1000
0000
,
1100
0110
0011
0101
,
0001
1000
0001
1000
0010
1000
0010
0000
,
0101
0011
0101
1001
,
1000
0100
0010
0001
1000
0000
0100
0000
,
1010
1100
0101
0011
,
0001
1000
0100
1000
0001
1000
0100
0000
,
1010
0110
0011
0101
,
0000
MMMM
MMMM
MMMM
,
MMMM
1000
0100
1000
0001
1000
0100
1000
,
0001
0010
0001
1000
0001
0010
0001
1000
,
0001
0000
0000
MMMM
0000
0000
1000
0000
0100
0000
1000
0000
0001
0000
0010
0000
,
0001
0000
0000
1000
MMMM
0000
0000
0000
MMMM
0000
0000
0000
MMMM
0000
0000
0000
,
MMMM
0000
1000
0100
0001
0100
1000
0100
,
MMMM
0000
0001
0010
1000
0010
0001
1000
,
MMMM
0000
0110
0000
MMMM
0101
MMMM
0110
,
MMMM
0000
0000
0000
;

//---------------dance-double - ----------------
#NOTEDATA:;
#CHARTNAME:;
#STEPSTYPE:dance-double;
#DESCRIPTION:;
#CHARTSTYLE:;
#DIFFICULTY:Easy;
#METER:6;
#RADARVALUES:0.264599,0.372123,0.235734,0.000000,0.000000,220.000000,192.000000,28.000000,0.000000,0.000000,0.000000,0.000000,0.000000,0.000000,0.264599,0.372123,0.235734,0.000000,0.000000,220.000000,192.000000,28.000000,0.000000,0.000000,0.000000,0.000000,0.000000,0.000000;
#CREDIT:;
#NOTES:
00000000
00000000
00000000
00000000
,
00000000
00000000
00000000
00000000
,
00000000
00000000
00000000
00000000
,
00000000
00000000
00000000
00000000
,
00000000
00000000
00000000
00000000
,
00010000
00001000
00010000
00001000
,
00000000
00000000
00000000
00000000
,
01000000
00100000
01000000
00100000
,
10010000
00000000
00000000
00000000
,
10000000
01000000
10000000
01000000
,
00100000
00000000
00100000
00000000
,
00010000
01000000
00010000
01000000
,
00100000
00000000
00100000
00000000
,
00011000
00001000
00010000
00001000
,
00000100
00000000
00000100
00000000
,
00000001
00000010
00000001
00000010
,
00000100
00000000
00001000
00000000
,
00000001
00000000
00000001
00000000
,
00000001
00001000
00000100
00000000
,
00001000
00000000
00001000
00000000
,
00010100
00000100
00010000
00000000
,
00100000
00000000
00100000
00000000
,
00010000
01000000
00000000
00000000
,
10000000
01000000
00100000
00010000
,
01000000
00000000
01000000
00000000
,
00010000
00000000
00010000
00000000
,
10000000
10000000
00100000
00100000
,
01000000
00000000
01000000
00000000
,
00001000
00010000
00011000
00000000
,
00010000
00000000
00010000
00000000
,
00000100
00000100
00010000
00010000
,
00000010
00000000
00000010
00000000
,
00000000
00001001
00001001
00001001
,
00001001
00000000
00000001
00000100
,
00000010
00000000
00001000
00000100
,
00010000
00000000
00001000
00010000
,
00001000
10010000
10010000
10010000
,
10010000
00000000
10000000
01000000
,
00100000
00000000
00010000
01000000
,
00010000
00000000
10000000
00010000
,
10010000
00000000
01000000
00000000
,
00100000
10000000
00100000
10000000
,
00010000
01000000
00010000
00000000
,
00100000
00001000
00100000
00001000
,
00010000
00001000
00010000
00000000
,
00000100
00001000
00000010
00001000
,
00000100
00001000
00000010
00000000
,
00000100
00000001
00000010
00000001
,
00000100
00000001
00001000
00000001
,
00001000
00001000
00000100
00000100
,
00010000
00000000
00010000
00000000
,
00100000
00100000
01000000
01000000
,
01100000
00000000
00000000
00000000
,
10000000
00010000
00100000
00010000
,
01000000
01000000
00100000
00100000
,
00010000
00001000
00100000
00001000
,
00000000
01000000
01100000
00000000
,
00010000
00001000
00010000
00000100
,
00000010
00000010
00000100
00000100
,
00000001
00000100
00000010
00001000
,
00000000
00001001
00001001
00001001
,
00001001
00000000
00000001
00000100
,
00000010
00000000
00001000
00000100
,
00010000
00000000
00001000
00010000
,
00001000
10010000
10010000
10010000
,
10010000
00000000
10000000
01000000
,
00110000
00000000
00010000
01000000
,
10010000
01000000
10010000
00110000
,
01010000
00000000
00000000
00000000
;

//---------------dance-double - ----------------
#NOTEDATA:;
#CHARTNAME:;
#STEPSTYPE:dance-double;
#DESCRIPTION:;
#CHARTSTYLE:;
#DIFFICULTY:Medium;
#METER:9;
#RADARVALUES:0.419751,0.486622,0.269410,0.000000,0.046305,349.000000,317.000000,32.000000,0.000000,0.000000,0.000000,0.000000,0.000000,0.000000,0.419751,0.486622,0.269410,0.000000,0.046305,349.000000,317.000000,32.000000,0.000000,0.000000,0.000000,0.000000,0.000000,0.000000;
#CREDIT:;
#NOTES:
00000000
00000000
00000000
00000000
,
00000000
00000000
00000000
00000000
,
00000000
00000000
00000000
00000000
,
00000000
00000000
00000000
00000000
,
00000000
00000000
00000000
00000000
,
00010000
00000000
00001000
00010000
00001000
00000000
00010000
00001000
,
00000000
00000000
00000000
00000000
,
01000000
00000000
00100000
01000000
00100000
00000000
01000000
00100000
,
00000000
00000000
00000000
00000000
,
10000000
00000000
10000000
01000000
00100000
00000000
00100000
00010000
,
01000000
00010000
01000000
00010000
,
01000000
00000000
01000000
00010000
00100000
00000000
00100000
00001000
,
00010000
00001000
00010000
00001000
,
00000100
00000000
00000100
00000010
00000100
00000000
00000100
00000001
,
00000010
00000100
00000010
00000100
,
00001000
00000000
00001000
00000010
00000100
00000000
00000100
00000010
,
00001000
00000100
00010000
00001000
,
00001000
00010000
00100000
00000000
01000000
00000000
00010000
00000000
,
10000000
01000000
00010000
00000000
01000000
00000000
10000000
00000000
,
00100000
00000000
10000000
01000000
10000000
00000000
00100000
00000000
,
10100000
01010000
00110000
00011000
,
00010000
00000000
00000100
00000010
00000100
00000000
00000010
00000000
,
00000001
00000100
00000010
00000000
00000100
00000001
00000010
00000000
,
00000100
00000000
00001000
00000000
00010000
01000000
10000000
01000000
,
00100000
01000000
00100000
00100000
,
11000000
00100000
01010000
00100000
,
10000000
01000000
10000000
00010000
10000000
00100000
10000000
00000000
,
01010000
00100000
10010000
01000000
,
00100000
00010000
00001000
00000010
,
00000011
00000100
00001010
00000100
,
00000001
00000010
00000100
00000010
00000001
00000010
00000100
00000000
,
00001010
00000100
00011000
00010000
,
00000000
00011000
00011000
00011000
,
00011000
00000000
00010000
00000000
01000000
10000000
01000000
10000000
,
01000000
00000000
00100000
00000000
00010000
01000000
00010000
00100000
,
00010000
00000000
00000000
00010000
00000000
00000000
01000000
00000000
00100000
00000000
00010000
00000000
00001000
00000000
00010000
00000000
,
00001000
00011000
00011000
00011000
,
00011000
00000000
00000000
00000001
00001000
00000100
00000010
00000001
,
00000001
00000000
00000100
00000010
00001000
00000100
00000010
00000100
,
00001000
00000000
00000000
00001000
00000000
00000000
00000001
00000000
00000100
00000000
00000010
00000000
00000100
00000000
00000010
00000000
,
00010000
00000000
00000000
00000000
00001000
00010000
00001000
00000000
,
00010000
00000000
00000000
00010000
00000000
00000000
00001000
00000000
00010000
00000000
00100000
00000000
10000000
00000000
00000000
00000000
,
01000000
00000000
00000000
01000000
00000000
00000000
10000000
00000000
00100000
00000000
00010000
00000000
00001000
00000000
00000000
00000000
,
00010000
00000000
00000000
00010000
00000000
00000000
00001000
00000000
00000100
00000000
00000001
00000000
00000010
00000000
00000000
00000000
,
00000001
00000000
00000000
00000001
00000000
00000000
00000100
00000000
00001000
00000000
00010000
00000000
00001000
00000000
00000000
00000000
,
00100000
00000000
00000000
00100000
00000000
00000000
01000000
00000000
10000000
00000000
01000000
00000000
00100000
00000000
00000000
00000000
,
00001000
00000000
00000000
00001000
00000000
00000000
00010000
00000000
00001000
00000000
00100000
00000000
00010000
00000000
00000000
00000000
,
01000000
00000000
00000000
01000000
00000000
00000000
00100000
00000000
00010000
00000000
00001000
00000000
00010000
00000000
00000000
00000000
,
00000100
00000000
00000000
00000100
00000000
00000000
00000000
00000000
00000000
00000000
00000000
00000000
00001001
00000000
00000000
00000000
,
00000010
00000000
00000010
00001000
00000100
00000000
00000100
00000010
,
00000001
00000100
00001000
00010000
,
01000000
00000000
01000000
10000000
00100000
00000000
00100000
10000000
,
00010000
00000000
00000000
00000000
,
10000000
10000000
01000000
01000000
,
00100000
00010000
00100000
00000000
00001000
00010000
00001000
00000000
,
00000100
00000100
00000010
00000010
,
00001000
00000100
00000010
00000001
00000100
00000000
00000000
00000000
,
00000010
00000010
00001000
00001000
,
00000100
00001000
00010000
00000000
00001000
00010000
00100000
00000000
,
01000000
01000000
10000000
10000000
,
00000000
00011000
00011000
00011000
,
00011000
00000000
00010000
00000000
01000000
10000000
01000000
10000000
,
01000000
00000000
00100000
00000000
00010000
01000000
00010000
00100000
,
00010000
00000000
00000000
00010000
00000000
00000000
01000000
00000000
00100000
00000000
00010000
00000000
00001000
00000000
00010000
00000000
,
00001000
00011000
00011000
00011000
,
00011000
00000000
00000000
00000001
00001000
00000100
00000010
00000001
,
00001001
00000000
00000100
00000010
00001000
00000100
00000010
00000100
,
00001001
00000000
00001100
00000000
00000010
00000100
00001000
00010000
,
00001000
00000000
00000000
00000000
;

//---------------dance-double - ----------------
#NOTEDATA:;
#CHARTNAME:;
#STEPSTYPE:dance-double;
#DESCRIPTION:;
#CHARTSTYLE:;
#DIFFICULTY:Hard;
#METER:11;
#RADARVALUES:0.537618,0.572497,0.252572,0.000000,0.054724,447.000000,417.000000,30.000000,0.000000,0.000000,0.000000,0.000000,0.000000,0.000000,0.537618,0.572497,0.252572,0.000000,0.054724,447.000000,417.000000,30.000000,0.000000,0.000000,0.000000,0.000000,0.000000,0.000000;
#CREDIT:;
#NOTES:
00000000
00000000
00000000
00000000
,
00000000
00000000
00000000
00000000
,
00000000
00000000
00000000
00000000
,
00000000
00000000
00000000
00000000
,
00000000
00000000
00000000
00000000
,
00001000
00000000
00001000
00010000
00100000
00000000
00100000
01000000
,
00000000
00000000
00000000
00000000
,
01000000
00000000
01000000
00100000
00010000
00000000
00001000
00010000
,
00011000
00000000
00000000
00000000
,
00010000
00000000
00000100
00000000
00010000
00000000
00001000
00010000
00001000
00000000
00010000
00000000
00000100
00000000
00010000
00000000
,
00001000
00000000
00100000
00000000
00010000
00000000
00100000
00010000
00100000
00000000
00010000
00000000
01000000
00000000
00100000
00000000
,
10000000
00000000
01000000
00000000
10000000
00000000
01000000
10000000
01000000
00000000
10000000
00000000
00100000
00000000
10000000
00000000
,
00010000
00000000
00100000
00000000
00010000
00000000
00100000
00010000
00100000
00000000
00010000
00000000
01000000
00000000
00100000
00000000
,
01100000
00000000
01000000
00000000
00010000
00000000
00100000
00010000
00100000
00000000
00010000
00000000
00100000
00000000
00001000
00000000
,
00010000
00000000
00000100
00000000
00001000
00000000
00000100
00001000
00000100
00000000
00001000
00000000
00000010
00000000
00000100
00000000
,
00000001
00000000
00000010
00000000
00000100
00000000
00000010
00000100
00000010
00000000
00000100
00000000
00001000
00000000
00000001
00000000
,
00000100
00000000
00000010
00000000
00001000
00000000
00000000
00000100
00010000
00000000
00010000
00000000
00010000
00000000
00000000
00000000
,
00001000
00010000
00100000
10000000
01000000
00000000
10000000
01000000
,
00100000
01000000
10000000
00000000
00100000
00010000
00001000
00000000
,
00010000
00000100
00001000
00000010
00000100
00000000
00000001
00000010
,
00000110
00001100
00011000
00110000
,
10000000
01000000
00010000
00100000
01000000
00000000
01000000
00100000
,
10000000
10000000
00010000
00000000
10000000
01000000
00010000
00000000
,
10000000
01000000
00100000
00010000
00001000
00000100
00000010
00000001
,
00000100
00000000
00000001
00000000
00000100
00000100
00000001
00000000
,
00000011
00000000
00000010
00000100
00001000
00000000
00001000
00010000
,
00100000
00010000
00100000
00010000
10000000
00010000
10000000
00000000
,
00100000
00000000
00100000
01000000
00001000
00000000
00001000
00010000
,
00000000
00000100
00000010
00000001
00000100
00000000
00000000
00000000
,
00000001
00000000
00000001
00000010
00000100
00000000
00000100
00001000
,
00010000
00100000
00001000
00010000
00100000
01000000
00010000
00000000
,
10000000
00000000
10000000
01000000
00100000
00000000
00010000
01000000
,
00000000
11000000
01010000
00011000
,
10010000
10000000
00100000
10000000
00010000
10000000
01000000
10000000
,
00100000
01000000
00010000
01000000
00100000
01000000
00010000
01000000
,
00001000
00000000
00000000
00011000
00000000
00000000
00010000
00000000
00000100
00000000
00000010
00000000
00000100
00000000
00001000
00000000
,
00010000
00000000
00000000
00010000
00001000
00000000
00000000
00000000
00001001
00000000
00000000
00000000
00011000
00000000
00000000
00000000
,
00010100
00000000
00001000
00010000
00000100
00000010
00000100
00010000
,
00010000
00000000
00000100
00001000
00010000
00100000
00010000
00001000
,
00000100
00000000
00000000
00011000
00000000
00000000
00010000
00000000
00100000
00000000
01000000
00000000
00010000
00000000
00100000
00000000
,
00010000
00000000
10000000
01000000
00100000
00010000
01000000
00000000
,
00100000
10000000
00100000
10000000
00010000
10000000
00010000
10000000
,
00010000
00100000
00010000
00100000
00001000
00100000
00001000
00100000
,
00001000
00010000
00001000
00010000
00000100
00010000
00000100
00010000
,
00000010
00001000
00000010
00001000
00000001
00000010
00000001
00000010
,
00000100
00001000
00000100
00001000
00000100
00010000
00000100
00010000
,
00001000
00010000
00001000
00010000
00001000
00100000
00001000
00100000
,
00010000
01000000
00010000
01000000
00100000
10000000
00100000
10000000
,
01000000
00100000
00010000
01000000
00100000
01000000
01000000
00000000
,
10000000
00000000
10000000
01000000
00100000
00000000
00100000
00010000
,
00001000
00000100
00001000
00000100
00000010
00000100
00000010
00000000
,
00000100
00000000
00000100
00001000
00010000
00000000
00010000
01000000
,
00100000
00010000
00001000
00100000
00010000
10000000
01000000
00000000
,
10000000
00000000
10000000
01000000
00100000
00000000
00100000
00010000
,
01000000
01000000
00100000
00100000
00010000
00010000
00001000
00000000
,
00000100
00000000
00000100
00000010
00001000
00000000
00001000
00000001
,
00000010
00000100
00001000
00010000
01000000
00000000
00000000
00000000
,
10000000
00000000
10000000
00100000
01000000
00000000
01000000
00010000
,
00100000
00001000
00010000
00100000
00010000
00001000
00010000
00000000
,
10000000
00000000
10000000
01000000
00100000
00000000
00100000
00010000
,
00000000
11000000
01010000
00011000
,
10010000
10000000
00100000
10000000
00010000
10000000
01000000
10000000
,
00100000
01000000
00010000
01000000
00100000
01000000
00010000
01000000
,
00001000
00000000
00000000
00011000
00000000
00000000
00010000
00000000
00000100
00000000
00000010
00000000
00000100
00000000
00001000
00000000
,
00010000
00000000
00000000
00010000
00001000
00000000
00000000
00000000
00001001
00000000
00000000
00000000
00011000
00000000
00000000
00000000
,
00010100
00000000
00001000
00010000
00000100
00000010
00000100
00010000
,
00011000
00000000
00000100
00001000
00010000
00100000
00010000
00001000
,
00001100
00000000
00000110
00000000
00000011
00000100
00001100
00010000
,
00011000
00000000
00000000
00000000
;

//---------------dance-double - ----------------
#NOTEDATA:;
#CHARTNAME:;
#STEPSTYPE:dance-double;
#DESCRIPTION:;
#CHARTSTYLE:;
#DIFFICULTY:Challenge;
#METER:11;
#RADARVALUES:0.473873,0.572497,0.042095,0.000000,0.054724,394.000000,389.000000,5.000000,0.000000,224.000000,0.000000,0.000000,0.000000,0.000000,0.473873,0.572497,0.042095,0.000000,0.054724,394.000000,389.000000,5.000000,0.000000,224.000000,0.000000,0.000000,0.000000,0.000000;
#CREDIT:;
#NOTES:
// measure 0
00000000
00000000
00000000
00000000
,  // measure 1
00000000
00000000
00000000
00000000
,  // measure 2
00000000
00000000
00000000
00000000
,  // measure 3
00000000
00000000
00000000
00000000
,  // measure 4
00000000
00000000
00000000
00000000
,  // measure 5
00001000
00000000
00001000
00010000
00100000
00000000
00100000
01000000
,  // measure 6
00000000
00000000
00000000
00000000
,  // measure 7
01000000
00000000
01000000
00100000
00010000
00000000
00001000
00010000
,  // measure 8
MMMMMMMM
00000000
00000000
00000000
,  // measure 9
00010000
00000000
00000100
00000000
00010000
00000000
00001000
00010000
00001000
00000000
00010000
00000000
00000100
00000000
00010000
00000000
,  // measure 10
00001000
00000000
00100000
00000000
00010000
00000000
00100000
00010000
00100000
00000000
00010000
00000000
01000000
00000000
00100000
00000000
,  // measure 11
10000000
00000000
01000000
00000000
10000000
00000000
01000000
10000000
01000000
00000000
10000000
00000000
00100000
00000000
10000000
00000000
,  // measure 12
00010000
00000000
00100000
00000000
00010000
00000000
00100000
00010000
00100000
00000000
00010000
00000000
01000000
00000000
00100000
00000000
,  // measure 13
01100000
00000000
01000000
00000000
00010000
00000000
00100000
00010000
00100000
00000000
00010000
00000000
00100000
00000000
00001000
00000000
,  // measure 14
00010000
00000000
00000100
00000000
00001000
00000000
00000100
00001000
00000100
00000000
00001000
00000000
00000010
00000000
00000100
00000000
,  // measure 15
00000001
00000000
00000010
00000000
00000100
00000000
00000010
00000100
00000010
00000000
00000100
00000000
00001000
00000000
00000001
00000000
,  // measure 16
00000100
00000000
00000010
00000000
00001000
00000000
00000000
00000100
00010000
00000000
00010000
00000000
MMMMMMMM
00000000
00000000
00000000
,  // measure 17
00001000
00010000
00100000
10000000
01000000
00000000
10000000
01000000
,  // measure 18
00100000
01000000
10000000
00000000
00100000
00010000
00001000
00000000
,  // measure 19
00010000
00000100
00001000
00000010
00000100
00000000
00000001
00000010
,  // measure 20
MMMMMMMM
00001100
MMMMMMMM
00110000
,  // measure 21
10000000
01000000
00010000
00100000
01000000
00000000
01000000
00100000
,  // measure 22
10000000
10000000
00010000
00000000
10000000
01000000
00010000
00000000
,  // measure 23
10000000
01000000
00100000
00010000
00001000
00000100
00000010
00000001
,  // measure 24
00000100
00000000
00000001
00000000
00000100
00000100
00000001
00000000
,  // measure 25
00000011
00000000
00000010
00000100
00001000
00000000
00001000
00010000
,  // measure 26
00100000
00010000
00100000
00010000
10000000
00010000
10000000
00000000
,  // measure 27
00100000
00000000
00100000
01000000
00001000
00000000
00001000
00010000
,  // measure 28
00000000
00000100
00000010
00000001
00000100
00000000
00000000
00000000
,  // measure 29
00000001
00000000
00000001
00000010
00000100
00000000
00000100
00001000
,  // measure 30
00010000
00100000
00001000
00010000
00100000
01000000
00010000
00000000
,  // measure 31
10000000
00000000
10000000
01000000
00100000
00000000
00010000
01000000
,  // measure 32
00000000
MMMMMMMM
MMMMMMMM
MMMMMMMM
,  // measure 33
MMMMMMMM
10000000
00100000
10000000
00010000
10000000
01000000
10000000
,  // measure 34
00100000
01000000
00010000
01000000
00100000
01000000
00010000
01000000
,  // measure 35
00001000
00000000
00000000
MMMMMMMM
00000000
00000000
00010000
00000000
00000100
00000000
00000010
00000000
00000100
00000000
00001000
00000000
,  // measure 36
00010000
00000000
00000000
00001000
MMMMMMMM
00000000
00000000
00000000
MMMMMMMM
00000000
00000000
00000000
MMMMMMMM
00000000
00000000
00000000
,  // measure 37
MMMMMMMM
00000000
00001000
00010000
00000100
00000010
00000100
00010000
,  // measure 38
00010000
00000000
00000100
00001000
00010000
00100000
00010000
00001000
,  // measure 39
00000100
00000000
00000000
MMMMMMMM
00000000
00000000
00010000
00000000
00100000
00000000
01000000
00000000
00010000
00000000
00100000
00000000
,  // measure 40
00010000
00000000
10000000
01000000
00100000
00010000
01000000
00000000
,  // measure 41
00100000
10000000
00100000
10000000
00010000
10000000
00010000
10000000
,  // measure 42
00010000
00100000
00010000
00100000
00001000
00100000
00001000
00100000
,  // measure 43
00001000
00010000
00001000
00010000
00000100
00010000
00000100
00010000
,  // measure 44
00000010
00001000
00000010
00001000
00000001
00000010
00000001
00000010
,  // measure 45
00000100
00001000
00000100
00001000
00000100
00010000
00000100
00010000
,  // measure 46
00001000
00010000
00001000
00010000
00001000
00100000
00001000
00100000
,  // measure 47
00010000
01000000
00010000
01000000
00100000
10000000
00100000
10000000
,  // measure 48
01000000
00100000
00010000
01000000
00100000
01000000
01000000
00000000
,  // measure 49
10000000
00000000
10000000
01000000
00100000
00000000
00100000
00010000
,  // measure 50
00001000
00000100
00001000
00000100
00000010
00000100
00000010
00000000
,  // measure 51
00000100
00000000
00000100
00001000
00010000
00000000
00010000
01000000
,  // measure 52
00100000
00010000
00001000
00100000
00010000
10000000
01000000
00000000
,  // measure 53
10000000
00000000
10000000
01000000
00100000
00000000
00100000
00010000
,  // measure 54
01000000
01000000
00100000
00100000
00010000
00010000
00001000
00000000
,  // measure 55
00000100
00000000
00000100
00000010
00001000
00000000
00001000
00000001
,  // measure 56
00000010
00000100
00001000
00010000
01000000
00000000
00000000
00000000
,  // measure 57
10000000
00000000
10000000
00100000
01000000
00000000
01000000
00010000
,  // measure 58
00100000
00001000
00010000
00100000
00010000
00001000
00010000
00000000
,  // measure 59
10000000
00000000
10000000
01000000
00100000
00000000
00100000
00010000
,  // measure 60
00000000
MMMMMMMM
MMMMMMMM
MMMMMMMM
,  // measure 61
MMMMMMMM
10000000
00100000
10000000
00010000
10000000
01000000
10000000
,  // measure 62
00100000
01000000
00010000
01000000
00100000
01000000
00010000
01000000
,  // measure 63
00001000
00000000
00000000
MMMMMMMM
00000000
00000000
00010000
00000000
00000100
00000000
00000010
00000000
00000100
00000000
00001000
00000000
,  // measure 64
00010000
00000000
00000000
00001000
MMMMMMMM
00000000
00000000
00000000
MMMMMMMM
00000000
00000000
00000000
MMMMMMMM
00000000
00000000
00000000
,  // measure 65
MMMMMMMM
00000000
00001000
00010000
00000100
00000010
00000100
00010000
,  // measure 66
MMMMMMMM
00000000
00000100
00001000
00010000
00100000
00010000
00001000
,  // measure 67
MMMMMMMM
00000000
00000110
00000000
MMMMMMMM
00000100
MMMMMMMM
00010000
,  // measure 68
MMMMMMMM
00000000
00000000
00000000
;
