#VERSION:0.83;
#TITLE:Bagpipe;
#SUBTITLE:;
#ARTIST:A-Moe;
#TITLETRANSLIT:;
#SUBTITLETRANSLIT:;
#ARTISTTRANSLIT:;
#GENRE:Ethnic;
#ORIGIN:;
#CREDIT:;
#BANNER:Bagpipe-bn.png;
#BACKGROUND:Bagpipe-bg.png;
#PREVIEWVID:;
#JACKET:Bagpipe-jacket.png;
#CDIMAGE:;
#DISCIMAGE:;
#LYRICSPATH:;
#CDTITLE:;
#MUSIC:Bagpipe.mp3;
#OFFSET:-0.085000;
#SAMPLESTART:56.444996;
#SAMPLELENGTH:15.000000;
#SELECTABLE:YES;
#BPMS:0.000=140.000;
#STOPS:;
#DELAYS:;
#WARPS:;
#TIMESIGNATURES:0.000=4=4;
#TICKCOUNTS:0.000=4;
#COMBOS:0.000=1;
#SPEEDS:0.000=1.000=0.000=0;
#SCROLLS:0.000=1.000;
#FAKES:;
#LABELS:0.000=Song Start;
#BGCHANGES:;
#KEYSOUNDS:;
#ATTACKS:
;

//---------------dance-single - ----------------
#NOTEDATA:;
#CHARTNAME:;
#STEPSTYPE:dance-single;
#DESCRIPTION:;
#CHARTSTYLE:;
#DIFFICULTY:Challenge;
#METER:20;
#RADARVALUES:1.627471,1.521002,1.026176,0.000000,2.956779,1310.000000,1192.000000,118.000000,0.000000,0.000000,0.000000,0.000000,0.000000,0.000000,1.627471,1.521002,1.026176,0.000000,2.956779,1310.000000,1192.000000,118.000000,0.000000,0.000000,0.000000,0.000000,0.000000,0.000000;
#CREDIT:;
#NOTES:
0001
0100
0001
0000
0100
0001
0100
0000
0001
0100
0001
0000
0100
0001
0100
0000
,
0010
1000
0010
0000
1000
0010
1000
0000
0010
1000
0010
0000
1000
0010
1000
0000
,
0001
0100
0010
0000
0100
0010
0100
0000
0010
0100
0010
0000
0100
0010
1000
0000
,
0100
1000
0100
0000
1000
0100
1000
0000
0100
1000
0100
0000
1000
0100
1000
0000
,
0001
0010
0001
0000
0010
0001
0010
0000
0001
0010
0001
0000
0010
0001
0010
0000
,
0100
1000
0100
0000
1000
0100
1000
0000
0100
1000
0100
0000
1000
0100
1000
0000
,
0010
1000
0010
0000
1000
0010
1000
0000
0010
1000
0010
0000
1000
0010
0100
0000
,
0001
0100
0001
0000
1000
0001
1000
0000
0001
0100
1001
0000
0011
0000
1001
0000
,
0110
1010
0000
0000
0000
0010
0000
0010
,
1001
0000
0101
0001
0110
0100
1001
0010
1010
1000
1100
0100
0000
0000
0011
0010
,
0011
0001
1001
1000
1010
0010
0101
0001
0000
0000
0010
0010
0010
0010
0010
0010
,
1001
0000
1010
0010
0101
0100
1010
0010
1001
0100
0101
0001
0000
0000
1001
0001
,
1100
1000
0110
0010
1001
1000
0101
0001
0000
0000
0010
0010
0010
0010
0010
0010
,
0101
1000
1010
0001
0101
0100
0110
0001
0101
1000
1001
0001
1000
0001
1001
0010
,
0110
0100
0101
0001
1001
1000
0110
0010
1000
0100
0010
0010
0010
0010
0010
0010
,
1001
1000
1010
0001
0101
0010
1010
1000
1010
0010
0110
0100
0001
0010
0011
1000
,
1100
0000
1001
0000
1010
0000
0110
0000
0001
1000
1001
0001
1000
0000
1000
0001
,
1001
0100
1010
0010
0110
0100
0101
0001
1001
1000
1010
0010
1000
0100
0110
0010
,
0011
0001
1001
1000
1001
0001
0101
0010
0100
0010
1000
1000
1000
1000
1000
1000
,
0101
0100
1001
0001
0101
0100
0110
0010
1010
1000
1100
0100
1000
0010
1010
1000
,
1001
0001
0011
0010
0011
0001
1001
0100
0101
0010
0001
0001
0001
0001
0001
0001
,
1100
0000
0000
0010
0000
0000
0101
0000
0000
0100
0000
0000
0101
0000
0000
0001
0000
0000
1000
0000
0001
0000
1000
0000
0001
0000
0000
0100
0000
0000
0010
0000
1000
0000
0001
0000
0010
0000
0000
0001
0000
0000
0101
0000
0000
1000
0000
0000
,
1001
0000
0000
0010
0000
0000
0110
0000
0000
1000
0000
0000
1010
0000
0000
0100
0000
0000
0110
0000
0010
0000
1000
0000
0100
0000
0000
0010
0000
0000
0001
0000
1000
0000
0001
0000
0100
0000
0000
0100
0000
0000
0100
0000
0000
0100
0000
0000
,
0101
0000
0000
0010
0000
0000
1010
0000
0000
0100
0000
0000
0101
0000
0000
0001
0000
0000
1001
0000
0010
0000
0100
0000
1000
0000
0000
0010
0000
0000
0110
0000
1000
0000
0001
0000
0100
0000
0000
0010
0000
0000
1010
0000
0000
1000
0000
0000
,
1001
0000
0000
0000
0000
0000
0000
0000
0000
0000
0000
0000
0110
0000
0000
0000
0000
0000
0001
0000
0100
0000
0001
0000
0100
0000
0000
0000
0000
0000
1000
0000
0010
0000
1000
0000
0010
0000
0000
0100
0000
0000
0110
0000
0000
0010
0000
0000
,
1001
0100
0010
1000
0001
0010
0100
1000
0001
1000
0010
0100
0010
0100
0001
1000
0010
1000
0010
0100
0001
0010
0100
1000
,
0001
0100
0010
1000
0010
0100
0001
0010
0001
0100
0010
1000
0010
1000
0001
0100
0010
0100
0010
1000
0001
0010
0100
1000
,
0001
0100
0010
1000
0001
1000
0010
0100
0001
0010
0100
1000
0100
1000
0001
0010
0100
0010
0100
1000
0001
0100
0010
0100
,
0001
0010
0100
1000
0010
1000
0001
0100
0010
1000
0001
0010
0001
0010
0100
1000
0010
1000
0010
0100
0001
0100
0010
1000
,
1001
0001
0010
0100
1000
0100
0010
0001
1000
0010
0100
0001
0010
0100
1000
0100
0010
0001
1000
0010
0100
0010
1000
0001
,
1000
0100
0010
0001
0010
0100
1000
0010
0100
0001
0010
0100
1000
0100
0010
0001
1000
0010
1000
0100
1000
0001
0010
0100
,
1000
0100
0010
0001
1000
0010
0100
0010
1000
0001
0010
0100
1000
0100
0010
0001
0100
0001
0010
0100
1000
0010
0100
0010
,
1000
0100
0010
0001
0010
0100
1000
0100
0010
0001
0010
0100
1000
0001
1000
0001
0100
0010
0110
0000
0000
0000
0000
0000
,
1000
0100
0010
0100
1000
0010
0100
0010
1000
0100
0010
0100
1000
0010
0100
0010
,
1000
0100
0010
0001
0100
0010
0001
0010
0100
0001
0010
0100
0010
0001
0100
0010
,
1000
0100
0010
0001
1000
0001
1000
0010
1000
0001
0100
0010
1000
0001
0100
0010
0100
0010
0100
0001
1000
0001
1000
0001
0100
0010
1000
0001
0100
0010
1000
0001
,
1000
0100
0010
0100
1000
0010
0100
0010
1000
0100
0010
0100
1000
0010
0100
0001
,
0010
0100
1000
0001
0100
0010
1000
0010
0100
0010
0100
0001
0010
0100
1000
0001
,
0100
0010
0100
0010
1000
0001
0100
0010
0100
0001
0010
0001
1000
0100
1000
0001
,
0100
0010
0100
0010
1000
0001
0100
0010
1000
0001
0100
0001
0010
0100
1000
0001
,
0100
0010
1000
0010
1000
0001
0100
0010
0100
0001
1001
0100
0110
1000
1001
0010
,
1010
0100
0101
0001
1000
0001
0010
0100
1000
0001
1000
0010
0100
0001
1000
0010
,
0100
0001
0010
0100
1000
0001
0010
0100
1000
0001
0100
0010
1000
0010
0100
0001
,
1000
0100
0010
0001
1000
0010
1000
0001
0100
0010
1000
0010
0100
0001
0100
0010
1000
0010
0100
0001
0100
0001
1000
0010
1000
0010
0100
0001
0100
0001
1000
0010
,
1000
0100
0010
0100
1000
0010
0100
0001
0100
0010
1000
0001
0100
0001
0100
0001
,
0010
0100
1000
0001
0100
0001
1000
0010
0100
0001
1000
0010
0100
0001
0010
0001
,
1000
0001
0100
0010
1000
0001
0100
0001
0010
0001
1000
0100
1000
0001
1000
0010
,
0100
0001
1000
0001
0010
0001
1000
0100
1000
0001
1000
0010
0100
0001
1000
0010
,
1001
0010
0000
1001
,
0100
0000
0000
0000
0000
0000
0010
0000
0000
0100
0001
0100
0001
0000
0000
1000
0010
1000
0010
0000
0000
0000
0000
0000
,
1001
0010
0100
0001
1000
0100
0010
0001
1000
0001
0100
0010
0100
0010
1000
0001
0100
0001
0100
0010
1000
0100
0010
0001
,
1000
0010
0100
0001
0100
0010
1000
0100
1000
0010
0100
0001
0100
0001
1000
0010
0100
0010
0100
0001
1000
0100
0010
0001
,
1000
0010
0100
0001
1000
0001
0100
0010
1000
0100
0010
0001
0010
0001
1000
0100
0010
0100
0010
0001
1000
0010
0100
0010
,
1000
0100
0010
0001
0100
0001
1000
0010
0100
0001
1000
0100
1000
0100
0010
0001
0100
0001
0100
0010
1000
0010
0100
0001
,
1001
1000
0010
0100
0001
1000
0010
1000
0001
0010
0100
1000
0100
1000
0001
0100
0010
0100
0010
1000
0001
0010
0100
1000
,
0001
0010
0001
0100
0010
1000
0001
1000
0100
0010
0001
0100
0001
0100
0010
1000
0100
1000
0100
0010
0001
1000
0001
0100
,
0010
0100
0001
1000
0010
0100
0010
1000
0010
0100
0001
0010
0001
0010
0100
1000
0001
1000
0001
0100
0010
0100
0010
1000
,
1001
0010
0100
0010
1000
0001
0010
0001
0100
0010
1000
0001
1001
0000
0000
1001
0000
0000
0110
0000
0000
0110
0000
0000
,
1001
0100
0001
0100
0010
1000
0100
0010
0001
1000
0001
0100
1000
0100
0001
0010
0001
1000
1010
0100
0001
0010
0100
1000
,
0010
0100
0001
0010
0001
0100
0010
1000
0100
0010
0001
0010
1000
0010
0001
0100
0010
1000
1001
0100
0001
0100
0010
1000
,
0001
0100
0010
1000
0001
0100
0010
1000
0100
0010
0001
0100
1000
0100
0001
0010
0001
1000
1010
0100
0010
1000
0001
1000
,
0010
0100
0001
0100
0010
1000
0001
1000
0001
0100
0010
1000
0010
0001
0010
0100
0001
1000
1001
0100
0010
0100
0010
1000
,
1001
0001
0100
0010
1000
0001
0010
0100
1000
0001
1000
0010
0001
0010
1000
0100
0010
0001
1001
0100
0001
0010
0100
0010
,
0001
1000
0001
0100
0010
1000
0001
0100
0001
0010
1000
0010
0001
1000
0010
0100
0010
1000
1001
0100
0010
1000
0100
0010
,
0001
1000
0001
0100
0010
1000
0010
0100
0001
1000
0001
0100
1000
0100
0001
0010
0100
1000
1001
0010
0001
0100
1000
0100
,
0001
0010
0001
1000
0010
0100
0010
1000
0100
0010
0001
1000
0001
1000
0001
0100
0010
1000
0110
0001
1000
0100
0010
0001
,
1001
0000
0000
0000
;

//---------------dance-single - ----------------
#NOTEDATA:;
#CHARTNAME:;
#STEPSTYPE:dance-single;
#DESCRIPTION:;
#CHARTSTYLE:;
#DIFFICULTY:Beginner;
#METER:3;
#RADARVALUES:0.209956,0.258283,0.017393,0.069571,0.000000,169.000000,167.000000,2.000000,8.000000,0.000000,0.000000,0.000000,0.000000,0.000000,0.209956,0.258283,0.017393,0.069571,0.000000,169.000000,167.000000,2.000000,8.000000,0.000000,0.000000,0.000000,0.000000,0.000000;
#CREDIT:;
#NOTES:
0000
0000
0000
0000
,
0000
0000
0000
0000
,
0000
0000
0000
0000
,
0000
0000
0000
0000
,
2000
0000
0000
3000
,
0002
0000
0000
0003
,
0200
0000
0000
0300
,
0020
0000
0030
0000
,
1001
0000
0000
0000
,
0100
0100
0010
0010
,
0100
0100
0000
0000
,
0001
0001
1000
1000
,
0001
0001
0000
0000
,
0100
0010
1000
0010
,
0100
0010
0000
0000
,
0100
0001
0100
0010
,
0100
0001
0000
0000
,
1000
0100
0010
0001
,
1000
0010
0100
0000
,
0001
0010
0100
1000
,
0010
0100
0001
0000
,
1000
0001
0100
0001
,
1000
0100
1000
0000
,
0001
0010
0001
1000
,
0010
0000
0100
0000
,
0001
0010
0100
0000
,
1000
0100
0010
0000
,
0001
1000
0001
0000
,
0100
0010
0100
0000
,
0001
1000
0100
0000
,
1000
0010
0100
0000
,
0001
0010
0100
0000
,
1000
0001
1000
0000
,
0020
0000
0030
0000
,
0200
0000
0300
0000
,
0002
0000
1000
0000
,
1003
0000
1000
0000
,
0010
0000
0100
0000
,
0010
0000
1000
0000
,
0001
0000
1000
0000
,
0001
0000
0100
0000
,
0010
0000
1000
0000
,
0010
0000
0100
0000
,
0002
0000
0100
0000
,
0103
0000
0001
0000
,
1000
0000
0010
0000
,
0001
0000
1000
0000
,
0001
0000
0010
0000
,
1001
0000
0000
0000
,
0010
0000
0000
0000
,
1000
0000
0100
0010
,
0001
0000
1000
0010
,
0100
0000
0001
0010
,
0100
0000
1000
0010
,
1000
0000
0001
0100
,
0010
0000
0100
0010
,
1000
0000
1000
0010
,
0100
0001
0000
1000
,
0001
0010
0001
0010
,
0100
1000
0100
1000
,
0001
1000
0001
1000
,
0010
0100
0010
0100
,
0001
0010
0100
1000
,
1000
0100
0010
0001
,
0001
1000
0010
0100
,
0001
1000
0010
0100
,
0001
0000
0000
0000
;

//---------------dance-single - ----------------
#NOTEDATA:;
#CHARTNAME:;
#STEPSTYPE:dance-single;
#DESCRIPTION:;
#CHARTSTYLE:;
#DIFFICULTY:Easy;
#METER:8;
#RADARVALUES:0.386369,0.516567,0.600052,0.069571,0.000000,311.000000,242.000000,69.000000,8.000000,0.000000,0.000000,0.000000,0.000000,0.000000,0.386369,0.516567,0.600052,0.069571,0.000000,311.000000,242.000000,69.000000,8.000000,0.000000,0.000000,0.000000,0.000000,0.000000;
#CREDIT:;
#NOTES:
0000
0000
0000
0000
,
0000
0000
0000
0000
,
0000
0000
0000
0000
,
0000
0000
0000
0000
,
2000
0000
0000
0000
,
3020
0000
0000
0000
,
0230
0000
0000
0000
,
0302
0000
0000
0003
,
1001
0000
0000
0000
,
0001
1000
0010
0100
,
0001
1000
1001
1001
,
0010
0100
0001
0100
,
0010
1000
0011
0011
,
1000
1001
0001
0101
,
1000
1100
1001
1001
,
0100
0110
0010
1010
,
1001
0100
0000
0100
,
0001
0011
1001
1000
,
1100
1001
0100
0110
,
0010
1010
1100
1000
,
0011
0101
0100
0010
,
1000
1001
0110
0001
,
0011
1100
1000
0001
,
0010
0101
1010
0100
,
1001
0010
0000
0010
,
1000
0000
0100
0000
0010
0001
0100
0000
,
0010
0000
1000
0000
0010
0100
0001
0000
,
1000
0000
0001
0000
0010
0100
1000
0000
,
0001
0000
1000
0000
0010
0100
0001
0000
,
0010
1001
0100
1001
,
0010
0101
0010
1100
,
0010
1001
0100
1001
,
1000
1001
0001
0110
,
1002
0010
0100
1000
,
2003
0100
0010
0001
,
3002
0010
0100
1000
,
0103
0010
1000
0010
,
0100
0001
1000
0010
,
0100
0001
0100
0010
,
1000
0001
0100
0010
,
0100
0001
1000
0010
,
1000
0100
0010
0001
,
0100
0010
1000
0100
,
0020
0001
0100
1000
,
0031
0100
0001
1000
,
0100
1000
0001
0100
,
0010
1000
0001
0010
,
0100
0000
1000
0000
0001
0000
1000
0100
,
0010
0001
0000
0001
,
1001
0000
0000
0000
,
1000
0000
0001
0000
0010
0100
1000
0000
,
0001
0000
1000
0000
0100
0010
0001
0000
,
0100
0000
0010
0000
1000
0001
0100
0000
,
0001
0000
1000
0000
0100
0010
0001
0000
,
1001
0000
1000
0000
0100
0010
0001
0000
,
0100
0000
0010
0000
0100
0001
0010
0000
,
0100
0000
1000
0000
0010
1000
0100
0000
,
0011
0000
1000
0000
0010
0100
0010
0100
,
0001
0011
1000
1100
,
1010
1001
0001
0101
,
0110
1010
0100
1100
,
1001
0011
0001
0101
,
1100
0011
1001
1100
,
1010
0101
0011
0101
,
1010
1100
0110
0011
,
1001
1010
1001
0011
,
0110
0000
0000
0000
;

//---------------dance-single - ----------------
#NOTEDATA:;
#CHARTNAME:;
#STEPSTYPE:dance-single;
#DESCRIPTION:;
#CHARTSTYLE:;
#DIFFICULTY:Medium;
#METER:11;
#RADARVALUES:0.554085,0.573963,0.565267,0.052178,0.004348,446.000000,381.000000,65.000000,6.000000,0.000000,0.000000,0.000000,0.000000,0.000000,0.554085,0.573963,0.565267,0.052178,0.004348,446.000000,381.000000,65.000000,6.000000,0.000000,0.000000,0.000000,0.000000,0.000000;
#CREDIT:;
#NOTES:
0000
0000
0000
0000
,
0000
0000
0000
0000
,
0000
0000
0000
0000
,
0000
0000
0000
0000
,
2000
0000
0000
0010
,
3020
0000
0000
0100
,
0230
0000
0000
0000
0000
0000
0301
0010
,
0200
0000
0000
0000
0000
1300
0010
1000
,
0001
1001
0000
0000
0000
0100
0000
0000
,
0000
0001
0010
0100
1000
0010
0000
1000
,
0100
0010
0001
0100
0000
0100
0000
0100
,
0000
0010
0100
0001
1000
0010
0000
0100
,
0010
1000
0001
0010
0000
0010
0000
0010
,
1001
0000
1010
0001
0100
0000
1001
0100
,
1000
0000
0110
0010
0100
0001
0000
0001
,
1000
0000
1010
0010
0100
0000
0011
0001
,
1000
0000
0110
0000
0000
0100
0010
0100
,
0001
1000
0100
0010
0100
1000
0000
0001
,
0100
0010
1000
0100
0000
0010
0000
0010
,
0001
1000
0100
0010
0001
1000
0000
1000
,
0010
0100
0001
0010
0000
0001
0000
0001
,
0100
0010
1000
0001
1000
0100
0000
1000
,
0010
0100
0001
0100
0000
0010
0000
0010
,
0000
1000
0001
0010
0001
1000
0000
0010
,
0101
0000
0000
0000
1010
0000
0010
0000
0000
0000
0010
0000
0100
0000
0000
0001
,
1000
0100
0010
0001
1000
0010
0100
0001
,
1000
0010
1000
0100
0010
0100
1000
0010
,
0100
0001
0010
0100
1000
0001
1000
0100
,
0010
0001
0100
0010
1000
0010
0100
0001
,
0011
1001
1100
0101
,
1010
0101
0011
0110
,
1100
1010
0101
1001
,
0011
1001
1100
1001
,
0010
1000
0100
1000
0010
1000
0100
1000
,
0010
0100
0001
0100
0010
0100
0001
0010
,
0200
0010
1000
0000
0010
0000
0001
0000
,
1300
0010
0100
0001
0100
0010
1000
0010
,
0100
0001
0010
0100
1000
0001
0100
0010
,
0100
0001
1000
0100
0010
0100
1000
0001
,
0100
0010
1000
0010
0100
0001
0010
0100
,
1000
0001
0100
0010
1000
0100
0100
0010
,
1001
0001
0010
0001
1000
0100
1000
0001
,
0010
0001
1000
0001
0010
0100
1000
0100
,
0020
0001
0100
0000
1000
0000
0100
0000
,
0031
0100
0010
1000
0010
0100
0010
1000
,
0001
0100
0001
0010
0100
1000
0100
0010
,
0001
1000
0001
0100
0010
1000
0010
0100
,
0001
1000
0100
1000
0010
0100
0001
1000
,
0010
0100
0000
0100
,
1001
0000
0000
0000
,
1001
0100
0010
1000
0100
0010
0100
1000
,
0001
0010
0100
1000
0001
0100
0001
1000
,
0100
0010
0001
0100
0010
1000
0010
0100
,
0001
1000
0100
0010
0001
1000
0001
0100
,
1010
0100
0001
1000
0100
0010
0100
1000
,
0001
0100
0010
1000
0001
0010
0001
0100
,
0010
1000
0100
0010
0100
1000
0010
0100
,
1001
0000
0110
0000
0001
0001
1000
1000
,
0101
0000
1100
0000
0011
0001
1001
0000
,
1100
0000
1010
0000
0101
0100
0110
0000
,
1010
0000
1100
0000
0110
0010
0011
0000
,
1001
0000
1010
0000
0110
0010
0101
0000
,
1001
0000
1100
0000
0011
0100
1010
0000
,
0101
0000
1010
0000
0101
0010
1001
0000
,
1100
0000
1010
0000
1100
0001
0110
0000
,
1001
0000
0110
0000
0011
0100
1001
0000
,
1001
0000
0000
0000
;

//---------------dance-single - ----------------
#NOTEDATA:;
#CHARTNAME:;
#STEPSTYPE:dance-single;
#DESCRIPTION:;
#CHARTSTYLE:;
#DIFFICULTY:Hard;
#METER:17;
#RADARVALUES:1.034873,1.061832,0.800070,0.069571,1.252283,833.000000,741.000000,92.000000,8.000000,0.000000,0.000000,0.000000,0.000000,0.000000,1.034873,1.061832,0.800070,0.069571,1.252283,833.000000,741.000000,92.000000,8.000000,0.000000,0.000000,0.000000,0.000000,0.000000;
#CREDIT:;
#NOTES:
2000
0000
0000
0000
,
3020
0000
0000
0100
,
2030
0000
0000
0000
0000
0000
3100
0020
,
0000
0000
0030
0000
,
0002
0000
0000
0100
,
2003
0000
0000
0010
,
3200
0000
0000
0000
0000
0000
1300
0100
,
0020
0000
0000
0000
0000
0001
0100
0001
,
0031
0001
0000
0000
0000
0001
0000
0000
,
0100
0001
1001
1010
1100
1010
0000
0100
,
0101
0011
1001
1001
0000
0100
0000
0100
,
0000
1000
0101
0011
1001
1100
0000
0001
,
1010
0101
0011
1100
0000
0010
0000
0010
,
0100
0101
1001
1010
1100
0110
0000
0011
,
0101
1010
1100
1001
0000
0100
0000
0100
,
0000
0011
1001
1010
1100
1001
0000
0110
,
0101
0011
1001
1001
0000
0100
0000
0100
,
0001
0011
1001
1010
1100
0101
0001
0011
,
1100
1010
0101
0011
1000
0100
1000
0100
,
0010
0110
1100
1010
0101
0011
0100
1100
,
1010
0101
1001
0011
0100
1000
0010
1000
,
1001
0011
0101
1010
1100
1010
0100
0011
,
1001
1100
1001
0110
0001
0100
0010
0100
,
0010
1001
0011
1100
1010
0101
0010
0110
,
1100
0000
1010
0000
0101
0000
0110
0000
0000
0000
0010
0000
0100
0000
0000
0010
,
0100
0000
0000
0001
0000
0000
1000
0000
0000
0010
0000
0000
1000
0000
0000
0100
0000
0000
0010
0000
0001
0000
0010
0000
0001
0000
0000
0100
0000
0000
0010
0000
1000
0000
0010
0000
1000
0000
0000
0100
0000
0000
0010
0000
0000
0001
0000
0000
,
0100
0000
0000
0010
0000
0000
1000
0000
0000
0001
0000
0000
0100
0000
0000
0010
0000
0000
1000
0000
0100
0000
1000
0000
0100
0000
0000
0010
0000
0000
0001
0000
0100
0000
0001
0000
0100
0000
0000
0010
0000
0000
0100
0000
0000
0001
0000
0000
,
0010
0000
0000
0100
0000
0000
1000
0000
0000
0001
0000
0000
0100
0000
0000
0010
0000
0000
1000
0000
0100
0000
1000
0000
0100
0000
0000
0010
0000
0000
0001
0000
0100
0000
0001
0000
0100
0000
0000
0010
0000
0000
1000
0000
0000
0100
0000
0000
,
1000
0000
0000
0010
0000
0000
0100
0000
0000
0001
0000
0000
0010
0000
0000
0001
0000
0000
0100
0000
0010
0000
0100
0000
0010
0000
0000
1000
0000
0000
0001
0000
0100
0000
0001
0000
0100
0000
0000
0010
0000
0000
1000
0000
0000
0100
0000
0000
,
1000
0000
0000
0010
0000
0000
0100
0000
0000
0001
0000
0000
1000
0000
0000
0001
0000
0000
0010
0000
0001
0000
1000
0000
0100
0000
0000
0010
0000
0000
0001
0000
0010
0000
0100
0000
1000
0000
0000
0001
0000
0000
0010
0000
0000
0001
0000
0000
,
1000
0000
0000
0100
0000
0000
1000
0000
0000
0001
0000
0000
0010
0000
0000
0100
0000
0000
1000
0000
0100
0000
0010
0000
0001
0000
0000
0010
0000
0000
0100
0000
1000
0000
0100
0000
0010
0000
0000
0001
0000
0000
1000
0000
0000
0100
0000
0000
,
1000
0000
0000
0001
0000
0000
0100
0000
0000
0010
0000
0000
1000
0000
0000
0010
0000
0000
0100
0000
0010
0000
1000
0000
0010
0000
0000
0100
0000
0000
0001
0000
0010
0000
0001
0000
0100
0000
0000
0001
0000
0000
0100
0000
0000
0010
0000
0000
,
1000
0000
0000
0100
0000
0000
0010
0000
0000
0001
0000
0000
1000
0000
0000
0010
0000
0000
0100
0000
0010
0000
1000
0000
0001
0000
0000
0100
0000
0000
0001
0000
0010
0000
0100
0000
1000
0000
0000
0000
0000
0000
0000
0000
0000
0000
0000
0000
,
1000
0010
1000
0000
0001
0100
0001
0000
1000
0100
1000
0000
0001
1000
0001
0000
,
0010
0001
0010
0000
0100
1000
0100
0000
0010
0001
0010
0000
0100
1000
0001
0000
,
1000
0100
0010
0001
0100
0010
1000
0100
0010
0001
0100
0010
1000
0100
0010
0001
,
0100
0010
1000
0000
0010
0100
0010
0000
0100
0001
0100
0000
0001
1000
0001
0000
,
0010
0001
1000
0000
0100
1000
0001
0000
1000
0010
1000
0000
0001
0100
0001
0000
,
0010
0001
1000
0000
0001
1000
0001
0000
1000
0100
1000
0000
0001
0100
0001
0000
,
0100
0010
1000
0000
0010
1000
0010
0000
0100
0001
0100
0000
0001
1000
0001
0000
,
0010
0100
0010
0000
0100
1000
0100
0000
1000
0000
1010
0000
0101
0000
0011
0000
,
0001
1000
0001
0000
1000
0010
1000
0000
0001
0100
0001
0000
0010
0001
0010
0000
,
0100
1000
0001
0000
1000
0001
1000
0000
0010
0100
0010
0000
0100
0001
0100
0000
,
0001
0010
0100
1000
0010
0100
0001
0010
0100
1000
0001
0100
0010
1000
0100
0010
,
0001
0100
0010
0000
1000
0001
1000
0000
0001
0100
0010
0000
1000
0001
1000
0000
,
0001
0010
0001
0000
1000
0100
1000
0000
0001
0010
0001
0000
1000
0010
0100
0000
,
0001
1000
0001
0000
0100
0010
0100
0000
0001
0100
0001
0000
1000
0010
1000
0000
,
0001
0100
0001
0000
0010
0100
1000
0000
0001
1000
0001
0000
0100
0010
0100
0000
,
1001
0010
0000
0110
,
1000
0000
0000
0000
0000
0000
0001
0000
0000
0100
0010
0100
0010
0000
0000
1000
0001
1000
0001
0000
0000
0000
0000
0000
,
0100
0000
0000
0001
0000
0000
1000
0000
0000
0010
0000
0000
1000
0000
0000
0100
0000
0000
0010
0000
0001
0000
0010
0000
0001
0000
0000
0100
0000
0000
0010
0000
1000
0000
0010
0000
1000
0000
0000
0100
0000
0000
0010
0000
0000
0001
0000
0000
,
0100
0000
0000
0010
0000
0000
1000
0000
0000
0001
0000
0000
0100
0000
0000
0010
0000
0000
1000
0000
0100
0000
1000
0000
0100
0000
0000
0010
0000
0000
0001
0000
0100
0000
0001
0000
0100
0000
0000
0010
0000
0000
0100
0000
0000
0001
0000
0000
,
0010
0000
0000
0100
0000
0000
1000
0000
0000
0001
0000
0000
0100
0000
0000
0010
0000
0000
1000
0000
0100
0000
1000
0000
0100
0000
0000
0010
0000
0000
0001
0000
0100
0000
0001
0000
0100
0000
0000
0010
0000
0000
1000
0000
0000
0100
0000
0000
,
1000
0000
0000
0010
0000
0000
0100
0000
0000
0001
0000
0000
0010
0000
0000
0001
0000
0000
0100
0000
0010
0000
0100
0000
0010
0000
0000
1000
0000
0000
0001
0000
0100
0000
0001
0000
0100
0000
0000
0010
0000
0000
1000
0000
0000
0100
0000
0000
,
1000
0000
0000
0010
0000
0000
0100
0000
0000
0001
0000
0000
1000
0000
0000
0001
0000
0000
0010
0000
0001
0000
1000
0000
0100
0000
0000
0010
0000
0000
0001
0000
0010
0000
0100
0000
1000
0000
0000
0001
0000
0000
0010
0000
0000
0001
0000
0000
,
1000
0000
0000
0100
0000
0000
1000
0000
0000
0001
0000
0000
0010
0000
0000
0100
0000
0000
1000
0000
0100
0000
0010
0000
0001
0000
0000
0010
0000
0000
0100
0000
1000
0000
0100
0000
0010
0000
0000
0001
0000
0000
1000
0000
0000
0100
0000
0000
,
1000
0000
0000
0001
0000
0000
0100
0000
0000
0010
0000
0000
1000
0000
0000
0010
0000
0000
0100
0000
0010
0000
1000
0000
0010
0000
0000
0100
0000
0000
0001
0000
0010
0000
0001
0000
0100
0000
0000
0001
0000
0000
0100
0000
0000
0010
0000
0000
,
1000
0000
0000
0100
0000
0000
0010
0000
0000
0001
0000
0000
1000
0000
0000
0010
0000
0000
0100
0000
0010
0000
1000
0000
0001
0000
0000
0000
0000
0000
0001
0000
0000
0000
0000
0000
0001
0000
0000
0000
0000
0000
0001
0000
0000
0000
0000
0000
,
1001
0010
0100
0001
1000
0010
0100
0001
0010
0001
1000
0100
1000
0001
0010
0001
,
1001
0100
0010
1000
0100
0010
0001
1000
0010
0100
0001
0100
0010
1000
0100
1000
,
1001
0010
1000
0001
0100
0010
1000
0100
0010
0100
0010
0001
1000
0010
1000
0010
,
0110
1000
0010
0100
0001
0010
0100
1000
0001
1000
0010
0100
0001
0100
0010
1000
,
1001
0100
1000
0001
0010
0100
1000
0001
0100
0010
1000
0001
0100
0010
1000
0001
,
1001
0100
0001
1000
0001
0100
0010
1000
0001
0100
0010
0100
0001
1000
0010
0100
,
0110
0001
0100
0001
0010
0100
1000
0001
0100
0010
1000
0001
1000
0001
0010
0001
,
0011
0100
1000
0001
1000
0010
0100
0001
1000
0100
0010
0001
1001
0100
0010
1000
,
1001
0000
0000
0000
;

//---------------dance-double - ----------------
#NOTEDATA:;
#CHARTNAME:;
#STEPSTYPE:dance-double;
#DESCRIPTION:;
#CHARTSTYLE:;
#DIFFICULTY:Easy;
#METER:8;
#RADARVALUES:0.349099,0.373076,0.226107,0.052178,0.000000,281.000000,255.000000,26.000000,6.000000,0.000000,0.000000,0.000000,0.000000,0.000000,0.349099,0.373076,0.226107,0.052178,0.000000,281.000000,255.000000,26.000000,6.000000,0.000000,0.000000,0.000000,0.000000,0.000000;
#CREDIT:;
#NOTES:
00000000
00000000
00000000
00000000
,
00000000
00000000
00000000
00000000
,
00000000
00000000
00000000
00000000
,
00000000
00000000
00000000
00000000
,
00002000
00000000
00000000
00000000
,
00023000
00000000
00000000
00000000
,
00032000
00000000
00000000
00000000
,
00020000
00000000
00000000
00033000
,
00011000
00000000
00000000
00000000
,
00001000
00100000
00001000
00100000
,
00010000
01000000
00010000
00010000
,
10000000
00100000
10000000
00100000
,
01000000
00010000
00100000
00100000
,
00001000
00011000
00010000
00010100
,
00000100
00001100
00000010
00000001
,
00000100
00000110
00000010
00001010
,
00001001
00000000
00000000
00000100
00000000
00000010
00000100
00000000
,
00000001
00000011
00000010
00000110
,
00000100
00001100
00001000
00010000
,
01000000
01100000
00100000
00110000
,
00010000
00011000
00000100
00000010
,
00000001
00000101
00001000
00001100
,
00010000
00011000
00001000
00100000
,
01000000
10010000
00100000
10010000
,
01100000
00000000
00000000
00100000
00000000
01000000
00100000
00000000
,
10000000
00000000
01000000
00000000
00100000
00010000
00100000
00000000
,
00001000
00000000
00010000
00000000
00001000
00010000
00000100
00000000
,
00000010
00000000
00000100
00000000
00000010
00000001
00000010
00000000
,
00000001
00000000
00000100
00000000
00000001
00000100
00000001
00000000
,
00001000
00000000
00000100
00000000
00001000
00000100
00010000
00000000
,
00001000
00000000
00010000
00000000
00001000
00100000
00010000
00000000
,
01000000
00000000
00010000
00000000
00100000
00010000
10000000
00000000
,
01000000
00000000
10000000
00000000
00100000
01000000
00100000
00000000
,
10000000
01000000
00100000
00010000
,
00010000
00100000
01000000
10000000
,
00200000
01000000
01000000
01000000
,
01300000
00010000
00001000
00000010
,
00000100
00000001
00000100
00000001
,
00000010
00000100
00001000
00000100
,
00000010
00000001
00000100
00001000
,
00010000
00001000
00000000
00011000
,
00001000
00100000
01000000
10000000
,
00100000
10000000
01000000
00100000
,
00002000
00010000
00100000
00010000
,
00013000
00000100
00000010
00000001
,
00000001
00000100
00001000
00010000
,
00001000
00010000
00100000
01000000
,
00010000
10000000
00010000
00100000
,
01000000
10010000
00000000
01100000
,
10010000
00000000
00000000
00000000
,
10000000
00000000
01000000
00000000
00100000
00010000
00100000
00000000
,
00001000
00000000
00010000
00000000
00001000
00010000
00000100
00000000
,
00000010
00000000
00000100
00000000
00000010
00000001
00000010
00000000
,
00000001
00000000
00000100
00000000
00000001
00000100
00000001
00000000
,
00001001
00000000
00000100
00000000
00001000
00000100
00010000
00000000
,
00001000
00000000
00010000
00000000
00001000
00100000
00010000
00000000
,
01000000
00000000
00010000
00000000
00100000
00010000
10000000
00000000
,
01100000
00000000
00010000
00000000
01000000
01000000
00100000
00100000
,
10000000
00000000
00100000
00000000
01000000
00010000
00100000
00000000
,
00001000
00000000
00010000
00000000
00000100
00001000
00000010
00000000
,
00000100
00000000
00000001
00000000
00001000
00000001
00000010
00000000
,
00000100
00000000
00010000
00000000
00001000
00010000
00100000
00000000
,
10000000
00000000
01000000
00000000
10000000
00100000
01000000
00000000
,
00010000
00000000
00100000
00000000
00010000
00001000
00000100
00000000
,
00001000
00000000
00000010
00000000
00000100
00000001
00000010
00000000
,
00000100
00001000
00000010
00000000
00001000
00010000
01000000
00000000
,
10010000
00000000
00000000
00000000
;

//---------------dance-double - ----------------
#NOTEDATA:;
#CHARTNAME:;
#STEPSTYPE:dance-double;
#DESCRIPTION:;
#CHARTSTYLE:;
#DIFFICULTY:Medium;
#METER:12;
#RADARVALUES:0.499422,0.516567,0.434820,0.069571,0.008696,402.000000,352.000000,50.000000,8.000000,0.000000,0.000000,0.000000,0.000000,0.000000,0.499422,0.516567,0.434820,0.069571,0.008696,402.000000,352.000000,50.000000,8.000000,0.000000,0.000000,0.000000,0.000000,0.000000;
#CREDIT:;
#NOTES:
00000000
00000000
00000000
00000000
,
00000000
00000000
00000000
00000000
,
00000000
00000000
00000000
00000000
,
00000000
00000000
00000000
00000000
,
00002000
00000000
00000000
00010000
,
00023000
00000000
00000000
00100000
,
00230000
00000000
00000000
00000000
00000000
00000000
10300000
01000000
,
00200000
00000000
00000000
00000000
00000000
00310000
01000000
00010000
,
10010000
10000000
00000000
00000000
00000000
01000000
00000000
01000000
,
00000000
00100000
10000000
01000000
00100000
00010000
00000000
10000000
,
01000000
00100000
00010000
01000000
00000000
00001000
00000000
00001000
,
00000000
00010000
00000100
00001000
00000010
00000100
00000000
00001000
,
00000100
00000010
00000001
00000100
00000000
00000010
00000000
00000010
,
00001000
00000000
00000011
00000000
00000001
00000010
00001000
00000000
,
00010000
00000000
00011000
00000000
00001000
00100000
01000000
10000000
,
00100000
00000000
01100000
00000000
01000000
00010000
00100000
00000000
,
00110000
00000000
00000000
00000000
00010000
00000000
10000000
00000000
00000000
00000000
10000000
00000000
00100000
00000000
00000000
00100000
,
10000000
01000000
00100000
00010000
00001000
00000100
00000000
00000100
,
00001000
00010000
00100000
01000000
00000000
10000000
00000000
10000000
,
00000000
00100000
00010000
00001000
00000100
00000010
00000000
00000010
,
00000100
00001000
00010000
00100000
00000000
01000000
00000000
01000000
,
00000000
00100000
10000000
01000000
00100000
00010000
00000000
00001000
,
00000100
00000010
00000001
00000100
00000000
00000010
00000000
00000010
,
00000000
00000100
00000001
00000010
00001000
00010000
00000000
00100000
,
10000000
00000000
01000000
00000000
00100000
00000000
00010000
00000000
00000000
00000000
01000000
00000000
01100000
00000000
00000000
00010000
,
10000000
00000000
11000000
00100000
00010000
00001000
00000100
00000000
,
00000010
00000000
00000101
00001000
00010000
00100000
01000000
00000000
,
10000000
00000000
10100000
01000000
00010000
00001000
00000100
00000000
,
00000010
00000000
00000101
00000010
00001000
00010000
00100000
00000000
,
11000000
01100000
00110000
00011000
,
00010100
00010010
00001010
00000101
,
00000110
00001100
00010100
00011000
,
00101000
00011000
00010100
00011000
,
00200000
00010000
01000000
10000000
,
00320000
00001000
00100000
10000000
,
01030000
00100000
10000000
01000000
00100000
00010000
10000000
00100000
,
00020000
00001000
00000100
00031000
,
00001000
00010000
00000100
00000000
00001000
00000100
00000010
00000000
,
00000001
00000100
00001000
00000000
00010000
00000100
00000010
00000000
,
00000100
00000010
00000100
00000000
00010000
00001000
00010000
00000000
,
00100000
01000000
00100000
00000000
00000000
10000000
10000000
00010000
,
10000000
01000000
00100000
00010000
00001000
00000100
00010000
00001000
,
00010000
00000100
00000010
00000001
00000100
00001000
00010000
00000100
,
00002000
00000100
00010000
00000010
,
00003100
00001000
00010000
00100000
00010000
00001000
00000010
00000100
,
00000001
00000010
00000100
00001000
00000010
00000100
00000010
00010000
,
00001000
00100000
00001000
00010000
00001000
00100000
00001000
00010000
,
00100000
10000000
01000000
00010000
00001000
00000100
00000001
00001000
,
00001001
00000010
00000000
00000110
,
00001001
00000000
00000000
00000000
,
00000001
00000000
00000011
00000100
00001000
00010000
00100000
00000000
,
01000000
00000000
10100000
00010000
00001000
00000100
00000010
00000000
,
00000001
00000000
00000101
00000010
00001000
00010000
00100000
00000000
,
01000000
00000000
10100000
01000000
00010000
00001000
00000100
00000000
,
00000011
00000000
00000110
00000000
00001000
00000100
00010000
00000000
,
00011000
00000000
00001100
00000000
00010000
00100000
01000000
00000000
,
11000000
00000000
01010000
00000000
10000000
00100000
00010000
00000000
,
00011000
00000000
00110000
00000000
00001000
01000000
00001000
01000000
,
00100000
01000000
00100000
10000000
01000000
00100000
00110000
00000000
,
00001000
00010000
00001000
00010000
00000100
00000010
00000110
00000000
,
00001000
00000100
00000010
00000100
00010000
00001000
00011000
00000000
,
01000000
00100000
01100000
00000000
00100000
01000000
10010000
00000000
,
00010000
00100000
01000000
10000000
00100000
01000000
01010000
00000000
,
00001000
00010000
00100000
00010000
00001000
00010000
00010100
00000000
,
00010000
00001000
00000010
00001000
00010000
00001000
00011000
00000000
,
00000100
00000010
00001000
00010000
01000000
00010000
00001000
00000000
,
00011000
00000000
00000000
00000000
;

//---------------dance-double - ----------------
#NOTEDATA:;
#CHARTNAME:;
#STEPSTYPE:dance-double;
#DESCRIPTION:;
#CHARTSTYLE:;
#DIFFICULTY:Hard;
#METER:17;
#RADARVALUES:0.882064,0.975737,0.695713,0.069571,0.752239,710.000000,630.000000,80.000000,8.000000,0.000000,0.000000,0.000000,0.000000,0.000000,0.882064,0.975737,0.695713,0.069571,0.752239,710.000000,630.000000,80.000000,8.000000,0.000000,0.000000,0.000000,0.000000,0.000000;
#CREDIT:;
#NOTES:
00012000
00010000
00000000
00010000
,
00203000
00010000
00000000
00010000
,
02300000
10000000
00000000
10000000
,
23000000
00100000
00000000
00100000
,
30020000
00100000
00000000
00100000
,
02030000
00100000
00000000
00100000
,
03002000
00000000
00010000
00000000
00000000
00000000
00013000
00000100
,
00000020
00000000
00000001
00000000
00000000
00000001
00000100
00000130
,
00010100
00010000
00000000
00000000
00000000
00000100
00000000
00000100
,
00000000
00001100
00000010
00000100
00001000
00000100
00000000
00011000
,
00100000
00010000
00001000
00010000
00000000
10100000
00000000
10100000
,
00000000
00110000
00100000
00010000
00001000
00010000
00000000
00010100
,
00010000
00100000
00010000
00001000
00000000
00011000
00000000
00011000
,
00000100
00000010
00000011
00000100
00001000
00010000
00110000
00000000
,
10000000
00100000
10100000
10000000
01000000
00100000
00110000
00000000
,
00001000
00010000
00011000
00000010
00010000
00000010
00001010
00000100
,
00000011
00000000
00000000
00000000
00001001
00000000
00001001
00000000
00000000
00000000
00000110
00000000
00000110
00000000
00000001
00000010
,
00000100
00001100
00011000
00110000
01100000
11000000
00000000
11000000
,
01100000
00110000
00011000
00001100
00000000
00000010
00000000
00000010
,
00000000
00000011
00000110
00001100
00011000
00110000
00000000
00110000
,
00011000
00001100
00000110
00000011
00000000
00000100
00000000
00000100
,
00000001
00000000
00000010
00000000
00001000
00000000
00010000
00100000
10000000
00000000
01000000
00100000
00010000
00000000
01000000
00000000
,
00100000
00000000
00010000
00000000
00001000
00000000
00000100
00000001
00000010
00000000
00000001
00000100
00001000
00000000
00000100
00000000
,
00000001
00000000
00000010
00000000
00001000
00000000
00010000
01000000
10000000
00000000
00010000
00100000
00001000
00000000
01000000
00000000
,
01010000
00000000
00000000
00000000
10100000
00000000
11000000
00000000
00000000
00000000
01100000
00000000
00110000
00000000
00010000
10000000
,
00100000
00000000
00000000
01000000
00000000
00000000
00010000
00000000
00000000
00100000
00010000
00100000
00010000
00000000
00000000
01000000
00100000
01000000
00100000
00000000
00000000
00010000
00000000
00000000
,
00000010
00000000
00000000
00000100
00000000
00000000
00000010
00000000
00000000
00001000
00000001
00001000
00000001
00000000
00000000
00000010
00000100
00000010
00000100
00000000
00000000
00001000
00000000
00000000
,
01000000
00000000
00000000
00100000
00000000
00000000
00010000
00000000
00000000
10000000
00100000
01000000
00100000
00000000
00000000
01000000
00010000
01000000
00100000
00000000
00000000
00001000
00000000
00000000
,
00000010
00000000
00000000
00000100
00000000
00000000
00000010
00000000
00000000
00001000
00000100
00000010
00000001
00000000
00000000
00000100
00000010
00001000
00000001
00000000
00000000
00000010
00000000
00000000
,
00000110
00001000
00011000
01000000
01100000
10000000
01010000
00010000
,
11000000
00100000
00110000
00000100
00001100
00001000
00001001
00000010
,
00000110
00001000
00011000
00100000
00110000
00010000
10010000
01000000
,
00110000
00000000
00000000
00000000
00000000
00000000
00001000
00000000
00000000
00010000
00000100
00001000
00010000
00000000
00000000
00001000
00000100
00010000
00000100
00000000
00000000
00000000
00000000
00000000
,
00000001
00000010
00000001
00000000
00000100
00000010
00000100
00000000
00001000
00010000
00001000
00000000
01000000
00010000
01000000
00000000
,
00100000
10000000
00100000
00000000
10000000
01000000
10000000
00000000
00100000
00010000
00100000
00000000
00010000
00001000
00010000
00000000
,
00000100
00001000
00010000
00100000
00010000
00001000
00000100
00001000
00010000
00100000
00010000
00001000
00000100
00001000
00010000
00100000
,
00001000
00010000
00001000
00000000
01000000
00010000
01000000
00000000
00001000
00010000
00001000
00000000
00000100
00000010
00000100
00000000
,
00000001
00000100
00000001
00000000
00000010
00001000
00000010
00000000
00010000
00001000
00010000
00000000
01000000
00010000
01000000
00000000
,
00100000
10000000
00100000
00000000
00001000
01000000
00001000
00000000
00010000
00001000
00010000
00000000
00000100
00000001
00000100
00000000
,
00000001
00000010
00000100
00000000
00000010
00000100
00001000
00000000
00010000
00001000
00100000
00000000
00010000
00100000
01000000
00000000
,
10000000
00010000
00100000
00000000
00010000
10000000
01000000
00000000
00100000
00000000
01100000
00000000
11000000
00000000
00110000
00000000
,
00010000
10000000
01000000
00000000
00010000
00001000
00010000
00000000
00000010
00001000
00000100
00000000
00010000
00001000
00010000
00000000
,
00100000
01000000
00010000
00000000
00001000
00010000
00001000
00000000
00000010
00000100
00001000
00000000
00010000
00001000
00010000
00000000
,
00000100
00001000
00010000
00100000
00010000
00001000
00000100
00001000
00010000
00100000
00010000
00001000
00000100
00001000
00010000
00100000
,
00001000
00010000
00001000
00000000
01000000
00010000
01000000
00000000
00001000
00010000
00001000
00000000
00000100
00000010
00000100
00000000
,
00000001
00000010
00001000
00000000
00010000
01000000
10000000
00000000
10000000
01000000
00010000
00000000
00010000
01000000
10000000
00000000
,
10000000
00100000
00010000
00000000
00001000
00000100
00000001
00000000
00000001
00000100
00001000
00000000
00001000
00000100
00000001
00000000
,
00000001
00000010
00000100
00000000
00000100
00001000
00010000
00000000
00010000
00100000
01000000
00000000
01000000
10000000
00100000
00000000
,
01000000
01100000
00000000
10010000
,
00100000
00000000
00000000
00000000
00000000
00000000
01000000
00000000
00000000
00010000
00100000
00010000
00100000
00000000
00000000
01000000
10000000
01000000
10000000
00000000
00000000
00000000
00000000
00000000
,
10010000
00000000
00000000
01000000
00000000
00000000
00010000
00000000
00000000
00100000
00010000
00100000
00010000
00000000
00000000
01000000
00100000
01000000
00100000
00000000
00000000
00010000
00000000
00000000
,
00000010
00000000
00000000
00000100
00000000
00000000
00000010
00000000
00000000
00001000
00000001
00001000
00000001
00000000
00000000
00000010
00000100
00000010
00000100
00000000
00000000
00001000
00000000
00000000
,
01000000
00000000
00000000
00100000
00000000
00000000
00010000
00000000
00000000
10000000
00100000
01000000
00100000
00000000
00000000
01000000
00010000
01000000
00100000
00000000
00000000
00001000
00000000
00000000
,
00000010
00000000
00000000
00000100
00000000
00000000
00000010
00000000
00000000
00001000
00000100
00000010
00000001
00000000
00000000
00000100
00000010
00001000
00000001
00000000
00000000
00000010
00000000
00000000
,
00001001
00000000
00000000
00001000
00000000
00000000
00000001
00000000
00000000
00001000
00000010
00000100
00000010
00000000
00000000
00001000
00000100
00010000
00000100
00000000
00000000
00001000
00000000
00000000
,
00011000
00000000
00000000
00010000
00000000
00000000
01000000
00000000
00000000
00100000
10000000
01000000
00100000
00000000
00000000
00100000
00010000
01000000
00100000
00000000
00000000
01000000
00000000
00000000
,
10010000
00000000
00000000
10000000
00000000
00000000
01000000
00000000
00000000
00010000
00001000
00100000
00001000
00000000
00000000
00010000
00001000
00010000
00000100
00000000
00000000
00000010
00000000
00000000
,
00000110
00000000
00000000
00000000
00000001
00000000
00001000
00000010
00000100
00000000
00000100
00000000
00000100
00000000
00000100
00000000
,
00000001
00000100
00000010
00000100
00000001
00000010
00000100
00000010
00000001
00000100
00000010
00001000
00010000
00001000
00000100
00010000
,
00001000
01000000
00100000
01000000
00010000
00100000
00010000
00100000
01000000
10000000
01000000
00100000
10000000
00100000
00010000
01000000
,
00100000
01000000
00001000
00010000
00001000
00010000
00000010
00000100
00000001
00000010
00000001
00000010
00001000
00000010
00000001
00000100
,
00000010
00001000
00000100
00010000
00001000
00010000
00001000
01000000
00100000
01000000
00100000
10000000
10010000
00000000
01000000
00000000
,
01010000
00000000
00000000
00010000
00000000
00000000
00011000
00000000
00000000
00001000
00000010
00000100
00001000
00000000
00000000
00000100
00000001
00001000
00000100
00000000
00000000
00000010
00000000
00000000
,
00001100
00000000
00000000
00001000
00000000
00000000
00011000
00000000
00000000
00010000
01000000
00100000
00010000
00000000
00000000
00100000
10000000
00010000
00100000
00000000
00000000
00010000
00000000
00000000
,
00011000
00000000
00000000
00001000
00000000
00000000
00001010
00000000
00000000
00000010
00000100
00000010
00010000
00000000
00000000
00001000
00010000
00000100
00010000
00000000
00000000
00001000
00000000
00000000
,
00011000
00000000
00000000
00100000
00000000
00000000
01100000
00000000
00000000
10000000
01000000
00100000
00010000
00000000
00000000
00001000
00010000
00100000
01000000
00000000
00000000
01100000
00000000
00000000
,
00011000
00000000
00000000
00000000
;

//---------------dance-double - ----------------
#NOTEDATA:;
#CHARTNAME:;
#STEPSTYPE:dance-double;
#DESCRIPTION:;
#CHARTSTYLE:;
#DIFFICULTY:Challenge;
#METER:20;
#RADARVALUES:1.325581,1.521002,0.704409,0.000000,2.065397,1067.000000,986.000000,81.000000,0.000000,0.000000,0.000000,0.000000,0.000000,0.000000,1.325581,1.521002,0.704409,0.000000,2.065397,1067.000000,986.000000,81.000000,0.000000,0.000000,0.000000,0.000000,0.000000,0.000000;
#CREDIT:;
#NOTES:
// measure 0
00001000
00010000
00001000
00000000
00010000
00001000
00010000
00000000
00001000
00010000
00001000
00000000
00010000
00001000
00010000
00000000
,  // measure 1
00001000
00100000
00001000
00000000
00100000
00001000
00100000
00000000
00001000
00100000
00001000
00000000
01000000
00010000
00100000
00000000
,  // measure 2
00001000
00010000
00001000
00000000
00010000
00001000
00010000
00000000
00001000
00010000
00001000
00000000
00010000
00001000
00010000
00000000
,  // measure 3
00000010
00001000
00000010
00000000
00001000
00000010
00001000
00000000
00000010
00001000
00000010
00000000
00001000
00000010
00001000
00000000
,  // measure 4
00010000
01000000
00010000
00000000
01000000
00010000
01000000
00000000
00010000
01000000
00010000
00000000
01000000
00010000
01000000
00000000
,  // measure 5
00000100
00010000
00000100
00000000
00010000
00000100
00010000
00000000
00000100
00010000
00000100
00000000
00010000
00000100
00010000
00000000
,  // measure 6
00001000
01000000
00001000
00000000
00010000
00000010
00010000
00000000
00001000
01000000
00001000
00000000
00010000
00000010
00010000
00000000
,  // measure 7
00000100
00001000
00010000
00000000
00100000
00010000
00001000
00000000
00000100
00000000
00001100
00000000
00101000
00000000
01100000
00000000
,  // measure 8
10010000
01010000
00000000
00000000
00000000
01000000
00000000
01000000
,  // measure 9
01010000
00000000
00010000
00010000
00001000
00001000
00000100
00000100
00000010
00000010
00000001
00000001
00000100
00000000
00000001
00000001
,  // measure 10
00000010
00000010
00000100
00000100
00001000
00001000
00010000
00010000
01000000
00000000
00100000
00100000
00100000
00100000
00100000
00100000
,  // measure 11
01100000
00000000
10000000
10000000
00010000
00010000
01000000
01000000
00001000
00001000
00010000
00010000
00001000
00000000
00000100
00000100
,  // measure 12
00000010
00000010
00000100
00000100
00000001
00000001
00000010
00000010
00000100
00000000
00010000
00010000
00010000
00010000
00010000
00010000
,  // measure 13
00011000
00000000
00001000
00100000
01100000
00000000
10000000
01000000
00010000
00000000
00001000
00000010
00000110
00000000
00000001
00000100
,  // measure 14
00001000
00000000
00010000
00100000
01100000
00000000
01000000
00001000
00011000
00000000
00001000
00100000
01100000
01000000
00010000
00001000
,  // measure 15
00011000
00000000
00001000
00000010
00000011
00000000
00001000
00010000
00000010
00000000
00010000
00100000
10100000
00000000
00010000
00000100
,  // measure 16
00010100
00000000
00000000
00000000
00000000
00000000
00011000
00000000
00000000
00000000
00000110
00000000
00000110
00000000
00001000
00000001
,  // measure 17
00001001
00000000
00000001
00000001
00000010
00000010
00001000
00001000
00010000
00010000
00100000
00100000
01100000
00000000
10000000
10000000
,  // measure 18
00100000
00100000
00010000
00010000
00001000
00001000
00000100
00000100
00000110
00000000
00000001
00000001
00000001
00000001
00000001
00000001
,  // measure 19
00001001
00000000
00000010
00000010
00001000
00001000
00010000
00010000
00100000
00100000
01000000
01000000
10010000
00000000
00100000
00100000
,  // measure 20
00010000
00010000
00001000
00001000
00000010
00000010
00000100
00000100
00001001
00000000
00000010
00000010
00000010
00000010
00000010
00000010
,  // measure 21
00000110
00000000
00000000
00000100
00000000
00000000
00000001
00000000
00000000
00000010
00000000
00000000
00000100
00000000
00000000
00001000
00000000
00000000
00010000
00000000
00001000
00000000
01000000
00000000
00100000
00000000
00000000
00010000
00000000
00000000
01000000
00000000
00100000
00000000
01000000
00000000
00010000
00000000
00000000
10000000
00000000
00000000
00100000
00000000
00000000
00010000
00000000
00000000
,  // measure 22
00001000
00000000
00000000
00000010
00000000
00000000
00000100
00000000
00000000
00000010
00000000
00000000
00000001
00000000
00000000
00001000
00000000
00000000
00000100
00000000
00010000
00000000
00001000
00000000
00010000
00000000
00000000
00001000
00000000
00000000
00010000
00000000
00100000
00000000
01000000
00000000
00100000
00000000
00000000
00100000
00000000
00000000
00100000
00000000
00000000
00100000
00000000
00000000
,  // measure 23
01100000
00000000
00000000
01000000
00000000
00000000
00010000
00000000
00000000
10000000
00000000
00000000
00100000
00000000
00000000
00010000
00000000
00000000
00001000
00000000
00010000
00000000
00001000
00000000
00000100
00000000
00000000
00000010
00000000
00000000
00001000
00000000
00000100
00000000
00000010
00000000
00000100
00000000
00000000
00000010
00000000
00000000
00000001
00000000
00000000
00001000
00000000
00000000
,  // measure 24
00001001
00000000
00000000
00000000
00000000
00000000
00000000
00000000
00000000
00000000
00000000
00000000
00000010
00000000
00000000
00000000
00000000
00000000
00001000
00000000
00000100
00000000
00001000
00000000
00000100
00000000
00000000
00000000
00000000
00000000
00000010
00000000
00000001
00000000
00000010
00000000
00000001
00000000
00000000
00001000
00000000
00000000
00000001
00000000
00000000
00000100
00000000
00000000
,  // measure 25
00000110
00000000
00000000
00000010
00000000
00000000
00001000
00000000
00000000
00000100
00000000
00000000
00000010
00000000
00000000
00000001
00000000
00000000
00000010
00000000
00000100
00000000
00001000
00000000
00010000
00000000
00000000
00001000
00000000
00000000
00000100
00000000
00001000
00000000
00010000
00000000
00100000
00000000
00000000
00010000
00000000
00000000
01000000
00000000
00000000
00100000
00000000
00000000
,  // measure 26
01100000
00000000
00000000
01000000
00000000
00000000
00010000
00000000
00000000
10000000
00000000
00000000
01000000
00000000
00000000
00100000
00000000
00000000
00010000
00000000
00100000
00000000
00010000
00000000
00001000
00000000
00000000
00010000
00000000
00000000
00001000
00000000
00010000
00000000
00001000
00000000
00000010
00000000
00000000
00000100
00000000
00000000
00000001
00000000
00000000
00001000
00000000
00000000
,  // measure 27
00001001
00000000
00000000
00000010
00000000
00000000
00000100
00000000
00000000
00001000
00000000
00000000
00000010
00000000
00000000
00000100
00000000
00000000
00000010
00000000
00000100
00000000
00001000
00000000
00010000
00000000
00000000
00001000
00000000
00000000
00100000
00000000
00010000
00000000
00001000
00000000
00000100
00000000
00000000
00001000
00000000
00000000
00010000
00000000
00000000
00100000
00000000
00000000
,  // measure 28
01100000
00000000
00000000
10000000
00000000
00000000
00100000
00000000
00000000
00010000
00000000
00000000
00100000
00000000
00000000
01000000
00000000
00000000
00010000
00000000
00100000
00000000
00001000
00000000
01000000
00000000
00000000
00010000
00000000
00000000
00100000
00000000
00010000
00000000
00001000
00000000
00000010
00000000
00000000
00000100
00000000
00000000
00000001
00000000
00000000
00001000
00000000
00000000
,  // measure 29
00001001
00000010
00000100
00001000
00001001
00000100
00010000
00001000
00011000
00100000
01000000
00100000
10010000
10000000
00100000
00010000
,  // measure 30
00011000
00001000
00000010
00000100
00000110
00000010
00000001
00001000
00001001
00000010
00000100
00001000
00011000
00010000
00100000
00001000
,  // measure 31
00011000
01000000
00100000
01000000
01010000
00001000
00100000
00010000
01010000
01000000
00001000
00100000
00110000
00010000
01000000
00010000
,  // measure 32
00011000
00001000
00000100
00000010
00000011
00000010
00000100
00010000
00010100
00000100
00010000
00001000
00011000
00000000
00000000
00000000
,  // measure 33
00010000
00001000
00010000
00000000
00100000
01000000
00100000
00000000
00010000
00001000
00010000
00000000
00000010
00000100
00000010
00000000
,  // measure 34
00010000
00001000
00010000
00000000
01000000
00100000
01000000
00000000
00010000
00001000
00010000
00000000
00000100
00000010
00000100
00000000
,  // measure 35
00001000
00000100
00000010
00000001
00000010
00000100
00001000
00010000
00100000
01000000
10000000
01000000
00100000
00010000
00001000
00000100
00000010
00000001
00000010
00000100
00001000
00010000
00100000
01000000
,  // measure 36
10000000
00010000
10000000
00000000
00010000
00001000
00010000
00000000
00001000
00000001
00001000
00000000
00010000
00001000
00010000
00000000
,  // measure 37
10000000
00010000
10000000
00000000
01000000
01000000
00100000
00000000
00001000
00010000
00001000
00000000
00000100
00000100
00000010
00000000
,  // measure 38
00010000
00001000
00010000
00000000
00100000
00100000
01000000
00000000
00001000
00010000
00001000
00000000
00000010
00000010
00000100
00000000
,  // measure 39
00010000
00001000
00010000
00000000
00100000
10000000
01000000
00000000
00010000
00001000
00010000
00000000
00000001
00000010
00000100
00000000
,  // measure 40
00010000
00001000
00010000
00000000
00100000
10000000
01000000
00000000
00100000
00000000
01100000
00000000
00110000
00000000
00011000
00000000
,  // measure 41
00001000
00010000
00001000
00000000
00000010
00000001
00000010
00000000
00001000
00010000
00001000
00000000
10000000
00100000
10000000
00000000
,  // measure 42
00001000
00010000
00001000
00000000
00000100
00000001
00000100
00000000
00001000
00010000
00001000
00000000
10000000
01000000
10000000
00000000
,  // measure 43
00010000
00100000
01000000
10000000
01000000
00100000
00010000
00001000
00000100
00000010
00000001
00000010
00000100
00001000
00010000
00100000
01000000
10000000
01000000
00100000
00010000
00001000
00000100
00000010
,  // measure 44
00000001
00001000
00000001
00000000
00001000
00010000
00001000
00000000
00010000
10000000
00010000
00000000
00001000
00010000
00001000
00000000
,  // measure 45
00000010
00001000
00000100
00000000
00010000
00010000
00001000
00000000
01000000
00100000
00010000
00000000
00001000
00001000
00010000
00000000
,  // measure 46
00000100
00000010
00000001
00000000
00001000
00001000
00010000
00000000
01000000
00100000
00010000
00000000
00001000
00001000
00010000
00000000
,  // measure 47
00000010
00000100
00010000
00000000
00000100
00001000
00100000
00000000
00001000
00010000
01000000
00000000
00010000
00100000
10000000
00000000
,  // measure 48
01100000
10010000
00000000
10010000
,  // measure 49
01100000
00000000
00000000
00000000
00000000
00000000
01000000
00000000
00000000
00001000
00010000
00001000
00010000
00000000
00000000
00000010
00000100
00000010
00000100
00000000
00000000
00000000
00000000
00000000
,  // measure 50
00000110
00000000
00000000
00000010
00000000
00000000
00001000
00000000
00000000
00000100
00000000
00000000
00000010
00000000
00000000
00000001
00000000
00000000
00000010
00000000
00000100
00000000
00001000
00000000
00010000
00000000
00000000
00001000
00000000
00000000
00000100
00000000
00001000
00000000
00010000
00000000
00100000
00000000
00000000
00010000
00000000
00000000
01000000
00000000
00000000
00100000
00000000
00000000
,  // measure 51
01100000
00000000
00000000
01000000
00000000
00000000
00010000
00000000
00000000
10000000
00000000
00000000
01000000
00000000
00000000
00100000
00000000
00000000
00010000
00000000
00100000
00000000
00010000
00000000
00001000
00000000
00000000
00010000
00000000
00000000
00001000
00000000
00010000
00000000
00001000
00000000
00000010
00000000
00000000
00000100
00000000
00000000
00000001
00000000
00000000
00001000
00000000
00000000
,  // measure 52
00001001
00000000
00000000
00000010
00000000
00000000
00000100
00000000
00000000
00001000
00000000
00000000
00000010
00000000
00000000
00000100
00000000
00000000
00000010
00000000
00000100
00000000
00001000
00000000
00010000
00000000
00000000
00001000
00000000
00000000
00100000
00000000
00010000
00000000
00001000
00000000
00000100
00000000
00000000
00001000
00000000
00000000
00010000
00000000
00000000
00100000
00000000
00000000
,  // measure 53
01100000
00000000
00000000
10000000
00000000
00000000
00100000
00000000
00000000
00010000
00000000
00000000
00100000
00000000
00000000
01000000
00000000
00000000
00010000
00000000
00100000
00000000
00001000
00000000
01000000
00000000
00000000
00010000
00000000
00000000
00100000
00000000
00010000
00000000
00001000
00000000
00000010
00000000
00000000
00000100
00000000
00000000
00000001
00000000
00000000
00001000
00000000
00000000
,  // measure 54
00001001
00000000
00000000
00000001
00000000
00000000
00000010
00000000
00000000
00001000
00000000
00000000
00010000
00000000
00000000
00001000
00000000
00000000
00010000
00000000
00100000
00000000
00010000
00000000
00100000
00000000
00000000
01000000
00000000
00000000
00100000
00000000
10000000
00000000
00100000
00000000
10000000
00000000
00000000
01000000
00000000
00000000
00100000
00000000
00000000
00010000
00000000
00000000
,  // measure 55
10010000
00000000
00000000
10000000
00000000
00000000
00100000
00000000
00000000
00010000
00000000
00000000
00001000
00000000
00000000
00010000
00000000
00000000
00001000
00000000
00000010
00000000
00001000
00000000
00000010
00000000
00000000
00000100
00000000
00000000
00000010
00000000
00000001
00000000
00000010
00000000
00000001
00000000
00000000
00000010
00000000
00000000
00000100
00000000
00000000
00001000
00000000
00000000
,  // measure 56
00001001
00000000
00000000
00000010
00000000
00000000
00010000
00000000
00000000
00001000
00000000
00000000
00100000
00000000
00000000
00001000
00000000
00000000
00010000
00000000
00100000
00000000
01000000
00000000
00100000
00000000
00000000
10000000
00000000
00000000
01000000
00000000
00100000
00000000
00001000
00000000
00100000
00000000
00000000
00010000
00000000
00000000
10000000
00000000
00000000
01000000
00000000
00000000
,  // measure 57
01100000
00000000
00001000
00000000
00011000
00000000
00010000
00000010
00000110
00000000
00000110
00000000
00000110
00000000
00000110
00000000
,  // measure 58
00001001
00001000
00000001
00000010
00000100
00001000
00000100
00000010
00000100
00010000
00001000
00010000
00001000
00100000
01000000
10000000
00100000
01000000
01100000
00100000
10000000
01000000
00100000
00010000
,  // measure 59
00100000
00001000
00010000
00001000
00000100
00000010
00000100
00000001
00001000
00000010
00000100
00001000
00010000
00001000
00100000
01000000
10000000
00010000
10010000
10000000
00010000
01000000
00100000
01000000
,  // measure 60
00100000
00010000
00001000
00100000
00010000
00001000
00000100
00001000
00000010
00000100
00000001
00000010
00000100
00010000
00000100
00010000
00001000
00100000
00101000
00001000
00010000
00100000
01000000
00010000
,  // measure 61
10000000
00100000
10000000
00010000
00100000
00010000
01000000
00100000
00010000
00001000
00010000
00000100
00001000
00000010
00001000
00000100
00000010
00000001
00000101
00000100
00000010
00000100
00000010
00001000
,  // measure 62
00001001
00000001
00000100
00000010
00001000
00000010
00001000
00000100
00010000
00001000
00010000
00000100
00001000
00010000
00100000
00010000
01000000
00100000
01100000
01000000
00100000
10000000
00010000
00100000
,  // measure 63
00010000
00001000
00000100
00001000
00000010
00000100
00000010
00001000
00000100
00000010
00000001
00001000
00000100
00010000
00001000
00010000
00001000
00100000
00110000
00010000
01000000
00100000
10000000
00010000
,  // measure 64
10000000
01000000
00100000
00010000
00100000
00001000
00010000
00001000
00010000
00000100
00001000
00010000
01000000
00010000
00001000
00000100
00001000
00010000
01000000
00100000
10000000
01000000
00100000
00010000
,  // measure 65
10010000
00000000
00000000
00000000
00000000
00000000
01100000
00000000
00000000
00010000
00001000
00000010
00001000
00000000
00000000
00010000
00100000
00010000
00011000
00000000
00000000
00000000
00000000
00000000
,  // measure 66
00011000
00000000
00000000
00000000
;
