#TITLE:166 - 鈴谷褒められて伸びるタイプなんです;
#SUBTITLE:;
#ARTIST:皿;
#TITLETRANSLIT:166 - Suzuya Homerarete Nobiru Type Nandesu;
#SUBTITLETRANSLIT:;
#ARTISTTRANSLIT:Saradisk;
#GENRE:;
#CREDIT:;
#BANNER:;
#BACKGROUND:Suzuya Homerarete Nobiru Type Nandesu-bg.jpg;
#LYRICSPATH:;
#CDTITLE:;
#MUSIC:Suzuya Homerarete Nobiru Type Nandesu.mp3;
#OFFSET:1.098000;
#SAMPLESTART:13.237981;
#SAMPLELENGTH:15.000000;
#LASTBEATHINT:0.247564;
#SELECTABLE:YES;
#BPMS:0.000000=200.000000
;
#STOPS:
;
#BGCHANGES:;
#KEYSOUNDS:;
#ATTACKS:;

//---------------dance-single - ----------------
#NOTES:
     dance-single:
     :
     Beginner:
     3:
     0.198020,0.203301,0.000000,0.000000,0.000000,75.000000,75.000000,0.000000,0.000000,0.000000,0.000000,0.198020,0.203301,0.000000,0.000000,0.000000,75.000000,75.000000,0.000000,0.000000,0.000000,0.000000:
// measure 0
0000
0000
0000
0000
,  // measure 1
0000
0000
0000
0000
,  // measure 2
0000
0000
0000
0000
,  // measure 3
0000
0000
0000
0000
,  // measure 4
0001
0000
0000
0000
,  // measure 5
0001
0000
0000
0000
,  // measure 6
0001
0000
0000
0000
,  // measure 7
0001
0000
0000
0000
,  // measure 8
0001
0000
1000
0000
,  // measure 9
0000
0000
1000
0000
,  // measure 10
0000
0000
1000
0000
,  // measure 11
0001
0000
1000
0000
,  // measure 12
0010
0000
0010
0000
,  // measure 13
0100
0000
0100
0000
,  // measure 14
0001
0000
0001
0000
,  // measure 15
0100
0000
0100
0000
,  // measure 16
0010
0000
0010
0000
,  // measure 17
1000
0000
1000
0000
,  // measure 18
0010
0000
0010
0000
,  // measure 19
0100
0000
0100
0000
,  // measure 20
0001
0000
0001
0000
,  // measure 21
0010
0000
0010
0000
,  // measure 22
0100
0000
0100
0000
,  // measure 23
1000
0000
1000
0000
,  // measure 24
0010
0000
0010
0000
,  // measure 25
0100
0000
0100
0000
,  // measure 26
0010
0000
0010
0000
,  // measure 27
1000
0000
0001
0000
,  // measure 28
0010
0000
0010
0000
,  // measure 29
0001
0000
0001
0000
,  // measure 30
1000
0000
1000
0000
,  // measure 31
0100
0000
0100
0000
,  // measure 32
0010
0000
0010
0000
,  // measure 33
0001
0000
0001
0000
,  // measure 34
0100
0000
0100
0000
,  // measure 35
0010
0000
1000
0000
,  // measure 36
0100
0000
0100
0000
,  // measure 37
0001
0000
0001
0000
,  // measure 38
0100
0000
0100
0000
,  // measure 39
1000
0000
1000
0000
,  // measure 40
0010
0000
0010
0000
,  // measure 41
0001
0000
0001
0000
,  // measure 42
0010
0000
0010
0000
,  // measure 43
1000
0000
1000
0000
,  // measure 44
0100
0000
0000
0000
;

//---------------dance-single - ----------------
#NOTES:
     dance-single:
     :
     Easy:
     7:
     0.393400,0.406602,0.110891,0.000000,0.000000,149.000000,143.000000,6.000000,0.000000,0.000000,0.000000,0.393400,0.406602,0.110891,0.000000,0.000000,149.000000,143.000000,6.000000,0.000000,0.000000,0.000000:
// measure 0
0000
0000
0000
0000
,  // measure 1
0000
0000
0000
0000
,  // measure 2
0000
0000
0000
0000
,  // measure 3
0000
0000
0000
0000
,  // measure 4
0001
0000
0001
0000
,  // measure 5
0001
0000
0001
0000
,  // measure 6
1000
0000
1000
0000
,  // measure 7
1000
0000
1000
0000
,  // measure 8
0001
0000
1001
0000
,  // measure 9
0001
0000
1001
0000
,  // measure 10
1000
0000
1001
0000
,  // measure 11
1000
0001
1000
0000
,  // measure 12
0001
0010
0100
1000
,  // measure 13
0100
0010
0001
0100
,  // measure 14
0010
1000
0010
0100
,  // measure 15
0001
0001
0010
0010
,  // measure 16
0100
1000
0100
0010
,  // measure 17
0001
0010
0100
1000
,  // measure 18
0010
0100
0001
1000
,  // measure 19
0100
0010
0100
0000
,  // measure 20
0001
0100
0010
0100
,  // measure 21
0001
0010
0100
0010
,  // measure 22
0001
1000
0010
1000
,  // measure 23
0001
1000
0010
1000
,  // measure 24
0100
0010
0001
0010
,  // measure 25
0100
0010
0001
0010
,  // measure 26
0100
1000
0100
0010
,  // measure 27
0001
1000
1001
0000
,  // measure 28
0010
0100
0010
1000
,  // measure 29
0100
1000
0001
0010
,  // measure 30
0001
1000
0001
1000
,  // measure 31
0001
0010
0100
1000
,  // measure 32
0010
1000
0010
0100
,  // measure 33
0010
1000
0010
0100
,  // measure 34
0001
0010
0001
0010
,  // measure 35
0100
1000
1001
0000
,  // measure 36
0001
0010
0100
1000
,  // measure 37
0100
0010
0001
0001
,  // measure 38
0010
0100
1000
0100
,  // measure 39
0010
0001
0010
0010
,  // measure 40
0100
1000
0010
0100
,  // measure 41
0001
0010
0100
0100
,  // measure 42
1000
0010
0100
0001
,  // measure 43
0010
0100
1000
0001
,  // measure 44
1001
0000
0000
0000
;

//---------------dance-single - ----------------
#NOTES:
     dance-single:
     :
     Medium:
     10:
     0.504292,0.609903,0.055446,0.000000,0.000000,191.000000,188.000000,3.000000,0.000000,0.000000,0.000000,0.504292,0.609903,0.055446,0.000000,0.000000,191.000000,188.000000,3.000000,0.000000,0.000000,0.000000:
// measure 0
0000
0000
0000
0000
,  // measure 1
0000
0000
0000
0000
,  // measure 2
0000
0000
0000
0000
,  // measure 3
0000
0000
0000
0000
,  // measure 4
0000
0000
0001
0000
,  // measure 5
0001
0000
0001
0000
,  // measure 6
0000
0000
0000
0000
,  // measure 7
0000
0000
0000
0000
,  // measure 8
0001
0000
1001
0000
,  // measure 9
0001
0000
0000
0000
,  // measure 10
1000
0000
0001
0000
,  // measure 11
0000
0001
0000
0001
,  // measure 12
0010
0100
0000
0100
0010
0001
0100
0010
,  // measure 13
0000
0000
0010
0000
0001
0001
0010
0000
,  // measure 14
0100
0000
0100
0010
0001
0000
0010
0100
,  // measure 15
0000
0010
0000
0000
0100
0000
0010
0000
,  // measure 16
0001
0100
0010
0000
0010
0100
0001
0010
,  // measure 17
0000
0100
0000
0000
0001
0001
0000
0000
,  // measure 18
0000
0100
0000
0001
0100
0010
0100
0010
,  // measure 19
0000
1000
0100
0000
0010
0000
0011
0000
,  // measure 20
0001
0100
0010
0100
1000
0100
0010
0000
,  // measure 21
0000
0100
0010
0100
0001
0100
0010
0000
,  // measure 22
0001
0100
0001
0100
,  // measure 23
0000
0001
0010
0001
0000
0001
0010
0000
,  // measure 24
0001
0010
0100
0000
0100
0010
0001
0000
,  // measure 25
0000
0100
0010
0001
0010
0100
0000
0000
,  // measure 26
0001
0100
0010
1000
0001
0100
0010
0000
,  // measure 27
1000
0100
0010
0000
0001
0001
0001
0000
,  // measure 28
0010
0100
0000
0001
0000
0010
0100
0001
,  // measure 29
0000
0100
0010
0001
,  // measure 30
0100
1000
0100
0010
0100
0001
0100
0010
,  // measure 31
0000
0100
0010
0001
,  // measure 32
1000
0100
0001
0100
0010
0100
0000
0100
,  // measure 33
0000
0010
0100
0001
,  // measure 34
0010
0100
0000
0100
0010
0001
0010
0100
,  // measure 35
0000
1000
0001
0000
0100
0010
0100
0000
,  // measure 36
0001
0010
0100
0000
0100
0010
0001
0000
,  // measure 37
0100
0010
0000
0100
0010
0100
0000
0000
,  // measure 38
0001
0100
1000
0100
0010
0100
0001
0000
,  // measure 39
0010
0001
0000
0001
0010
0001
0000
0000
,  // measure 40
0100
0010
0001
0010
0100
0010
0001
0000
,  // measure 41
1000
0010
0100
0010
1000
0010
0100
0000
,  // measure 42
0001
0000
0100
0010
0001
0100
0010
0000
,  // measure 43
0100
0001
0010
0100
0000
0010
0100
0000
,  // measure 44
1001
0000
0000
0000
;

//---------------dance-single - ----------------
#NOTES:
     dance-single:
     :
     Hard:
     13:
     0.752477,0.772543,0.203301,0.000000,0.055446,285.000000,274.000000,11.000000,0.000000,0.000000,0.000000,0.752477,0.772543,0.203301,0.000000,0.055446,285.000000,274.000000,11.000000,0.000000,0.000000,0.000000:
// measure 0
0000
0000
0000
0000
,  // measure 1
0000
0000
0000
0000
,  // measure 2
0000
0000
0000
0000
,  // measure 3
0000
0000
0000
0000
,  // measure 4
0001
0000
0001
0000
,  // measure 5
0001
0000
0001
0000
,  // measure 6
1000
0000
1000
0000
,  // measure 7
1000
0000
1000
0000
,  // measure 8
0001
0000
1001
0000
,  // measure 9
0001
0000
1001
0000
,  // measure 10
1000
0000
1001
0000
,  // measure 11
1001
0000
0000
0000
1001
0000
0000
0000
0110
0000
0010
0100
0010
0000
0100
0000
,  // measure 12
0001
0010
0100
1000
0001
0100
0010
1000
,  // measure 13
0010
0100
0001
0010
0100
1000
0001
0001
,  // measure 14
0100
0010
1000
0100
0010
0100
1000
0010
,  // measure 15
0100
1000
0100
0001
0010
0001
0010
0100
,  // measure 16
1000
0001
0010
0100
1000
0010
0100
0010
,  // measure 17
1000
0100
0010
0100
1000
0010
0100
0001
,  // measure 18
0010
0100
1000
0001
0100
0010
1000
0100
,  // measure 19
0010
0000
0100
0000
1000
0000
0000
0000
0001
0000
1000
0001
1000
0000
0001
0000
,  // measure 20
0100
1000
0100
0010
0100
0001
0100
0000
,  // measure 21
0001
0010
0100
0010
1000
0010
0100
0100
,  // measure 22
1000
0010
0001
0010
1000
0010
1000
0000
,  // measure 23
0100
0010
0001
0010
1000
0010
1000
1000
,  // measure 24
0010
0001
0100
0010
1000
0100
0010
0000
,  // measure 25
0100
1000
0001
0100
0010
1000
0100
0100
,  // measure 26
0100
0010
0001
1000
0100
0010
0001
0000
,  // measure 27
1000
0010
0100
0000
1001
1001
1001
0000
,  // measure 28
0001
0100
0010
1000
0001
0100
0010
1000
,  // measure 29
0001
0010
0100
1000
0001
0010
0100
1000
,  // measure 30
0001
0100
0010
1000
0001
0100
0010
1000
,  // measure 31
0100
1000
0010
1000
0100
1000
0010
1000
,  // measure 32
0001
0100
0010
1000
0001
0100
0010
1000
,  // measure 33
0001
0010
0100
1000
0001
0010
0100
1000
,  // measure 34
0001
0100
0010
1000
0001
0100
0010
0100
,  // measure 35
0001
1000
0010
1000
0100
0000
0000
0000
0001
0000
1000
0001
1000
0000
0000
0000
,  // measure 36
0010
0100
1000
0100
0001
1000
0100
0010
,  // measure 37
0001
1000
0001
0100
0010
0100
0010
0010
,  // measure 38
0100
0001
0010
0100
1000
0100
0010
0100
,  // measure 39
1000
0001
0100
0010
0100
0100
0010
0010
,  // measure 40
1001
0001
0010
0001
1000
0010
1000
0001
,  // measure 41
0010
0100
1000
0001
0100
0010
1000
0001
,  // measure 42
0010
0100
1000
0010
0001
0010
1000
0100
,  // measure 43
0010
0000
0001
0000
1000
0000
0010
0000
1000
0000
0010
0100
0010
0000
0100
0000
,  // measure 44
1001
0000
0000
0000
;

//---------------dance-double - ----------------
#NOTES:
     dance-double:
     :
     Easy:
     7:
     0.396041,0.406602,0.147855,0.000000,0.000000,150.000000,142.000000,8.000000,0.000000,0.000000,0.000000,0.396041,0.406602,0.147855,0.000000,0.000000,150.000000,142.000000,8.000000,0.000000,0.000000,0.000000:
00000000
00000000
00000000
00000000
,
00000000
00000000
00000000
00000000
,
00000000
00000000
00000000
00000000
,
00000000
00000000
00000000
00000000
,
01000000
00000000
01000000
00000000
,
00010000
00000000
00010000
00000000
,
00100000
00000000
00100000
00000000
,
00001000
00000000
00001000
00000000
,
00010000
00000000
00011000
00000000
,
00001000
00000000
00011000
00000000
,
00010000
00000000
00011000
00000000
,
00011000
00000000
00011000
00000000
,
00001000
00010000
00100000
10000000
,
01000000
00100000
00010000
00100000
,
00001000
00010000
00000100
00001000
,
00000001
00000010
00000100
00001000
,
00000001
00000100
00000010
00001000
,
00000100
00000010
00001000
00010000
,
00100000
10000000
00100000
01000000
,
00010000
00100000
01000000
00000000
,
10000000
00010000
00100000
00010000
,
00100000
00001000
00010000
00000100
,
00000010
00000001
00000010
00000100
,
00001000
00000010
00000100
00000100
,
00001000
00010000
00100000
01000000
,
00100000
10000000
01000000
00100000
,
00010000
10000000
00100000
01000000
,
00010000
00100000
00011000
00000000
,
00001000
00010000
00001000
00010000
,
00000010
00000001
00000010
00000100
,
00001000
00010000
00001000
00010000
,
00100000
10000000
01000000
00100000
,
00001000
00010000
00001000
00010000
,
00000100
00000010
00000001
00000100
,
00001000
00010000
00001000
00010000
,
00100000
10000000
10010000
00000000
,
10000000
01000000
00100000
00010000
,
00001000
00000100
00000010
00000001
,
00000001
00000010
00000100
00001000
,
00010000
00100000
01000000
10000000
,
00100000
01000000
00010000
00001000
,
00000100
00000010
00000001
00000100
,
00000010
00001000
00010000
00100000
,
01000000
10000000
00100000
00010000
,
00011000
00000000
00000000
00000000
;

//---------------dance-double - ----------------
#NOTES:
     dance-double:
     :
     Medium:
     12:
     0.631025,0.650563,0.240265,0.000000,0.000000,239.000000,226.000000,13.000000,0.000000,0.000000,0.000000,0.631025,0.650563,0.240265,0.000000,0.000000,239.000000,226.000000,13.000000,0.000000,0.000000,0.000000:
00000000
00000000
00000000
00000000
,
00000000
00000000
00000000
00000000
,
00000000
00000000
00000000
00000000
,
00000000
00000000
00000000
00000000
,
01000000
00000000
01000000
00000000
,
01000000
00000000
01000000
00000000
,
00100000
00000000
00100000
00000000
,
00100000
00000000
00100000
00000000
,
00010000
00000000
00011000
00000000
,
00001000
00000000
00011000
00000000
,
00010000
00000000
00011000
00000000
,
00011000
00011000
00011000
00011000
,
00001000
00010000
00100000
01000000
00010000
00100000
01000000
00000000
,
10000000
00100000
01000000
00000000
00010000
00100000
01000000
00000000
,
10000000
00100000
01000000
00010000
00100000
01000000
00100000
00000000
,
00001000
00010000
00001000
00000000
00010000
00001000
00010000
00000000
,
00000100
00000010
00000001
00000010
00000100
00001000
00000010
00000000
,
00010000
00001000
00010000
00000000
00000100
00010000
00001000
00000000
,
00010000
00100000
01000000
00100000
10000000
01000000
00100000
00000000
,
00010000
10000000
00100000
00000000
01100000
00000000
10010000
00000000
,
00010000
00100000
01000000
10000000
01000000
00100000
00010000
00000000
,
01000000
00100000
00010000
00001000
00010000
00100000
01000000
00000000
,
00010000
00001000
00000100
00000010
00000100
00001000
00010000
00000000
,
00001000
00000100
00000010
00000001
00000010
00000100
00001000
00000000
,
00000001
00000010
00000100
00001000
00000100
00000010
00000001
00000000
,
00000100
00001000
00010000
00100000
00010000
00001000
00000100
00000000
,
00001000
00010000
00100000
01000000
00100000
00010000
00001000
00000000
,
10000000
01000000
00100000
00010000
00100000
01000000
10010000
00000000
,
10000000
01000000
00100000
00010000
01000000
00000000
00100000
00000000
,
01000000
00010000
00100000
00000000
00010000
01000000
00100000
00000000
,
00010000
00001000
00010000
00000100
00001000
00000000
00000010
00000000
,
00000100
00000001
00000010
00000000
00000001
00000010
00000001
00000000
,
00000100
00000010
00000100
00001000
00000100
00000000
00010000
00000000
,
00100000
00010000
00100000
00000000
01000000
00100000
01000000
00000000
,
10000000
00100000
01000000
00100000
00010000
00100000
10000000
00000000
,
01000000
00100000
00010000
00000000
00001100
00000000
00000011
00000000
,
00000001
00000100
00000010
00001000
00000100
00000010
00000001
00000000
,
00000100
00000000
00000100
00001000
00000000
00001000
00010000
00000000
,
00100000
10000000
01000000
00100000
00010000
10000000
00100000
00000000
,
01000000
00000000
00010000
00001000
00000000
00001000
00000100
00000000
,
00000010
00000001
00000010
00001000
00000010
00000001
00000010
00000000
,
00000100
00010000
00000100
00000010
00000100
00001000
00000100
00000000
,
00010000
00000100
00001000
00000100
00010000
00000010
00001000
00000000
,
00000100
00010000
00001000
00010000
00100000
10000000
00100000
00000000
,
01010000
00000000
00000000
00000000
;

//---------------dance-double - ----------------
#NOTES:
     dance-double:
     :
     Hard:
     15:
     0.765679,0.772543,0.184819,0.000000,0.064687,290.000000,280.000000,10.000000,0.000000,0.000000,0.000000,0.765679,0.772543,0.184819,0.000000,0.064687,290.000000,280.000000,10.000000,0.000000,0.000000,0.000000:
00000000
00000000
00000000
00000000
,
00000000
00000000
00000000
00000000
,
00000000
00000000
00000000
00000000
,
00000000
00000000
00000000
00000000
,
01000000
00000000
01000000
00000000
,
01000000
00000000
01000000
00000000
,
00100000
00000000
00100000
00000000
,
00100000
00000000
00100000
00000000
,
00010000
00000000
00011000
00000000
,
00001000
00000000
00011000
00000000
,
00010000
00000000
00011000
00000000
,
00011000
00000000
00000000
00000000
00011000
00000000
00000000
00000000
00001000
00000000
00010000
00001000
00010000
00000000
00001000
00000000
,
00010000
00001000
00000100
00000010
00000100
00000001
00000010
00000100
,
00001000
00000100
00010000
00100000
10000000
01000000
00100000
00010000
,
01000000
00100000
00010000
00001000
00000100
00000010
00000100
00000001
,
00000010
00000100
00001000
00000001
00000010
00000001
00000001
00000100
,
00000010
00001000
00000100
00010000
00100000
00010000
00100000
01000000
,
00100000
10000000
01000000
00100000
00010000
01000000
00100000
00010000
,
00001000
00000100
00000010
00001000
00000001
00000010
00000100
00001000
,
00010000
00000000
00100000
00000000
01000000
00000000
00000000
00000000
10000000
00000000
00100000
10000000
00100000
00000000
10000000
00000000
,
00010000
00100000
01000000
10000000
01000000
00100000
00010000
00001000
,
00100000
00010000
00001000
00000100
00000010
00000001
00000010
00000010
,
00001000
00000100
00000010
00000001
00000010
00000100
00001000
00010000
,
00000100
00001000
00010000
00100000
01000000
10000000
01000000
01000000
,
00010000
01000000
10000000
01000000
00010000
00100000
10000000
00100000
,
00010000
00001000
00000100
00000001
00000100
00001000
00000010
00000010
,
00001000
00000100
00000001
00000100
00001000
00000010
00000001
00000010
,
00001000
00010000
01000000
00000000
10010000
10010000
10010000
00000000
,
10000000
01000000
00010000
00001000
00000010
00000001
00000100
00001000
,
00010000
00100000
10000000
01000000
00100000
00010000
01000000
00100000
,
10000000
01000000
00010000
00001000
00000010
00000001
00000100
00001000
,
00010000
00100000
10000000
01000000
00010000
01000000
10000000
00100000
,
00010000
00000100
00000001
00000100
00001000
00010000
01000000
10000000
,
01000000
00010000
00100000
10000000
00100000
00010000
00010000
01000000
,
10000000
01000000
00010000
00001000
00000010
00000001
00000010
00001000
,
00010000
00000000
00100000
01000000
10000000
00000000
00010000
00000000
01000000
00000000
00100000
01000000
00100000
00000000
00000000
00000000
,
10010000
01000000
00100000
01000000
00010000
00000100
00000010
00000100
,
00001000
00100000
01000000
00100000
00010000
00010000
00001000
00001000
,
00000010
00000100
00000010
00001000
01000000
00100000
01000000
00010000
,
00000100
00000000
00000010
00000000
00000100
00000000
00010000
00000000
01000000
00000000
00100000
01000000
00100000
00000000
01000000
00000000
,
00010000
00001000
00000100
00000001
00000010
00001000
00010000
01000000
,
00010000
00000000
00001000
00000000
00000100
00000000
00000010
00000000
00001000
00000000
00000001
00001000
00000001
00000000
00000100
00000000
,
00001000
00010000
01000000
00010000
00001000
00000010
00001000
00010000
,
01000000
00000000
00010000
00000000
00001000
00000000
00000010
00000000
00000001
00000000
00010000
00001000
00100000
00000000
01000000
00000000
,
10010000
00000000
00000000
00000000
;
