#TITLE:Better in Stereo;
#SUBTITLE:;
#ARTIST:Unknown artist;
#TITLETRANSLIT:;
#SUBTITLETRANSLIT:;
#ARTISTTRANSLIT:;
#GENRE:;
#CREDIT:;
#BANNER:;
#BACKGROUND:;
#LYRICSPATH:;
#CDTITLE:;
#MUSIC:Better_in_Stereo_from_Liv_and_Maddie_Official_Vide.ogg;
#OFFSET:-0.060000;
#SAMPLESTART:99.980003;
#SAMPLELENGTH:12.000000;
#SELECTABLE:YES;
#BPMS:0.000000=100.000000
;
#STOPS:
;
#BGCHANGES:0.000=Dove Cameron - Better in Stereo (from -Liv and Maddie-).avi=1.000=0=0=0=StretchNoLoop====,
99999=-nosongbg-=1.000=0=0=0 // don't automatically add -songbackground-
;
#KEYSOUNDS:;
#ATTACKS:;

//---------------dance-single - ----------------
#NOTES:
     dance-single:
     :
     Challenge:
     1:
     0.135836,0.142284,0.000000,0.043970,0.118170,173.000000,173.000000,0.000000,8.000000,0.000000,0.000000,0.135836,0.142284,0.000000,0.043970,0.118170,173.000000,173.000000,0.000000,8.000000,0.000000,0.000000:
// measure 0
0000
0000
0000
0000
,  // measure 1
1000
0100
0010
0001
0010
0100
1000
0100
,  // measure 2
0010
0001
0010
0100
1000
0100
0010
0001
,  // measure 3
0010
0100
1000
0100
0010
0001
0010
0100
,  // measure 4
1000
0000
0001
0100
0000
0100
0000
0100
0010
0000
1000
0000
0000
0000
0000
0000
,  // measure 5
0000
0000
0000
0100
0000
0010
0000
0001
0010
0000
0100
0000
0010
0000
1000
0000
,  // measure 6
0000
0000
1000
0000
1000
0000
0000
0000
0100
0000
0010
0001
0000
0000
0100
0000
,  // measure 7
0000
0000
0100
0000
0010
0000
0001
0000
1000
0000
0100
0010
0000
0000
0000
0000
,  // measure 8
0000
0000
0100
0010
0000
0001
0000
1000
0100
0000
0010
0000
0100
0000
0010
0000
,  // measure 9
0000
0000
0100
0010
0000
0001
0000
1000
0100
0000
0010
0000
0001
0000
1000
0000
,  // measure 10
0000
0000
1000
0000
0001
0000
0001
0000
1000
0000
0000
1000
0000
0000
1000
0000
,  // measure 11
0000
0000
0010
0000
0100
0000
1000
0000
0010
0000
0010
0001
0000
0000
0001
0000
,  // measure 12
1000
0000
0000
0100
0000
0000
0002
0000
0000
0000
0000
0000
0003
0000
0100
0000
,  // measure 13
1000
0000
0000
0100
0000
0000
0020
0000
0000
0000
0000
0000
0030
0000
0100
0000
,  // measure 14
0010
0000
0000
0001
0000
0000
2000
0000
0000
0000
0000
0000
3000
0000
0000
0000
,  // measure 15
1000
0100
0010
0010
0001
0000
1000
0000
1000
0000
1000
0000
1000
0100
0010
0001
,  // measure 16
2000
0000
0000
0000
3100
0000
0000
0000
0001
0000
0010
1000
0000
0010
0000
0000
,  // measure 17
0001
0000
0000
0000
0010
0000
0000
0001
0010
0000
0100
0010
0000
1000
0000
0000
,  // measure 18
0100
0000
0001
0000
1000
0000
0100
0000
0010
0000
0001
1000
0000
0000
0100
0000
,  // measure 19
0020
0000
0000
0030
,  // measure 20
0200
0000
0000
0000
0310
0000
0000
0000
0001
0100
0000
0010
0000
0100
0000
0000
,  // measure 21
0100
0000
0010
0000
0000
0000
0000
0001
0010
0000
0100
1000
0000
0000
1000
0000
,  // measure 22
0100
0000
0010
0000
0001
0000
0010
0000
0000
0000
0001
0010
0000
0100
0000
0000
,  // measure 23
1000
0000
0000
0000
0000
0000
1000
0100
0000
0010
0001
0000
0001
1000
0001
0000
,  // measure 24
0000
0000
1000
0000
0000
1000
0000
0000
1000
0100
0010
0000
0001
1000
0001
0000
,  // measure 25
1000
0100
0010
0001
0010
0100
1000
0001
,  // measure 26
0100
0000
0010
0000
1000
0000
0000
0000
0000
0002
0000
0000
0003
0000
0002
0000
,  // measure 27
0000
0003
0000
0000
;
