#TITLE:All or Something;
#SUBTITLE:Rhythm Magika;
#ARTIST:Lollipop;
#TITLETRANSLIT:;
#SUBTITLETRANSLIT:;
#ARTISTTRANSLIT:;
#CREDIT:;
#BANNER:;
#BACKGROUND:;
#LYRICSPATH:;
#CDTITLE:;
#MUSIC:All or Something -Rhythm Magika-.ogg;
#OFFSET:0.000;
#SAMPLESTART:33.333;
#SAMPLELENGTH:12.000;
#SELECTABLE:YES;
#BPMS:0.000=135.000,7.000=270.000,9.000=135.000;
#STOPS:;
#BGCHANGES:;

//---------------dance-single - ----------------
#NOTES:
     dance-single:
     :
     Hard:
     7:
     0.405,0.383,0.063,0.198,0.177:
0000
0000
0000
0000
,
0000
0000
0000
0000
,
0000
0000
1001
0000
0001
0200
0000
0320
,
0000
0000
1030
0000
0001
0000
0001
0000
0100
0000
0010
0000
1000
0000
0000
1000
,
0000
1000
0010
0000
0100
0002
0000
0023
,
0000
0130
0000
1000
0100
0010
0002
0000
,
0003
0000
0100
0000
0010
2000
0000
3020
,
0000
0130
0000
0001
0100
0000
0010
0000
,
1000
0000
0001
0000
0100
0002
0000
2003
,
0000
3100
0000
0010
0001
0010
0001
0000
,
1000
0000
0000
0000
0001
0000
0100
0000
0010
0000
0000
1000
0000
0001
0000
0100
,
0000
0000
0000
0000
0010
0000
1000
0000
0010
0000
0000
0100
0000
0001
0000
0100
,
0000
0000
0000
0000
0010
0000
1000
0000
0010
0000
0000
0100
0000
0001
0000
0100
,
0000
0000
0000
0000
0010
0000
1000
0000
0010
0000
0000
0100
0000
0001
0000
0100
,
0000
0000
0000
0000
0010
0000
0010
0000
0010
0000
0000
0100
0000
0100
0000
0100
,
0000
0000
0000
0000
1000
0000
0001
0000
0100
0000
0000
0010
0000
1000
0000
0001
,
0000
0000
0000
0000
0100
0000
0010
0000
1000
0000
0000
0001
0000
0010
0000
0100
,
0000
0000
0000
0000
1000
0000
0001
0000
0100
0000
0000
0010
0000
1000
0000
0010
,
0000
0000
2000
0000
3001
0100
0000
0010
,
0000
0000
2000
0000
3001
0100
0000
0010
,
0000
0000
0200
0000
0301
0010
0000
0100
,
0000
0000
0010
0100
0001
0010
0000
0000
,
0000
0000
2000
0000
3010
0100
0000
0001
,
0000
0000
0020
0000
0130
1000
0000
0001
,
0000
0000
0200
0000
0310
1000
0000
0001
,
0000
0000
0100
0010
1000
0001
0000
0000
,
0001
0000
2000
0000
3010
0100
0000
0001
,
0000
0000
0010
0100
0010
0000
0000
0000
0100
0000
0000
0000
1000
0000
0000
0000
,
0001
0100
0010
0000
0010
1000
0000
0001
,
0000
0100
0000
0010
1000
0010
0100
0000
,
0001
0000
0001
0000
0001
1000
0000
0001
,
0000
0100
0010
0000
1000
0000
0001
0000
,
0100
0010
1000
0000
0001
0010
0000
0100
,
0000
1000
0000
0001
0100
0010
1000
0000
,
0001
0000
0000
0000
1000
0100
1000
0000
0000
0000
0000
0000
1000
0000
0000
0000
,
0000
0000
0000
0000
0010
0001
0010
0000
0000
0000
0000
0000
0100
0000
0000
0000
,
0000
0000
0000
0000
0100
0010
0100
0000
0000
0000
0000
0000
1000
0000
0000
0000
,
0000
0000
0000
0000
1000
0001
1000
0000
0000
0000
0000
0000
1000
0000
0010
0000
,
0100
0000
0001
0000
0010
0100
0010
0000
0000
0000
0000
0000
1000
0000
0000
0000
,
0000
0000
0000
0000
0001
1000
0001
0000
0000
0000
0000
0000
0010
0000
0000
0000
,
0000
0000
0000
0000
0100
0001
0100
0000
0000
0000
0000
0000
0010
0000
0000
0000
,
0000
0000
0000
0000
1000
0010
1000
0000
0000
0000
0000
0000
0100
0000
0001
0000
,
0010
0100
1100
0000
1000
0001
0000
0100
,
0000
0010
1000
0000
0010
0000
0100
0000
,
0001
0000
0010
0000
0010
0010
0000
0100
,
0000
1000
0000
0001
0100
0010
1000
0000
,
0000
0000
0101
0000
0010
2000
0000
3020
,
0000
0130
0001
0010
0100
0000
1000
0000
,
0000
0000
1001
0000
0010
0100
0000
0001
,
0000
0010
0000
0100
1000
0100
0020
0000
,
0000
0000
0031
0000
0000
0000
1001
0001
,
0000
0100
0000
0010
1000
0010
0100
0000
,
0001
0010
1100
0000
;

//---------------dance-single - ----------------
#NOTES:
     dance-single:
     :
     Challenge:
     10:
     0.579,0.577,0.042,0.459,0.589:
0000
0000
0000
0000
,
0000
0000
0000
0000
,
0000
0000
1001
0000
0001
0100
0000
0010
,
0000
0000
1000
0000
0000
0000
0100
0000
0010
0000
0001
0000
0100
0010
0000
0100
,
0000
0010
0100
0000
0002
0000
0000
0000
0103
0000
0200
0000
0000
0000
0320
0000
,
0000
0000
2030
0000
0000
0000
3001
0000
0100
0000
0010
0000
1000
0001
0000
0100
,
0000
0010
0000
1000
0020
0000
0000
0000
0130
0000
0002
0000
0000
0000
0203
0000
,
0000
0000
0310
0000
1000
0000
0100
0000
0010
0000
0001
0000
0100
0010
0000
1000
,
0000
0001
0000
1000
0020
0000
0000
0000
0130
0000
0002
0000
0000
0000
0023
0000
,
0000
0000
0230
0000
0000
0000
1300
0000
0100
0000
0010
0000
0100
0010
0000
0001
,
0000
0010
0100
0000
1000
0001
1000
0000
0010
0000
0000
0100
0000
0100
0000
0100
,
0000
0000
0000
0000
0001
0000
1000
0000
0001
0000
0000
0100
0000
0100
0000
0100
,
0000
0000
0000
0000
0010
0000
1000
0000
0010
0000
0000
0100
0000
0100
0000
0100
,
0000
0000
0000
0000
0001
0000
0010
0000
0001
0000
0000
0100
0000
0100
0000
0100
,
0000
0000
0000
0000
0010
0000
1000
0000
0010
0000
0000
0100
0000
0001
0000
0100
,
0000
0000
0000
0000
0010
0000
1000
0000
0010
0000
0000
0100
0000
0001
0000
0100
,
0000
0000
0000
0000
0010
0000
1000
0000
0010
0000
0000
0100
0000
0001
0000
0100
,
0000
0000
0000
0000
0010
0000
1000
0000
0010
0000
0000
0100
0000
0100
0000
0100
,
0000
0000
0002
0000
0103
0020
0000
2030
,
0000
3000
1000
0000
0001
0200
0000
0320
,
0000
0030
1000
0000
0001
0200
0000
0320
,
0000
0030
1000
0100
0010
0002
0000
0000
,
0203
0000
0320
0000
1030
0020
0000
0230
,
0000
0000
0302
0000
0013
0200
0000
2300
,
0000
0000
3002
0000
0103
0020
0000
1030
,
0000
0000
0001
0100
0010
1000
0000
0000
,
0000
0000
1002
0000
0013
0100
0000
0100
,
0000
0000
0001
1000
0001
0000
0000
0000
0100
0000
0000
0000
0010
0000
1000
0000
,
0010
0000
0000
1000
0010
0100
0001
0000
0000
0000
0000
0000
0100
0000
0000
0100
0000
0000
0000
0000
0000
0010
0000
0000
,
0000
0000
0000
0000
0000
0000
0000
0000
0000
0000
0000
0000
0000
0000
0000
0000
0000
0000
0010
0000
0000
0000
0000
0000
1000
0000
0000
0000
0000
0000
0000
0000
0000
0000
0000
0000
0000
0000
0000
0000
0000
0000
0000
0000
0000
0000
0000
0000
0000
0000
0000
0000
0000
0000
0000
0000
0000
0000
0000
0000
0000
0000
0000
0000
0000
0000
0000
0000
0000
0000
0000
0000
0001
0000
0000
0000
0000
0000
0000
0000
0000
0000
0000
0000
0000
0000
0000
0000
0000
0000
0000
0000
0000
0000
0000
0000
0100
0000
0000
0000
0000
0000
0000
0000
0010
0000
0000
0000
0000
0000
0000
0000
1000
0000
0000
0000
0000
0000
0000
0000
0002
0000
0000
0000
0000
0000
0000
0000
0000
0000
0000
0000
0000
0000
0000
0000
0000
0000
0000
0000
0000
0000
0000
0000
0000
0000
0000
0000
0000
0000
0000
0000
0000
0000
0000
0000
0000
0000
0000
0000
0000
0000
0000
0000
0000
0000
0000
0000
0000
0000
0000
0000
0000
0000
0000
0000
0000
0000
0000
0000
0000
0000
0000
0000
0000
0000
0000
0000
0000
0000
0000
0000
,
2003
0000
3020
0000
0130
0002
0000
0023
,
0000
0000
0130
1000
0100
0000
0000
0000
0010
0000
0000
0000
0001
0000
0100
0000
,
0010
0000
0000
1000
0010
0100
0001
0000
0000
0000
0000
0000
0100
0000
0000
0100
0000
0000
0000
0000
0000
0010
0000
0000
,
0000
0000
0000
0000
0000
0000
0000
0000
0000
0000
0000
0000
0000
0000
0000
0000
0000
0000
0010
0000
0000
0000
0000
0000
1000
0000
0000
0000
0000
0000
0000
0000
0000
0000
0000
0000
0000
0000
0000
0000
0000
0000
0000
0000
0000
0000
0000
0000
0000
0000
0000
0000
0000
0000
0000
0000
0000
0000
0000
0000
0000
0000
0000
0000
0000
0000
0000
0000
0000
0000
0000
0000
0001
0000
0000
0000
0000
0000
0000
0000
0000
0000
0000
0000
0000
0000
0000
0000
0000
0000
0000
0000
0000
0000
0000
0000
0100
0000
0000
0000
0000
0000
0000
0000
0010
0000
0000
0000
0000
0000
0000
0000
1000
0000
0000
0000
0000
0000
0000
0000
0010
0000
0000
0000
0000
0000
0000
0000
0000
0000
0000
0000
0000
0000
0000
0000
0000
0000
0000
0000
0000
0000
0000
0000
0000
0000
0000
0000
0000
0000
0000
0000
0000
0000
0000
0000
0000
0000
0000
0000
0000
0000
0000
0000
0000
0000
0000
0000
0100
0000
0000
0000
0000
0000
0000
0000
0000
0000
0000
0000
0000
0000
0000
0000
0000
0000
0000
0000
0000
0000
0000
0000
,
0001
0000
0100
0000
0010
1000
0010
1000
0010
0000
0000
0100
0001
0100
0001
0000
,
0000
0000
0000
0000
1000
0010
0100
0001
0000
0000
0000
1000
0010
0100
0001
0000
,
0000
0000
0000
0000
1000
0010
0100
0001
0000
0000
0000
0010
0100
1000
0100
0000
,
0000
0000
0000
0000
0010
0001
0010
0001
0000
0000
0000
1000
0100
1000
0100
0010
,
0001
0100
0010
0000
1000
0001
1000
0001
0000
0000
0000
0100
0010
0100
0010
0000
,
0000
0000
0000
0000
1000
0100
1000
0100
0000
0000
0000
0010
0001
0010
0001
0000
,
0000
0000
0000
0000
0100
0010
0100
0010
0000
0000
0000
1000
0001
1000
0001
0000
,
0000
0000
0000
0000
1000
0010
0100
0001
0000
0000
0000
0000
1000
0100
1000
0100
,
0010
0001
0100
0010
2000
0000
0000
0000
3010
0000
0010
0000
0000
0000
0100
0000
,
0000
0000
0001
1000
0001
0000
0000
0000
0100
0000
0000
0000
0010
1000
0000
0010
,
0000
0000
0000
0100
0000
0000
0001
0000
0100
0000
0010
0000
0100
0000
0000
0000
0000
0000
0000
0000
0000
0000
0000
0000
0010
0000
0000
0000
0000
0000
2000
0000
0000
0000
0000
0000
0000
0000
0000
0000
0000
0000
3002
0000
0000
0000
0000
0000
,
0000
0000
0000
0000
0000
0000
0103
0000
0000
0000
0000
0000
0000
0000
0000
0000
0000
0000
0010
0000
0000
0000
0000
0000
1000
0000
0010
0000
0100
0000
0001
0000
0000
0000
0000
0000
0100
0000
0000
0010
0000
0000
0000
0000
0000
1000
0000
0000
,
0000
0001
0000
0100
0010
0000
0000
0000
2000
0000
3020
0000
0000
0000
0230
0000
,
0000
0000
0301
0100
0001
0000
1000
0000
0010
0000
0100
0000
0001
0100
0000
0010
,
0000
0000
0000
1000
0000
0000
0001
0000
0100
0000
0010
0000
0200
0000
0000
0000
0000
0000
0000
0000
0000
0000
0000
0000
0301
0000
0000
0000
0000
0000
0020
0000
0000
0000
0000
0000
0000
0000
0000
0000
0000
0000
0230
0000
0000
0000
0000
0000
,
0000
0000
0000
0000
0000
0000
2300
0000
0000
0000
0000
0000
0000
0000
0000
0000
0000
0000
3001
0000
0000
0000
0000
0000
0100
0000
0010
0000
0100
0000
0010
0000
0000
0000
0000
0000
0001
0000
0000
0010
0000
0000
0000
0000
0000
0100
0000
0000
,
0000
0001
1000
0000
0000
0000
0000
0000
0000
0000
0000
0000
1001
0000
0001
0000
,
0000
0000
0000
0000
0000
0000
0000
0000
0000
0000
0000
0000
0000
0000
0000
0000
0000
0000
0010
0000
0000
0000
0000
0000
0100
0000
0000
0000
0000
0000
0000
0000
0000
0000
0000
0000
0000
0000
0000
0000
0000
0000
0000
0000
0000
0000
0000
0000
0000
0000
0000
0000
0000
0000
0000
0000
0000
0000
0000
0000
0000
0000
0000
0000
0000
0000
0000
0000
0000
0000
0000
0000
0010
0000
0000
0000
0000
0000
0000
0000
0000
0000
0000
0000
0000
0000
0000
0000
0000
0000
0000
0000
0000
0000
0000
0000
1000
0000
0000
0000
0000
0000
0000
0000
0001
0000
0000
0000
0000
0000
0000
0000
0100
0000
0000
0000
0000
0000
0000
0000
0010
0000
0000
0000
0000
0000
0000
0000
0000
0000
0000
0000
0000
0000
0000
0000
0000
0000
0000
0000
0000
0000
0000
0000
1000
0000
0000
0000
0000
0000
0000
0000
0000
0000
0000
0000
0000
0000
0000
0000
0000
0000
0000
0000
0000
0000
0000
0000
0001
0000
0000
0000
0000
0000
0000
0000
0000
0000
0000
0000
0000
0000
0000
0000
0000
0000
0000
0000
0000
0000
0000
0000
,
0100
0010
1000
1000
0001
0000
1001
0000
;

//---------------dance-single - ----------------
#NOTES:
     dance-single:
     :
     Medium:
     5:
     0.253,0.274,0.042,0.000,0.000:
0000
0000
0000
0000
,
0000
0000
0000
0000
,
0000
1001
0000
1000
,
0000
0001
0100
0010
,
0000
0000
1000
0000
0001
0100
0000
0010
,
0000
1000
0000
0001
1000
0001
0000
0000
,
0000
0000
0100
0000
0010
1000
0000
0001
,
0000
0100
0010
0000
0000
0000
0000
0000
,
0000
0000
1000
0000
0001
0100
0000
0010
,
0000
1000
0000
0001
1000
0001
0000
0000
,
0000
1000
0001
0000
,
0000
0010
1000
0000
,
0000
0100
0010
0000
,
0000
0001
1000
0000
,
0000
0100
0100
0000
,
0000
0010
0010
0000
,
0000
1000
1000
0000
,
0000
0001
0001
0000
,
0000
0000
1000
0000
0010
0000
0000
0001
,
0000
0000
0010
0000
0100
1000
0000
0001
,
0000
0000
0100
0000
0010
1000
0000
0001
,
0000
0000
0100
0010
1000
0001
0000
0000
,
0000
0000
1000
0000
0001
0100
0000
0010
,
0000
0000
1000
0000
0001
0100
0000
0010
,
0000
0000
1000
0000
0001
0100
0000
0010
,
0000
0000
1000
0000
0000
1001
0000
0000
,
0000
0000
1000
0000
0001
0100
0000
0010
,
0000
1000
0000
0000
0001
0000
0100
0000
,
0010
1000
0010
0000
0100
0001
0000
0010
,
0000
0100
0000
1000
0001
1000
0000
0000
,
0000
0000
0010
0000
0100
0001
0000
0100
,
0000
0010
0000
0000
1000
0000
0001
0000
,
0100
0010
1000
0000
0001
0100
0000
0010
,
0000
1000
0000
0100
0010
0001
0000
0000
,
0000
0100
0010
1000
,
0000
0001
0000
1000
,
0000
0010
0000
0100
,
0000
0001
0000
1000
,
0001
0100
0000
0010
,
0000
1000
0000
0010
,
0000
0100
0000
0001
,
0000
0100
0000
0010
,
1000
0000
0001
0000
0100
0010
0000
1000
,
0000
0001
0100
0000
0010
0000
1000
0000
,
0001
0000
0010
0000
0100
1000
0000
0001
,
0000
0100
0000
0010
1000
0001
0000
0000
,
0000
0000
0100
0000
0010
1000
0000
0001
,
0000
0100
0100
0000
0010
0000
1000
0000
,
0000
0000
0001
0000
1000
0010
0000
0100
,
0000
0001
0000
0010
0010
0010
0000
0000
,
0000
1000
0000
1001
,
0000
0010
0000
0000
1000
0000
0001
0000
,
0100
0010
1001
0000
;

//---------------dance-single - ----------------
#NOTES:
     dance-single:
     :
     Easy:
     4:
     0.222,0.246,0.010,0.000,0.000:
0000
0000
0000
0000
,
0000
0000
0000
0000
,
0000
1001
0001
0100
,
0010
1000
0100
0010
,
0000
1000
1000
0010
,
0100
0100
0100
0010
,
0000
1000
0100
0100
,
0010
1000
0100
0100
,
0000
0010
0100
1000
,
0100
0010
0100
1000
,
0100
0010
0010
0000
,
0000
1000
1000
0000
,
0000
0001
0001
0000
,
0000
0100
0100
0000
,
0000
0010
0010
0000
,
0000
1000
1000
0000
,
0000
0010
0010
0000
,
0000
0100
0100
0000
,
0000
0001
0000
1000
,
0000
0001
0000
0100
,
0000
0010
0000
1000
,
0000
0010
0000
0000
,
0000
0100
0000
0001
,
0000
1000
0000
0100
,
0000
0010
0000
0001
,
0000
0100
0000
0000
,
0000
0001
1000
0001
,
0100
0010
1000
0001
,
0100
0010
1000
0001
,
0100
0010
1000
0100
,
0010
0001
0100
0010
,
1000
0100
0010
0010
,
0001
0100
0100
0010
,
1000
0001
0001
0100
,
0100
0010
0010
0010
,
0000
1000
0000
1000
,
0000
0001
0000
0001
,
0000
0100
0000
0010
,
1000
0001
0000
0100
,
0000
0010
0000
1000
,
0000
0001
0000
0100
,
0000
0010
0000
1000
,
0001
1000
0010
0100
,
0001
0010
0100
1000
,
0100
0010
0010
0001
,
0100
0010
1000
0001
,
0001
0100
0010
1000
,
0100
0010
0001
0100
,
0010
1000
0001
0100
,
0010
1000
0100
0010
,
0001
1000
0000
0001
,
0000
0001
0000
0000
1000
0000
0000
0000
,
0000
0001
0001
0000
;

//---------------dance-single - ----------------
#NOTES:
     dance-single:
     :
     Beginner:
     1:
     0.061,0.053,0.000,0.000,0.000: // measure 1
0000
0000
0000
0000
,  // measure 2
0000
0000
0000
0000
,  // measure 3
0000
0000
0000
0000
,  // measure 4
0000
0001
0000
0000
,  // measure 5
0000
0100
0000
0000
,  // measure 6
0000
0010
0000
0000
,  // measure 7
0000
1000
0000
0000
,  // measure 8
0000
0001
0000
0000
,  // measure 9
0000
0100
0000
0000
,  // measure 10
0000
0010
0000
0000
,  // measure 11
0000
0100
0000
0000
,  // measure 12
0000
1000
0000
0000
,  // measure 13
0000
0010
0000
0000
,  // measure 14
0000
0100
0000
0000
,  // measure 15
0000
0001
0000
0000
,  // measure 16
0000
1000
0000
0000
,  // measure 17
0000
0001
0000
0000
,  // measure 18
0000
0010
0000
0000
,  // measure 19
0000
0100
0000
0000
,  // measure 20
0000
0000
0000
0000
,  // measure 21
0000
0100
0000
0000
,  // measure 22
0000
0000
0000
0000
,  // measure 23
0000
1000
0000
0000
,  // measure 24
0000
0000
0000
0000
,  // measure 25
0000
0001
0000
0000
,  // measure 26
0000
0000
0000
0000
,  // measure 27
0000
0100
0000
0000
,  // measure 28
0000
0010
0000
0000
,  // measure 29
0000
1000
0000
0000
,  // measure 30
0000
0001
0000
0000
,  // measure 31
0000
0100
0000
0000
,  // measure 32
0000
0010
0000
0000
,  // measure 33
0000
1000
0000
0000
,  // measure 34
0000
0001
0000
0000
,  // measure 35
0000
1000
0000
0000
,  // measure 36
0000
0010
0000
0000
,  // measure 37
0000
0100
0000
0000
,  // measure 38
0000
0001
0000
0000
,  // measure 39
0000
0010
0000
0000
,  // measure 40
0000
0100
0000
0000
,  // measure 41
0000
1000
0000
0000
,  // measure 42
0000
0001
0000
0000
,  // measure 43
0000
1000
0000
0000
,  // measure 44
0000
1000
0000
0000
,  // measure 45
0000
0000
0000
0000
,  // measure 46
0000
0001
0000
0000
,  // measure 47
0000
0010
0000
0000
,  // measure 48
0000
0000
0000
0000
,  // measure 49
0000
0100
0000
0000
,  // measure 50
0000
0000
0000
0000
,  // measure 51
0000
0000
0000
1000
;
