#TITLE:volcano;
#SUBTITLE:;
#ARTIST:Yasuhiro Abe;
#TITLETRANSLIT:01volcano;
#SUBTITLETRANSLIT:;
#ARTISTTRANSLIT:;
#CREDIT:;
#BANNER:volcano.png;
#BACKGROUND:volcano-bg.png;
#LYRICSPATH:;
#CDTITLE:./CDTITLES/DanceDanceRevolution SuperNOVA2.png;
#MUSIC:volcano.mp3;
#OFFSET:-0.090;
#SAMPLESTART:0.060;
#SAMPLELENGTH:15.000;
#SELECTABLE:YES;
#BPMS:0.000=240.000;
#STOPS:;
#BGCHANGES:;

//---------------dance-single - ----------------
#NOTES:
     dance-single:
     :
     Hard:
     9:
     0.690,0.694,0.417,0.184,0.000: // measure 1
0000
0000
0000
0000
,  // measure 2
0000
0000
0000
0000
,  // measure 3
0110
0110
0000
0000
,  // measure 4
0000
0000
0011
0011
,  // measure 5
0101
0101
0000
0000
,  // measure 6
0000
0000
1100
1100
,  // measure 7
2010
0010
0010
3010
,  // measure 8
0012
0010
1000
0103
,  // measure 9
1000
0000
0001
0000
1000
0000
0010
1000
,  // measure 10
0000
1000
0010
0100
0001
0000
1000
0000
,  // measure 11
0100
0000
1000
0000
0001
0000
0010
0001
,  // measure 12
0000
0001
0010
0100
1000
0000
0001
0000
,  // measure 13
0100
0000
0010
0000
0100
0000
0001
0010
,  // measure 14
0000
0100
1000
0001
1000
0000
0001
0000
,  // measure 15
0101
1000
1001
0001
,  // measure 16
1100
0001
0011
0010
,  // measure 17
0001
0000
1000
0000
0010
0000
0100
0001
,  // measure 18
0000
0001
0100
0010
1000
0000
0001
0000
,  // measure 19
0010
0000
0001
0000
1000
0000
0100
1000
,  // measure 20
0000
1000
0100
0010
0001
0000
1000
0000
,  // measure 21
0010
0000
0100
0000
0010
0000
1000
0100
,  // measure 22
0000
0010
0001
1000
0001
0000
1000
0000
,  // measure 23
1010
1010
1000
0001
,  // measure 24
0011
0011
0100
1000
,  // measure 25
0001
0000
1000
0000
0010
0100
0000
0001
,  // measure 26
0000
0100
0010
1000
0001
0000
0001
1000
,  // measure 27
0010
0000
0100
0000
0001
1000
0000
0100
,  // measure 28
0000
1000
0001
0010
0100
0000
0100
0010
,  // measure 29
0001
0000
0100
0000
0010
1000
0000
0100
,  // measure 30
0000
1000
0010
0100
0001
0000
0001
0100
,  // measure 31
0010
0000
1000
0000
0001
0010
0000
0100
,  // measure 32
1000
1001
0001
1001
,  // measure 33
1000
0000
0001
0000
0100
0010
0000
1000
,  // measure 34
0000
0001
0100
0010
0100
0000
0001
1000
,  // measure 35
0001
0000
0010
0000
0100
1000
0000
0001
,  // measure 36
0000
0010
0100
1000
0100
0000
0010
0001
,  // measure 37
0010
0000
0001
0000
2000
0100
0000
0100
,  // measure 38
0000
0100
0000
3100
1000
0000
0001
0000
,  // measure 39
0200
0001
0000
0001
0000
0001
0000
0301
,  // measure 40
0100
0000
0010
0000
1000
0001
0000
0010
,  // measure 41
0000
0001
0100
0001
1000
0000
0001
1000
,  // measure 42
0010
0000
0100
0000
0001
1000
0000
0100
,  // measure 43
0000
1000
0001
0010
0100
0000
0010
0100
,  // measure 44
1000
0000
0010
0000
0020
0100
0000
0100
,  // measure 45
0000
0100
0000
0130
0010
0000
1000
0000
,  // measure 46
0200
0010
0000
0010
0000
0010
0000
0310
,  // measure 47
0110
0110
0000
0000
,  // measure 48
0000
0000
1100
1100
,  // measure 49
1010
1010
0000
0000
,  // measure 50
0000
0000
0011
0011
,  // measure 51
0101
0101
0000
0000
,  // measure 52
0000
0000
0010
0100
,  // measure 53
0101
0101
0001
1000
,  // measure 54
1100
1100
0100
1000
,  // measure 55
0001
0000
1000
0000
0010
0100
0000
0001
,  // measure 56
0000
1000
0010
0100
0010
0000
1000
0001
,  // measure 57
1000
0000
0100
0000
0010
0001
0000
1000
,  // measure 58
0000
0100
0010
0001
0010
0000
0100
1000
,  // measure 59
0100
0000
1000
0000
0002
0010
0000
0010
,  // measure 60
0000
0010
0000
0013
0001
0000
1000
0000
,  // measure 61
0020
1000
0000
1000
0000
1000
0000
1030
,  // measure 62
0010
0000
0100
0000
0001
1000
0000
0100
,  // measure 63
0000
1000
0010
1000
0001
0000
1000
0001
,  // measure 64
0100
0000
0010
0000
1000
0001
0000
0010
,  // measure 65
0000
0001
1000
0100
0010
0000
0100
0010
,  // measure 66
0001
0000
0100
0000
0020
0001
0000
0001
,  // measure 67
0000
0001
0000
0031
0010
0000
1000
0000
,  // measure 68
0200
0001
0000
0001
0000
0001
0000
0301
,  // measure 69
0100
1000
0010
1000
,  // measure 70
0100
1000
0010
1000
,  // measure 71
0100
0000
0100
0010
0000
0010
0001
0000
,  // measure 72
1000
0000
0100
0010
0000
0010
0001
0000
,  // measure 73
0100
0001
0010
0001
,  // measure 74
0100
0001
0010
0001
,  // measure 75
0100
0000
0100
0010
0000
0010
1000
0000
,  // measure 76
0002
0100
0000
0100
0000
0100
0000
0103
,  // measure 77
0001
1000
0000
0001
1000
0000
0001
2000
,  // measure 78
0000
0000
0000
0000
,  // measure 79
3100
0010
0000
0100
0010
0000
0100
0010
,  // measure 80
0000
0000
0110
0000
0000
1001
0000
0000
,  // measure 81
1000
0001
0000
1000
0001
0000
1000
0002
,  // measure 82
0000
0000
0000
0103
,  // measure 83
2100
0000
3010
0000
,  // measure 84
0102
0000
0000
0000
0013
0100
0010
0000
,  // measure 85
0220
0000
0000
0000
,  // measure 86
0000
0000
0000
0000
,  // measure 87
0330
0000
0000
0000
,  // measure 88
0000
0000
0000
0000
,  // measure 89
0010
0000
0001
0000
0100
0010
0000
1000
,  // measure 90
0000
0010
0100
0001
0010
0000
0010
0001
,  // measure 91
0100
0000
0100
0001
0000
0001
0010
0000
,  // measure 92
0100
0000
0100
1000
0000
1000
0010
0000
,  // measure 93
0100
0000
0001
0000
2000
0100
0000
0100
,  // measure 94
0000
0100
0000
3100
1000
0000
0010
0000
,  // measure 95
0200
0001
0000
0001
0000
0001
0000
0301
,  // measure 96
0100
0000
1000
0000
0010
0100
0000
0001
,  // measure 97
0000
0100
0010
1000
0100
0000
0100
1000
,  // measure 98
0010
0000
0010
1000
0000
1000
0100
0000
,  // measure 99
0010
0000
0010
0001
0000
0001
0100
0000
,  // measure 100
0010
0000
1000
0000
0001
0100
0001
0100
,  // measure 101
0010
1000
0000
1100
0000
0100
0010
0001
,  // measure 102
0000
1001
0000
0001
0100
0010
0000
0000
,  // measure 103
0110
1001
0000
0000
;

//---------------dance-double - ----------------
#NOTES:
     dance-double:
     :
     Hard:
     9:
     0.660,0.597,0.223,0.165,0.000:
00000000
00000000
00000000
00000000
,
00000000
00000000
00000000
00000000
,
10100000
10100000
00000000
00000000
,
00000000
00000000
01000000
00010000
,
00110000
00110000
00000000
00000000
,
00000000
00000000
01000000
00010000
,
10010000
10000000
01000000
00010000
,
00011000
00001000
00000100
00000001
,
00000010
00000000
00001000
00000000
00010000
00000000
01000000
00010000
,
00000000
01000000
10000000
01000000
00100000
00000000
00010000
00000000
,
01000000
00000000
00001000
00000000
00010000
00000000
00000010
00001000
,
00000000
00001000
00000100
00000010
00000001
00000000
00000001
00000000
,
00000010
00000000
00000100
00000000
00001000
00000000
00000010
00000100
,
00000000
00000001
00000100
00000010
00001000
00000000
00000100
00000000
,
00010100
00010000
00001000
01000000
,
01010000
00010000
10000000
10000000
,
00100000
00000000
10000000
00000000
01000000
00000000
00100000
00001000
,
00000000
00010000
00000100
00010000
00001000
00000000
00010000
00000000
,
00000010
00000000
00001000
00000000
00000100
00000000
00000010
00000001
,
00000000
00001000
00000100
00001000
00000010
00000000
00000100
00000000
,
00000001
00000000
00000100
00000000
00000010
00000000
00000010
00010000
,
00000000
00010000
00001000
00100000
00010000
00000000
00100000
00000000
,
01000000
00100000
00001000
00010000
,
00000010
00000100
00000010
00010000
,
00001000
00000000
01000000
00000000
00100000
10000000
00000000
01000000
,
00000000
00010000
00001000
00010000
00000010
00000000
00000010
00010000
,
00001000
00000000
00010000
00000000
00000100
00000010
00000000
00000001
,
00000000
00001000
00000100
00010000
00001000
00000000
00100000
00001000
,
00010000
00000000
00001000
00000000
01000000
00100000
00000000
10000000
,
00000000
00010000
01000000
00001000
00010000
00000000
00000010
00010000
,
00001000
00000000
00010000
00000000
00000100
00001000
00000000
00001000
,
00000001
00000011
00001000
00001010
,
00000001
00000000
00000100
00000000
00000010
00001000
00000000
00000100
,
00000000
00010000
00001000
01000000
00010000
00000000
01000000
00010000
,
00100000
00000000
01000000
00000000
10000000
00010000
00000000
00100000
,
00000000
00001000
00010000
00000010
00001000
00000000
00000010
00001000
,
00000100
00000000
00000001
00000000
00000200
00010000
00000000
00010000
,
00000000
00010000
00000000
00010300
00000100
00000000
00010000
00000000
,
00002000
01000000
00000000
01000000
00000000
01000000
00000000
01003000
,
00001000
00000000
00010000
00000000
01000000
00100000
00000000
00010000
,
00000000
10000000
00010000
00100000
01000000
00000000
00100000
01000000
,
10000000
00000000
00100000
00000000
01000000
00001000
00000000
00010000
,
00000000
00000100
00001000
00000010
00000100
00000000
00000010
00000100
,
00000001
00000000
00001000
00000000
00000200
00000010
00000000
00000010
,
00000000
00000010
00000000
00000310
00001000
00000000
00010000
00000000
,
02000000
00100000
00000000
00100000
00000000
00100000
00000000
03100000
,
01100000
01100000
00000000
00000000
,
00000000
00000000
00001000
00000100
,
00000101
00000101
00000000
00000000
,
00000000
00000000
00010000
01000000
,
11000000
11000000
00000000
00000000
,
00000000
00000000
00001000
00000010
,
00000001
00000100
00001000
00010000
,
01000000
10000000
00100000
00010000
,
00001000
00000000
00000100
00000000
00000010
00001000
00000000
00000100
,
00000000
00010000
00001000
01000000
00010000
00000000
00100000
01000000
,
10000000
00000000
00000000
00000000
00010000
00000000
10000000
01000000
,
00000000
00100000
00000000
00010000
00100000
00001000
00010000
00000000
,
00000100
00010000
00001000
00000000
00010000
00000000
00000010
00001000
,
00000000
00000100
00000000
00000010
00000000
00000100
00001000
00000000
,
00000010
00000000
00000001
00000010
00000000
00001000
00000000
00000100
,
00000000
00010000
00001000
00000000
01000000
00000000
00010000
01000000
,
00000000
00100000
00000000
10000000
00010000
10000000
01000000
00000000
,
00100000
00010000
00100000
00000000
00001000
00000000
00010000
00000010
,
00000000
00001000
00000000
00000100
00000010
00000100
00001000
00000000
,
00000100
00010000
00001000
00000000
00010000
00000000
02000000
00100000
,
00000000
00100000
00000000
00100000
00000000
03100000
00010000
00000000
,
00001000
00000000
00000200
00000010
00000000
00000010
00000000
00000010
,
00000000
00000310
00001000
00000000
00000100
00000000
00010000
00000000
,
00001000
01000000
00010000
00100000
,
00001000
00000000
00010000
00000000
00000100
00001000
00000000
00000010
,
00001000
00000000
00000001
00000000
00000100
00000001
00000000
00000010
,
00000001
00001000
00000100
00010000
,
00001000
00100000
00010000
01000000
,
00010000
00000000
10000000
00000000
01000000
00010000
00000000
00010000
,
01000000
00000000
00200000
00001000
00000000
00001000
00000000
00001000
,
00000000
00301000
00010000
00001000
00000000
00010000
00001000
00000000
,
00010000
00002000
00000000
00000000
00000000
00000000
00000000
00000000
,
00003000
00000000
00010000
00000010
00000000
00010000
00000010
00000000
,
00001000
00000100
00000000
00000000
00000110
00000000
00000000
00001001
,
00000000
00000000
00000100
00000010
00000000
00000001
00001000
00000000
,
00000010
00000200
00000000
00000000
00000000
00000000
00000300
00000000
,
00001000
00021000
00000000
00031000
,
00000000
00000000
02010000
00000000
00000000
00000000
03100000
01000000
,
00100000
22000000
00000000
00000000
,
00000000
00000000
00000000
00000000
,
00000000
33000000
00000000
00000000
,
00000000
00000000
00000000
00000000
,
10000000
00000000
01000000
00000000
00100000
00001000
00000000
00010000
,
00000000
00001000
00010000
00001000
00000100
00000000
00000010
00000100
,
00000001
00000000
00000100
00000000
00000010
00001000
00000000
00000001
,
00000000
00000100
00000010
00001000
00000100
00000000
00010000
00001000
,
01000000
00000000
00100000
00000000
20000000
00010000
00000000
00010000
,
00000000
00100000
00000000
30100000
01000000
00000000
00100000
00000000
,
00020000
00001000
00000000
00001000
00000000
00001000
00000000
00031000
,
00010000
00000000
00000100
00000000
00001000
00000010
00000000
00000100
,
00000000
00000001
00000100
00000001
00001000
00000000
00001000
00000001
,
00000100
00000000
00000010
00000000
00010000
00001000
00000000
00010000
,
00000000
00001000
00100000
00010000
00100000
00000000
00010000
10000000
,
01000000
00100000
00010000
01000000
,
00100000
00010000
00000000
00001000
00000000
00000100
00001000
00010000
,
00000000
01000000
00000000
00010000
00001000
00010000
00000000
00000000
,
00011000
00022000
00033000
00000000
;

//---------------dance-single - ----------------
#NOTES:
     dance-single:
     :
     Medium:
     6:
     0.392,0.496,0.175,0.155,0.000:
0000
0000
0000
0000
,
0000
0000
0000
0000
,
0110
0010
0000
0000
,
0000
0000
0100
0000
,
1001
1000
0000
0000
,
0000
0000
0100
0000
,
1001
0001
0100
0000
,
1000
1000
0100
0000
,
0001
1000
0001
0000
,
0100
0000
1000
0000
,
0010
0100
0010
0000
,
0001
0000
0100
0000
,
1000
0001
1000
0000
,
0100
0000
0010
0001
,
1000
0000
0001
0000
,
1000
0000
0001
0000
,
0100
0010
1000
0000
,
0001
0000
0100
0000
,
0001
0010
0100
0000
,
1000
0000
0100
0000
,
0010
0001
0100
0000
,
0001
0000
1000
0000
,
0200
0000
0320
0000
,
0032
0000
2003
0000
,
3010
0000
0010
0000
,
0100
0000
0001
1000
,
0100
0000
0100
0000
,
0010
0000
0001
1000
,
0010
0000
0010
0000
,
1000
0000
0100
0010
,
0002
0000
0103
0000
,
2000
0000
3100
0000
,
0010
1000
0100
0000
,
0100
0000
0100
0000
,
0010
0000
0000
0001
0000
0000
1000
0000
,
0001
0000
0000
1000
0000
0000
0010
0000
,
0100
0000
0100
0001
,
0001
0001
0100
0000
,
0010
1000
1000
1000
,
0010
0000
0100
0000
,
0001
0000
0001
0000
,
0010
0000
0000
0100
0000
0000
1000
0000
,
1000
0000
0000
0100
0000
0000
0010
0000
,
0001
0000
1000
0100
,
0100
0100
1000
0000
,
0001
0100
0100
0100
,
0001
2000
0000
0000
,
0000
0000
3100
1000
,
0001
0200
0000
0000
,
0000
0000
0301
1000
,
0100
0020
0000
0000
,
0000
0000
0031
0100
,
0010
0010
0010
0000
,
1000
1000
1000
0000
,
0100
0001
0010
0000
,
0010
0000
0010
0000
,
0100
0000
0000
1000
0000
0000
0001
0000
,
1000
0000
0000
0001
0000
0000
0100
0000
,
0010
0000
0010
1000
,
1000
1000
0010
0000
,
0100
0001
0001
0001
,
0100
0000
0010
0000
,
1000
0000
1000
0000
,
0100
0000
0000
0010
0000
0000
0001
0000
,
0001
0000
0000
0010
0000
0000
0100
0000
,
1000
0000
0001
0010
,
0010
0010
0001
0000
,
1000
0010
0010
0010
,
2000
0000
0100
0000
,
0001
0000
3100
0000
,
0001
0000
0000
1000
0000
0000
0010
0000
,
0010
0000
0000
0100
0000
0000
0001
0000
,
0002
0000
0010
0000
,
1000
0000
0013
0000
,
0001
1000
0100
0000
,
1000
0001
0001
0001
,
0101
0000
0011
0000
,
0101
0000
0000
0000
,
1010
0000
1100
0000
,
1010
0000
0000
1000
0000
0000
0001
0000
,
0011
0000
0101
0000
,
0011
0000
0000
0000
,
0210
0000
2300
0000
,
3002
0000
0103
0000
,
0220
0000
0000
0000
,
0000
0000
0000
0000
,
0000
0000
0000
0000
,
0000
0000
0330
0000
,
0010
1000
0100
0000
,
0100
0000
0100
0000
,
0010
0000
0000
0001
0000
0000
0100
0000
,
0001
0000
0000
1000
0000
0000
0100
0000
,
0010
0000
0001
0100
,
0100
0100
0001
0000
,
1000
0100
0100
0100
,
1000
0000
0010
0000
,
0100
0000
0100
0000
,
0001
0000
0000
0100
0000
0000
1000
0000
,
1000
0000
0000
0100
0000
0000
0001
0000
,
1000
0000
0100
0001
,
1001
0000
0000
0100
0000
0000
1001
0000
,
0000
0010
0000
0000
1000
0000
0001
0000
,
1001
1001
0000
0000
;

//---------------dance-single - ----------------
#NOTES:
     dance-single:
     :
     Beginner:
     2:
     0.129,0.198,0.078,0.029,0.000:
0000
0000
0000
0000
,
0000
0000
0000
0000
,
1001
0000
0000
0000
,
0000
0000
0000
0000
,
0110
0000
0000
0000
,
0000
0000
0000
0000
,
0001
0000
0000
0000
,
1000
0000
0000
0000
,
0001
0000
0001
0000
,
0000
0000
0000
0000
,
0010
0000
0010
0000
,
0000
0000
0000
0000
,
1000
0000
1000
0000
,
0000
0000
0000
0000
,
1000
0000
0000
0000
,
0001
0000
0000
0000
,
0010
0000
0010
0000
,
0000
0000
0000
0000
,
0100
0000
0100
0000
,
0000
0000
0000
0000
,
0010
0000
0010
0000
,
0000
0000
0000
0000
,
1000
0000
0000
0000
,
0001
0000
0000
0000
,
0100
0000
0000
0000
,
0001
0000
0000
0000
,
1000
0000
0000
0000
,
0100
0000
0000
0000
,
1000
0000
0000
0000
,
0001
0000
0000
0000
,
0010
0000
0000
0000
,
0001
0000
0000
0000
,
1000
0000
0000
0000
,
0000
0000
0000
0000
,
0001
0000
0000
0000
,
0100
0000
0000
0000
,
0010
0000
0000
0000
,
1000
0000
0000
0000
,
1000
0000
0000
0000
,
0001
0000
0000
0000
,
0000
0000
0000
0000
,
0010
0000
0000
0000
,
0100
0000
0000
0000
,
1000
0000
0000
0000
,
0001
0000
0000
0000
,
1000
0000
0000
0000
,
1001
0000
0000
0000
,
0000
0000
0000
0000
,
0110
0000
0000
0000
,
0000
0000
0000
0000
,
1001
0000
0000
0000
,
0000
0000
0000
0000
,
0001
0000
0000
0000
,
1000
0000
0000
0000
,
1001
0000
0000
0000
,
0000
0000
0000
0000
,
1000
0000
0000
0000
,
0010
0000
0000
0000
,
0100
0000
0000
0000
,
0001
0000
0000
0000
,
1000
0000
0000
0000
,
0100
0000
0000
0000
,
0000
0000
0000
0000
,
0010
0000
0000
0000
,
0001
0000
0000
0000
,
0100
0000
0000
0000
,
0010
0000
0000
0000
,
1000
0000
0000
0000
,
0001
0000
0000
0000
,
0000
0000
0000
0000
,
0010
0000
0000
0000
,
0100
0000
0000
0000
,
1000
0000
0000
0000
,
0000
0000
0000
0000
,
0010
0000
0000
0000
,
0100
0000
0000
0000
,
0002
0000
0000
0003
,
0000
0000
0000
0000
,
2000
0000
0000
3000
,
0000
0000
0000
0000
,
0002
0000
0000
0003
,
0000
0000
0000
0000
,
1000
0000
0000
0000
,
0001
0000
0000
0000
,
1001
0000
0000
0000
,
0000
0000
0000
0000
,
0000
0000
0000
0000
,
0000
0000
0000
0000
,
0100
0000
0000
0000
,
0000
0000
0000
0000
,
1000
0000
0000
0000
,
0010
0000
0000
0000
,
0001
0000
0000
0000
,
1000
0000
0000
0000
,
0001
0000
0000
0000
,
0010
0000
0000
0000
,
0000
0000
0000
0000
,
0100
0000
0000
0000
,
0010
0000
0000
0000
,
0001
0000
0000
0000
,
1000
0000
0000
0000
,
0001
0000
0000
0000
,
1001
0000
0000
0000
;

//---------------dance-single - ----------------
#NOTES:
     dance-single:
     :
     Easy:
     3:
     0.237,0.297,0.068,0.107,0.000:
0000
0000
0000
0000
,
0000
0000
0000
0000
,
1001
0000
0000
0000
,
0100
0000
0000
0000
,
0110
0000
0000
0000
,
0010
0000
0000
0000
,
2000
0000
3000
0000
,
0002
0000
1003
0000
,
0001
0000
0200
0000
,
0300
0000
1000
0000
,
0002
0000
0003
0000
,
0000
0000
0100
0000
,
2000
0000
3000
0000
,
0000
0000
0010
0000
,
0200
0000
0300
0000
,
0020
0000
0030
0000
,
0000
0000
0100
0000
,
1000
0000
0010
0000
,
0000
0000
0100
0000
,
0001
0000
1000
0000
,
0000
0000
0100
0000
,
0010
0000
0001
0000
,
0100
0000
0100
0000
,
0010
0000
0100
0000
,
0010
0000
1000
0000
,
0100
0000
0000
0000
,
0001
0000
0010
0000
,
0001
0000
0000
0000
,
0100
0000
1000
0000
,
0010
0000
0000
0000
,
0100
0000
0100
0000
,
0010
0000
0010
0000
,
1000
0000
0100
0000
,
1000
0000
0000
0000
,
0010
0000
0100
0000
,
0001
0000
0000
0000
,
0010
0000
0001
0000
,
0001
0000
0001
0000
,
1000
0000
1000
0000
,
1000
0000
0010
0000
,
1000
0000
0000
0000
,
0001
0000
0010
0000
,
0100
0000
0000
0000
,
1000
0000
0001
0000
,
0001
0000
0001
0000
,
1000
0000
1000
0000
,
1001
0000
0002
0000
,
0103
0000
0000
0000
,
0000
0000
0001
0000
,
2000
0000
3100
0000
,
0000
0000
1000
0000
,
0002
0000
0103
0000
,
0100
0000
0010
0000
,
0100
0000
0010
0000
,
0001
0000
0010
0000
,
0001
0000
0000
0000
,
0100
0000
0010
0000
,
1000
0000
0000
0000
,
0100
0000
1000
0000
,
1000
0000
1000
0000
,
0001
0000
0001
0000
,
0001
0000
0100
0000
,
0001
0000
0000
0000
,
1000
0000
0100
0000
,
0010
0000
0000
0000
,
0001
0000
1000
0000
,
1000
0000
1000
0000
,
0001
0000
0001
0000
,
1001
0000
0000
0000
,
0100
0000
0000
0000
,
1000
0000
0010
0000
,
0001
0000
0010
0000
,
1000
0000
0000
0000
,
0001
0000
0000
0000
,
1000
0000
0100
0000
,
0001
0000
0100
0000
,
1000
0000
1000
0000
,
1000
0000
0000
0000
,
0001
0000
0001
0000
,
0001
0000
1000
0000
,
0100
0000
0100
0000
,
0100
0000
0000
0000
,
0010
0000
0010
0000
,
0010
0000
0001
0000
,
2000
0000
0000
0000
,
3000
0000
0000
0000
,
0000
0000
0000
0000
,
0000
0000
0000
0000
,
1000
0000
0100
0000
,
1000
0000
0000
0000
,
0010
0000
0100
0000
,
0001
0000
0000
0000
,
0010
0000
0001
0000
,
0001
0000
0001
0000
,
1000
0000
1000
0000
,
1000
0000
0010
0000
,
1000
0000
0000
0000
,
0001
0000
0010
0000
,
0100
0000
0000
0000
,
1000
0000
0010
0000
,
0110
0000
0000
0000
,
1001
0000
0000
0000
,
0110
0000
0000
0000
;

//---------------dance-double - ----------------
#NOTES:
     dance-double:
     :
     Easy:
     4:
     0.269,0.346,0.165,0.019,0.000:
00000000
00000000
00000000
00000000
,
00000000
00000000
00000000
00000000
,
01100000
00000000
00000000
00000000
,
00100000
00000000
00000000
00000000
,
00011000
00000000
00000000
00000000
,
00001000
00000000
00000000
00000000
,
00000020
00000000
00000030
00000000
,
00000110
00000000
00001001
00000000
,
00000001
00000000
00000100
00000000
,
00000000
00000000
00001000
00000000
,
00010000
00000000
00000000
00000000
,
00000000
00000000
01000000
00000000
,
10000000
00000000
00000000
00000000
,
00000000
00000000
00100000
00000000
,
00010000
00000000
00000000
00000000
,
00002000
00000000
00003000
00000000
,
00000000
00000000
00000010
00000000
,
00000100
00000000
00001000
00000000
,
00000000
00000000
00000100
00000000
,
00001000
00000000
00010000
00000000
,
00000000
00000000
00001000
00000000
,
00100000
00000000
00010000
00000000
,
10000000
00000000
00100000
00000000
,
00010000
00000000
00001000
00000000
,
00000100
00000000
00000001
00000000
,
00000100
00000000
00000001
00000000
,
00001000
00000000
00000100
00000000
,
00001000
00000000
00000100
00000000
,
00010000
00000000
00001000
00000000
,
00010000
00000000
00001000
00000000
,
01000000
00000000
01000000
00000000
,
00100000
00000000
00100000
00000000
,
10000000
00000000
01000000
00000000
,
10000000
00000000
01000000
00000000
,
00010000
00000000
00001000
00000000
,
00010000
00000000
00001000
00000000
,
00010000
00000000
00010000
00000000
,
00001000
00000000
00001000
00000000
,
00000100
00000000
00000001
00000000
,
00001001
00000000
00000100
00000000
,
00010000
00000000
00001000
00000000
,
00011000
00000000
00010000
00000000
,
01000000
00000000
00100000
00000000
,
10000000
00000000
00100000
00000000
,
00010000
00000000
00001000
00000000
,
00010000
00000000
00001000
00000000
,
00011000
00000000
00000100
00000000
,
00001000
00000000
00000010
00000000
,
00000000
00000000
00000010
00000000
,
00001000
00000000
00000100
00000000
,
00000000
00000000
00010000
00000000
,
00001000
00000000
00010000
00000000
,
01000000
00000000
00010000
00000000
,
00001000
00000000
00000100
00000000
,
00000010
00000000
00001000
00000000
,
00000001
00000000
00000100
00000000
,
00001000
00000000
00010000
00000000
,
01000000
00000000
00100000
00000000
,
00010000
00000000
00001000
00000000
,
00010000
00000000
00001000
00000000
,
00000100
00000000
00000001
00000000
,
00000110
00000000
00000100
00000000
,
00000010
00000000
00001000
00000000
,
00011000
00000000
00001000
00000000
,
00100000
00000000
00010000
00000000
,
01000000
00000000
10000000
00000000
,
00100000
00000000
00010000
00000000
,
00001000
00000000
00000100
00000000
,
00000110
00000000
00000100
00000000
,
00001000
00000000
00010000
00000000
,
01000000
00000000
00100000
00000000
,
00010000
00000000
01000000
00000000
,
00100000
00000000
00010000
00000000
,
00001000
00000000
00000100
00000000
,
00000010
00000000
00000100
00000000
,
00001000
00000000
00010000
00000000
,
01000000
00000000
01000000
00000000
,
10010000
00000000
00000000
00000000
,
00010000
00000000
00010000
00000000
,
00011000
00000000
00001000
00000000
,
00000100
00000000
00000100
00000000
,
00001001
00000000
00000000
00000000
,
00000110
00000000
00000100
00000000
,
00001000
00000000
00010000
00000000
,
00011000
00000000
00000000
00000000
,
00000000
00000000
00000000
00000000
,
00000000
00000000
00000000
00000000
,
00000000
00000000
00000000
00000000
,
00010000
00000000
01000000
00000000
,
00010000
00000000
00001000
00000000
,
00010000
00000000
00000100
00000000
,
00000100
00000000
00001000
00000000
,
00000001
00000000
00000100
00000000
,
00001000
00000000
00010000
00000000
,
00001000
00000000
00100000
00000000
,
00010000
00000000
10000000
00000000
,
01000000
00000000
00010000
00000000
,
00001000
00000000
00001000
00000000
,
00000010
00000000
00000100
00000000
,
00000001
00000000
00000100
00000000
,
00001000
00000000
00011000
00000000
,
00010000
00000000
00001000
00000000
,
00011000
00000000
00000000
00000000
;

//---------------dance-double - ----------------
#NOTES:
     dance-double:
     :
     Medium:
     6:
     0.413,0.496,0.262,0.107,0.000:
00000000
00000000
00000000
00000000
,
00000000
00000000
00000000
00000000
,
11000000
02000000
00000000
00000000
,
03000000
00000000
00100000
00000000
,
00110000
00020000
00000000
00000000
,
00030000
00000000
00000100
00000000
,
00002200
00000000
00003300
00000000
,
00000011
00000000
00000001
00000000
,
00001000
00000010
00000100
00000000
,
00001000
00000000
00010000
00001000
,
00010000
01000000
10000000
00000000
,
00100000
00000000
01000000
10000000
,
01000000
00010000
00100000
00000000
,
00001000
00000000
00010000
00001000
,
00000100
00000001
00000010
00000000
,
00000100
00001000
00000010
00000000
,
00000100
00000000
00000001
00000010
,
00001000
00010000
00001000
00000000
,
01000000
00000000
00100000
10000000
,
00010000
01000000
00001000
00000000
,
00010000
00000000
00000100
00001000
,
00000001
00000010
00001000
00000000
,
00020000
00000000
00230000
00000000
,
20300000
00000000
32000000
00000000
,
03100000
00010000
01000000
00000000
,
00001000
00000000
00010000
00000000
,
00100000
00010000
00001000
00000000
,
00000100
00001000
00010000
00000000
,
00000010
00001000
00000100
00000000
,
00000001
00000000
00000100
00000000
,
00010000
00001000
01000000
00000000
,
00010000
10000000
01000000
00000000
,
00100000
00010000
00100000
00000000
,
00001000
00000000
00010000
00000000
,
00000010
00001000
00000100
00000000
,
00000010
00000001
00000100
00000000
,
00000001
00001000
00000100
00010000
,
00010000
00010000
00001000
00000000
,
01000000
00100000
00100000
00100000
,
10000000
00000000
00010000
00000000
,
10000000
00000000
01000000
00000000
,
00010000
00001000
00010000
00000000
,
00001000
00000100
00000001
00000000
,
00000010
00000000
00001000
00000000
,
00000010
00000000
00000100
00000000
,
00010000
00001000
00100000
00000000
,
00010000
10010000
00000000
00000000
,
00000000
00000000
00010000
00001000
,
00010000
00011000
00000000
00000000
,
00000000
00000000
00001000
00000001
,
00001000
00001001
00000000
00000000
,
00000000
00000000
00100000
00001000
,
00010000
00000100
00010000
00000000
,
00001000
01000000
00001000
00000000
,
00100000
00010000
10000000
00010000
,
01000000
00000000
00100000
00000000
,
00010000
00000000
00001000
00000100
,
00000010
00000000
00001000
00000000
,
00000100
00001000
00000001
00000010
,
00001000
00000000
00010000
00000000
,
00000000
00000010
00000010
00000100
,
00000110
00000000
00000001
00000000
,
00000010
00000100
00001000
00000000
,
00011000
00010000
00100000
00000000
,
00100000
00010000
10000000
00000000
,
00100000
01000000
00010000
00000000
,
00100000
00100000
00000000
00000000
,
00001000
00001000
00001000
00001000
,
00000010
00000001
00000100
00000000
,
00000010
00010000
00001000
00000000
,
01000000
00100000
10000000
00000000
,
01000000
00100000
00010000
00010000
,
00100000
00001000
00010000
00000000
,
00001000
00010000
00000100
00000000
,
00000001
00001000
00000000
00000010
,
00010000
00000000
00001000
00001000
,
00001100
00000000
00011000
00000000
,
00110000
00000000
00000000
00000000
,
11000000
00000000
01010000
00000000
,
00011000
00000000
00001000
00000000
,
00001100
00000000
00000110
00000000
,
00000011
00000000
00000100
00000010
,
00000110
00000000
00000100
00000000
,
00001000
00010000
00100000
00000000
,
02200000
00000000
00000000
00000000
,
00000000
00000000
00000000
00000000
,
00000000
00000000
00000000
00000000
,
00000000
00000000
03300000
00000000
,
01000000
00100000
00010000
00000000
,
00001000
00000000
00000100
00000000
,
00000010
00000001
00000100
00000000
,
00000010
00001000
00000100
00000000
,
00001000
00000010
00010000
00001000
,
00100000
00000000
00110000
00000000
,
10000000
00100000
01000000
00001000
,
00020000
00001000
00031000
00000000
,
00000010
00001000
00000001
00000010
,
00000100
00000000
00001100
00000000
,
00010000
00001000
00100000
00001000
,
00010000
00000000
00011000
00000000
,
01000000
00100000
00100000
00000000
,
01100000
00000000
11000000
00000000
,
01010000
01010000
00000000
00000000
;

//---------------dance-single - ----------------
#NOTES:
     dance-single:
     :
     Challenge:
     10:
     0.861,0.843,0.689,0.398,0.000:
0000
0000
0000
0000
,
0000
0000
1100
1100
,
0101
0101
0000
0000
,
0000
0000
0011
0011
,
1010
1010
0000
0000
,
0000
0000
1100
1100
,
2001
0010
0100
3010
,
1002
0100
0010
0103
,
1001
0000
1001
0000
1000
0010
1000
0010
,
0000
0100
0001
1000
0100
0010
0001
0000
,
0101
0000
0101
0000
0001
0100
0010
1000
,
0000
0100
1000
0100
0001
0100
1000
0000
,
1100
0000
1100
0000
0010
0001
0100
1000
,
0000
0100
0001
1000
0100
0010
0001
0000
,
0100
0001
0100
0001
0100
0001
0100
0001
,
1000
0010
1000
0010
1000
0010
1000
0010
,
0100
0000
1000
0000
0100
0001
1000
0100
,
0000
0010
0001
0010
0100
0010
0001
0000
,
1010
0000
1100
0000
0001
1000
0001
0100
,
0000
0010
1000
0100
0010
0100
0010
0000
,
0011
0000
0101
0000
0010
1000
0001
0100
,
0000
0001
0100
0010
0100
0001
0010
0000
,
1010
1010
1010
1010
,
0110
0101
0110
0011
,
1000
0000
0010
0000
0100
0001
1000
0010
,
0000
1000
0100
0010
0001
1000
0100
0010
,
0001
0000
0100
0000
0001
1000
0100
0001
,
0000
0100
1000
0001
0010
0100
1000
0001
,
0100
0000
0010
0000
1000
0010
0100
0010
,
0000
1000
0010
0100
0001
1000
0010
0100
,
0001
0000
1000
0000
0100
0001
0100
1000
,
0000
0001
0100
0010
1000
0001
0100
0010
,
1000
0000
0100
0000
0010
0001
0010
1000
,
0000
0010
0001
0100
1000
0100
0001
1000
,
0010
0000
0100
0000
0010
1000
0001
0100
,
0000
1000
0100
0001
0010
1000
0010
0001
,
0100
0000
0010
0000
2000
0001
0000
0001
,
0000
0001
0000
0001
0000
3000
0000
0000
,
0000
1001
0000
0110
0000
1001
0000
0110
,
1001
0000
0100
0000
0010
1000
0000
0001
,
0000
1000
0010
1000
0001
1000
0100
1000
,
0010
0000
0100
0000
0001
1000
0000
0001
,
0000
1000
0100
0010
0100
1000
0010
0001
,
0010
0000
0100
0000
2000
0001
0000
0001
,
0000
0001
0000
0001
0000
3000
0000
0000
,
0000
1010
0000
0011
0000
1001
0000
0101
,
0110
0000
0110
0000
2000
0000
3001
0200
,
0000
0310
1000
0000
0101
0000
0101
0000
,
1010
0000
1100
0000
0020
0000
0031
2000
,
0000
3100
1000
0000
1100
0000
1001
0000
,
0101
0000
0101
0000
0002
0000
0203
0010
,
0000
0310
1000
0000
0010
0000
0100
0000
,
0110
0110
0110
0110
,
0101
1001
1100
0110
,
0001
0000
0001
0000
0100
0010
0000
1000
,
0000
0010
0100
0001
0010
0100
1000
0010
,
0002
0000
0000
0203
0000
0000
2300
0000
,
0002
3000
0000
0203
0000
0000
0310
0000
,
0100
0000
0001
0000
2000
0100
0000
0100
,
0000
0100
0000
0100
0000
3000
0000
0000
,
0000
0101
0000
1010
0000
0101
0000
1010
,
1001
0000
1000
0000
1000
0001
0010
0001
,
0100
1000
0100
0001
0010
0100
1000
0001
,
2000
0000
0000
3020
0000
0000
0032
0000
,
0200
0003
0000
2300
0000
0000
3010
0000
,
1000
0000
0001
0000
0200
0010
0000
0001
,
0000
1000
0000
0301
0000
0000
0000
0000
,
0000
1100
0000
0011
0000
1100
0000
0011
,
1001
0100
1000
0100
,
0001
0010
0100
1000
0100
0001
0100
1000
,
0020
0000
0000
2030
0000
0000
3002
0000
,
2003
0000
3001
0100
0020
0000
2030
0000
,
3200
0302
0023
0000
,
0000
0230
0302
0023
,
0000
0000
0000
0000
,
0000
0100
0000
0100
0000
0100
0000
0130
,
1000
0001
0000
0100
0010
0000
0001
2000
,
0000
0000
0000
0000
,
3010
0100
0000
1000
0001
0000
0100
0020
,
0000
0000
2030
0000
0000
3002
0000
0000
,
0013
0100
0000
0001
0100
0000
0001
2000
,
0000
0000
0000
0000
3010
0001
0100
0010
,
2000
0000
0001
0000
,
0010
0000
3001
0100
1000
0100
0001
0010
,
0200
0000
0000
0000
,
0000
0000
0000
0000
,
1000
0000
0001
0000
,
1000
1000
1000
1300
,
0001
0100
1000
0100
0001
0010
1000
0010
,
0001
0100
1000
0100
0010
0001
0010
0100
,
0001
1000
0100
0001
0100
1000
0010
0100
,
1000
0100
0001
0010
1000
0010
0001
0100
,
0010
1000
0100
0010
0001
0100
1000
0100
,
1000
0100
1000
0100
0001
0010
1000
0001
,
0100
0010
1000
0010
1000
0010
1000
0010
,
0001
0100
0010
1000
0100
0001
0100
1000
,
0010
0100
0001
0100
0010
1000
0100
0001
,
0100
1000
0001
0100
0010
0100
1000
0100
,
0001
0010
0100
1000
0100
0010
1000
0010
,
0001
0100
1000
0100
0010
0100
0001
0010
,
0100
1000
0000
1001
0000
0000
0100
0010
,
0000
1001
0000
0000
0100
0010
0000
0000
,
1001
1001
0000
0000
;
