#TITLE:been so long;
#SUBTITLE:;
#ARTIST:m-flo;
#TITLETRANSLIT:;
#SUBTITLETRANSLIT:;
#ARTISTTRANSLIT:;
#CREDIT:;
#BANNER:been so long.png;
#BACKGROUND:been so long-bg.png;
#LYRICSPATH:;
#CDTITLE:Club Version.png;
#MUSIC:been so long.ogg;
#OFFSET:0.000;
#SAMPLESTART:71.875;
#SAMPLELENGTH:15.000;
#SELECTABLE:YES;
#DISPLAYBPM:96.000;
#BPMS:0.000=95.991;
#STOPS:;
#BGCHANGES:;

//---------------dance-single - ----------------
#NOTES:
     dance-single:
     :
     Easy:
     3:
     0.207,0.209,0.000,0.000,0.000:
0000
0000
0000
0000
,
0000
0000
0000
0000
,
0000
0000
0000
0000
,
0000
0000
0000
0000
,
0000
0000
0000
0000
,
0000
0000
0010
0100
,
1000
0100
0001
0000
0001
0100
1000
0000
,
0001
0100
1000
0100
,
0001
0100
1000
0000
1000
0100
0001
0000
,
0000
1000
0000
0001
,
0010
0100
1000
0000
0100
0010
0001
0000
,
0000
1000
0000
0001
,
0010
0100
1000
0000
0010
0100
0001
0000
,
0000
1000
0010
0100
,
0010
0100
1000
0000
0010
0000
0001
0000
,
1000
0100
0010
0100
,
0010
0100
0001
0000
0001
0000
0010
0000
,
1000
0100
0010
0100
,
1000
0001
0100
0000
0010
0000
0100
0000
,
0001
1000
0100
0000
1000
0000
0001
0000
,
0000
1000
0001
0000
0001
0000
1000
0000
,
0000
0001
1000
0000
0001
0000
0100
0000
,
1000
0100
1000
0001
,
0010
1000
0100
0000
0100
0000
0001
0000
,
0100
1000
0001
1000
,
0010
0001
0100
0000
0100
0000
0001
0000
,
0100
1000
0100
0100
,
0000
1000
0100
0000
0010
0000
0001
0000
,
0100
1000
0010
1000
,
0100
0001
0010
0100
,
1000
0100
0001
0000
0001
0100
1000
0000
,
0001
0100
1000
0100
,
0001
0100
1000
0000
1000
0100
0001
0000
,
0000
1000
0000
0001
,
0010
0100
1000
0000
0100
0010
0001
0000
,
0000
1000
0000
0001
,
0010
0100
1000
0000
1000
0000
0100
0000
,
0001
1000
0001
1000
0001
0000
0000
0000
;

//---------------dance-single - ----------------
#NOTES:
     dance-single:
     :
     Medium:
     5:
     0.249,0.266,0.273,0.000,0.000:
0000
0000
0000
0000
,
0000
0000
0000
0000
,
0000
0000
0000
0000
,
0000
0000
0000
0000
,
0000
0000
0000
0000
,
0000
0000
0010
0100
,
1000
0100
0001
0000
1000
0010
0101
0000
,
1000
0100
0010
0100
,
0001
0100
1000
0000
0001
0010
1100
0000
,
1000
0100
0001
0110
,
1000
0000
0110
0000
0001
1000
0001
0000
,
1000
0101
0001
1100
,
0010
1000
1001
0110
,
0000
0001
0010
0001
0010
0000
0000
0000
,
0000
0000
1000
1000
,
0001
0001
0100
0001
,
0100
0010
0001
0000
1100
0000
1001
0000
,
0011
1001
0001
0010
,
0100
1000
1001
0000
0001
0000
0001
0000
,
1000
1000
1001
0010
,
0100
1000
0001
0000
1001
0000
0010
0000
,
0100
0001
1000
0000
0001
0000
0010
0000
,
1000
0100
0001
0010
,
1000
0100
0001
0010
1000
0000
0100
0000
,
0001
0010
1000
1100
,
0001
0101
1000
0110
,
0001
0110
1000
0010
,
0001
0100
1000
0010
0001
0000
0100
0000
,
1000
1001
1000
0100
,
0010
0001
0010
0100
,
0001
0100
1000
0000
0001
0010
1100
0000
,
1000
0100
0010
0100
,
1000
0100
0001
0000
1000
0010
0101
0000
,
0001
0100
1000
0110
,
0001
0000
0110
0000
1000
0001
1000
0000
,
0001
1100
1000
0101
,
0010
0001
1001
0000
,
0000
1000
0100
1000
0001
0000
0000
0000
;

//---------------dance-single - ----------------
#NOTES:
     dance-single:
     :
     Hard:
     6:
     0.262,0.266,0.172,0.000,0.010:
0000
0000
0000
0000
,
0000
0000
0000
0000
,
0000
0000
0000
0000
,
0000
0000
0000
0000
,
0000
0000
0000
0000
,
0000
0000
0010
0100
,
1000
0100
0001
0100
1000
0100
1001
0000
,
0001
0100
1000
0100
,
0001
0100
1000
0100
1000
0100
0001
0000
,
0010
1000
0100
0001
,
0010
0100
1000
0100
0001
0010
0100
0000
,
1000
0101
0001
1100
,
0010
0000
0000
0000
0110
0000
0000
0000
0010
0000
0000
0010
0000
0000
0010
0000
,
0000
0001
0001
0001
0001
0000
0100
0000
,
0010
0100
1000
0000
0010
0000
0101
0000
,
0010
1100
0010
1100
,
0010
0100
0001
0000
0001
0000
0010
0000
,
1000
0100
0010
0101
,
1000
0001
0100
0000
0010
0000
1100
0000
,
0001
1000
0100
0000
1000
0000
0101
0000
,
0001
1000
0001
0000
0001
0000
1100
0000
,
1000
0001
1000
0000
0001
0000
0100
0000
,
1000
0100
1000
0001
,
0010
1000
0100
0001
0100
0000
0001
0000
,
0100
1000
0001
1000
,
0010
0001
0100
1000
0100
0000
0001
0000
,
0100
1000
0100
0001
,
0100
1000
0010
1000
0100
0000
0001
0000
,
0100
1000
0010
0001
,
1000
0100
0010
0100
,
1000
0100
0001
0100
0001
0100
1000
0000
,
0010
0101
0010
1100
,
0001
0100
1000
0100
1000
0100
0001
0000
,
0100
0011
0100
1010
,
0010
0100
1000
0001
0100
0010
0001
0000
,
0010
1100
0010
0101
,
0010
0000
0100
0000
1000
0000
0000
0000
0010
0000
0000
0010
0000
0000
0010
0000
,
0000
0001
0001
0001
0001
0000
0000
0000
;

//---------------dance-double - ----------------
#NOTES:
     dance-double:
     :
     Easy:
     3:
     0.220,0.232,0.000,0.000,0.000:
00000000
00000000
00000000
00000000
,
00000000
00000000
00000000
00000000
,
00000000
00000000
00000000
00000000
,
00000000
00000000
00000000
00000000
,
00000000
00000000
00000000
00000000
,
00000000
00000000
00000010
00000100
,
00000001
00000000
00000100
00000000
00001000
00010000
00100000
00000000
,
10000000
01000000
00010000
01000000
,
10000000
00000000
01000000
00000000
00010000
00001000
00000010
00000000
,
00000001
00000100
00001000
00000100
,
00000001
00000000
00000100
00000000
00001000
00010000
01000000
00000000
,
00001000
00000100
00010000
01000000
,
00001000
00000100
00000000
00010000
,
01000000
00010000
00001000
00000000
00000001
00000000
00000100
00000000
,
00000001
00001000
00010000
00000000
10000000
00000000
01000000
00000000
,
10000000
00010000
00001000
00000000
00000001
00000000
00000100
00000000
,
00000010
00001000
00010000
00000000
10000000
00000000
01000000
00000000
,
00100000
00010000
00001000
00000000
00000010
00000000
00001000
00000000
,
00000000
00010000
01000000
00000000
10000000
00000000
00100000
00000000
,
00000000
00010000
00001000
00000000
00000010
00000000
00000100
00000000
,
00001000
00010000
01000000
00000000
01000000
00010000
00001000
00000000
,
00000001
00001000
00000001
00000000
00001000
00000000
00000100
00000000
,
00010000
01000000
00001000
00000100
,
00010000
00000000
01000000
00000000
00010000
00001000
00000100
00000000
,
00000010
00000000
00000100
00000000
00000010
00001000
00010000
00000000
,
00100000
01000000
10000000
01000000
,
00100000
01000000
10000000
01000000
,
00010000
00001000
00000100
00000000
00000010
00000000
00000001
00000000
,
00000010
00000100
00000001
00000010
,
00000001
00000010
00000100
00000000
00000001
00000000
00000100
00000000
,
00001000
00010000
00100000
00000000
10000000
00000000
01000000
00000000
,
00010000
01000000
10000000
01000000
,
00010000
00001000
00000010
00000000
00000001
00000000
00000100
00000000
,
00001000
00000100
00000001
00000100
,
00001000
00010000
01000000
00000000
10000000
00000000
01000000
00000000
,
00100000
00010000
00001000
00000000
00000100
00000000
00000001
00000000
,
00000010
00001000
00010000
00000000
01000000
00000000
10000000
00000000
,
01000000
00010000
00001000
00000000
00000100
00000000
00000001
00000000
,
00000100
00001000
00000000
00000000
;

//---------------dance-double - ----------------
#NOTES:
     dance-double:
     :
     Medium:
     6:
     0.257,0.266,0.142,0.000,0.010:
00000000
00000000
00000000
00000000
,
00000000
00000000
00000000
00000000
,
00000000
00000000
00000000
00000000
,
00000000
00000000
00000000
00000000
,
00000000
00000000
00000000
00000000
,
00000000
00000000
00000110
00001001
,
00000001
00000100
00001000
00000100
00001000
00010000
00100000
00000000
,
10000000
11000000
00010000
01010000
,
00010000
01000000
10000000
01000000
00010000
00001000
00000100
00000000
,
00000001
00001000
00000100
00000001
,
00000010
00000100
00001000
00010000
00001000
00010000
01000000
00000000
,
10000000
11000000
00100000
00110000
,
01000000
00000000
00000000
00000000
01000000
00000000
00000000
00000000
00100000
00000000
00000000
00010000
00000000
00000000
00001000
00000000
,
00000000
00000100
00000100
00001000
00000001
00000000
00000100
00000000
,
00000100
00001000
00010000
00000000
10000000
00000000
10000000
00000000
,
00010000
00010000
00100000
11000000
,
00010000
00001000
00000100
00000000
00000001
00000000
00000001
00000000
,
00001000
00001000
00000010
00000101
,
00001000
00010000
01000000
00000000
00100000
00000000
11000000
00000000
,
00010000
10000000
01000000
00000000
10000000
00000000
00010000
00000000
,
00001000
00000100
00000100
00000000
00000010
00000000
00000101
00000000
,
00001000
00000001
00001000
00000000
00001000
00000000
00000100
00000000
,
00010000
01000000
00001000
00000100
,
00001000
00001000
00001000
00010000
00001000
00000000
00000001
00000000
,
00000100
00001000
00000001
00001000
,
00001000
00010000
00001000
00010000
01000000
00000000
00010000
00000000
,
01000000
10000000
01000000
00010000
,
00001000
00000100
00001000
00000100
00000001
00000000
00000001
00000000
,
00000100
00001000
00100000
10000000
,
10000000
01000000
00100000
01000000
,
10000000
01000000
00010000
00010000
00001000
00001000
00000100
00000000
,
00000010
00000101
00000010
00000100
,
00000001
00000100
00001000
00001000
00010000
00010000
01000000
00000000
,
10000000
00110000
01000000
10000000
,
00100000
01000000
10000000
01000000
00010000
00010000
00001000
00000000
,
00000010
00001100
00000010
00000101
,
00000010
00000000
00000100
00000000
00001000
00000000
00000000
00000000
00100000
00000000
00000000
01000000
00000000
00000000
00010000
00000000
,
00000000
00100000
10000000
01000000
00010000
00000000
00000000
00000000
;

//---------------dance-double - ----------------
#NOTES:
     dance-double:
     :
     Hard:
     8:
     0.419,0.378,0.182,0.233,0.263: // measure 1
00000000
00000000
00000000
00000000
,  // measure 2
10000000
00000000
00000000
00000000
00000000
00000000
00010000
00010000
00000000
00000000
00000000
00000000
00000000
00000000
00000000
00000000
,  // measure 3
00011000
00011000
00000000
00000000
00000000
00001000
00000000
00001001
,  // measure 4
00001001
00000000
00000000
00000000
00000000
00000001
00000000
00000000
,  // measure 5
00000200
00000000
00000320
00000000
00002030
00000000
00003001
00000001
,  // measure 6
00000101
00000000
00000100
00000000
00000001
00000000
00000010
00000000
00000100
00000000
00010000
00001000
00000000
00000100
00000000
00000010
,  // measure 7
00000000
00010000
00001000
00000000
00100000
00000000
00010000
00000000
01000000
00000000
00100000
00000000
00010000
00000000
00001000
00000000
,  // measure 8
01000000
00000000
00100000
00000000
00001000
00000000
00100000
00000000
10000000
00000000
01000000
00100000
00000000
00001000
00000000
00010000
,  // measure 9
00000000
00001000
01000000
00000000
00100000
00000000
00010000
00000000
00001000
00000000
00010000
00000000
00000010
00000000
00000001
00000000
,  // measure 10
00000010
00000000
00001000
00000000
00000100
00000000
00000010
00000000
00000100
00000000
00010000
00001000
00000000
00010000
00000000
01000000
,  // measure 11
00000000
00010000
00001000
00000000
00010000
00000000
01000000
00000000
10000000
00000000
00100000
00000000
00010000
00000000
00000010
00000000
,  // measure 12
00010000
00000000
00100000
00000000
10000000
00000000
01000000
00000000
00010000
00000000
00001000
00000010
00000000
00000100
00000000
00000010
,  // measure 13
00000000
00000100
00001000
00000001
00000000
00000000
00000100
00000010
00000000
00000000
00010000
00001000
00010000
00001000
00010000
00001000
,  // measure 14
00000100
00000000
00000000
00000100
00000000
00000000
00001000
00000000
00000000
00000000
00000000
00001000
00000000
00000000
00000000
00010000
00000000
00000000
00001000
00000000
00000000
00000000
00000000
00000000
,  // measure 15
01000000
00000000
01000000
00000000
00100000
00000000
00000000
10000000
10000000
00000000
10000000
00000000
00100000
00000000
00000000
00000000
,  // measure 16
10000000
00000000
00000000
00000000
00000000
00000000
10000000
00000000
00000000
00000000
00000000
00000000
01000000
00000000
00000000
00000000
00000000
00000000
00000000
00000000
00000000
00000000
01000000
00000000
00000000
00000000
00000000
00000000
00000000
00000000
00010000
00000000
00000000
00000000
00000000
00000000
01000000
00000000
00000000
00000000
00000000
00000000
00000000
00000000
00000000
00010000
00000000
00000000
,  // measure 17
00010000
00000000
00010000
00000000
00001000
00000000
00000000
00000000
00000000
00000100
00000100
00000000
00001000
00000100
00000100
00000000
,  // measure 18
00001001
00000000
00000000
00000000
00000000
00000000
00000001
00000000
00000000
00000000
00000000
00000000
00000010
00000000
00000000
00000000
00000000
00000000
00000000
00000000
00000000
00001000
00000000
00000000
00001000
00000000
00000000
00000000
00000000
00000000
00010000
00000000
00000000
00000000
00000000
00000000
00001000
00000000
00000000
00000000
00000000
00000000
00000000
00000000
00000000
00000000
00000100
00000000
,  // measure 19
00000001
00000000
00000100
00000000
00001000
00000000
00000000
00010000
00010000
00000000
01000000
00000000
00010000
00000000
00000000
00000000
,  // measure 20
00001000
00000000
00000000
00010000
00000000
00000000
00100000
00000000
00000000
00000000
00000000
10000000
00000000
00000000
00000000
01000000
00000000
00000000
00010000
00000000
00000000
00000000
00000000
00000000
,  // measure 21
00011000
00000000
00000000
00001100
00000000
00000000
00000110
00000000
00000000
00000000
00011000
00000000
00000000
00001100
00000000
00000000
,  // measure 22
00000210
00000000
00000320
00000000
00002030
00000000
00003001
00000200
,  // measure 23
00000000
00000000
00001300
00000000
00010000
00001000
00000100
00001000
,  // measure 24
00020000
00000000
00230000
00000000
20300000
00000000
31000000
02000000
,  // measure 25
00000000
03020000
00000000
00000000
00031000
00000010
00001000
00010000
,  // measure 26
00002000
00000000
00003020
00000000
00000031
00000100
00001000
00000200
,  // measure 27
00000000
00000302
00000000
00000000
00000013
00000010
00001000
00001000
,  // measure 28
00010000
01000000
10000000
01000000
00010000
00001000
00020000
02000000
,  // measure 29
00000000
00000000
00000000
03030000
00000000
00000000
10000000
00100000
,  // measure 30
10010000
00000000
01000000
00000000
10000000
00000000
00100000
00000000
01000000
00000000
00001000
00010000
00000000
01000000
00000000
01010000
,  // measure 31
00000000
00010000
00002000
00000000
00000100
00000000
00003100
00000000
00000001
00000000
00000100
00000000
00001000
00000000
00010000
00000000
,  // measure 32
00000100
00000000
00000010
00000000
00010000
00000000
00000010
00000000
00000001
00000000
00001000
00000010
00000000
00000100
00000000
00000101
,  // measure 33
00000000
00000001
00002000
00000000
00010000
00000000
00013000
00000000
01000000
00000000
00010000
00000000
00100000
00000000
10000000
00000000
,  // measure 34
01100000
00000000
00010000
00000000
10000000
00000000
00100000
00000000
01000000
00000000
00001000
00010000
00000000
00001000
00000000
00001100
,  // measure 35
00000000
00000100
00000002
00000000
00001000
00000000
00001003
00000000
00000001
00000000
00000010
00000000
00001000
00000000
00100000
00000000
,  // measure 36
00001000
00000000
00000010
00000000
00000001
00000000
00000100
00000000
00001000
00000000
00010000
00100000
00000000
01000000
00000000
10010000
,  // measure 37
00000000
01000000
00020000
00000000
10000000
00000000
10030000
00000000
00100000
00001000
00100000
00000000
00010000
20000000
00000000
00000000
,  // measure 38
00000000
00000000
00000000
30000000
00000000
00000000
00000000
00000000
;
