#TITLE:WONDERLAND;
#SUBTITLE:(UKS MIX);
#ARTIST:X-TREME;
#TITLETRANSLIT:;
#SUBTITLETRANSLIT:;
#ARTISTTRANSLIT:;
#CREDIT:;
#BANNER:WONDERLAND (UKS MIX).png;
#BACKGROUND:WONDERLAND (UKS MIX)-bg.png;
#LYRICSPATH:;
#CDTITLE:Dance Dance Revolution 3rd Mix.png;
#MUSIC:WONDERLAND (UKS MIX).ogg;
#OFFSET:0.000;
#SAMPLESTART:56.256;
#SAMPLELENGTH:15.000;
#SELECTABLE:YES;
#DISPLAYBPM:128.000;
#BPMS:0.000=128.008;
#STOPS:;
#BGCHANGES:;

//---------------dance-single - ----------------
#NOTES:
     dance-single:
     :
     Beginner:
     1:
     0.151,0.178,0.078,0.000,0.000:
0000
0000
0000
0000
,
0000
0000
0000
0000
,
0000
0000
0000
0000
,
0000
0000
0000
0000
,
0000
0000
0000
0000
,
0000
0000
0100
0000
,
0010
0000
0100
0000
,
0010
0000
0100
0000
,
0010
0000
0100
0000
,
0010
0010
0000
1000
,
0000
0001
0000
1000
,
0000
0001
0000
1000
,
0000
0001
0000
1000
,
0000
0010
0000
0001
,
0000
0001
0000
0100
,
0000
0001
0000
1001
,
0000
0110
0000
1000
,
0000
1000
0000
1001
,
0000
1000
1000
0000
,
0001
0000
1000
0000
,
0010
0000
1000
0000
,
0100
0000
0100
0000
,
0100
0100
0000
0001
,
0001
0000
0010
0010
,
0000
0110
0000
1001
,
0000
0100
0100
0000
,
0100
0000
0010
0000
,
1000
0000
1000
0000
,
0001
0000
1000
0000
,
0010
0010
0000
0010
,
0000
1000
0000
0100
,
0000
1000
0000
0100
,
0000
0100
0000
0100
,
0000
0001
0000
1001
,
0000
1000
0000
0100
,
0000
1000
0000
0100
,
0000
0100
0000
0100
,
0000
0001
0000
1001
,
0000
1000
0000
0100
,
0000
1000
0000
0100
,
0000
0001
0000
1000
,
0000
0010
0000
0001
,
0001
0001
0001
0001
,
0000
1000
1000
1000
,
0000
0001
0000
1000
,
0000
0001
0000
1000
;

//---------------dance-single - ----------------
#NOTES:
     dance-single:
     :
     Easy:
     4:
     0.292,0.307,0.178,0.000,0.000:
0000
0000
0000
0000
,
0000
0000
0000
0000
,
0000
0000
0000
0000
,
0000
0000
0000
0000
,
0000
0000
0000
0000
,
0000
0000
0100
0001
,
0010
1000
0100
0001
,
0010
1000
0100
0001
,
0010
1000
0100
0001
,
0010
0010
0100
1000
,
0010
0001
0100
1000
,
0010
0001
0100
1000
,
0010
0001
0100
1000
,
0010
0010
0100
0001
,
0010
0001
0010
0100
,
0010
0001
0100
1001
,
0001
0110
1001
1000
,
0010
1000
0100
1001
,
0001
1000
1000
0100
,
0001
0100
1000
0100
,
0010
0001
1000
0001
,
0100
1000
0100
1001
,
0100
0000
0100
0000
0010
1000
0001
0000
,
0001
1000
0100
0000
0010
0000
0010
0000
,
0100
0110
1000
1001
,
1000
0100
0100
0001
,
0100
0001
0010
1000
,
1000
0001
0100
0000
1000
0000
0100
0000
,
0001
0110
1000
0100
,
0010
0010
0100
0010
,
0001
1100
0010
0100
,
0001
1100
0010
0100
,
0001
0100
1000
0100
,
0010
0001
0100
1001
,
0001
1100
0010
0100
,
0001
1100
0010
0100
,
0001
0100
1000
0100
,
0010
0001
0100
1001
,
0001
1100
0010
0100
,
0001
1100
0010
0100
,
0010
0001
0100
1000
,
0010
0010
0100
0001
,
0001
0000
0001
0000
0001
0000
0001
0100
,
1000
0000
1000
0000
1000
0000
1000
0100
,
0001
0001
1000
1000
,
0010
0001
0100
1000
,
0100
0000
0000
0000
;

//---------------dance-single - ----------------
#NOTES:
     dance-single:
     :
     Medium:
     6:
     0.348,0.383,0.389,0.000,0.000:
0000
0000
0000
0000
,
0000
0000
0000
0000
,
0000
0000
0000
0000
,
0000
0000
0000
0000
,
0000
0000
0000
0000
,
0000
0000
0010
1100
,
0001
0100
0010
1100
,
0001
0100
0010
1100
,
0001
0100
0010
1100
,
0001
0001
0010
0101
,
1000
0100
0010
0101
,
1000
0100
0010
0101
,
1000
0100
0010
0101
,
1000
1000
0010
1100
,
0011
0000
1000
0000
0010
0100
0001
0000
,
1000
0000
0100
0000
0010
0100
1000
0000
,
0011
0000
1000
0000
0010
0001
0100
0000
,
1000
0000
0100
0000
0010
1000
0100
0000
,
1001
0100
0010
0110
,
1000
0100
0001
0010
,
1000
0100
0100
0001
,
0100
0100
1000
0100
,
0001
0010
1100
0001
,
0100
1010
0001
0100
,
0010
1000
0001
0000
0100
0000
0100
0000
,
0010
1100
0001
1100
,
1000
0001
0100
0000
0010
0000
1100
0000
,
1000
0001
0001
0100
,
1000
0100
0001
0010
,
1000
1000
1000
1000
,
1010
0000
0100
0000
0001
1000
0100
0000
,
0011
0000
0100
0000
1000
0001
0100
0000
,
0010
1000
0100
0001
,
1010
0000
0101
0000
1000
0001
0100
0000
,
1010
0000
0100
0000
0001
1000
0100
0000
,
0011
0000
0100
0000
1000
0001
0100
0000
,
0010
1000
0100
0001
,
1010
0000
0101
0000
1000
0001
0100
0000
,
1010
0000
0100
0000
0001
1000
0100
0000
,
0011
0000
0100
0000
1000
0001
0100
0000
,
0010
0001
0100
0000
1010
0000
0001
0000
,
0011
1100
0001
0100
,
0010
0100
0001
0000
1100
0000
0101
0000
,
1000
0010
0001
0000
1010
0000
0101
0000
,
0010
0100
1000
0100
,
0010
0100
0001
0100
1000
0100
0001
0100
,
0001
0000
0000
0000
;

//---------------dance-single - ----------------
#NOTES:
     dance-single:
     :
     Hard:
     7:
     0.446,0.434,0.156,0.000,0.000:
0000
0000
0000
0000
,
0000
0000
0000
0000
,
0000
0000
0000
0000
,
0000
0000
0000
0000
,
0000
0000
0000
0000
,
0000
0000
1100
0101
,
0010
1000
0010
0100
0010
0001
0010
0100
,
0010
1000
0010
0100
0010
0001
0010
0100
,
0010
1000
0010
0100
0010
0001
0010
0100
,
0010
1000
0010
1000
0010
1000
0010
0100
,
0010
0001
0010
0100
0010
1000
0010
0100
,
0010
0001
0010
0100
0010
1000
0010
0100
,
0010
0001
0010
0100
0010
1000
0010
0100
,
0010
0001
0010
0001
0010
0001
0010
0100
,
0001
1000
0100
0000
1000
0001
0100
0000
,
0010
1000
0100
0000
0010
0001
0100
0000
,
0010
1000
0001
0000
0010
0001
1000
0000
,
0100
1000
0001
0000
0100
0001
1000
0000
,
1000
0100
1000
0100
1000
0100
1000
0100
,
0001
0100
0001
0100
0001
0100
0001
0100
,
1000
0100
0001
0100
,
1100
0101
1100
0101
,
1000
0001
0100
0000
0010
0000
1001
0000
,
1100
0010
0100
0001
,
0010
1000
0100
0000
0010
0000
0100
0000
,
0010
1000
0100
0000
0010
0000
0100
0000
,
1000
0010
0001
0000
1000
0010
0001
0010
,
1000
0100
0101
1001
,
1000
0100
0010
0001
,
1000
0100
1000
0010
1000
0001
1000
0001
,
1000
0001
0100
0000
0010
0001
0010
0001
,
0010
0100
1000
0000
0100
0001
0100
0001
,
0100
1000
0010
0001
,
1100
0000
0101
0000
0010
1000
0001
0000
,
0010
0001
0100
0000
1000
0100
1000
0100
,
1000
0100
0001
0000
0010
1000
0010
1000
,
0010
0001
0100
1000
,
1100
0000
0101
0000
0010
0001
0100
0000
,
1000
0001
0100
0001
1000
0001
0100
0001
,
1000
0100
1000
0001
1000
0100
1000
0001
,
0010
0001
1000
0001
0010
0001
1000
0001
,
0010
0100
0010
0001
0010
0100
0010
0001
,
1000
0001
0100
0001
1000
0001
0100
0001
,
1000
0100
1000
0001
1000
0100
1000
0001
,
0010
0001
1000
0001
0010
0001
1000
0001
,
0010
0100
0010
0001
0010
0100
0010
0001
,
1000
0000
0000
0000
;

//---------------dance-double - ----------------
#NOTES:
     dance-double:
     :
     Easy:
     5:
     0.335,0.357,0.344,0.000,0.000:
00000000
00000000
00000000
00000000
,
00000000
00000000
00000000
00000000
,
00000000
00000000
00000000
00000000
,
00000000
00000000
00000000
00000000
,
00000000
00000000
00000000
00000000
,
01100000
00000000
00010000
00001000
,
00000110
00000110
00001000
00010000
,
01100000
01100000
00010000
00001000
,
00000110
00000110
00001000
00010000
,
01100000
01100000
00010000
00001000
,
00001001
00000110
00001000
00010000
,
10010000
01100000
00010000
00001000
,
00001001
00000110
00001000
00010000
,
10010000
00000000
01100000
00000000
00010000
00000000
00001000
00000100
,
00000001
00000010
00001000
00000100
,
00010000
00000000
00001000
00000000
00100000
00000000
00010000
01000000
,
10000000
00100000
00010000
01000000
,
00001000
00000000
00010000
00000000
00000010
00000000
00001000
00000100
,
00000001
00000010
00001000
00000100
,
00010000
00000000
00001000
00000000
00100000
00000000
00010000
01000000
,
10000000
00100000
00010000
01000000
,
00001000
00000000
00010000
00000000
00000010
00000000
00010000
00001000
,
00100000
00010000
00000100
00001000
,
01000000
00000000
00010000
00000000
00000010
00000000
00001000
00010000
,
00000010
00001000
01000000
00010000
,
00000100
00000000
00001000
00000000
00100000
00000000
00010000
00001000
,
00100000
00010000
00000100
00001000
,
01000000
00000000
00010000
00000000
00000010
00000000
00001000
00010000
,
00000010
00001000
01000000
00010000
,
00000100
00000000
00001000
00000000
00100000
00000000
00010000
00001000
,
00010000
00001000
01000000
01000000
,
00011000
00000000
00010000
00000000
00000010
00000000
00010000
00001000
,
00000100
00000010
00000101
00001000
,
00011000
00000000
00100000
00000000
00110000
00000000
00001000
00010000
,
00001000
00010000
00000100
00000100
,
00011000
00000000
00001000
00000000
00100000
00000000
00001000
00010000
,
01000000
00100000
11000000
00010000
,
00011000
00000000
00000010
00000000
00001010
00000000
00010000
00001000
,
00010000
00000100
00001100
00001100
,
00011000
00000000
01000000
00000000
00100000
00000000
01000000
00010000
,
00001000
00010000
00001100
00000010
,
00000101
00000000
00001000
00000000
00000100
00000000
00000100
00001000
,
00010000
00001000
01000000
00110000
,
01000000
00000000
00001000
00000000
00010000
00000000
00001000
00010000
,
01000000
00001000
00010000
00000100
,
00000010
00000000
00001000
00000000
00000100
00000000
00000010
00000001
;

//---------------dance-double - ----------------
#NOTES:
     dance-double:
     :
     Medium:
     6:
     0.368,0.382,0.322,0.000,0.000:
00000000
00000000
00000000
00000000
,
00000000
00000000
00000000
00000000
,
00000000
00000000
00000000
00000000
,
00000000
00000000
00000000
00000000
,
00000000
00000000
00000000
00000000
,
00110000
01000000
00000000
00100000
,
11000000
00010000
00001000
00000100
,
00000001
00000000
00001000
00000000
00010000
00000000
01000000
00100000
,
10000000
00010000
00001000
00000100
,
00000001
00000000
00001000
00000000
00010000
00000000
01000000
00100000
,
10000000
00010000
00001000
00000100
,
00000011
00000000
00001100
00000000
00010000
00000000
00100000
10000000
,
01000000
00110000
00001000
00000100
,
00000011
00000000
00001100
00000000
00010000
00000000
00100000
10000000
,
11000000
01000000
00010000
00100000
,
10000000
00000000
01000000
00000000
00010000
00000000
00100000
00010000
,
00001000
00010000
00000010
00000100
,
00000001
00000000
00000010
00000000
00001000
00000000
00000100
00000001
,
00000011
00000100
00001000
00000010
,
00000001
00000000
00000100
00000000
00001000
00000000
00000010
00001000
,
00010000
00001000
00100000
01000000
,
10000000
00000000
00100000
00000000
00010000
00000000
01000000
10000000
,
00100000
01000000
00100000
01000000
00010000
00000000
00100000
00000000
,
00100000
00010000
00100000
00010000
01000000
00000000
00010000
00000000
,
00010000
00100000
00010000
00100000
00001000
00000000
00010000
00000000
,
00010000
00001000
00010000
00001000
00100000
00001000
00010000
00000000
,
00001000
00010000
00001000
00010000
00000100
00000000
00001000
00000000
,
00001000
00000100
00001000
00000100
00010000
00000000
00000010
00000000
,
00000010
00001000
00000010
00001000
00000001
00000000
00000100
00000000
,
00000110
00000000
00001100
00000000
00011000
00000000
00100000
00010000
,
10000000
00000000
01000000
00000000
00100000
00010000
00100000
00010000
,
01000000
00000000
00001000
00000000
00010000
00000100
00010000
00001000
,
00010000
00000010
00001000
00000001
,
00001100
00000000
00010000
00000000
00001100
00000000
00000010
00001000
,
00000001
00000000
00000100
00000000
00000010
00001000
00000010
00001000
,
00000100
00000000
00010000
00000000
00001000
01000000
00001000
00010000
,
00001000
00100000
00010000
10000000
,
01010000
00000000
00001000
00000000
01010000
00000000
00100000
00010000
,
10010000
00000000
01000000
00000000
00001000
00100000
00010000
00100000
,
00001000
00000000
00001000
00000000
00010000
00000010
00001000
00000010
,
00010000
00010000
00101000
00011000
,
00001010
00000000
00011000
00000000
00010000
00000000
00001000
00010000
,
00001000
01000000
00011000
00000010
,
00011000
00100000
00011000
00000100
,
00011000
00000010
00011000
01000000
,
00011000
00000000
00001100
00000000
00000101
00000000
00000010
00001000
;

//---------------dance-double - ----------------
#NOTES:
     dance-double:
     :
     Hard:
     7:
     0.419,0.535,0.367,0.000,0.000:
00000000
00000000
00000000
00000000
,
00000000
00000000
00000000
00000000
,
00000000
00000000
00000000
00000000
,
00000000
00000000
00000000
00000000
,
00000000
00000000
00000000
00000000
,
11000000
00000000
10000000
00000000
10000000
00000000
10000000
01000000
,
01000000
00000000
10000000
00000000
00100000
00001000
00010000
00000010
,
00000100
00000000
00000001
00000000
00000010
00010000
00001000
00100000
,
01000000
00000000
10000000
00000000
00100000
00001000
00010000
00000010
,
00000100
00000000
00000001
00000000
00000010
00010000
00001000
00100000
,
01000000
00000000
11000000
00000000
00100000
00001000
00010000
00000010
,
00000100
00000000
00000101
00000000
00000010
00010000
00001000
00100000
,
01000000
00000000
11000000
00000000
00100000
00001000
00010000
00000010
,
00000100
00000000
00000101
00000000
00000010
00010000
00001000
00100000
,
01000000
00000000
10000000
01000000
00000000
00010000
01000000
00000000
,
00100000
00000000
10000000
01000000
00000000
00010000
01000000
00001000
,
00000010
00000000
00000001
00000100
00000000
00001000
00000100
00000000
,
00000010
00000000
00000001
00000100
00000000
00001000
00000100
00010000
,
00100000
00000000
10000000
01000000
00000000
00010000
01000000
00000000
,
00100000
00000000
10000000
01000000
00000000
00010000
01000000
00100000
,
01100000
00000000
00000000
00000000
00100000
00010000
10000000
01000000
,
11000000
00000000
00101000
00000000
00010100
00000000
00000011
00000100
,
00000100
00000000
00000001
00000100
00000000
00001000
00000100
00000000
,
00000010
00000000
00000001
00000100
00000000
00001000
00000100
00010000
,
00100000
00000000
10000000
01000000
00000000
00010000
01000000
00000000
,
00100000
00000000
10000000
01000000
00000000
00010000
01000000
00001000
,
00000010
00000000
00000001
00000100
00000000
00001000
00000100
00000000
,
00000010
00000000
00000001
00000100
00000000
00001000
00000100
00000010
,
00000110
00000000
00000000
00000000
00000010
00001000
00000001
00000100
,
00000101
00000000
00010010
00000000
01001000
00000000
10100000
01000000
,
00110000
00000000
01000000
00000000
00001000
00010000
00000010
00010000
,
00000100
00000000
00001000
00000000
00010000
00001000
01000000
00001000
,
00100000
00010000
00001010
00000100
,
00000011
00000000
00001000
00000000
00000100
00000100
00000000
00000000
,
00001010
00000000
00000100
00000000
00010000
00001000
00100000
00001000
,
01000000
00000000
00010000
00000000
00001000
00010000
00000100
00010000
,
00000010
00001000
00110000
01000000
,
10100000
00000000
00010000
00000000
01000000
01000000
00000000
00000000
,
00011000
00000000
10100000
00000000
01000000
00100000
00001000
00010000
,
00000100
00000000
00000011
00000000
00000100
00000010
00010000
00001000
,
01000000
10000000
00011000
00000001
,
00011000
00000000
00100000
00000000
11000000
11000000
00100000
00001000
,
00010000
00000010
00000100
00000001
00001000
00000100
00010000
00000000
,
00001000
00100000
01000000
10000000
00010000
01000000
00001000
00000000
,
00010000
00000010
00001000
00000001
00001000
00000010
00000100
00000001
,
00001010
00000100
00000011
00000100
00001010
00000100
00001010
00000101
;

//---------------dance-couple - ----------------
#NOTES:
     dance-couple:
     :
     Challenge:
     7:
     0.524,0.664,0.911,0.000,0.000:
00000000
00000000
00000000
00000000
,
00000000
00000000
00000000
00000000
,
00000000
00000000
00000000
00000000
,
00000000
00000000
00000000
00000000
,
00000000
00000000
00000000
00000000
,
00000000
00000000
00000000
00000000
,
10011001
00000000
01000100
00000000
00010001
10001000
01000100
00000000
,
10011001
00000000
01000100
00000000
00010001
10001000
01000100
00000000
,
10000000
01000000
10000000
00100000
01000000
00010000
01000000
00000000
,
00001000
00000100
00001000
00000010
00000100
00000001
00000100
00000000
,
00010000
00010000
10000000
10000000
00010000
10000000
01000000
00000000
,
00000001
00000001
00001000
00001000
00000001
00001000
00000100
00000000
,
10000000
00000000
00010000
00000000
10000000
00100000
01000000
00000000
,
00001000
00000000
00000001
00000000
00001000
00000010
00000100
00000000
,
00110000
00000000
10000000
00000000
00100000
01000000
00010000
00000000
,
00110000
00000000
10000000
00000000
00100000
00010000
01000000
00000000
,
00000011
00000000
00001000
00000000
00000010
00000100
00000001
00000000
,
00000011
00000000
00001000
00000000
00000010
00000001
00000100
00000000
,
10000000
01000000
10000000
01000000
10000000
00010000
01000000
00000000
,
00001000
00000100
00001000
00000100
00001000
00000001
00000100
00000000
,
10000000
00010000
01000000
00000000
00001000
00000001
00000100
00000000
,
00100010
00100010
10001000
10001000
00010001
00010001
10001000
01000100
,
10001000
00010001
01000100
01000100
,
10000000
00100000
10000000
00000000
00010000
00000000
01000000
00000000
,
00001000
00000010
00001000
00000000
00000001
00000000
00000100
00000000
,
00100000
10000000
11000000
00000000
00010000
00000000
01000000
00000000
,
00000010
00001000
00001100
00000000
00000001
00000000
00000100
00000000
,
00100000
00010000
10000000
00000000
10010000
00000000
01010000
00000000
,
00000010
00000001
00001000
00000000
00001001
00000000
00000101
00000000
,
10001000
00000000
00010001
00000000
10001000
00000000
00010001
10001000
,
01000100
00000000
00010001
00000000
10001000
01000100
10001000
01000100
,
00010001
00000000
01000100
00000000
10001000
01000100
10001000
01000100
,
00010001
01000100
10001000
01000100
,
10011001
00100010
11001100
00010001
,
00001000
00000001
10000100
00000001
00001000
00000001
10000100
00000001
,
00001000
00000100
10001000
00000001
00001000
00000100
10001000
00000001
,
00000010
00000001
10001000
00000001
00000010
00000001
10001000
00000001
,
00000010
00000100
10000010
00000001
00000010
00000100
10000010
00000000
,
10000000
00010000
01000001
00010000
10000000
00010000
01000001
00010000
,
10000000
01000000
10000001
00010000
10000000
01000000
10000001
00010000
,
00100000
00010000
10000001
00010000
00100000
00010000
10000001
00010000
,
00100000
01000000
00100001
00010000
00100000
01000000
00100001
00000000
,
00000010
00000100
00000001
00000000
00001100
00000000
00000101
00000000
,
00100000
01000000
00010000
00000000
11000000
00000000
01010000
00000000
,
00100010
10001000
01000100
00010001
,
00000010
00000001
00000100
00000000
00100000
10000000
01000000
00000000
,
11000101
00000000
00000000
00000000
;

//---------------dance-solo - ----------------
#NOTES:
     dance-solo:
     :
     Easy:
     4:
     0.275,0.332,0.167,0.000,0.000:
000000
000000
000000
000000
,
000000
000000
000000
000000
,
000000
000000
000000
000000
,
000000
000000
000000
000000
,
000000
000000
000000
000000
,
000000
000000
010000
000010
,
001000
000000
001000
000001
,
000100
000000
000100
100000
,
000010
000000
000010
010000
,
000100
001000
000100
001000
,
100000
000010
010000
000001
,
100000
000010
010000
000001
,
100000
000010
010000
000001
,
001000
001000
001000
000100
,
000010
000001
000010
000001
,
000100
000010
000100
000010
,
010000
000010
010000
000010
,
010000
000100
010000
000100
,
100000
000001
000001
001000
,
000100
100000
000001
001000
,
000100
000100
100000
000001
,
010000
010000
000010
000010
,
001000
001000
000001
100000
,
000100
000100
010000
000010
,
001000
001100
000001
100001
,
001000
000100
000000
010000
,
000010
010000
000010
100000
,
000001
000000
001000
000100
,
000001
100001
100000
100001
,
100000
000100
001000
000001
,
010000
010100
100000
000001
,
000010
000110
100000
000001
,
001000
000100
100000
000001
,
001000
000001
100000
000001
,
100000
110000
000100
001000
,
000001
000011
000100
001000
,
100000
000001
001000
000100
,
001000
000001
100000
000100
,
100000
000001
100001
100001
,
000100
001000
001100
001100
,
010000
000010
010010
010010
,
001000
001000
000100
001000
,
000001
100000
000001
100000
,
000100
001000
000100
001000
,
000001
000001
100000
100000
,
001000
000001
100000
000100
,
100001
000000
000000
000000
;

//---------------dance-solo - ----------------
#NOTES:
     dance-solo:
     :
     Medium:
     5:
     0.364,0.434,0.533,0.000,0.000:
000000
000000
000000
000000
,
000000
000000
000000
000000
,
000000
000000
000000
000000
,
000000
000000
000000
000000
,
000000
000000
000000
000000
,
000000
000000
000110
010100
,
001000
001000
001000
001000
,
000001
000001
000001
000001
,
100000
100000
100000
100000
,
000100
000100
000100
100001
,
100000
010100
100000
010100
,
000001
000110
000001
000110
,
001000
100100
001000
100100
,
001000
001100
000001
100001
,
000100
000000
100001
000000
000100
000010
000001
000000
,
100000
101000
010000
000001
,
000010
000000
000101
000000
001000
100000
000001
000000
,
100000
001000
000100
000001
,
001000
100001
000100
001100
,
010000
000010
100000
000001
,
010000
100000
000010
000001
,
000110
010100
000110
010100
,
000001
001001
100000
000100
,
101000
000000
000000
000000
000010
010000
000010
000000
,
000100
000110
000011
100000
,
001000
010001
000100
100000
,
001000
000100
010000
000000
000010
000000
000010
000000
,
100000
000001
001000
000100
,
100000
000100
001000
000001
,
110000
010100
110000
010100
,
000001
000000
100001
000000
001000
000100
100000
000000
,
000100
000000
001100
000000
100000
000001
001000
000000
,
000010
010000
000010
000010
,
010001
001000
000010
000010
,
000100
000000
100100
000000
000010
010000
001000
000000
,
100000
000000
101000
000000
000100
000001
001000
000000
,
000010
010000
000010
010000
,
001100
000000
100001
000000
001000
000100
100000
000000
,
000001
100000
000100
000000
000100
001000
000001
000000
,
010000
000010
010000
000000
000100
100000
001000
000000
,
000010
000100
000010
000000
010000
001000
010000
000000
,
000110
010100
000110
010100
,
000011
000110
000011
000110
,
110000
011000
110000
011000
,
000100
100000
000001
001000
,
000100
000001
000100
100000
000100
000001
000100
100000
,
000001
000000
000000
000000
;

//---------------dance-solo - ----------------
#NOTES:
     dance-solo:
     :
     Hard:
     7:
     0.435,0.434,0.233,0.000,0.000:
000000
000000
000000
000000
,
000000
000000
000000
000000
,
000000
000000
000000
000000
,
000000
000000
000000
000000
,
000000
000000
000000
000000
,
000000
000000
110000
100100
,
001000
010000
001000
000010
001000
010000
001000
000100
,
001000
010000
001000
000010
001000
010000
001000
000100
,
001000
010000
001000
000010
001000
010000
001000
000100
,
100000
000001
100000
000001
100000
000001
100000
000001
,
001000
010000
001000
000010
001000
010000
001000
000100
,
001000
010000
001000
000010
001000
010000
001000
000100
,
001000
010000
001000
000010
001000
010000
001000
000100
,
010000
000010
010000
000010
010000
000010
100000
000000
,
001000
000001
010000
000100
,
100000
000010
001000
000001
,
010000
100001
000100
001000
,
100000
000010
010000
010010
,
100000
100000
001000
000000
010000
010000
000100
000000
,
100000
001000
100000
000001
000100
001000
000100
000001
,
100000
001000
000100
000001
,
000010
000101
010000
010100
,
001000
000100
100000
000000
000011
000000
000101
000000
,
100000
001000
000100
000001
,
001000
100001
000100
100001
,
001000
000100
010000
010000
000000
000000
000010
000000
,
001000
010000
001000
000000
001000
000010
001000
000001
,
100000
000001
010000
000010
,
001000
010010
000001
100001
,
001000
000100
001000
000010
001000
000001
100000
000100
,
001100
000000
100001
000000
000100
000010
000100
000010
,
100000
000000
101000
000000
000100
001000
000100
001000
,
000001
010000
000010
100000
,
010100
100100
100001
001001
,
000010
000010
010000
000000
000100
001000
000100
001000
,
000001
010000
000010
000000
010000
001000
100000
000001
,
001000
000010
010000
001000
,
000110
000000
010100
000000
100000
000001
000100
001000
,
100000
000001
001000
000001
010000
000001
001000
000001
,
100000
000100
100000
000001
100000
000010
100000
000001
,
001000
000100
100000
000100
010000
000100
100000
000100
,
010000
001000
000100
001000
100000
001000
000010
001000
,
100000
000001
001000
000001
010000
000001
001000
000001
,
100000
000100
100000
000001
100000
000010
100000
000001
,
001000
000100
100000
000100
010000
000100
100000
000100
,
010000
001000
000100
001000
100000
001000
000010
001000
,
100000
000000
000000
000000
;

//---------------dance-double - Edit by silenttype01----------------
#NOTES:
     dance-double:
     Edit by silenttype01:
     Challenge:
     8:
     0.475,0.510,0.144,0.089,0.100: // measure 1
00000000
00000000
00000000
00000000
,  // measure 2
00000000
00000000
00000000
00000000
,  // measure 3
00000000
00000000
00000000
00000000
,  // measure 4
00000000
00000000
00000000
00000000
,  // measure 5
00000000
00000000
00000000
00000000
,  // measure 6
10020000
00000000
00000000
00000000
,  // measure 7
10030000
01000000
00100000
00001000
00010000
00000010
00000100
00000001
,  // measure 8
00000100
00000010
00010000
00001000
00100000
01000000
10000000
01000000
,  // measure 9
00100000
00001000
00010000
00000010
00000100
00000001
00000100
00000010
,  // measure 10
00010000
00001000
00100000
01000000
10000000
01000000
00100000
00100000
,  // measure 11
00100000
00001000
00010000
00000010
00000100
00000001
00000100
00000010
,  // measure 12
00010000
00001000
00100000
01000000
10000000
01000000
00100000
00001000
,  // measure 13
00010000
00000010
00000100
00000001
00000100
00000010
00010000
00001000
,  // measure 14
00100000
01000000
10000000
01000000
00100000
00001000
00010000
00010000
,  // measure 15
00010000
00000100
00001000
00000010
00000000
00000000
00000101
00000000
,  // measure 16
00000001
00000100
00000001
00000010
00000000
00000000
00001100
00000100
,  // measure 17
00000100
00010000
00100000
00010000
00000000
00000000
00011000
00000000
,  // measure 18
00010000
00001000
00000010
00001000
00000000
00000000
00011000
00010000
,  // measure 19
00010000
00100000
10000000
00010000
00000000
00000000
00110000
00000000
,  // measure 20
01000000
10000000
01000000
00100000
00000000
00000000
00010000
00010000
,  // measure 21
20020000
00000000
00000000
30030000
,  // measure 22
01000000
00100000
10000000
00100000
01000000
00100000
10000000
00010000
,  // measure 23
00000100
00000010
00000010
00001000
00000001
00000001
00000100
00000000
,  // measure 24
00000001
00000010
00000010
00000100
00010000
00010000
00001000
00000000
,  // measure 25
00000100
00000001
00000001
00000100
00001000
00001000
00010000
00000000
,  // measure 26
00001000
00100000
00100000
01000000
10000000
10000000
00010000
00000000
,  // measure 27
10000000
00000000
01000000
00000000
00100000
00000000
00001000
00000000
00010000
00000000
00000010
00000100
00000000
00000000
00000001
00000000
,  // measure 28
00000100
00000000
00000010
00000000
00010000
00000000
00000100
00000000
00000000
00001000
00000000
00000100
00001000
00000000
00000001
00000000
,  // measure 29
00000101
00000000
00000000
00000000
00000100
00000000
00000001
00000010
00000000
00000001
00000010
00000000
00001001
00000000
00000000
00000000
,  // measure 30
00000100
00000010
00000001
00000010
00000100
00000010
00000001
00001000
,  // measure 31
01000000
00000000
10000000
00000000
00100000
01000000
00100000
01000000
,  // measure 32
10020000
00030000
10000000
00000000
00100000
01000000
00010000
00000010
,  // measure 33
00000001
00001000
00010000
10000000
,  // measure 34
00010000
00000000
00001000
00000000
00000001
00000001
00000000
00000000
,  // measure 35
00002001
00000000
00003001
00000000
00000010
00000100
00000010
00000100
,  // measure 36
00002001
00003000
00000001
00000000
00000010
00000100
00001000
00100000
,  // measure 37
10000000
00010000
00001000
00000001
,  // measure 38
00001000
00000000
00010000
00000000
10000000
10000000
00000000
00000000
,  // measure 39
10000000
00000000
01000000
00000000
00100000
00000000
00001000
00000000
00010000
00000000
00000010
00000100
00000000
00000100
00000001
00000000
,  // measure 40
00000100
00000000
00000010
00000000
00010000
00000000
00001000
00000000
00100000
00000000
01000000
10000000
00000000
10000000
01000000
00000000
,  // measure 41
00100000
00000000
00001000
00000000
00010000
00000000
00000010
00000000
00000100
00000000
00000001
00000100
00000000
00000100
00000010
00000000
,  // measure 42
00010000
00000000
00001000
00000000
00100000
00000000
01000000
00000000
10000000
00000000
01000000
00000000
00100000
01000000
00100000
01000000
,  // measure 43
00100000
00000000
00001000
00000000
00010000
00000000
00000010
00000000
00000100
00000000
00000001
00000200
00000000
00000300
00000010
00000000
,  // measure 44
00010000
00000000
00001000
00000000
00100000
00000000
01000000
00000000
10000000
00000000
01000000
00200000
00000000
00300000
00001000
00000000
,  // measure 45
00010000
00000010
00000100
00000001
00000100
00000010
00010000
00001000
,  // measure 46
00100000
01000000
00100000
00000000
01000000
10000000
01000000
00000000
00100000
00001000
00100000
00000000
00001000
00000000
00011000
00000000
;
