#TITLE:will;
#SUBTITLE:;
#ARTIST:NAOKI;
#TITLETRANSLIT:;
#SUBTITLETRANSLIT:;
#ARTISTTRANSLIT:;
#CREDIT:;
#BANNER:will.png;
#BACKGROUND:will-bg.png;
#LYRICSPATH:;
#CDTITLE:DanceDanceRevolutionX.png;
#MUSIC:will.ogg;
#OFFSET:0.000;
#SAMPLESTART:45.250;
#SAMPLELENGTH:15.000;
#SELECTABLE:YES;
#DISPLAYBPM:145.000;
#BPMS:0.000=145.161,8.000=145.001;
#STOPS:;
#BGCHANGES:;

//---------------dance-single - ----------------
#NOTES:
     dance-single:
     :
     Beginner:
     1:
     0.084,0.140,0.065,0.000,0.000:
0000
0000
0000
0000
,
0000
0000
0000
0000
,
0000
0000
0000
0000
,
0000
0000
0000
0000
,
0001
0000
0000
0000
,
1000
0000
0000
0000
,
0001
0000
0000
0000
,
1000
0000
0000
0000
,
0001
0000
0000
0000
,
1000
0000
0000
0000
,
1001
0000
0000
0000
,
0000
0000
0000
0000
,
0001
0000
0000
0000
,
0001
0000
0000
0000
,
1000
0000
0000
0000
,
1000
0000
0000
0000
,
1000
0000
0000
0000
,
0001
0000
0000
0000
,
0001
0000
0000
0000
,
1001
0000
0000
0000
,
0000
0000
0000
0000
,
0001
0000
0000
0000
,
0001
0000
0000
0000
,
1000
0000
0000
0000
,
1000
0000
1000
0000
,
0001
0000
0000
0000
,
1001
0000
0000
0000
,
0000
0000
0000
0000
,
1001
0000
0000
0000
,
0001
0000
0000
0000
,
1000
0000
0000
0000
,
0001
0000
0000
0000
,
1000
0000
0000
0000
,
0001
0000
0000
0000
,
1000
0000
1000
0000
,
0001
0000
0000
0000
,
1001
0000
0000
0000
,
0000
0000
0000
0000
,
0000
0000
0000
0000
,
0000
0000
0000
0000
,
0001
0000
0001
0000
,
0001
0000
0000
0000
,
1000
0000
1000
0000
,
1000
0000
0000
0000
,
0000
0000
0000
0000
,
0001
0000
0000
0000
,
0001
0000
0000
0000
,
1000
0000
0000
0000
,
1000
0000
0000
0000
,
0001
0000
0000
0000
,
1000
0000
1000
0000
,
0001
0000
0000
0000
,
1001
0000
0000
0000
,
1000
0000
0000
0000
,
0001
0000
0000
0000
,
1000
0000
0000
0000
,
1000
0000
0000
0000
,
0001
0000
0000
0000
,
1000
0000
1000
0000
,
0001
0000
0000
0000
,
1001
0000
0000
0000
,
0000
0000
0000
0000
;

//---------------dance-single - ----------------
#NOTES:
     dance-single:
     :
     Easy:
     4:
     0.143,0.172,0.084,0.112,0.000:
0000
0000
0000
0000
,
0000
0000
0000
0000
,
0000
0000
0000
0000
,
0000
0000
0000
0000
,
0001
0000
0000
0000
,
1000
0000
0000
0000
,
0110
0000
0000
0000
,
1001
0000
0000
0000
,
0010
0000
0100
0000
,
1000
0000
0001
0000
,
0200
0000
0000
0000
,
0000
0000
0300
0000
,
0010
0000
0010
0000
,
0000
0000
0010
0010
,
0010
0000
0010
0000
,
0000
0000
0100
0100
,
0100
0000
1000
0000
,
0000
0000
0001
0001
,
0001
0000
0000
0000
,
0100
1000
0001
0000
,
0000
0000
1000
0000
,
0000
0001
0001
0000
,
0000
0000
0001
0000
,
0000
1000
1000
0000
,
0001
0000
1000
0000
,
0110
0000
0000
0000
,
2000
0000
0002
0000
,
3003
0000
0000
0000
,
0010
0000
1000
0000
,
0100
0000
0000
0000
,
1000
1000
1000
0000
,
0001
0001
0001
0000
,
0000
0000
0010
0000
,
0000
0000
0110
0000
,
0000
0000
0100
0000
,
0001
1000
0001
0000
,
2002
0000
0000
0000
,
0000
0000
3003
0000
,
0000
0000
0000
0000
,
0000
0000
0000
0000
,
0200
0000
0000
0300
,
2000
0000
0000
3000
,
0002
0000
0000
0003
,
0200
0300
0020
0030
,
0000
0000
0001
0000
,
0010
0000
0000
0000
,
0001
0001
0001
0000
,
1000
1000
1000
0000
,
0000
0000
0100
0000
,
0000
0000
0110
0000
,
0000
0000
0010
0000
,
1000
0001
1000
0000
,
0000
0000
0010
0000
,
0001
0000
0000
0000
,
0100
0100
0100
0000
,
0010
0010
0010
0000
,
0000
0000
1001
0000
,
0000
0000
1001
0000
,
0000
0000
0000
0000
,
1000
0001
1000
0001
,
2002
0000
0000
0000
,
0000
0000
3003
0000
,
0000
0000
0000
0000
;

//---------------dance-single - ----------------
#NOTES:
     dance-single:
     :
     Medium:
     7:
     0.272,0.401,0.140,0.290,0.000:
0000
0000
0000
0000
,
0000
0000
0000
0000
,
0000
0000
0000
0000
,
0000
0000
0000
0000
,
0100
1000
0001
0000
,
0100
1000
0001
0000
,
2000
0000
0001
3000
,
0200
0000
0001
0300
,
0020
0000
1000
1030
,
0200
0001
0001
0300
,
2002
0000
0000
0000
,
0000
0000
0000
0000
0000
3003
0000
0000
,
0010
0000
0001
0000
,
0010
0000
0100
1000
,
0010
0000
1000
0000
,
0100
0000
0010
0001
,
1000
0000
0001
0000
,
0100
0000
0110
1001
,
0100
0000
0001
0000
,
0010
0000
0000
1000
0001
0000
0000
0000
,
2000
0000
3002
0000
,
1003
0010
0001
0000
,
0002
0000
2003
0000
,
3001
0010
1000
0000
,
1000
0100
0001
0010
,
1000
0000
0000
0001
,
0002
0000
2003
0000
,
3100
0000
0000
0000
1000
0000
0001
0010
,
0100
0000
0000
0000
0001
0000
1000
0100
,
0010
0000
1000
0001
,
0010
0001
1000
0000
,
0100
0001
1000
0000
,
1000
0000
0001
0000
,
0010
0000
1000
0000
,
1010
0010
0101
0100
,
0020
0030
0200
0300
,
1002
0000
1000
0000
,
0000
0100
0103
0000
,
0001
0000
0001
0000
,
1000
0010
0010
0000
,
1100
0000
0010
0001
,
0011
0000
0100
1000
,
1010
0000
0100
0001
,
2000
0000
0002
3003
,
1001
0000
0000
0000
0001
0000
1000
0010
,
0100
0000
2000
3001
,
0020
0001
1000
0030
,
0200
0001
1000
0300
,
1000
0000
0010
0000
,
0001
0000
0100
0000
,
1100
0100
0011
0010
,
0200
0300
0020
0030
,
1001
0000
0000
0000
1000
0000
0001
0100
,
0010
0000
0002
1003
,
0200
1000
0001
0300
,
0020
1000
0001
0030
,
2000
3001
0002
1003
,
0200
0310
0020
0130
,
0011
0000
1100
0000
,
0020
0030
0200
0300
,
0001
0010
0000
0010
0100
0000
0100
1000
,
0000
1000
0001
0000
0000
0000
0000
0000
,
0000
0000
0000
0000
;

//---------------dance-single - ----------------
#NOTES:
     dance-single:
     :
     Hard:
     11:
     0.443,0.458,0.308,0.150,0.107:
0000
0000
0000
0000
,
0000
0000
0000
0000
,
0000
0000
0000
0000
,
0000
0000
0000
0000
,
0020
0000
0001
0030
,
0200
0001
1000
0300
,
1002
0000
0100
0003
,
2001
0010
0010
3000
,
0200
0010
1000
0310
,
0021
0100
0001
0130
,
2002
0000
0000
0000
,
0000
0000
0000
0000
0000
3003
0000
0000
,
0010
0100
0100
0010
0001
0000
1000
0001
,
0010
0000
0101
1100
,
0010
0100
0100
0010
1000
0000
0001
1000
,
0100
0000
1010
0011
,
1000
0000
0100
0000
0100
0000
0001
0000
0000
0000
0100
0001
0100
0000
1000
0000
,
0001
0000
0001
1000
,
0100
0010
0010
0100
0001
1000
1000
0001
,
0010
0000
0000
1000
0001
0000
0000
0000
,
2000
0001
3002
1000
,
1003
0000
0000
0100
0000
0000
0010
0000
0001
0000
0000
0000
0000
0000
0000
0000
,
0002
1000
2003
0001
,
3001
0000
0000
0100
0000
0000
0010
0000
1000
0000
0000
0000
0000
0000
0000
0000
,
1000
0100
0010
0100
0001
0100
0010
0100
,
1000
0000
0000
0001
0000
0000
0000
0000
0100
0000
0000
0001
0000
0000
0010
0000
,
0002
0000
0000
0013
2000
0000
0000
3000
,
1001
0000
0000
1000
0100
0010
0001
0010
,
1100
0000
0000
0001
0010
0100
1000
0100
,
0011
0000
0101
1100
,
0001
0010
0000
0010
0100
0000
0000
0000
0010
0000
1000
0000
0010
0000
0001
0000
,
0100
1000
0100
0000
1010
0000
0101
0000
,
1000
0000
0010
0000
0001
0010
0100
0000
,
0001
0000
0100
0000
1000
0100
0010
0000
,
0100
1000
0100
0010
0100
0001
0100
1000
,
0010
0001
0010
0100
0010
0000
1000
0000
,
1001
0000
1001
0000
,
0100
0000
0000
0010
0000
0000
0100
0000
1001
0000
0000
0000
0000
0000
0000
0000
,
1001
0000
0000
0100
0110
0000
0000
0000
,
0010
0000
0000
0100
0000
0000
0010
0000
1001
0000
0000
0000
0000
0000
0000
0000
,
1000
0000
0000
0100
0000
0000
0010
0000
1000
0000
0000
0010
0000
0000
0001
0000
,
0010
0000
0000
1000
0000
0000
0010
0000
0001
0000
0000
0100
0000
0000
1000
0000
,
0100
0000
0000
0001
0000
0000
0010
0000
0100
0000
0000
1000
0000
0000
0100
0000
,
0020
0000
0000
0100
0200
0000
0330
0000
,
1001
0000
0000
0001
0100
0010
1000
0010
,
0101
0000
0011
1010
,
0001
0100
0000
0100
1000
0000
0000
0000
0100
0000
1000
0000
0100
0000
0001
0000
,
0010
1000
0010
0000
1100
0000
0011
0000
,
1000
0000
0100
0000
0001
0100
0010
0000
,
0001
0000
0010
0000
1000
0010
0100
0000
,
0010
1000
0010
0100
0010
0001
0010
1000
,
0100
0001
0100
0010
0100
0000
1000
0000
,
1001
0000
0000
1000
0100
0010
0001
0010
,
1100
0000
1010
0011
,
1000
0100
0000
0100
0010
0000
0000
0000
0100
0000
0001
0000
0100
0000
1000
0000
,
0010
0001
0010
0000
0101
0000
1010
0000
,
0001
0000
0100
0000
1000
0100
0010
0000
,
1000
0000
0010
0000
0001
0010
0100
0000
,
0010
0001
0010
0100
0010
1000
0010
0001
,
0100
1000
0100
0010
0100
0000
0001
0000
,
1000
0100
1000
0000
0000
0000
0100
0010
0100
0000
0000
0000
0001
0010
0001
0000
,
0000
0000
0100
0010
0100
0000
0000
0000
0000
0000
0000
0000
0000
0000
0000
0000
,
0000
0000
0000
0000
;

//---------------dance-double - ----------------
#NOTES:
     dance-double:
     :
     Easy:
     5:
     0.208,0.259,0.028,0.075,0.000:
00000000
00000000
00000000
00000000
,
00000000
00000000
00000000
00000000
,
00000000
00000000
00000000
00000000
,
00000000
00000000
00000000
00000000
,
10000000
00000000
00000000
00000000
,
00010000
00000000
00000000
00000000
,
00100000
00000000
01000000
00000000
,
00010000
00000000
00001000
00000000
,
00000010
00000000
00000100
00000000
,
00000001
00000000
00001000
00000000
,
00002002
00000000
00000000
00000000
,
00000000
00000000
00000000
00003003
,
00000100
00000000
00000100
00000000
,
00000010
00001000
00000100
00000000
,
00001000
00000000
00001000
00000000
,
00010000
01000000
10000000
00000000
,
00100000
00100000
00010000
00000000
,
10000000
01000000
00010000
00000000
,
00001000
00001000
00000010
00000000
,
00000001
00000000
00001000
00000000
,
00000010
00000001
00000100
00001000
,
00000010
00000000
00000010
00000000
,
00001000
00010000
00001000
00010000
,
01000000
00000000
01000000
00000000
,
00100000
00010000
01000000
10000000
,
00100000
00000000
01000000
00000000
,
00010000
10000000
00010000
10000000
,
20020000
00000000
00000000
30030000
,
00100000
00100000
01000000
00000000
,
10000000
10000000
01000000
00000000
,
00010000
00000000
00010000
00000000
,
00001000
00000010
00000100
00000000
,
00001000
00000001
00000100
00000000
,
00000001
00001000
00000100
00000000
,
00000010
00000010
00010000
00010000
,
00001000
00000000
01000000
00000000
,
00200000
00000000
00000000
00300000
,
10000000
10000000
01000000
00000000
,
00020000
00000000
00000000
00030000
,
00000010
00000010
00000100
00000000
,
00000001
00000000
00000100
00000000
,
00001000
00000000
00010000
00000000
,
01000000
00000000
10000000
00000000
,
00100000
00000000
00010000
00000000
,
00100000
10000000
01000000
00000000
,
00100000
00010000
01000000
00000000
,
00100000
00001000
00010000
00000100
,
00000010
00000001
00001000
00000000
,
00000001
00000001
00000100
00000000
,
00001000
00001000
00000100
00000000
,
00010000
00010000
00001000
00001000
,
00100000
00000000
00010000
00000000
,
00100000
01000000
10000000
00000000
,
00100000
01000000
00010000
00000000
,
10000000
01000000
00010000
00001000
,
00000010
00000001
00000100
00000000
,
00000010
00001000
00000001
00000000
,
00000010
00000001
00001000
00000000
,
00000100
00000000
00010000
00000000
,
00100000
01000000
00100000
01000000
,
20020000
00000000
00000000
00000000
,
00000000
00000000
30030000
00000000
,
00000000
00000000
00000000
00000000
;

//---------------dance-double - ----------------
#NOTES:
     dance-double:
     :
     Medium:
     7:
     0.320,0.372,0.252,0.150,0.000:
00000000
00000000
00000000
00000000
,
00000000
00000000
00000000
00000000
,
00000000
00000000
00000000
00000000
,
00000000
00000000
00000000
00000000
,
00000010
00000001
00001000
00000010
,
00000100
00001000
00010000
00000000
,
00002000
00000000
00103000
00000000
,
00020000
00000000
01030000
00000000
,
20000000
00000000
00020000
30030000
,
00100000
10000000
01000000
00000000
,
00022000
00000000
00000000
00000000
,
00000000
00000000
00000000
00033000
,
00000100
00001000
00000100
00000001
,
00000101
00000000
00000000
00000000
00000010
00000001
00000010
00000000
,
00000100
00001000
00010000
00100000
,
10010000
00000000
00000000
00000000
01000000
00100000
01000000
00000000
,
00001000
00010000
00100000
00010000
,
00000010
00000000
00000110
00001001
,
00000010
00001000
00000100
00000001
,
00000010
00000000
00000000
00000001
00001000
00000000
00000000
00000000
,
00000200
00000000
00000000
00000000
00010300
00010000
00001000
00000000
,
00100000
00010000
11000000
00000000
,
00200000
00000000
00000000
00000000
00301000
00001000
00010000
00000000
,
00000100
00001000
00000011
00000000
,
00000001
00000010
00001000
00000100
,
00000001
00000000
00000100
00000100
,
00002000
00000000
00023000
00000000
,
00031000
00000000
00100000
00100000
,
00010000
00000000
01000000
00000000
00100000
10000000
01000000
00000000
,
00100000
00000000
00100000
00000000
01000000
00010000
00001000
00000000
,
00000010
00001100
00000010
00000101
,
00000110
00001001
00000110
00000000
,
00000001
00000100
00001000
00000000
00010000
00000000
00000000
00000000
,
00010000
01000000
10000000
00000000
00010000
00000000
00000000
00000000
,
00100000
00010000
01000000
10000000
,
00200000
00300000
02000000
03000000
,
10010000
00000000
01000000
00000000
,
00010000
10000000
01000000
00000000
,
00001000
00000000
00001000
00000000
,
00000010
00000001
00000100
00000000
,
00000011
00000000
00000100
00001000
,
00001100
00000000
00000010
00000000
,
00000101
00000000
00000010
00001000
,
00020000
00000000
00002000
00033000
,
00011000
00000000
00000000
00000000
00100000
10000000
01000000
00000000
,
01100000
00000000
00000000
00000000
01000000
00010000
00001000
00000000
,
00000010
00001100
00000010
00000101
,
00000110
00000000
00001000
00000001
00000100
00000000
00000000
00000000
,
00000001
00000100
00001000
00000000
00010000
00000000
00000000
00000000
,
00010000
01000000
10000000
00000000
00010000
00000000
00000000
00000000
,
00100000
00010000
01000000
10000000
,
00100000
00100000
01000000
01000000
,
10010000
00000000
01000000
00000000
00100000
10000000
01000000
00000000
,
00100000
00000000
00100000
00000000
01000000
00010000
00001000
00000000
,
00000010
00001100
00000010
00000101
,
00000110
00001001
00000110
00000000
,
00000001
00001000
00000100
00000000
00010000
00000000
00001000
00000000
,
00010000
01000000
10000000
00000000
00010000
00000000
10000000
00000000
,
00100000
00010000
01000000
10000000
,
00200000
00300000
02000000
03000000
,
10000000
01000000
00000000
01000000
00010000
00000000
00010000
00001000
,
00000000
00001000
00000100
00000000
00000000
00000000
00000000
00000000
;

//---------------dance-double - ----------------
#NOTES:
     dance-double:
     :
     Hard:
     11:
     0.449,0.515,0.299,0.215,0.140:
00000000
00000000
00000000
00000000
,
00000000
00000000
00000000
00000000
,
00000000
00000000
00000000
00000000
,
00000000
00000000
00000000
00000000
,
00010000
00000000
01000000
00000000
10000000
00100000
01000000
00000000
,
00010000
00000000
00000000
00010000
00000000
00000000
10000000
00000000
00200000
00000000
00000000
00000000
00300000
00000000
00000000
00000000
,
01020000
00000000
00100000
00031000
,
00002001
00000100
00000001
00003000
,
00000022
00000033
00002200
00003300
,
00000001
00000000
00000000
00000100
00001000
00000000
00000000
00010000
,
00022000
00000000
00000000
00000000
,
00000000
00000000
00000000
00033000
,
00100000
00000000
00010000
00100000
01000000
10000000
01000000
00000000
,
00020000
00030000
11000000
01010000
,
00100000
00000000
00010000
00001000
00000010
00000001
00001000
00000000
,
00000002
00000003
00001100
00000011
,
00001000
00000001
00000100
00000000
00000010
00010000
00001000
00000100
,
00020000
00030000
10010000
01100000
,
00010000
00100000
10000000
00000000
00100000
00001000
01000000
10000000
,
01000000
00000000
00000000
00010000
10010000
00000000
00000000
00000000
,
10000000
00000000
01000000
00000000
00100000
00001000
00010000
00000000
,
00000010
00000000
00000000
00000100
00000000
00000000
00000010
00000000
00000002
00000000
00000000
00000000
00001003
00000000
00000000
00000000
,
00000100
00000000
00000010
00000000
00001000
00010000
00100000
00000000
,
01000000
00000000
00000000
00100000
00000000
00000000
01000000
00000000
22000000
00000000
00000000
00000000
33000000
00000000
00000000
00000000
,
00100000
10000000
00100000
00000000
01000000
00001000
00010000
00000100
,
00000010
00000000
00000001
00000000
00000100
00000000
00000000
00000000
00001000
00000000
00000000
00000100
00000000
00000000
00000010
00000000
,
00000002
00000000
00000000
00001000
00002000
00000000
00000000
00000000
,
00003003
00000000
00000000
00000001
00000100
00001000
00010000
00100000
,
10100000
00000000
00000000
00010000
01000000
00100000
10000000
01000000
,
01010000
00000000
00002000
00013000
,
00010100
00000000
00000000
00000000
00001010
00000000
00000000
00000000
00000100
00000000
00000000
00000010
00000000
00000000
00010000
00000000
,
00001000
00000000
00000000
00000010
00000000
00000000
00000001
00000000
00001000
00000000
00000000
00000000
00000110
00000000
00000000
00000000
,
00010000
00000000
00100000
00000000
01000000
00000000
00000000
00000000
10000000
00000000
00000000
00010000
00000000
00000000
00100000
00000000
,
00100000
00000000
01000000
00000000
10000000
00000000
00000000
00000000
00100000
00000000
00000000
00010000
00000000
00000000
00001000
00000000
,
00100000
01000000
00010000
00001000
00010000
00100000
00010000
00001000
,
00000100
00000000
00000001
00001000
00000100
00000000
00000010
00000000
,
00001001
00000000
00000000
00000010
00000100
00000000
00000000
00000000
,
00001000
00000000
00000000
00010000
00000000
00000000
01000000
00000000
10000000
00000000
00000000
00000000
00000000
00000000
00000000
00000000
,
01010000
00000000
00000000
00100000
01000000
00000000
00000000
00000000
,
00001000
00000000
00000000
00010000
00000000
00000000
00000010
00000000
00001010
00000000
00000000
00000000
00000000
00000000
00000000
00000000
,
00000001
00000000
00000000
00000100
00000000
00000000
00001000
00000000
00010000
00000000
00000000
00100000
00000000
00000000
10000000
00000000
,
10000000
00000000
00000000
01000000
00000000
00000000
00010000
00000000
00001000
00000000
00000000
00000010
00000000
00000000
00000001
00000000
,
00001000
00000000
00000000
00000100
00000000
00000000
00010000
00000000
00001000
00000000
00000000
00100000
00000000
00000000
00010000
00000000
,
20000000
00000000
00000000
30010000
00020000
00000000
00000000
00030000
,
10010000
00000000
01000000
00010000
00100000
01000000
10000000
00100000
,
00110000
00000000
00001000
00010000
00000010
00000100
00000001
00000010
,
00000011
00000000
00000000
00000000
00001010
00000000
00000000
00000000
00000010
00000000
00000000
00000100
00000000
00000000
00010000
00000000
,
00001000
00000000
00000000
00000100
00000000
00000000
00000001
00000000
00001000
00000000
00000000
00000000
00000110
00000000
00000000
00000000
,
00010000
00000000
01000000
00000000
00100000
00000000
00000000
00000000
10000000
00000000
00000000
00010000
00000000
00000000
01000000
00000000
,
01000000
00000000
00100000
00000000
10000000
00000000
00000000
00000000
01000000
00000000
00000000
00010000
00000000
00000000
00001000
00000000
,
00000010
00000000
00000000
00000100
00000000
00000000
00001000
00000000
00000010
00000000
00000000
00000100
00000000
00000000
00000001
00000000
,
00000200
00000000
00000300
00000010
00000020
00000000
00000030
00001000
,
00001001
00000000
00000000
00001000
00000100
00000010
00000001
00000100
,
00001100
00000000
00020000
00031000
,
01001000
00000000
00000000
00000000
00110000
00000000
00000000
00000000
01000000
00000000
00000000
00100000
00000000
00000000
00001000
00000000
,
00010000
00000000
00000000
00100000
00000000
00000000
10000000
00000000
00010000
00000000
00000000
00000000
01100000
00000000
00000000
00000000
,
00001000
00000000
00000010
00000000
00000100
00000000
00000000
00000000
00000001
00000000
00000000
00001000
00000000
00000000
00000010
00000000
,
00000010
00000000
00000100
00000000
00000001
00000000
00000000
00000000
00000010
00000000
00000000
00001000
00000000
00000000
00010000
00000000
,
00000010
00000100
00001000
00010000
00001000
00000010
00001000
00010000
,
01000000
00000000
10000000
00010000
01000000
00000000
01100000
00000000
,
00100000
10000000
00100000
00000000
00000000
00000000
01000000
00010000
01000000
00000000
00000000
00000000
00001000
00010000
00001000
00000000
,
00000000
00000000
00000100
00000001
00000100
00000000
00000000
00000000
00000000
00000000
00000000
00000000
00000000
00000000
00000000
00000000
;

//---------------dance-double - ----------------
#NOTES:
     dance-double:
     :
     Challenge:
     12:
     0.515,0.572,0.243,0.262,0.472: // measure 1
00000000
00000000
00000000
00000000
,  // measure 2
00000000
00000000
00000000
00000000
,  // measure 3
00000000
00000000
00000000
00000000
,  // measure 4
00000000
00000000
00000000
00000000
,  // measure 5
00000000
00000000
00000000
00000000
,  // measure 6
00000000
00000000
00000000
00000000
,  // measure 7
00002010
00000000
00000100
00013000
,  // measure 8
10020000
00100000
20000000
30030000
,  // measure 9
22000000
33000000
00220000
00330000
,  // measure 10
20000000
00000000
30000000
00100000
00020000
00000000
00030000
00000000
,  // measure 11
00022000
00000000
00000000
00000000
,  // measure 12
00000000
00000000
00000000
00000000
00000000
00033000
00011000
00000000
,  // measure 13
00000100
00000000
00000000
00001000
00000000
00000000
00000100
00000000
00000010
00000000
00000000
00000001
00000000
00000000
00000010
00000000
,  // measure 14
00002000
00003010
00000011
00001010
,  // measure 15
00000100
00000000
00000000
00001000
00000000
00000000
00010000
00000000
01000000
00000000
00000000
10000000
00000000
00000000
00010000
00000000
,  // measure 16
20000000
30010000
00110000
11000000
,  // measure 17
00010000
00000000
00000000
10000000
00000000
00000000
00100000
00000000
01000000
00000000
00000000
00001000
00000000
00000000
00010000
00000000
,  // measure 18
00002000
00103000
00001001
00000110
,  // measure 19
00001000
00000000
00000000
00000100
00000000
00000000
00000001
00000000
00000100
00000000
00000000
00010000
00000000
00000000
00000010
00000000
,  // measure 20
00000002
00000000
00000003
00000010
00002000
00000000
00003000
00000000
,  // measure 21
00000001
00000000
00000000
00000001
00000010
00000000
00000000
00000010
00000100
00000000
00000000
00000100
00010000
00000000
00000000
00010000
,  // measure 22
00001000
00000000
00000000
00001000
00100000
00000000
00000000
00100000
02000000
00000000
00000000
00000000
03000000
00000000
00000000
00000000
,  // measure 23
10000000
00000000
00000000
10000000
01000000
00000000
00000000
01000000
00100000
00000000
00000000
00100000
00001000
00000000
00000000
00001000
,  // measure 24
00010000
00000000
00000000
00010000
00000100
00000000
00000000
00000100
00000020
00000000
00000000
00000000
00000030
00000000
00000000
00000000
,  // measure 25
00000001
00000000
00000000
00000001
00000100
00000000
00000000
00000100
00001000
00000000
00000000
00001000
00010000
00000000
00000000
00010000
,  // measure 26
01000000
00000000
00000000
01000000
10000000
00000000
00000000
10000000
00100000
00000000
00000000
00100000
00010000
00000000
00000000
00010000
,  // measure 27
00001000
00000000
00000000
00001000
00000010
00000000
00000000
00000010
00001000
00000000
00000000
00000000
00011000
00000000
00000000
00000000
,  // measure 28
00011000
00000000
00000000
00000000
,  // measure 29
00000100
00000000
00000000
00000100
00000001
00000000
00000000
00000001
00000010
00000000
00000000
00000010
00001000
00000000
00000000
00001000
,  // measure 30
00010000
00000000
00000000
00010000
01000000
00000000
00000000
01000000
10000000
00000000
00000000
10000000
00100000
00000000
00000000
00100000
,  // measure 31
00010000
00000000
00000000
00010000
00001000
00000000
00000000
00001000
00000100
00000000
00000000
00000100
00000001
00000000
00000000
00000001
,  // measure 32
00000010
00000000
00000000
00000010
00001000
00000000
00000000
00001000
00020000
00000000
00000000
00000000
00030000
00000000
00000000
00000000
,  // measure 33
00001000
00000000
00000000
00001000
00000010
00000000
00000000
00000010
00000001
00000000
00000000
00000001
00000100
00000000
00000000
00000100
,  // measure 34
00001000
00000000
00000000
00001000
00010000
00000000
00000000
00010000
00100000
00000000
00000000
00100000
10000000
00000000
00000000
10000000
,  // measure 35
01000000
00000000
00000000
01000000
00010000
00000000
00000000
00010000
00001000
00000000
00000000
00001000
00000010
00000000
00000000
00000010
,  // measure 36
00000001
00000000
00002001
00000000
,  // measure 37
00003002
00000000
00000000
00000010
00000023
00000000
00000000
00000000
,  // measure 38
00001030
00000000
00000000
00010000
00000000
00000000
00100000
00000000
00200000
00000000
00000000
00000000
00000000
00000000
00000000
00000000
,  // measure 39
20300000
00000000
00000000
00100000
30200000
00000000
00000000
00000000
,  // measure 40
00310000
00000000
00000000
00001000
00000000
00000000
00000010
00000000
00000002
00000000
00000000
00000000
00000003
00000000
00000000
00000000
,  // measure 41
00000101
00000000
00000000
00000100
00000000
00000000
00001100
00000000
00001000
00000000
00000000
00011000
00000000
00000000
00010000
00000000
,  // measure 42
00110000
00000000
00000000
00100000
00000000
00000000
01100000
00000000
01000000
00000000
00000000
01001000
00000000
00000000
00001000
00000000
,  // measure 43
00011000
00000000
00000000
00010000
00000000
00000000
00110000
00000000
00100000
00000000
00000000
01100000
00000000
00000000
01000000
00000000
,  // measure 44
00001000
00000000
00100000
00000000
10000000
00000000
00100000
00000000
00001000
00010000
00001000
00000000
00000000
00000000
00000000
00000000
,  // measure 45
00100000
00010000
01000000
00100000
01000000
10000000
01000000
00010000
,  // measure 46
00000100
00001000
00000100
00000010
00000100
00000001
00001000
00000100
,  // measure 47
00000010
00001000
00010000
01000000
00100000
00010000
01000000
00100000
,  // measure 48
00010000
00001000
00000100
00000010
00000100
00001000
00010000
00100000
,  // measure 49
01000000
10000000
01000000
00010000
00100000
10000000
00100000
01000000
,  // measure 50
10000000
01000000
00100000
00001000
00010000
00000010
00000100
00001000
,  // measure 51
00010000
00001000
00000100
00000010
00000001
00000010
00001000
00000100
,  // measure 52
00001000
00000001
00001000
00000001
00001000
00000001
00001000
00000002
00002000
00000000
00000000
00000000
00003003
00000000
00000000
00000000
,  // measure 53
00000001
00000000
00000000
00001000
00000010
00000000
00000000
00010000
00001000
00000000
00000000
00000010
00000001
00000000
00000000
00000100
,  // measure 54
00001000
00000000
00000000
00010000
00100000
00000000
00000000
01000000
00100000
00000000
00000000
10000000
00010000
00000000
00000000
00100000
,  // measure 55
00001000
00000000
00000000
00010000
00100000
00000000
00000000
10000000
01000000
00000000
00000000
00100000
00001000
00000000
00000000
00010000
,  // measure 56
00000100
00000000
00000000
00010000
00001000
00000000
00000000
00010000
00100000
00000000
00000000
00000000
01100000
00000000
00000000
00000000
,  // measure 57
10000000
00000000
00000000
00010000
01000000
00000000
00000000
00001000
00010000
00000000
00000000
01000000
10000000
00000000
00000000
00100000
,  // measure 58
00010000
00000000
00000000
00001000
00000100
00000000
00000000
00000010
00000100
00000000
00000000
00000001
00001000
00000000
00000000
00000100
,  // measure 59
00010000
00000000
00000000
00001000
00000100
00000000
00000000
00000001
00000010
00000000
00000000
00000100
00010000
00000000
00000000
00001000
,  // measure 60
01000000
00000000
00000000
10000000
01000000
00000000
00000000
00001000
01000000
00000000
00000000
00000000
00110000
00000000
00000000
00000000
,  // measure 61
00010000
10000000
00010000
00000000
00000000
00000000
00010000
00001000
00010000
00000000
00000000
00000000
00001000
00000001
00001000
00000000
,  // measure 62
00000000
00000000
00000001
00001000
00000001
00000000
00000000
00000000
00000000
00000000
00000000
00000000
00000000
00000000
00000000
00000000
;
