#TITLE:Why;
#SUBTITLE:Club Mix;
#ARTIST:Nevarakka;
#TITLETRANSLIT:;
#SUBTITLETRANSLIT:;
#ARTISTTRANSLIT:;
#CREDIT:;
#BANNER:Why Club Mix.png;
#BACKGROUND:Why Club Mix-bg.png;
#LYRICSPATH:;
#CDTITLE:./CDTITLES/DANCE DANCE REVOLUTION ULTRAMIX 3.png;
#MUSIC:Why Club Mix.ogg;
#OFFSET:0.000;
#SAMPLESTART:59.105;
#SAMPLELENGTH:15.000;
#SELECTABLE:YES;
#BPMS:0.000=138.000;
#STOPS:;
#BGCHANGES:;

//---------------dance-single - ----------------
#NOTES:
     dance-single:
     :
     Beginner:
     1:
     0.093,0.137,0.075,0.000,0.000:
0000
0000
0000
0000
,
0000
0000
0000
0000
,
0000
0000
0000
0000
,
0000
0000
0000
0000
,
0000
0000
0000
0000
,
1001
0000
0000
0000
,
0000
0000
0000
0010
,
0010
0000
0000
0000
,
0001
0000
0000
0000
,
0001
0000
0000
0000
,
1000
0000
0000
0000
,
1000
0000
0000
0000
,
0010
0000
0000
0000
,
0010
0000
0000
0000
,
1000
0000
0000
0000
,
1000
0000
0000
0000
,
0000
0000
0000
0000
,
1001
0000
0000
0000
,
1000
0000
0000
0000
,
1000
0000
0010
0000
,
0000
0000
0010
0000
,
0100
0000
0000
0000
,
0100
0000
0001
0000
,
0000
0000
0001
0000
,
1000
0000
0000
0000
,
1000
0000
0100
0000
,
0000
0000
0100
0000
,
0010
0000
0000
0000
,
0010
0000
0001
0000
,
0000
0000
0001
0000
,
1000
0000
1000
0000
,
0010
0000
0010
0000
,
0100
0000
0100
0000
,
0001
0000
0000
0000
,
1001
0000
0000
0000
,
1000
0000
0000
0000
,
1000
0000
0000
0000
,
0001
0000
0000
0000
,
0001
0000
0000
0000
,
0100
0000
0000
0000
,
0100
0000
0000
0000
,
0010
0000
0010
0000
,
1001
0000
0000
0000
,
0001
0000
0001
0000
,
0000
0000
0010
0000
,
0010
0000
0000
0000
,
0100
0000
0100
0000
,
0000
0000
1000
0000
,
1000
0000
0000
0000
,
0100
0000
0100
0000
,
0000
0000
0010
0000
,
0010
0000
0000
0000
,
0110
0000
0000
0000
,
0000
0000
0000
0000
,
0110
0000
0000
0000
,
0000
0000
0000
0000
,
1001
0000
0000
0000
,
0000
0000
0000
0000
,
1001
0000
0000
0000
;

//---------------dance-single - ----------------
#NOTES:
     dance-single:
     :
     Easy:
     3:
     0.186,0.246,0.038,0.104,0.000:
0000
0000
0000
0000
,
0000
0000
0000
0000
,
0000
0000
0000
0000
,
0000
0000
0000
0000
,
0000
0000
0000
0000
,
1000
0000
0001
0000
,
0100
0000
0001
0000
,
1000
0000
0100
0000
,
1000
0000
0001
0000
,
2002
0000
0000
3003
,
0001
0000
0100
0000
,
0020
0000
0000
0030
,
0010
0000
1000
0000
,
0200
0000
0000
0300
,
0100
0000
0010
0000
,
0002
0000
1000
0003
,
0001
1000
0001
1000
,
2002
0000
0000
3003
,
0001
0001
0000
0100
,
0000
0001
0000
0100
,
0010
0010
0000
1000
,
0000
0010
0000
1000
,
0100
0100
0000
1000
,
0000
0100
0000
1000
,
0001
0001
0000
0010
,
0000
0001
0000
0010
,
0100
0100
0000
1000
,
0000
0001
0000
0100
,
0010
0010
0000
1000
,
0000
0001
0000
0010
,
0100
0100
0000
1000
,
0000
0010
0000
0100
,
0001
0001
0000
0010
,
0000
0100
0000
1000
,
1001
0000
1000
0000
,
0001
1000
0001
0000
,
0100
0000
0010
0000
,
0100
0010
0100
0010
,
1000
0000
0010
0000
,
1000
0010
1000
0000
,
0001
0000
0010
0000
,
0001
0010
0001
0010
,
0100
0000
1000
0000
,
0100
1000
0100
0000
,
0001
0000
0100
0000
,
0001
0100
0001
0100
,
0010
0000
0100
0000
,
1000
0001
1000
0000
,
0010
0000
0100
0000
,
0001
1000
0001
1000
,
0200
0000
0000
0300
,
0010
0000
0010
0001
,
0002
0000
0000
0003
,
0100
0000
0100
0000
,
0020
0000
0000
0030
,
1000
0000
1000
0100
,
0200
0000
0000
0300
,
0010
0000
0001
0000
,
1001
0000
0000
0000
;

//---------------dance-single - ----------------
#NOTES:
     dance-single:
     :
     Medium:
     6:
     0.382,0.410,0.075,0.490,0.000:
0000
0000
0000
0000
,
0000
0000
0000
0000
,
0000
0000
0000
0000
,
0000
0000
0000
0000
,
0000
0000
0000
0000
,
1000
0001
0000
1000
0100
0000
0010
0001
,
0100
0001
0000
1000
0100
0000
0010
0001
,
1000
0001
0000
0100
0010
0000
1000
0100
,
0001
0100
0000
1000
0001
0000
0010
0100
,
0010
0000
0000
0000
0000
0000
0000
1000
,
0010
0001
0000
0010
0000
0000
1000
0002
,
0000
0000
0000
0000
0000
0000
0000
1003
,
0020
0100
0000
0100
0000
0130
0000
0000
,
1000
0000
0001
0200
0000
0000
0000
0320
,
0000
0000
1030
0200
0000
0000
0301
0200
,
0000
0000
0000
0000
0000
0000
1300
0020
,
0000
0000
0000
0000
0000
1030
0100
0010
,
0002
0000
0000
0003
,
2000
0100
0100
3100
,
0200
0010
0010
0310
,
0020
0001
0001
0031
,
2000
0010
0010
3010
,
0020
1000
0100
1030
,
2000
0100
0001
3100
,
0200
0010
0001
0310
,
0020
0001
1000
0031
,
0100
1001
0010
1001
,
0200
0320
0230
0320
,
0130
1100
0010
0011
,
2000
3002
2003
3002
,
0103
1001
0010
1001
,
0200
0320
0230
0320
,
0130
0101
0010
1010
,
0002
2003
3002
2003
,
3001
0010
0000
0010
0000
0001
0000
1000
,
0000
1000
0000
0100
0000
0010
0000
0010
,
0001
0010
0000
0010
0000
0100
0000
0100
,
0000
1000
0000
0010
0000
0010
0000
0100
,
0002
0000
1003
0020
0000
0000
1030
0002
,
0000
0000
0013
0200
0000
0000
1300
0100
,
0000
0100
0000
0010
0000
0001
0000
0001
,
0000
1000
0000
0001
0000
0001
0000
1000
,
0100
0010
0001
0000
0100
0100
0100
0000
,
0020
0230
0320
0230
,
0301
0010
0100
0000
1000
1000
1000
0000
,
0002
2003
3002
2003
,
3010
0000
0100
0020
0000
0000
0000
2030
,
0000
0000
3001
0200
0000
0000
0310
0200
,
0000
0000
0000
0000
0000
0000
0301
2000
,
0000
0000
0000
0000
0000
3100
0002
0000
,
0103
0010
0000
0010
0000
0001
0000
1000
,
0000
1000
0000
0010
0000
1000
0020
0000
,
0130
0001
0000
0001
0000
1000
0000
0010
,
0000
0010
0000
0100
0000
0001
0200
0000
,
0301
1000
0000
0001
0100
0000
0010
1000
,
0100
1000
0000
0001
0100
0000
0010
1000
,
0001
1000
0000
0100
0010
0000
0001
0100
,
1000
0100
0000
0001
1000
0000
0010
0100
,
0010
0000
0000
0000
;

//---------------dance-single - ----------------
#NOTES:
     dance-single:
     :
     Hard:
     7:
     0.432,0.492,0.123,0.311,0.000: // measure 1
0000
0000
0000
0000
,  // measure 2
0000
0000
0000
0000
,  // measure 3
0000
0000
0000
0000
,  // measure 4
0000
0000
0000
0000
,  // measure 5
0000
0000
0000
1001
,  // measure 6
1000
0100
0010
0001
1000
0100
1000
0001
,  // measure 7
0100
0010
1000
0001
0100
0001
1000
0100
,  // measure 8
0010
0001
1000
0100
1000
0001
0010
0100
,  // measure 9
1000
0001
0100
0001
1000
0010
0100
0001
,  // measure 10
0220
0000
0330
0020
,  // measure 11
0000
0000
0000
2030
,  // measure 12
0000
0000
0000
3000
,  // measure 13
0200
0000
0000
0300
,  // measure 14
0020
0000
0000
0030
,  // measure 15
0001
0001
0100
0100
,  // measure 16
0010
0010
1000
1000
,  // measure 17
0100
0100
0010
0010
,  // measure 18
0022
0000
0000
0033
,  // measure 19
0200
0000
0301
1000
0001
0010
0001
1000
,  // measure 20
0020
0000
0000
0200
0300
0000
0030
0000
,  // measure 21
0200
0000
0301
1000
0100
0001
0100
1000
,  // measure 22
0002
0000
0000
0200
0303
0000
1000
0000
,  // measure 23
0002
0000
0013
0100
0010
1000
0010
0100
,  // measure 24
0020
0000
0000
0002
0033
0000
0000
0000
,  // measure 25
0002
0000
1003
0100
0010
0001
1000
0001
,  // measure 26
1000
0000
0010
0000
1000
1000
1000
0000
,  // measure 27
0200
0000
0310
0100
1000
0100
0001
0100
,  // measure 28
0020
0000
0000
0200
0030
0000
0300
0000
,  // measure 29
2000
0000
3001
0100
0010
0100
0001
0100
,  // measure 30
0002
0000
0000
2000
3003
0000
0020
0000
,  // measure 31
0200
0330
0001
0100
1000
0100
1000
0100
,  // measure 32
0020
0000
0000
2000
3030
0000
0100
0000
,  // measure 33
0200
0000
0300
1000
0100
0001
0100
1000
,  // measure 34
0200
0000
0000
0000
0300
1000
0001
0000
,  // measure 35
0110
0001
0100
1000
0100
0001
0010
0001
,  // measure 36
0100
0001
1000
0100
0010
0001
1000
0010
,  // measure 37
1000
0100
1000
0001
1000
0000
0000
1000
,  // measure 38
0100
0000
0000
0100
0000
0010
0000
0000
,  // measure 39
0001
0000
1000
0100
0000
0000
0001
0000
,  // measure 40
0100
0000
0010
0100
0000
0000
0010
0010
,  // measure 41
0100
0100
1000
0100
0000
0000
0020
0200
,  // measure 42
0000
0000
0000
0330
0000
1000
0001
0000
,  // measure 43
1100
1000
0100
0010
0001
1000
0001
0100
,  // measure 44
0010
1000
0001
1000
0100
0010
0001
1000
,  // measure 45
0001
0100
0010
1000
0001
1000
0010
0100
,  // measure 46
0001
1000
0001
0010
0100
1000
0001
0100
,  // measure 47
0101
0000
1000
0200
0000
0000
0300
0000
,  // measure 48
0010
0000
0001
0100
0000
0010
1000
0001
,  // measure 49
0100
0010
0100
0010
1000
0001
1000
0100
,  // measure 50
0010
0000
0001
1000
0001
0000
0001
0001
,  // measure 51
0101
0000
0001
1000
0100
0000
0010
0001
,  // measure 52
1000
0000
1001
0000
0100
0001
0001
0000
,  // measure 53
0101
0000
0001
1000
0100
0000
0100
0000
,  // measure 54
1100
0000
0001
0100
1000
0100
0001
0000
,  // measure 55
0101
0000
0001
0010
1000
0000
1000
0010
,  // measure 56
0001
0000
0001
0100
1000
0100
0010
0000
,  // measure 57
1001
0000
0010
1000
0100
0001
0100
1000
,  // measure 58
0010
0100
0001
1000
0100
0010
0001
0000
,  // measure 59
1001
0000
0000
0000
;

//---------------dance-double - ----------------
#NOTES:
     dance-double:
     :
     Beginner:
     1:
     0.083,0.137,0.009,0.000,0.000:
00000000
00000000
00000000
00000000
,
00000000
00000000
00000000
00000000
,
00000000
00000000
00000000
00000000
,
00000000
00000000
00000000
00000000
,
00000000
00000000
00000000
00000000
,
00001000
00000000
00000000
00000000
,
00000000
00000000
00000000
00000000
,
00010000
00000000
00000000
00000000
,
01000000
00000000
00000000
00000000
,
10000000
00000000
00000000
00000000
,
10000000
00000000
00000000
00000000
,
00010000
00000000
00000000
00000000
,
01000000
00000000
00000000
00000000
,
00001000
00000000
00000000
00000000
,
00000100
00000000
00000000
00000000
,
00000001
00000000
00000000
00000000
,
00001000
00000000
00000000
00000000
,
00001000
00000000
00000000
00000000
,
00000001
00000000
00000000
00000000
,
00000001
00000000
00000000
00000000
,
00000100
00000000
00000000
00000000
,
00000100
00000000
00000000
00000000
,
00010000
00000000
00000000
00000000
,
00010000
00000000
00000000
00000000
,
01000000
00000000
00000000
00000000
,
01000000
00000000
00000000
00000000
,
00010000
00000000
00000000
00000000
,
00010000
00000000
00000000
00000000
,
01000000
00000000
00000000
00000000
,
01000000
00000000
00000000
00000000
,
00001000
00000000
00000000
00000000
,
00001000
00000000
00000000
00000000
,
00000010
00000000
00000000
00000000
,
00000010
00000000
00000000
00000000
,
00000001
00000000
00000000
00000000
,
00000001
00000000
00000000
00000000
,
00001000
00000000
00000000
00000000
,
00001000
00000000
00000000
00000000
,
00000100
00000000
00000000
00000000
,
00000100
00000000
00000000
00000000
,
00010000
00000000
00000000
00000000
,
00010000
00000000
00000000
00000000
,
00001000
00000000
00001000
00000000
,
00001000
00000000
00000000
00000000
,
01000000
00000000
01000000
00000000
,
01000000
00000000
00000000
00000000
,
00100000
00000000
00100000
00000000
,
00100000
00000000
00000000
00000000
,
10000000
00000000
10000000
00000000
,
10000000
00000000
00000000
00000000
,
00010000
00000000
00010000
00000000
,
00010000
00000000
00000000
00000000
,
00000100
00000000
00000100
00000000
,
00000100
00000000
00000000
00000000
,
00000010
00000000
00000010
00000000
,
00000010
00000000
00000000
00000000
,
00001000
00000000
00001000
00000000
,
00001000
00000000
00000000
00000000
,
00001001
00000000
00000000
00000000
;

//---------------dance-double - ----------------
#NOTES:
     dance-double:
     :
     Easy:
     3:
     0.186,0.246,0.038,0.104,0.000:
00000000
00000000
00000000
00000000
,
00000000
00000000
00000000
00000000
,
00000000
00000000
00000000
00000000
,
00000000
00000000
00000000
00000000
,
00000000
00000000
00000000
00000000
,
10000000
00000000
00100000
00000000
,
01000000
00000000
00010000
00000000
,
00100000
00000000
00001000
00000000
,
00010000
00000000
00001000
00000000
,
00022000
00000000
00000000
00033000
,
00010000
00000000
00001000
00000000
,
00000200
00000000
00000000
00000300
,
00000001
00000000
00000010
00000000
,
00000200
00000000
00000000
00000300
,
00001000
00000000
00000010
00000000
,
00000200
00000000
00001000
00000300
,
00010000
00001000
00010000
00001000
,
00022000
00000000
00000000
00033000
,
00001000
00010000
00000000
00001000
,
00000000
00010000
00000000
01000000
,
00100000
00010000
00000000
10000000
,
00000000
00010000
00000000
10000000
,
00100000
01000000
00000000
00100000
,
00000000
01000000
00000000
00100000
,
00010000
00001000
00000000
00010000
,
00000000
00001000
00000000
00010000
,
00001000
00000100
00000000
00000010
,
00000000
00000100
00000000
00000010
,
00001000
00000001
00000000
00001000
,
00000000
00000001
00000000
00001000
,
00000100
00010000
00000000
00001000
,
00000000
00010000
00000000
00001000
,
00100000
00010000
00000000
10000000
,
00000000
00010000
00000000
10000000
,
10010000
00000000
00010000
00000000
,
00100000
01000000
00100000
00000000
,
00010000
00000000
01000000
00000000
,
00100000
01000000
00100000
01000000
,
00001000
00000000
00010000
00000000
,
00001000
00010000
00001000
00000000
,
00010000
00000000
00000100
00000000
,
00001000
00000100
00001000
00000100
,
00000010
00000000
00000001
00000000
,
00001000
00000010
00001000
00000000
,
00000001
00000000
00000100
00000000
,
00000010
00000100
00000010
00000100
,
00001000
00000000
00010000
00000000
,
00001000
00010000
00001000
00000000
,
00100000
00000000
00010000
00000000
,
10000000
00010000
10000000
00010000
,
02000000
00000000
00000000
03000000
,
00100000
00000000
00100000
10000000
,
00020000
00000000
00000000
00030000
,
00100000
00000000
00001000
00000000
,
00020000
00000000
00000000
00030000
,
00001000
00000000
00010000
00000100
,
00002000
00000000
00000000
00003000
,
00000010
00000000
00000100
00000000
,
00000110
00000000
00000000
00000000
;

//---------------dance-double - ----------------
#NOTES:
     dance-double:
     :
     Medium:
     6:
     0.338,0.360,0.245,0.132,0.000:
00000000
00000000
00000000
00000000
,
00000000
00000000
00000000
00000000
,
00000000
00000000
00000000
00000000
,
00000000
00000000
00000000
00000000
,
00000000
00000000
00000000
00000000
,
00010000
00000000
00001000
00000000
00000100
00000001
00000010
00000001
,
00000100
00000000
00001000
00000000
00000100
00000001
00000010
00000001
,
00000100
00000000
00001000
00000000
00010000
00001000
00010000
00001000
,
00010000
00000000
01000000
00000000
10000000
00100000
10000000
01000000
,
20000000
00000000
00000000
00000000
00000000
00000000
00000000
31000000
,
00010000
01000000
00000000
00010000
00000000
00000000
00001000
00000000
,
00021000
00000000
00000000
00000000
00000000
00000000
00000000
00031000
,
00010000
00001000
00000000
00000100
00000000
00000000
00000001
00000000
,
00001001
00000000
00001000
00000001
00000000
00000000
00000000
00000000
,
00000110
00000000
00000010
00002000
00000000
00000000
00003100
00020000
,
00000000
00000000
00000000
00000000
00000000
00000000
00031000
02000000
,
00000000
00000000
00000000
00000000
00000000
03100000
10000000
00000000
,
10010000
00000000
00000000
00000000
,
00100000
10000000
00100000
00010000
,
01100000
00000000
00000000
10010000
00000000
00000000
00000000
00000000
,
10000000
01000000
00100000
00010000
,
01100000
00000000
00000000
01010000
00000000
00000000
00011000
00000000
,
00010000
00001000
00000010
00001000
,
00000110
00000000
00000000
00000011
00000000
00000000
00001001
00000000
,
00000001
00000100
00001000
00000100
,
00000101
00000000
00000000
00001100
00000000
00000000
00000110
00000000
,
00000001
00000010
00001000
00000010
,
00001001
00000100
00001100
00010000
,
00001000
00010000
01000000
00010000
,
01100000
00010000
10010000
10000000
,
00100000
00010000
00100000
10000000
,
11000000
00010000
01010000
10000000
,
01000000
00010000
00001000
00010000
,
00022000
00000000
00000000
00033000
,
00001000
00000000
00000100
00000000
00000001
00000010
00000100
00000000
,
00001000
00000100
00000010
00000000
00000001
00000000
00001000
00000000
,
00000001
00000000
00000000
00000000
00001000
00000100
00000010
00000000
,
00000001
00000010
00000100
00000000
00001000
00000000
00000100
00000000
,
00010000
00000000
00001000
00010000
00000000
00000000
00100000
10000000
,
00000000
00000000
01000000
00010000
00000000
00000000
00001000
00000010
,
00000000
00000000
00000001
00000100
00000000
00000000
00001000
00010000
,
00000000
00000000
00000000
00000000
,
10000000
01000000
00100000
00000000
00010000
00100000
01000000
00000000
,
20000000
00000000
00000000
30200000
00000000
00000000
02300000
00000000
,
03010000
00100000
01000000
00000000
10000000
01000000
00100000
00000000
,
00020000
00000000
00000000
20030000
00000000
00000000
32000000
00000000
,
13000000
00000000
00100000
01000000
00000000
00000000
00001000
00010000
,
00000000
00000000
00000100
00001000
00000000
00000000
00000010
00000100
,
00000000
00000000
00000001
00000010
00000000
00000000
00000100
00001000
,
00000000
00000000
00000000
00000000
,
00010000
01000000
10000000
00000000
01000000
00000000
00000000
10000000
,
00000000
00100000
00000000
01000000
10010000
00000000
10010000
00000000
,
10000000
01000000
00010000
00000000
01000000
00000000
00000000
00010000
,
00000000
00001000
00000000
00010000
00011000
00000000
00011000
00000000
,
00001000
00000000
00010000
00000000
01000000
10000000
00100000
10000000
,
01000000
00000000
00010000
00000000
01000000
10000000
00100000
10000000
,
01000000
00000000
00010000
00000000
00001000
00010000
00001000
00010000
,
00001000
00000000
00000100
00000000
00000001
00000010
00000001
00000100
,
00000002
00000000
00000000
00000003
;

//---------------dance-double - ----------------
#NOTES:
     dance-double:
     :
     Hard:
     7:
     0.431,0.498,0.226,0.339,0.151:
00000000
00000000
00000000
00000000
,
00000000
00000000
00000000
00000000
,
00000000
00000000
00000000
00000000
,
00000000
00000000
00000000
00000000
,
00000000
00000000
00000000
00000000
,
00000010
00000001
00000000
00000010
00000000
00000000
00000001
00000000
00001000
00000000
00000001
00000100
00000000
00001000
00000000
00000000
,
00000100
00001000
00000000
00010000
00000000
00000000
00001000
00000000
00010000
00000000
01000000
00100000
00000000
01000000
00000000
00000000
,
00100000
01000000
00000000
10000000
00000000
00000000
01000000
00000000
10000000
00000000
00100000
10000000
00000000
00010000
00000000
00000000
,
10000000
00010000
00000000
00100000
00000000
00000000
01000000
00000000
00100000
00000000
01000000
10000000
00000000
01000000
00000000
00000000
,
20000000
00000000
00000000
00000000
00000000
00000000
00000000
30100000
,
00010000
00001000
00000000
00000020
00000000
00000000
00000031
00000002
,
00000000
00000000
00000000
00000000
00000000
00000000
00000000
00001003
,
00001000
00001000
00000000
00000020
00000000
00002030
00000000
00000000
,
00003200
00000000
00010300
00020000
00000000
00000000
00000000
00032000
,
00000000
00000000
00103000
00200000
00000000
00000000
01300000
02000000
,
00000000
00000000
00000000
00000000
00000000
00000000
03100000
00200000
,
00000000
00000000
00000000
00000000
00000000
00301000
01000000
00010000
,
00200000
00000000
00000000
00300000
,
01000000
10000000
00100000
00000000
01000000
00010000
00100000
00000000
,
00021000
00000000
00000000
00030020
00000000
00000000
00000130
00000000
,
00000100
00000001
00000010
00000000
00000010
00000100
00001000
00000000
,
00002001
00000000
00000000
00003020
00000000
00000000
00010030
00000000
,
00001000
00010000
01000000
00000000
01000000
10000000
00100000
00000000
,
10020000
00000000
00000000
02030000
00000000
00000000
03001000
00000000
,
00010000
00001000
00000100
00000000
00001000
00000100
00000001
00000000
,
00000021
00000000
00000000
00000230
00000000
00000000
00001300
00000000
,
00000001
00000010
00000001
00000100
00001000
00000100
00001000
00000000
,
00011000
00000000
00000000
01010000
00000000
00000000
11000000
00000000
,
00010000
10000000
00010000
10000000
01000000
10000000
01000000
00000000
,
01100000
00000000
00000000
00101000
00000000
00000000
00011000
00000000
,
00010000
00001000
00010000
00001000
00000100
00001000
00000100
00000000
,
00001001
00000000
00000000
00001100
00000000
00000000
00000101
00000000
,
00000010
00000001
00000010
00000100
00001000
00000100
00001000
00000000
,
00001100
00000000
00000000
00010100
00000000
00000000
00011000
00000000
,
00001000
00010000
00000000
01000000
10000000
00000000
00000000
00100000
,
00010000
00001000
00000000
00000010
00000001
00000000
00001100
00000000
,
00000001
00000100
00000000
00001000
00010000
00000000
00000000
01000000
,
10000000
01000000
00000000
00010000
00001000
00000000
00011000
00000000
,
00010000
01000000
00000000
10000000
00100000
00000000
00000000
10000000
,
01000000
00010000
00000000
00001000
00000010
00000000
00001001
00000000
,
00000001
00000010
00000000
00001000
00010000
00000000
00000000
00100000
,
10000000
00010000
00000000
10000000
01000000
00000000
01100000
00000000
,
20020000
00000000
00000000
30030000
,
10000000
01000000
10000000
01000000
00010000
01000000
00010000
00000000
,
00022000
00000000
00000000
00033000
,
00010000
00001000
00010000
00001000
00000100
00001000
00000100
00000000
,
00000002
00000000
00001003
00000020
00000000
00000000
00000000
00000000
,
00002030
00000000
00003100
00020000
00000000
00000000
00031000
02000000
,
00000000
00000000
00000000
00000000
00000000
00000000
03100000
20000000
,
00000000
00000000
30020000
20030000
,
31000000
00010000
01000000
10000000
01000000
00010000
00001000
00010000
,
01000000
00010000
00001000
00000100
00001000
00010000
00001000
00000100
,
00000001
00000100
00001000
00000100
00000001
00000010
00000100
00001000
,
00002002
00000000
00000000
00003003
,
00000010
00000001
00000000
00000010
00000000
00000000
00000001
00000000
00001000
00000000
00000001
00000100
00000000
00001000
00000000
00000000
,
00000100
00001000
00000000
00010000
00000000
00000000
00001000
00000000
00010000
00000000
01000000
00100000
00000000
01000000
00000000
00000000
,
00100000
01000000
00000000
10000000
00000000
00000000
01000000
00000000
10000000
00000000
00100000
10000000
00000000
00010000
00000000
00000000
,
10000000
00010000
00000000
00100000
00000000
00000000
01000000
00000000
00100000
00000000
01000000
10000000
00000000
01000000
00000000
00000000
,
20020000
00000000
00000000
30030000
;

//---------------dance-double - ----------------
#NOTES:
     dance-double:
     :
     Challenge:
     9:
     0.568,0.692,0.066,0.123,0.490:
00000000
00000000
00000000
00000000
,
00000000
00000000
00000000
00000000
,
00000000
00000000
00000000
00000000
,
00000000
00000000
00000000
00000000
,
00000000
00000000
00000000
00000000
,
00000010
00000001
00000000
00000010
00000000
00000001
00001000
00000001
00000100
00000000
00001000
00000100
00000000
00001000
00000000
00010000
,
00001000
00010000
00000000
01000000
00000000
00000000
00100000
00000000
01000000
00000000
00000000
00100000
01000000
10000000
00000000
00000000
,
01000000
10000000
00000000
00100000
00000000
10000000
00010000
10000000
00010000
00000000
00100000
01000000
00000000
00100000
00000000
01000000
,
10000000
01000000
00000000
10000000
00000000
00000000
00100000
00000000
00010000
00000000
00000000
00001000
00000010
00000001
00000000
00000000
,
00002002
00000000
00000000
00000000
,
00000000
00000000
00000000
00000003
,
00020000
00000000
00000000
00000000
,
00000000
00000000
00000000
00003000
,
00200000
00000000
00000000
00030000
,
20000000
00000000
00000000
00300000
,
02000000
30000000
00002000
03000000
,
00020000
00000000
00003000
00000000
00002000
00000000
00030000
00003000
,
02200000
00000000
00000000
00300000
,
03100000
01000000
10000000
01000000
00100000
01000000
10000000
00010000
,
01000000
00100000
01000000
00001000
00000100
00001000
01000000
00100000
,
10000000
00100000
01000000
00001000
00010000
01000000
10000000
00100000
,
01000000
00001000
00010000
01000000
10000000
00100000
00010000
00001000
,
00000100
00000001
00001000
00000010
00000001
00001000
00000100
00000001
,
00001000
00000010
00000001
00001000
00000100
00000001
00000010
00001000
,
00010000
01000000
10000000
00010000
00100000
10000000
00010000
01000000
,
10000000
00010000
00100000
10000000
00010000
00010000
00011000
00000000
,
00000010
00000100
00000001
00000100
00000010
00000100
00000001
00001000
,
00000100
00000010
00000100
00010000
01000000
00010000
00000100
00000010
,
00000001
00000010
00000100
00010000
00001000
00000100
00000001
00000010
,
00000100
00010000
00001000
00000100
00000001
00000010
00001000
00010000
,
01000000
10000000
00010000
00100000
10000000
00010000
01000000
10000000
,
00010000
00100000
10000000
00010000
01000000
10000000
00100000
00010000
,
00001000
00000100
00000001
00001000
00000010
00000001
00001000
00000100
,
00000001
00001000
00000010
00000001
00001000
00000100
00000101
00000000
,
00000001
00000000
00001000
00000010
00000000
00000000
00000100
00000001
00000000
00000000
00000010
00000100
00000000
00000000
00010000
00001000
,
00000000
00000000
00000100
00000001
00000000
00000000
00000010
00001000
00000000
00000000
00010000
00001000
00000000
00000000
00100000
00010000
,
00000000
00000000
10000000
01000000
00000000
00000000
00100000
00010000
00000000
00000000
01000000
00100000
00000000
00000000
00010000
00001000
,
00000000
00000000
00100000
00010000
00000000
00000000
10000000
01000000
00000000
00000000
00010000
00001000
00000000
00000000
00000100
00000001
,
00000100
00000000
00000001
00001000
00000000
00000000
00000100
00000010
00000000
00000000
00000001
00000100
00000000
00000000
00001000
00010000
,
00000000
00000000
00100000
10000000
00000000
00000000
00100000
00010000
00000000
00000000
00001000
00000100
00000000
00000000
00000001
00000100
,
00000000
00000000
00001000
00010000
00000000
00000000
00100000
10000000
00000000
00000000
01000000
00100000
00000000
00000000
00001000
00010000
,
00000000
00000000
01000000
10000000
00000000
00000000
00010000
01000000
00100000
00000000
01000000
00000000
01100000
00000000
00000000
00000000
,
00100000
00000000
10000000
01000000
10000000
00000000
01000000
00100000
01000000
00000000
00010000
00001000
00010000
00000000
00001000
00000100
,
00001000
00000000
00000100
00000001
00000100
00000000
00000001
00001000
00000001
00000000
00000010
00000001
00000010
00000000
00000100
00010000
,
00000100
00000000
00001000
00000010
00001000
00000000
00000001
00000100
00000001
00000000
00000100
00001000
00000100
00000000
00001000
00010000
,
00001000
00000000
00010000
00100000
00010000
00000000
00001000
00010000
00001000
00000000
00010000
00100000
00010000
00000000
00100000
10000000
,
00100000
00000000
10000000
00010000
10000000
00000000
01000000
00100000
01000000
00000000
00010000
00001000
00010000
00000000
00001000
00000010
,
00001000
00000000
00010000
00001000
00010000
00000000
00001000
00000010
00001000
00000000
00000010
00000001
00000010
00000000
00000001
00001000
,
00000001
00000000
00001000
00000100
00000001
00000000
00000001
00000100
00001000
00000000
00001000
00000100
00000001
00000000
00000001
00000100
,
00001000
00000000
00001000
00000100
00000001
00000000
00000001
00000100
00001000
00000000
00000001
00000000
00001001
00000000
00000000
00000000
,
00000001
00001000
00000010
00000100
00010000
00100000
00010000
00000100
,
00000001
00000010
00001000
00010000
00100000
10000000
00010000
01000000
,
00100000
00001000
00000010
00001000
00100000
10000000
01000000
00010000
,
00001000
00000100
00001000
00100000
00010000
01000000
00001000
00010000
,
00100000
10000000
00000000
00100000
00000000
10000000
00010000
10000000
01000000
00000000
00010000
01000000
00000000
00010000
00000000
00001000
,
00010000
00001000
00000000
00000100
00000000
00000000
00000010
00000000
00000100
00000000
00000000
00000010
00000100
00000001
00000000
00000000
,
00000100
00000001
00000000
00000010
00000000
00000001
00001000
00000001
00001000
00000000
00000010
00000100
00000000
00000010
00000000
00000100
,
00000001
00000100
00000000
00000001
00000000
00000000
00000010
00000000
00001000
00000000
00000000
00010000
00100000
10000000
00000000
00000000
,
20020000
00000000
00000000
30030000
;

//---------------dance-single - ----------------
#NOTES:
     dance-single:
     :
     Challenge:
     9:
     0.579,0.692,0.057,0.198,0.500: // measure 1
0000
0000
0000
0000
,  // measure 2
0000
0000
0000
0000
,  // measure 3
0000
0000
0000
0000
,  // measure 4
0000
0000
0000
0000
,  // measure 5
0000
0000
0000
0000
,  // measure 6
0010
0001
0000
0010
0000
0001
1000
0001
0100
0000
1000
0100
0000
0001
0000
1000
,  // measure 7
0001
1000
0000
0100
0000
0000
0010
0000
0100
0000
0000
0010
0100
1000
0000
0000
,  // measure 8
0100
1000
0000
0010
0000
1000
0001
1000
0001
0000
0010
0100
0000
0010
0000
0100
,  // measure 9
1000
0100
0000
1000
0000
0000
0010
0000
0001
0000
0000
0001
0010
1000
0000
0000
,  // measure 10
2002
0000
0000
0000
,  // measure 11
0000
0000
0000
3000
,  // measure 12
0020
0000
0000
0000
,  // measure 13
0000
0000
0000
0003
,  // measure 14
2000
0000
0000
0030
,  // measure 15
0200
0000
0000
3000
,  // measure 16
0002
0300
2000
0003
,  // measure 17
0200
0000
3000
0000
0020
0000
0300
0030
,  // measure 18
2002
0000
0000
3000
,  // measure 19
0013
0100
1000
0100
0010
0100
1000
0001
,  // measure 20
0010
0010
0010
0001
0001
0001
1000
0001
,  // measure 21
0010
0100
0001
0100
0010
0100
0001
1000
,  // measure 22
0010
0010
0010
0001
0001
0001
1000
1000
,  // measure 23
0010
0100
1000
0100
0001
1000
0010
0001
,  // measure 24
1000
1000
1000
0100
0100
0100
0001
0001
,  // measure 25
1000
0100
0010
0001
0100
0010
1000
0001
,  // measure 26
0100
0100
0100
0010
0010
0010
1001
0000
,  // measure 27
0001
0100
1000
0100
0001
1000
0010
0001
,  // measure 28
0020
1000
1030
0200
0010
0310
0001
0001
,  // measure 29
1000
0100
0001
0100
1000
0001
0010
1000
,  // measure 30
0020
0001
0031
2000
0100
3100
0020
0031
,  // measure 31
0100
0010
1000
0100
0010
0001
0100
0010
,  // measure 32
2000
0010
3010
0200
0001
0301
2000
3010
,  // measure 33
0100
0001
1000
0100
1000
0001
0100
0001
,  // measure 34
0010
1000
0010
0001
0100
1000
1100
0000
,  // measure 35
0000
0000
0100
0010
0100
0000
0001
1000
0001
0000
1000
0100
1000
0000
0100
0001
,  // measure 36
0100
0000
0010
0001
0010
0000
0001
0100
0001
0000
1000
0010
1000
0000
0010
0100
,  // measure 37
0010
0000
0100
1000
0100
0000
0010
1000
0010
0000
0100
0001
0100
0000
0001
1000
,  // measure 38
0001
0000
1000
0100
1000
0000
0100
0010
0100
0000
0010
0001
0010
0000
0001
0100
,  // measure 39
0001
0000
0100
0010
0100
0000
0010
1000
0010
0000
1000
0100
1000
0000
0100
0001
,  // measure 40
0100
0000
1000
0100
1000
0000
0001
0100
0001
0000
0100
1000
0100
0000
0010
1000
,  // measure 41
0010
0000
1000
0100
0001
0000
0001
0100
1000
0000
1000
0100
0001
0000
0001
0100
,  // measure 42
1000
0000
1000
0100
0001
0000
0001
0100
1000
0000
0001
0000
1001
0000
0000
0000
,  // measure 43
0000
0000
1000
0010
0000
0000
0100
0001
0000
0000
0010
0100
0000
0000
1000
0001
,  // measure 44
0000
0000
0100
0001
0000
0000
0010
1000
0000
0000
0010
0001
0000
0000
0100
0001
,  // measure 45
0000
0000
1000
0100
0000
0000
0010
0001
0000
0000
0100
1000
0000
0000
0100
0001
,  // measure 46
0000
0000
0010
0001
0000
0000
1000
0100
0000
0000
1000
0010
0000
0000
0100
0001
,  // measure 47
0100
0000
0001
1000
0000
0000
0100
0010
0000
0000
0001
0100
0000
0000
1000
0001
,  // measure 48
0000
0000
0010
1000
0000
0000
0010
0001
0000
0000
1000
0100
0000
0000
0001
0100
,  // measure 49
0000
0000
1000
0001
0000
0000
0010
1000
0000
0000
0100
0010
0000
0000
0001
0100
,  // measure 50
0000
0000
0010
1000
0000
0000
0001
0100
0010
0000
0100
0000
0001
1000
0001
1000
,  // measure 51
0001
0100
0010
0100
0001
0100
0010
0100
,  // measure 52
0001
1000
0100
0010
0100
1000
0100
0010
,  // measure 53
0100
1000
0001
0100
1000
0100
0001
1000
,  // measure 54
0100
0001
0100
1000
0010
0001
0010
1000
,  // measure 55
0010
1000
0000
0010
0000
1000
0001
1000
0100
0000
0001
0100
0000
1000
0000
0001
,  // measure 56
1000
0001
0000
0100
0000
0000
0010
0000
0100
0000
0000
0010
0100
0001
0000
0000
,  // measure 57
0100
0001
0000
0010
0000
0001
1000
0001
1000
0000
0010
0100
0000
0010
0000
0100
,  // measure 58
0001
0100
0000
0001
0000
0000
0010
0000
1000
0000
0000
1000
0010
0001
0000
0000
,  // measure 59
2002
0000
0000
3003
;
