#TITLE:와;
#SUBTITLE:;
#ARTIST:이정현;
#TITLETRANSLIT:WA;
#SUBTITLETRANSLIT:;
#ARTISTTRANSLIT:LEE JUNG HYUN;
#CREDIT:;
#BANNER:WA.png;
#BACKGROUND:WA-bg.png;
#LYRICSPATH:;
#CDTITLE:./CDTITLES/KOREAN DANCE MUSIC.png;
#MUSIC:WA.mp3;
#OFFSET:0.460;
#SAMPLESTART:35.128;
#SAMPLELENGTH:15.000;
#SELECTABLE:YES;
#DISPLAYBPM:141.000;
#BPMS:0.000=141.000,74.000=142.000,76.000=141.000,170.000=142.000,172.000=141.000;
#STOPS:;
#BGCHANGES:;

//---------------dance-single - ----------------
#NOTES:
     dance-single:
     :
     Beginner:
     2:
     0.201,0.260,0.044,0.000,0.000:
0000
0000
0000
0000
,
0000
0000
0000
0000
,
0000
0000
0000
0000
,
0000
0000
0000
0000
,
0000
0000
0000
0000
,
0000
1000
0000
0010
,
0000
0100
0000
0001
,
0000
1000
0000
0010
,
0000
0100
0100
0100
,
0100
0000
0001
0000
,
0001
0000
0001
0000
,
0100
0000
0100
0000
,
1000
0000
0001
0001
,
0001
0000
0100
0100
,
0100
0000
1000
1000
,
1000
0000
0100
0000
,
0001
0000
1000
1000
,
1000
0000
0100
0000
,
0001
0000
0010
0000
,
0010
0010
0000
0001
,
0001
0000
0000
0001
,
1000
1000
1000
1000
,
0001
0001
0001
0001
,
0100
0100
0100
0100
,
0010
0010
0010
0010
,
1000
1000
0001
0001
,
0100
0100
0010
0010
,
1000
0000
1000
0000
,
0001
0000
0001
0000
,
0000
1001
0000
0010
,
0000
1001
0000
0100
,
0100
0000
0001
0001
,
0001
0000
1000
1000
,
0000
1001
0000
0010
,
0000
1001
0000
0100
,
0100
0000
1000
1000
,
1000
0000
0000
0000
,
1000
0000
0100
0000
,
0010
0000
0001
0000
,
0100
0000
0010
0000
,
1000
0000
0001
0000
,
0010
0000
0001
0000
,
1000
0000
0100
0000
,
0010
0000
0001
0000
,
1000
0000
0001
0000
,
0000
1000
0000
1000
,
0000
0001
0000
0001
,
0000
0100
0000
0100
,
0000
0010
0000
1000
,
0010
0010
0100
0100
,
1000
1000
0001
0001
,
0100
0100
1000
1000
,
0010
0010
1000
0001
,
0100
0000
0000
0000
;

//---------------dance-single - ----------------
#NOTES:
     dance-single:
     :
     Easy:
     3:
     0.308,0.318,0.447,0.000,0.000:
0000
0000
0000
0000
,
0000
0000
0000
0000
,
0000
0000
0000
0000
,
0000
0000
0000
0000
,
0000
0000
0000
0000
,
1000
0000
0001
1001
,
0001
0000
1000
1001
,
0010
0000
0100
0110
,
0000
0001
0001
1000
,
1001
0000
0010
1001
,
1000
0000
0100
1001
,
0010
0010
1000
0001
,
0100
1001
0000
0110
,
1001
0000
0000
0100
,
0110
0000
1000
0001
,
1000
0000
0100
0010
,
1000
1001
0010
0110
,
1001
0000
0100
1001
,
0000
0000
0010
1001
,
0010
0010
0100
0001
,
0000
1001
1001
1001
,
1000
0000
1000
1001
,
0100
0000
0100
0110
,
1000
1000
0010
0010
,
0100
0100
0001
1001
,
0010
0000
0010
0110
,
1000
0000
1000
1001
,
0100
0100
0100
0100
,
0010
0010
0100
1001
,
0010
0010
1000
0110
,
0010
0010
0001
0110
,
0001
0000
0110
1001
,
0100
0000
0000
1001
,
0100
0100
0001
0010
,
0100
0100
1000
0001
,
1001
0000
0100
0010
,
1001
0000
1000
1001
,
0110
0000
0010
0010
,
1001
0000
0100
0100
,
0001
0000
1000
0000
,
0010
0000
0100
0100
,
0001
0000
1000
0000
,
0010
0000
0100
0000
,
0010
0010
0100
0100
,
1000
0001
0000
1000
0001
0000
1001
0000
,
0010
0000
0100
1001
,
0001
0000
1000
0110
,
0100
0000
0110
1001
,
0001
0100
0010
1000
,
0010
0100
0001
1000
,
0100
0010
1000
0001
,
0010
0000
0100
0001
,
1001
0000
1000
0000
1001
0000
0000
0010
,
1000
0000
0000
0000
;

//---------------dance-single - ----------------
#NOTES:
     dance-single:
     :
     Medium:
     5:
     0.419,0.433,0.818,0.000,0.000:
0000
0000
0000
0000
,
0000
0000
0000
0000
,
0000
0000
0000
0000
,
0000
0000
0000
0000
,
0000
0000
0000
0000
,
0010
0000
0000
0100
0001
0000
0110
0000
,
0100
0000
0000
0010
1000
0000
0110
0000
,
1000
0000
0000
0010
0100
0000
1001
0000
,
0010
1001
0100
1001
,
0110
0000
0000
0100
0010
0000
1000
0000
,
0001
0000
0000
0010
0100
0000
1000
0000
,
0001
0001
0100
0010
,
1000
1001
1001
0110
,
1001
0000
0110
1001
,
0100
0000
0000
0000
0100
0000
0001
1000
,
0001
0001
1000
0010
,
0100
1001
0001
0110
,
1001
1000
0010
0110
,
0100
0010
0100
1001
,
1000
0001
1000
0001
,
1100
1001
0101
0011
,
1000
0000
0000
1000
1000
0000
1001
0000
,
0001
0000
0000
0001
0001
0000
1001
0000
,
0100
0000
0100
0000
0010
0010
0010
0000
,
1000
0000
1000
0000
0001
0001
0001
0000
,
0010
0000
0000
0010
0010
0000
0110
0000
,
0100
0000
0000
0100
0100
0000
0110
0000
,
1000
0001
1000
1001
,
0010
0000
0000
0100
0010
0000
1001
0000
,
0010
1010
0100
0101
,
0010
0011
0100
1100
,
0001
1000
0000
0000
0001
0001
0001
0000
,
0110
1001
0110
1001
,
1000
1100
0001
0011
,
1000
1010
0001
0101
,
1001
1000
1000
0001
,
1001
1000
1000
1000
,
0001
0101
0110
1010
,
0100
0110
1010
0011
,
1000
1010
1001
0011
,
0010
0011
1001
1010
,
0100
0100
0100
1001
,
0010
0010
0010
1001
,
1010
1010
1100
1100
,
1001
0100
1001
0100
,
0010
0000
1001
1001
,
0100
0000
1001
1001
,
1010
1001
0011
1001
,
0001
1000
0001
1000
,
1001
0100
1001
0100
,
1001
0010
1001
0010
,
0100
0100
0001
1000
,
0010
0010
0000
1000
0001
0000
1001
0000
,
0110
0000
0000
0000
;

//---------------dance-single - ----------------
#NOTES:
     dance-single:
     :
     Hard:
     6:
     0.397,0.520,0.360,0.000,0.027:
0000
0000
0000
0000
,
0000
0000
0000
0000
,
0000
0000
0000
0000
,
0000
0000
0000
0000
,
0000
0000
0000
0000
,
1000
0010
0100
0001
,
0010
0100
1000
0001
,
0100
0100
0010
0010
,
1000
0000
1000
0000
0001
0010
0001
0000
,
1000
0000
0000
0001
1000
0000
0001
0000
,
1000
0000
0100
0000
0010
0000
0001
1000
,
0001
0001
1000
1000
,
0001
0011
0000
0100
,
1100
0000
0000
0000
0001
1000
0010
0000
,
1000
0000
0000
1000
0000
0001
0001
0000
,
0000
0010
0000
0100
0000
0001
0000
1000
,
0000
0000
1001
0000
0110
0000
1000
0100
,
0000
0000
0100
0000
0000
0100
0100
0000
,
0000
0000
0010
0000
0000
0010
0010
0000
,
1001
1100
0110
0011
,
1000
0001
0100
0010
1000
0100
0010
0001
,
1000
0000
0000
0100
1000
0000
0000
0000
1001
0000
1001
0000
1001
0000
0000
0000
,
0100
0000
0000
0000
0110
0110
0110
0000
,
1000
0000
0000
0100
1000
0000
0000
0000
0001
0000
0001
0000
0001
0000
0000
0000
,
0100
0000
0000
0001
0000
0000
1000
0000
0000
0000
0010
0000
0000
0000
0100
0000
,
0010
0000
0000
0000
1010
1010
1010
0000
,
0100
0000
0000
0000
0101
0101
0101
0000
,
0100
0001
0100
0000
0010
1000
0001
0100
,
0001
0000
0000
1000
0000
0000
0100
0000
0000
0000
0100
0000
0000
0000
1001
0000
,
0000
0010
0000
1000
0000
0001
0000
0100
,
0000
0010
0000
0010
0000
1000
0001
0000
,
0100
0100
0010
1000
,
0001
1000
0001
1000
,
0001
0000
1000
0010
0000
0100
0000
0000
,
0010
0000
0100
0000
0001
1000
0001
0000
,
1000
0000
0000
0100
0010
0001
1000
0100
,
0001
0000
0000
0010
0000
0000
0100
0000
0000
0000
0000
0000
0000
0000
0000
0000
,
1000
1000
1000
0000
0001
0001
0001
0000
,
1000
0100
1000
0010
0100
0100
0100
0000
,
0010
0010
1000
0000
0001
0001
0100
0000
,
0010
0000
0000
0000
1000
0001
1000
0000
,
0010
1000
0001
0100
0010
0000
1001
0000
,
1000
0010
0100
0001
1000
0000
0110
0000
,
0001
0100
0001
1000
,
0010
1001
0100
1001
,
0001
1000
0000
0010
0000
0001
1000
0100
,
1000
0001
0000
0100
0000
0010
1000
0001
,
0100
0001
0000
1000
0000
0100
0001
0100
,
1000
1000
0000
0010
1000
0100
0010
0001
,
0000
0000
1100
1100
,
0000
0000
0011
0011
,
1000
0000
0001
0000
,
0011
0000
0110
0000
1100
0000
1001
0001
,
1000
0000
0000
0000
;

//---------------dance-single - [VER.KOREA / Single----------------
#NOTES:
     dance-single:
     [VER.KOREA / Single:
     Edit:
     5:
     0.291,0.318,0.174,0.000,0.000:
0000
0000
0000
0000
,
0000
0000
0000
0000
,
0000
0000
0000
0000
,
0000
0000
0000
0000
,
0000
0000
0000
0000
,
1000
0000
0000
0001
1000
0000
0000
0000
,
0001
0000
0000
1000
0001
0000
0000
0000
,
1000
0000
0000
0010
0100
0000
0000
0000
,
0001
0001
0001
1000
,
0001
0000
0000
0100
0010
0000
0000
0000
,
1000
0000
0000
0010
0100
0000
0000
0000
,
0000
0010
1000
0001
,
0000
1001
0000
0110
,
1001
0000
0000
0100
,
0010
0000
1000
0001
,
1000
0000
0100
0010
,
1000
1001
0010
0110
,
1000
0000
0100
1001
,
0000
0000
0010
1001
,
0010
0010
0100
0001
,
0000
1001
1001
1001
,
1000
0000
0000
0001
1000
0000
0001
0000
,
0100
0000
0000
0010
0100
0000
0010
0000
,
1000
1000
0010
0010
,
0100
0100
0001
0001
,
0010
0000
0000
0100
0010
0000
0100
0000
,
1000
0000
0000
0001
1000
0000
0001
0000
,
0100
0100
0100
0100
,
0010
0010
0100
1001
,
0010
0010
1000
0100
,
0010
0010
0001
0100
,
0001
0001
0000
0000
0110
0000
1001
0000
,
0100
0000
0000
1001
,
0100
0100
0001
0010
,
0100
0100
1000
0001
,
1001
0000
0100
0010
,
1001
0000
0000
0000
0000
1000
1000
0000
,
0010
0000
0010
0000
0010
0010
0010
0000
,
0100
0000
0000
0000
0100
0100
0100
0000
,
0001
0000
1000
0000
,
0010
0000
0000
0000
0100
0000
0100
0100
,
0001
0000
0010
0000
,
0100
0000
1000
0000
,
0010
0010
0010
0000
0100
0100
0100
0000
,
1000
0001
0000
1000
0001
0000
1000
0000
,
0010
0000
0000
0000
1000
0001
1000
0000
,
0001
0000
0000
0000
0100
0010
0100
0000
,
0000
0000
0100
0000
0100
0100
0100
0000
,
0000
0001
0000
0100
0000
0010
0000
1000
,
0000
0010
0000
0100
0000
0001
0000
1000
,
0000
0100
0000
0010
0000
1000
0000
0001
,
0000
0010
0000
0100
0000
0100
0000
0001
,
0000
0100
0000
1000
0000
0100
0000
0010
,
1000
0000
0000
0000
;

//---------------dance-double - ----------------
#NOTES:
     dance-double:
     :
     Beginner:
     2:
     0.184,0.260,0.033,0.000,0.000:
00000000
00000000
00000000
00000000
,
00000000
00000000
00000000
00000000
,
00000000
00000000
00000000
00000000
,
00000000
00000000
00000000
00000000
,
00000000
00000000
00000000
00000000
,
00000000
00010000
00000000
00001000
,
00000000
00100000
00000000
00100000
,
00001000
00000000
01000000
01000000
,
00010000
00000000
01000000
00001000
,
00010000
00000000
00000000
00000010
,
00000000
00000000
00001000
00000001
,
00000100
00000000
00000000
00000010
,
00010000
00000000
00000000
00001000
,
00011000
00000000
00000000
00100000
,
00001000
00010000
00001000
00010000
,
00000010
00000000
00000000
00010000
,
00000100
00000100
00000100
00000100
,
00001000
00000000
00000000
00000001
,
00000100
00000000
00000000
00001000
,
00010000
00010000
00010000
00010000
,
00001000
00000000
00001000
00011000
,
00000000
10000000
00000000
00000000
,
00000000
00001000
00000000
00000000
,
00000100
00000100
00000010
00001000
,
00000001
00000000
00000001
00001000
,
00000000
00000010
00000000
00000000
,
00000000
01000000
00000000
00000000
,
00010000
00100000
00010000
00100000
,
00001000
00000000
00001000
00011000
,
00000010
00001000
00000100
00001000
,
00000001
00000001
00001000
00000100
,
00010000
00000000
00000000
00010000
,
00001000
00000000
01000000
01000000
,
00100000
10000000
01000000
00100000
,
00001000
00000000
00000000
00001000
,
00010000
00000000
00000000
00000000
,
00001000
00000000
00000000
00000000
,
00100000
00000000
00000000
00000000
,
00000100
00000000
00000000
00000000
,
00000010
00000000
00000000
00000000
,
01000000
00000000
00000000
01000000
,
00100000
00000000
00100000
00000000
,
00001000
00000000
00001000
00000000
,
00010000
00001000
00010000
00001000
,
00100000
00000000
00001000
00010000
,
00000000
00000000
00000000
01000000
,
00000000
00001000
00000000
00001000
,
00000000
00100000
00000000
00100000
,
00010000
01000000
00010000
00100000
,
00001000
00000000
00000010
00000000
,
00000001
00000000
00000100
00000000
,
00000001
00000010
00000001
00000010
,
00000100
00000000
00000000
00000000
,
00010000
00000000
00000000
00000000
;

//---------------dance-double - ----------------
#NOTES:
     dance-double:
     :
     Easy:
     3:
     0.254,0.289,0.294,0.000,0.000:
00000000
00000000
00000000
00000000
,
00000000
00000000
00000000
00000000
,
00000000
00000000
00000000
00000000
,
00000000
00000000
00000000
00000000
,
00000000
00000000
00000000
00000000
,
00010010
00000000
00000000
00000000
,
00000000
00000100
00000000
00000001
,
00001000
00001000
00001000
00001000
,
00000001
00000001
00001000
00000001
,
00001001
00000000
00000000
00000000
,
00000000
01000000
00000000
10000000
,
00100000
00100000
00100000
00100000
,
01000000
00010000
00100000
00001000
,
00011000
00000000
00000000
00000100
,
00001000
00000000
00000010
00000000
,
00000100
00000000
00000001
00000000
,
00001000
00001000
00001000
00001000
,
00000010
00000100
00001000
00010000
,
00001000
00000000
01000000
01000000
,
01100000
00000000
00000000
01100000
,
01000000
01000000
01000000
01000000
,
00000000
10010000
00000000
10010000
,
00000000
01000000
00000000
01000000
,
00000000
00001000
00000000
00010000
,
00001000
00001000
00001000
00001000
,
00000000
00000100
00000000
00000110
,
00000000
00001001
00000000
00000001
,
00000010
00000010
00000010
00000010
,
00000100
00000100
00001001
00000110
,
00000000
00000001
00000000
00001000
,
00000000
00000010
00000000
00010000
,
00000100
00000100
00001000
00000010
,
00010000
00000000
00100000
01100000
,
00000000
10000000
00000000
00010000
,
00000000
00100000
00000000
00001000
,
01000000
01000000
00010000
00100000
,
00001000
00000000
00000000
00000000
,
10010000
00000000
01100000
00000000
,
10000000
00000000
00100000
00100000
,
10010000
00000000
01100000
00000000
,
00010000
00000000
00000010
00000110
,
00000100
00000001
00000100
00000001
,
00001000
00000010
00001000
00000010
,
00010000
00000000
00001000
00000000
,
00100000
00100000
00010000
10010000
,
00000000
01000000
00000000
01100000
,
00000000
00010000
00000000
10010000
,
00100000
00100000
00100000
00001000
,
00010000
00010000
00010000
00010000
,
00000010
00000000
00001001
00001001
,
00000100
00000000
00001001
00001001
,
00000110
00000000
00000110
00000000
,
00010000
00010000
00010000
00010000
,
00010010
00000000
00000000
00000000
;

//---------------dance-double - ----------------
#NOTES:
     dance-double:
     :
     Medium:
     6:
     0.461,0.520,0.818,0.000,0.000:
00000000
00000000
00000000
00000000
,
00000000
00000000
00000000
00000000
,
00000000
00000000
00000000
00000000
,
00000000
00000000
00000000
00000000
,
00000000
00000000
00000000
00000000
,
01001000
00010000
00010010
00000001
,
00000100
00000100
00001001
00000110
,
00000001
00001000
00000001
00001000
,
00010000
00010000
00001000
00010000
,
00101000
10000000
00000000
00011000
,
00000001
00000010
00000100
00001000
,
00011000
00101000
01010000
10100000
,
01000000
10010000
00100000
00001000
,
00011000
00000000
00010000
00000000
00010000
00001000
00010000
00001000
,
00100000
00000000
10010000
00000000
01000000
00100000
10000000
00000000
,
01010000
00011000
00001010
00001000
,
00000001
00000001
00001000
00001001
,
00000110
00000100
00001000
00000001
,
00001000
00000110
00010000
00011000
,
01000000
01000000
01000000
10010000
,
01000000
01100000
10010000
01100000
,
10010000
00000000
10010000
00000000
01000000
00100000
01000000
00000000
,
10010000
00000000
01100000
00000000
10000000
00010000
10000000
00000000
,
01010000
00110000
00011000
00001100
,
00000001
00000000
00001000
00000010
00001000
00000001
00000010
00000000
,
00000110
00000000
00000110
00000000
00001000
00000001
00001000
00000000
,
00000110
00000000
00001001
00000000
00000001
00000100
00001000
00000000
,
00000010
00001010
00000001
00000101
,
00001001
00000000
00001001
00001001
00000000
00000100
00000010
00000000
,
00001000
00000000
00000011
00000001
00001000
00000000
00001000
00000000
,
00000001
00000000
00001010
00000010
00000100
00000000
00000101
00000000
,
00000001
00001001
00001000
00011000
,
00001000
00100000
10000000
01100000
,
00010000
00000000
10100000
10000000
01000000
00000000
01000000
00000000
,
00100000
00000000
11000000
01000000
00010000
00000000
10010000
00000000
,
10000000
10000000
00010000
00001000
,
00001001
00000000
00000000
00000000
00000000
00001000
00001000
00000000
,
00010000
00100000
00001000
00000000
01000000
00010000
10000000
00000000
,
10000000
10000000
10000000
00000000
00010000
00010000
00010000
00000000
,
10000000
00010000
01000000
00000000
00100000
10000000
00010000
00000000
,
00001000
00000000
00001000
00000000
00000001
00001000
00000010
00001000
,
00000100
00000010
00000100
00000010
00001000
00000000
00001001
00000000
,
00001000
00000001
00001000
00000001
00000100
00000000
00000110
00000000
,
00010000
00011000
10000000
10010000
,
00100000
00100000
01000000
00010000
10010000
00000000
01100000
00000000
,
10000000
00010000
10000000
00010000
,
01000000
00100000
01000000
00100000
,
10000000
10000000
00010000
00010000
,
10010000
01100000
10010000
00110000
,
00011000
00001010
00001001
00001001
,
00000101
00000101
00001001
00001001
,
00001010
00001010
00000110
00000110
,
00010000
00000000
00011000
00000000
00010000
00001000
00010000
00001000
,
01100000
00000000
00000000
00000000
;

//---------------dance-double - ----------------
#NOTES:
     dance-double:
     :
     Hard:
     6:
     0.380,0.491,0.131,0.000,0.000:
00000000
00000000
00000000
00000000
,
00000000
00000000
00000000
00000000
,
00000000
00000000
00000000
00000000
,
00000000
00000000
00000000
00000000
,
00000000
00000000
00000000
00000000
,
00000000
00010000
00001000
00010000
00000100
00000000
00000100
00000000
,
00000010
00000000
00000010
00000000
00000001
00001000
00000100
00000000
,
00000100
00000000
00000000
00000000
00010000
00010000
00010000
00000000
,
00001000
00000000
01000000
00100000
,
10010000
00000000
00010000
00010000
01000000
00000000
01000000
00000000
,
00001000
00000000
00000100
00000000
,
00000010
00000000
00000010
00000010
00001000
00000000
00000001
00000000
,
00000100
00000000
00000000
00000000
00000001
00001000
00000001
00001000
,
00000100
00000000
00000000
00000000
00000000
00100000
00001000
00010000
,
00000100
00000000
00000000
00000000
00000000
01000000
00010000
10000000
,
00100000
00100000
01100000
10010000
,
01000000
00001000
00010000
00000000
00000010
00010000
00001000
00000000
,
00010000
00001000
00001000
00001000
00000000
00000100
00000100
00000100
,
00000000
00000001
00000001
00000001
00000000
00000010
00000010
00000010
,
00000100
00000000
00000000
00000110
,
00001000
00000010
00000100
00000001
00001000
00000100
00010000
00001000
,
00100000
00000000
00000000
00000000
00000000
01000000
01000000
00000000
,
10000000
00000000
00000000
00000000
00000000
00010000
00010000
00000000
,
01000000
00001000
00100000
01000000
,
10000000
00000000
10000000
00010000
00000000
10000000
01000000
00000000
,
00100000
00000000
00000000
00000000
00000000
00001000
00001000
00000000
,
00000010
00000000
00000000
00000000
00000000
00010000
00010000
00000000
,
00000010
00000011
00000100
00001100
,
00010000
00000000
00010000
00010000
00000000
00001000
00011000
00000000
,
01000000
00000000
00000000
00000000
00000000
01000000
00000000
01000000
,
00010000
00000000
00000000
00000000
00000000
10000000
00000000
10000000
,
00100000
00000000
00000000
01100000
,
00001000
00000000
00001000
00001000
00000000
00000000
00000000
00000000
,
00000010
00001000
00000001
00000100
00000000
00000100
00000000
00000000
,
00000001
00000100
00000010
00001000
00000000
00001000
00000100
00000000
,
00010000
00010000
00010000
00010000
,
00010010
00000000
00000000
00000000
,
00100000
01000000
00100000
00000000
01000000
00100000
01000000
00000000
,
00010000
00010000
00010000
00010000
00010000
00010000
00010000
00010000
,
10000000
00010000
10000000
00000000
00010000
10000000
00010000
00000000
,
01000000
01000000
01000000
01000000
01000000
01000000
01000000
01000000
,
00100000
10000000
00010000
01000000
00001000
00010000
00000010
00001000
,
00000010
00000010
00000010
00000010
00000010
00000010
00000010
00000010
,
00001000
00001000
00001000
00001000
00001000
00001000
00001000
00001000
,
00000001
00001001
00000101
00000011
,
00000001
00000000
00000100
00000000
00010000
00001000
00010000
00000000
,
10000000
00000000
01000000
00000000
00001000
00010000
00001000
00000000
,
00000001
00000000
00000100
00000000
00010000
00001000
00010000
00000000
,
10000000
10000000
01000000
01000000
,
00010000
00000000
00001000
00000000
00000100
00000001
00000100
00000000
,
00001000
00000000
00010000
00000000
01000000
10000000
01000000
00000000
,
00010000
00000000
00001000
00000000
00000100
00000001
00000100
00001000
,
00010000
01000000
00100000
00010000
01000000
00001000
00010000
00000100
,
00001000
00000000
00000000
00000000
;

//---------------dance-double - [VER.KOREA / Double----------------
#NOTES:
     dance-double:
     [VER.KOREA / Double:
     Edit:
     3:
     0.241,0.289,0.164,0.000,0.000:
00000000
00000000
00000000
00000000
,
00000000
00000000
00000000
00000000
,
00000000
00000000
00000000
00000000
,
00000000
00000000
00000000
00000000
,
00000000
00000000
00000000
00000000
,
00010010
00000000
00000000
00000000
,
00000000
00000100
00000000
00000001
,
00001000
00001000
00001000
00001000
,
00000001
00000001
00001000
00000001
,
00001000
00000000
00000000
00000000
,
00000000
01000000
00000000
10000000
,
00100000
00100000
00100000
00100000
,
01000000
00010000
00100000
00001000
,
00010000
00000000
00000000
00000100
,
00001000
00000000
00000010
00000000
,
00000100
00000000
00000001
00000000
,
00001000
00001000
00001000
00001000
,
00000010
00000100
00001000
00010000
,
00001000
00000000
01000000
01000000
,
01100000
00000000
00000000
01100000
,
01000000
01000000
01000000
01000000
,
00000000
10010000
00000000
10010000
,
00000000
01000000
00000000
01000000
,
00000000
00001000
00000000
00010000
,
00001000
00001000
00001000
00001000
,
00000000
00000100
00000000
00000110
,
00000000
00001001
00000000
00000001
,
00000010
00000010
00000010
00000010
,
00000100
00000100
00001001
00000010
,
00000000
00000001
00000000
00001000
,
00000000
00000010
00000000
00010000
,
00000100
00000100
00001000
00000010
,
00010000
00000000
00100000
01100000
,
00000000
10000000
00000000
00010000
,
00000000
00100000
00000000
00001000
,
01000000
01000000
00010000
00100000
,
00001000
00000000
00000000
00000000
,
00010000
00010000
00000000
00000000
00001000
00001000
00000000
00000000
,
01000000
00000000
00100000
00100000
,
10000000
10000000
00000000
00000000
01000000
01000000
00000000
00000000
,
00010000
00000000
00000010
00000010
,
00000100
00000001
00000100
00000001
,
00001000
00000010
00001000
00000010
,
00010000
00000000
00001000
00000000
,
00100000
00100000
00010000
10000000
,
00000000
01000000
00000000
01000000
,
00000000
00010000
00000000
00010000
,
00100000
00100000
00100000
00001000
,
00010000
00010000
00010000
00010000
,
00000010
00000000
00001001
00001001
,
00000100
00000000
00001001
00001001
,
00000110
00000000
00000110
00000000
,
00010000
00010000
00010000
00010000
,
00000010
00000000
00000000
00000000
;

//---------------dance-couple - ----------------
#NOTES:
     dance-couple:
     :
     Beginner:
     2:
     0.336,0.520,0.905,0.000,0.000:
00000000
00000000
00000000
00000000
,
00000000
00000000
00000000
00000000
,
00000000
00000000
00000000
00000000
,
00000000
00000000
00000000
00000000
,
00000000
00000000
00000000
00000000
,
00000000
10001000
00000000
00100010
,
00000000
01000100
00000000
00010001
,
00000000
10001000
00000000
00100010
,
00000000
01000100
01000100
01000100
,
01000000
00000000
00010000
00000000
,
00000001
00000000
00000001
00000000
,
01000000
00000000
01000000
00000000
,
00001000
00000000
00000001
00000001
,
00010001
00000000
01000100
01000100
,
01000100
00000000
10001000
10001000
,
10001000
00000000
01000100
00000000
,
00010001
00000000
10001000
10001000
,
10000000
00000000
01000000
00000000
,
00010000
00000000
00100000
00000000
,
00000010
00100000
00000000
00010000
,
00000001
00000000
00000000
00010000
,
10001000
10001000
10001000
10001000
,
00010001
00010001
00010001
00010001
,
01000100
01000100
01000100
01000100
,
00100010
00100010
00100010
00100010
,
10000100
10000100
00010010
00010010
,
10000100
10000100
00010010
00010010
,
10000100
00000000
10000100
00000000
,
01000001
00000000
01000001
00000000
,
00000000
10011001
00000000
00100010
,
00000000
10011001
00000000
01000100
,
01000100
00000000
00010001
00010001
,
00010001
00000000
10001000
10001000
,
00000000
01100110
00000000
00011000
,
00000000
01100110
00000000
10000001
,
01000100
00000000
00010001
00100100
,
10001000
00000000
00000000
00000000
,
10001000
00000000
01000100
00000000
,
00100100
00000000
00010001
00000000
,
01000100
00000000
00100010
00000000
,
10001000
00000000
00010001
00000000
,
00100000
00000000
00010000
00000000
,
00001000
00000000
00000100
00000000
,
00100000
00000000
00010000
00000000
,
00001000
00000000
00000001
00000000
,
00000000
10001000
00000000
10001000
,
00000000
00010001
00000000
00010001
,
00000000
01000100
00000000
01000100
,
00000000
00100010
00000000
10001000
,
00100000
00000010
01000000
00000100
,
10000000
00001000
00010000
00000001
,
00000100
01000000
00001000
10000000
,
00000010
00100000
00001000
00010000
,
10000100
00000000
00000000
00000000
;

//---------------dance-couple - ----------------
#NOTES:
     dance-couple:
     :
     Easy:
     3:
     0.512,0.636,1.000,0.000,0.000:
00000000
00000000
00000000
00000000
,
00000000
00000000
00000000
00000000
,
00000000
00000000
00000000
00000000
,
00000000
00000000
00000000
00000000
,
00000000
00000000
00000000
00000000
,
10001000
00000000
00010001
10011001
,
00010001
00000000
10001000
10011001
,
00100010
00000000
01000100
01100110
,
00000000
00010001
00010001
10001000
,
10010000
00000000
00100000
10010000
,
00001000
00000000
00000100
00001001
,
00100000
00100000
10000000
00010000
,
00000100
00001001
00000000
00000110
,
10011001
00000000
00000000
01000100
,
01100110
00000000
10001000
00010001
,
10001000
00000000
01000100
00100010
,
10001000
10011001
00100010
01100110
,
10010000
00000000
01000000
00001001
,
00000000
00000000
00100000
00001001
,
00000010
00100000
00000100
00010000
,
00000000
10010000
00001001
10010000
,
10001000
00000000
10001000
10011001
,
01000100
00000000
01000100
01100110
,
10001000
10001000
00100010
00100010
,
01000100
01000100
00010001
10011001
,
00101000
00000000
00101000
01101001
,
10001000
00000000
00101000
01101001
,
01000001
01000001
01000001
01000001
,
00010010
00010010
10000100
01101001
,
00100010
00100010
10001000
01100110
,
00100010
00100010
00010001
01100110
,
00010001
00000000
01100110
10011001
,
01000100
00000000
00000000
10011001
,
01000100
00011000
10001000
00011000
,
01000100
00011000
00010001
01000010
,
10011001
00000000
00100010
00011000
,
10011001
00000000
10000001
10010110
,
01100110
00000000
00100010
00100010
,
10011001
00000000
01000100
01000100
,
00010001
00000000
10001000
00000000
,
00100010
00000000
01000100
01000100
,
00010000
00000000
10000000
00000000
,
00000010
00000000
00000100
00000000
,
00100000
00100000
01000000
01000000
,
00001000
00000001
00000000
00001000
00000001
00000000
00001001
00000000
,
00100010
00000000
01000100
10011001
,
00010001
00000000
10001000
01100110
,
01000100
00000000
01100110
10011001
,
00010001
01000100
00100010
10001000
,
00100000
00000100
00010000
00001000
,
01000000
00000010
10000000
00000001
,
00000010
00000000
00000100
00010000
,
00001001
00000000
10000000
00000000
00001001
00000000
00000000
00100000
,
00101000
00000000
00000000
00000000
;

//---------------dance-couple - ----------------
#NOTES:
     dance-couple:
     :
     Medium:
     5:
     0.699,0.867,1.000,0.000,0.000:
00000000
00000000
00000000
00000000
,
00000000
00000000
00000000
00000000
,
00000000
00000000
00000000
00000000
,
00000000
00000000
00000000
00000000
,
00000000
00000000
00000000
00000000
,
00100010
00000000
00000000
01000100
00010001
00000000
01100110
00000000
,
01000100
00000000
00000000
00100010
10001000
00000000
01100110
00000000
,
10001000
00000000
00000000
00100010
01000100
00000000
10011001
00000000
,
00100010
10011001
01000100
10011001
,
01100000
00000000
00000000
01000000
00100000
00000000
10000000
00000000
,
00000001
00000000
00000000
00000010
00000100
00000000
00001000
00000000
,
00010000
00010000
01000000
00100000
,
00001000
00001001
00001001
00000110
,
10011001
00000000
01100110
10011001
,
01000100
00000000
00000000
00000000
01000100
00000000
00010001
10001000
,
00010001
00010001
10001000
00100010
,
01000100
10011001
00010001
01100110
,
10010000
00001000
00100000
00000110
,
01000000
00000010
01000000
00001001
,
00001000
00010000
00001000
00010000
,
00001100
10010000
00000101
00110000
,
10001000
00000000
00000000
10001000
10001000
00000000
10011001
00000000
,
00010001
00000000
00000000
00010001
00010001
00000000
10011001
00000000
,
01000100
00000000
01000100
00000000
00100010
00100010
00100010
00000000
,
10001000
00000000
10001000
00000000
00010001
00010001
00010001
00000000
,
00101000
00000000
00000000
00101000
00101000
00000000
01101001
00000000
,
10000100
00000000
00000000
10000100
10000100
00000000
10010110
00000000
,
10000100
00010010
10000100
10010110
,
00010010
00000000
00000000
10000100
00010010
00000000
01101001
00000000
,
00100010
10101010
01000100
01010101
,
00100010
00110011
01000100
11001100
,
00010001
10001000
00000000
00000000
00010001
00010001
00010001
00000000
,
01100110
10011001
01100110
10011001
,
10001000
10100101
10001000
10100101
,
10001000
11000011
10001000
11000011
,
10011001
01000010
00010001
01000010
,
10011001
01000010
00010001
00100100
,
00010001
01010101
01100110
10101010
,
01000100
01100110
10101010
00110011
,
10001000
10101010
10011001
00110011
,
00100010
00110011
10011001
10101010
,
01000000
01000000
01000000
10010000
,
00000010
00000010
00000010
00001001
,
10100000
10100000
11000000
11000000
,
00001001
00000100
00001001
00000100
,
00100010
00000000
10011001
10011001
,
01000100
00000000
10011001
10011001
,
10101010
10011001
00110011
10011001
,
00010001
10001000
00010001
10001000
,
10010000
00000100
10010000
00000100
,
10010000
00000010
10010000
00000010
,
00000100
01000000
00000001
10000000
,
00000010
00000010
00000000
10000000
00000001
00000000
10010000
00000000
,
10010110
00000000
00000000
00000000
;

//---------------dance-couple - ----------------
#NOTES:
     dance-couple:
     :
     Hard:
     6:
     0.656,0.809,1.000,0.000,0.027:
00000000
00000000
00000000
00000000
,
00000000
00000000
00000000
00000000
,
00000000
00000000
00000000
00000000
,
00000000
00000000
00000000
00000000
,
00000000
00000000
00000000
00000000
,
10001000
00100010
01000100
00010001
,
00100010
01000100
10001000
00010001
,
01000100
01000100
00100010
00100010
,
10001000
00000000
10001000
00000000
00010001
00100010
00010001
00000000
,
10000000
00000000
00000000
00010000
10000000
00000000
00010000
00000000
,
00001000
00000000
00000100
00000000
00000010
00000000
00000001
00001000
,
00010000
00010000
10000000
10000000
,
00000001
00000011
00000000
00000100
,
11001100
00000000
00000000
00000000
00010001
10001000
00100010
00000000
,
10001000
00000000
00000000
10001000
00000000
00010001
00010001
00000000
,
00000000
00100010
00000000
01000100
00000000
00010001
00000000
10001000
,
00000000
00000000
10011001
00000000
01100110
00000000
10001000
01000100
,
00000000
00000000
00000100
00000000
00000000
01000000
00000100
00000000
,
00000000
00000000
00000010
00000000
00000000
00100000
00000010
00000000
,
00001001
11000000
00000110
00110000
,
00001000
00000001
01000000
00100000
00001000
00000100
00100000
00010000
,
10001000
00000000
00000000
01000100
10001000
00000000
00000000
00000000
10011001
00000000
10011001
00000000
10011001
00000000
00000000
00000000
,
01000100
00000000
00000000
00000000
01100110
01100110
01100110
00000000
,
10001000
00000000
00000000
01000100
10001000
00000000
00000000
00000000
00010001
00000000
00010001
00000000
00010001
00000000
00000000
00000000
,
01000100
00000000
00000000
00010001
00000000
00000000
10001000
00000000
00000000
00000000
00100010
00000000
00000000
00000000
01000100
00000000
,
00101000
00000000
00000000
00000000
10100100
10100100
10100100
00000000
,
10000100
00000000
00000000
00000000
11000001
11000001
11000001
00000000
,
01000001
00010010
01000001
00000000
00101000
10000100
00010010
01000001
,
01000001
00000000
00000000
00101000
00000000
00000000
10000100
00000000
00000000
00000000
10000100
00000000
00000000
00000000
01101001
00000000
,
00000000
00100010
00000000
10001000
00000000
00010001
00000000
01000100
,
00000000
00100010
00000000
00100010
00000000
10001000
00010001
00000000
,
01000100
01000100
00100010
10001000
,
00010001
10001000
00010001
10001000
,
00010001
00000000
01000010
10000001
00000000
00100010
00000000
00000000
,
00100010
00000000
00011000
00000000
10001000
00010001
01000010
00000000
,
10001000
00000000
00000000
00011000
01000100
10001000
00000100
10000001
,
00010001
00000000
00000000
00100010
00000000
00000000
00011000
00000000
00000000
00000000
00000000
00000000
00000000
00000000
00000000
00000000
,
10001000
10001000
10001000
00000000
00010001
00010001
00010001
00000000
,
10001000
01000100
10001000
00100010
01000100
01000100
01000100
00000000
,
00100010
00100010
10001000
00000000
00010001
00010001
01000100
00000000
,
00100010
00000000
00000000
00000000
10001000
00010001
10001000
00000000
,
00100000
10000000
00010000
01000000
00100000
00000000
10010000
00000000
,
00001000
00000010
00000100
00000001
00001000
00000000
00000110
00000000
,
00010000
01000000
00010000
10000000
,
00000010
00001001
00000100
00001001
,
00010001
10001000
00000000
00100010
00000000
00010001
10001000
01000100
,
10001000
00010001
00000000
01000100
00000000
00100010
10001000
00010001
,
01000100
00010001
00000000
10001000
00000000
01000100
00010001
01000100
,
10001000
10001000
00000000
00100010
10001000
01000100
00100010
00010001
,
00000000
00000000
11000000
00001100
,
00000000
00000000
00110000
00000011
,
00001000
00000000
00000001
00000000
,
00000011
00000000
01100000
00000000
00001100
00000000
10010000
00010000
,
00101000
00000000
00000000
00000000
;

//---------------dance-couple - ----------------
#NOTES:
     dance-couple:
     :
     Challenge:
     5:
     0.607,0.780,1.000,0.000,0.022:
00000000
00000000
00000000
00000000
,
00000000
00000000
00000000
00000000
,
00000000
00000000
00000000
00000000
,
00000000
00000000
00000000
00000000
,
00000000
00000000
00000000
00000000
,
10000000
00000000
00010000
10010000
,
00000001
00000000
00001000
00001001
,
00100000
00000000
00000100
01100110
,
00000000
00010001
00010001
10001000
,
10010000
00000000
00100100
00001001
,
10001000
00000000
01000010
10011001
,
00100100
00100100
10001000
00010001
,
01000010
10010000
00000000
00001001
,
01100110
00000000
10010000
00001001
,
01000100
00000000
00000000
00000000
01000100
00000000
00010001
10001000
,
00010001
00010001
10001000
00100010
,
01000100
10011001
00010001
01100110
,
10011001
10001000
00100010
01100110
,
01000100
00100010
01000100
10011001
,
10000000
00000001
10000000
00000001
,
11000000
00000101
01010000
00001100
,
10000001
00000000
00000000
01000000
10000000
00000000
00000000
00000000
10010001
00000000
10010000
00000000
10010000
00000000
00000000
00000000
,
01000100
00000000
00000000
00000000
01100110
01100110
01100110
00000000
,
10001000
00000000
00000000
00000100
00001000
00000000
00000000
00000000
10001001
00000000
00001001
00000000
00001001
00000000
00000000
00000000
,
01000100
00000000
00000000
00010001
00000000
00000000
10001000
00000000
00000000
00000000
00100010
00000000
00000000
00000000
01000100
00000000
,
00100001
00000000
00000000
00000000
10100001
10100000
10100000
00000000
,
10000100
00000000
00000000
00000000
10000101
00000101
00000101
00000000
,
01000100
00010001
01000100
00000000
00100010
10001000
00010001
01000100
,
00010001
00000000
00000000
10001000
00000000
00000000
01000100
00000000
00000000
00000000
01000100
00000000
00000000
00000000
00000000
00000000
,
00100001
00100000
10000000
01100000
,
00100001
00100000
00010000
01100000
,
00010001
00000000
01100000
10010000
,
01000100
00000000
00000000
10011001
,
10000010
00000010
00001000
00000110
,
10000010
00000010
00000001
00000110
,
10000001
00000000
00000110
00001001
,
10011001
00000000
10001000
10011001
,
01000000
01100000
10100000
00110000
,
00000100
00000110
00001010
00000011
,
10000000
10100000
10010000
00110000
,
00001000
00001010
00001001
00000011
,
01000000
01000000
01000000
10010000
,
00000010
00000010
00000010
00001001
,
10100000
00000101
11000000
00000011
,
10010000
01000000
00001001
00000100
,
00010001
10001000
00000000
00100010
00000000
00010001
10001000
01000100
,
10001000
00010001
00000000
01000100
00000000
00100010
10001000
00010001
,
01000100
00010001
00000000
10001000
00000000
01000100
00010001
01000100
,
10001000
10001000
00000000
00100010
10001000
01000100
00100010
00010001
,
00000000
00000000
11000000
00001100
,
00000000
00000000
00110000
00000011
,
10001000
00000000
00010001
00000000
,
00110011
00000000
01100110
00000000
11001100
00000000
10011001
00010001
,
10001000
00000000
00000000
00000000
;

//---------------dance-couple - [VER.KOREA / Unison----------------
#NOTES:
     dance-couple:
     [VER.KOREA / Unison:
     Edit:
     5:
     0.487,0.636,1.000,0.000,0.000:
00000000
00000000
00000000
00000000
,
00000000
00000000
00000000
00000000
,
00000000
00000000
00000000
00000000
,
00000000
00000000
00000000
00000000
,
00000000
00000000
00000000
00000000
,
10001000
00000000
00000000
00010001
10001000
00000000
00000000
00000000
,
00010001
00000000
00000000
10001000
00010001
00000000
00000000
00000000
,
10001000
00000000
00000000
00100010
01000100
00000000
00000000
00000000
,
00010001
00010001
00010001
10001000
,
00010000
00000000
00000000
01000000
00100000
00000000
00000000
00000000
,
00001000
00000000
00000000
00000010
00000100
00000000
00000000
00000000
,
00000000
00100000
10000000
00010000
,
00000000
00001001
00000000
00000110
,
10011001
00000000
00000000
01000100
,
00100010
00000000
10001000
00010001
,
10001000
00000000
01000100
00100010
,
10001000
10011001
00100010
01100110
,
10000000
00000000
01000000
00001001
,
00000000
00000000
00100000
00001001
,
00000010
00100000
00000100
00010000
,
00000000
10010000
00001001
10010000
,
10001000
00000000
00000000
00010001
10001000
00000000
00010001
00000000
,
01000100
00000000
00000000
00100010
01000100
00000000
00100010
00000000
,
10001000
10001000
00100010
00100010
,
01000100
01000100
00010001
00010001
,
00101000
00000000
00000000
01000001
00101000
00000000
01000001
00000000
,
00101000
00000000
00000000
01000001
00101000
00000000
01000001
00000000
,
01000001
01000001
01000001
01000001
,
00010010
00010010
10000100
01101001
,
00100010
00100010
10001000
01000100
,
00100010
00100010
00010001
01000100
,
00010001
00010001
00000000
00000000
01100110
00000000
10011001
00000000
,
01000100
00000000
00000000
10011001
,
01000100
00011000
10001000
00011000
,
01000100
00011000
00010001
01000010
,
10011001
00000000
00100010
00011000
,
10011001
00000000
00000000
00000000
00000000
00010001
00100100
00000000
,
00100010
00000000
00100010
00000000
00100010
00100010
00100010
00000000
,
01000100
00000000
00000000
00000000
01000100
01000100
01000100
00000000
,
00010001
00000000
10001000
00000000
,
00100010
00000000
00000000
00000000
01000100
00000000
01000100
01000100
,
00010000
00000000
00100000
00000000
,
00000100
00000000
00001000
00000000
,
00100000
00100000
00100000
00000000
01000000
01000000
01000000
00000000
,
00001000
00000001
00000000
00001000
00000001
00000000
00001000
00000000
,
00100010
00000000
00000000
00000000
10001000
00010001
10001000
00000000
,
00010001
00000000
00000000
00000000
01000100
00100010
01000100
00000000
,
00000000
00000000
01000100
00000000
01000100
01000100
01000100
00000000
,
00000000
00010001
00000000
01000100
00000000
00100010
00000000
10001000
,
00000000
00100000
00000000
00000100
00000000
00010000
00000000
00001000
,
00000000
01000000
00000000
00000010
00000000
10000000
00000000
00000001
,
00000000
00000010
00000000
01000000
00000000
00000100
00000000
00010000
,
00000000
00000100
00000000
10000000
00000000
00000100
00000000
00100000
,
00101000
00000000
00000000
00000000
;

//---------------dance-solo - ----------------
#NOTES:
     dance-solo:
     :
     Easy:
     3:
     0.259,0.289,0.218,0.000,0.000:
000000
000000
000000
000000
,
000000
000000
000000
000000
,
000000
000000
000000
000000
,
000000
000000
000000
000000
,
000000
000000
000000
000000
,
000000
000001
000000
000001
,
000000
100000
000000
100000
,
000000
000100
000000
000100
,
000000
001000
000010
010000
,
000000
000001
000000
000001
,
000000
100000
000000
100000
,
000000
000100
000000
000100
,
000000
001000
000010
010000
,
000100
000000
100000
000000
,
001000
000100
000001
000000
,
010000
000000
000010
000000
,
100000
001000
000100
000000
,
000001
000000
010000
000000
,
000100
100000
001000
000000
,
000100
000001
010000
000000
,
000010
100000
001000
000000
,
000100
000000
000001
010010
,
001000
000000
000100
100001
,
001000
000000
000100
100001
,
001000
001000
001000
000000
,
010000
000000
001000
100001
,
001000
000000
000100
010010
,
001000
000000
000100
100001
,
001000
001000
001000
000000
,
000010
000010
100000
000010
,
001000
001000
000001
001000
,
000010
100000
000100
010000
,
001000
000100
000001
000000
,
010000
010000
000010
010000
,
000100
000100
001000
000100
,
100000
001000
000100
000001
,
010000
010000
010000
000000
,
100010
000000
010001
000000
,
000110
000000
010100
000000
,
100001
000000
001100
000000
,
100001
000000
010010
000000
,
000001
000001
100001
000000
,
000001
100000
000110
000000
,
010000
010000
000001
000001
,
100010
001000
100001
000000
,
000100
000100
001000
001000
,
010000
010000
000001
000001
,
100000
000010
000100
000001
,
010000
010000
100010
000000
,
010000
010000
000100
000100
,
100000
100000
001000
001000
,
000100
000001
010000
000100
,
100000
100000
000001
000001
,
010010
000000
000000
000000
;

//---------------dance-solo - ----------------
#NOTES:
     dance-solo:
     :
     Medium:
     5:
     0.419,0.433,0.818,0.000,0.000:
000000
000000
000000
000000
,
000000
000000
000000
000000
,
000000
000000
000000
000000
,
000000
000000
000000
000000
,
000000
000000
000000
000000
,
010000
000000
000000
000010
000100
000000
100001
000000
,
000100
000000
000000
001000
000001
000000
100010
000000
,
010000
000000
000000
000100
001000
000000
100001
000000
,
000010
010001
001000
100001
,
001100
000000
000000
001000
000100
000000
100000
000000
,
000001
000000
000000
010000
001000
000000
000100
000000
,
000001
000010
001000
000100
,
100000
010010
100001
001100
,
100001
000000
001100
100001
,
001000
000000
000000
000000
001000
000000
000010
100000
,
000010
010000
000100
100000
,
001000
010001
000010
001100
,
100001
010000
000100
100001
,
001000
000100
001000
010010
,
100000
000001
010000
000010
,
101000
010001
001010
010100
,
100000
000000
000000
010000
010000
000000
000110
000000
,
000001
000000
000000
000010
000010
000000
010100
000000
,
100000
000000
100000
000000
000010
000010
000010
000000
,
010000
000000
010000
000000
000001
000001
000001
000000
,
000100
000000
000000
000100
000100
000000
011000
000000
,
000001
000000
000000
000001
000001
000000
100010
000000
,
010000
000001
100000
100001
,
000100
000000
000000
001000
000010
000000
100001
000000
,
000100
010100
100000
001001
,
000100
010010
000001
101000
,
000001
010000
000000
000000
000010
000010
000010
000000
,
100001
001100
100001
001100
,
100000
011000
000001
000110
,
010000
100100
000001
001010
,
100001
010000
010000
000010
,
100001
010000
010000
010000
,
000010
100100
001010
000101
,
100000
001100
100010
010001
,
100000
001100
100001
010010
,
000100
010001
100010
001100
,
001000
001000
001000
100001
,
000100
000100
000100
100001
,
010100
010100
101000
101000
,
010001
001000
100010
001000
,
000100
000000
100001
100001
,
001000
000000
100001
100001
,
010100
100001
000110
100001
,
000010
010000
000010
010000
,
100001
001000
100001
001000
,
100001
000100
100001
000100
,
001000
001000
000010
010000
,
000100
000100
000000
100000
000001
000000
010010
000000
,
001100
000000
000000
000000
;

//---------------dance-solo - ----------------
#NOTES:
     dance-solo:
     :
     Hard:
     6:
     0.397,0.520,0.360,0.000,0.027:
000000
000000
000000
000000
,
000000
000000
000000
000000
,
000000
000000
000000
000000
,
000000
000000
000000
000000
,
000000
000000
000000
000000
,
010000
000100
100000
000010
,
000100
001000
100000
000001
,
001000
001000
000100
000100
,
100000
000000
100000
000000
000010
000100
000010
000000
,
010000
000000
000000
000001
100000
000000
000001
000000
,
010000
000000
001000
000000
000100
000000
000001
010000
,
000001
000010
100000
100000
,
000001
000110
000000
001000
,
101000
000000
000000
000000
000001
010000
000100
000000
,
100000
000000
000000
100000
000000
000010
000010
000000
,
000000
000100
000000
001000
000000
000001
000000
100000
,
000000
000000
010010
000000
001100
000000
100000
001000
,
000000
000000
001000
000000
000000
001000
001000
000000
,
000000
000000
000100
000000
000000
000100
000100
000000
,
100001
011000
000101
010010
,
100000
000001
001000
000100
100000
001000
010000
000001
,
100000
000000
000000
001000
100000
000000
000000
000000
100001
000000
100001
000000
100001
000000
000000
000000
,
001000
000000
000000
000000
001100
001100
001100
000000
,
100000
000000
000000
001000
100000
000000
000000
000000
000001
000000
000001
000000
000001
000000
000000
000000
,
001000
000000
000000
000010
000000
000000
100000
000000
000000
000000
000100
000000
000000
000000
001000
000000
,
000100
000000
000000
000000
100010
100010
100010
000000
,
001000
000000
000000
000000
001001
001001
001001
000000
,
001000
000010
001000
000000
000100
100000
000001
001000
,
000001
000000
000000
010000
000000
000000
001000
000000
000000
000000
001000
000000
000000
000000
100001
000000
,
000000
000010
000000
010000
000000
000001
000000
001000
,
000000
000100
000000
000100
000000
100000
000001
000000
,
001000
001000
000100
100000
,
000001
010000
000010
100000
,
000001
000000
010000
000010
000000
000100
000000
000000
,
010000
000000
001000
000000
100000
000001
100000
000000
,
000010
000000
000000
001000
000100
100000
000001
001000
,
000010
000000
000000
100000
000000
000000
001000
000000
000000
000000
000000
000000
000000
000000
000000
000000
,
010000
010000
010000
000000
000001
000001
000001
000000
,
100000
001000
100000
000100
001000
001000
001000
000000
,
000010
000010
100000
000000
000001
000001
001000
000000
,
000100
000000
000000
000000
100000
000001
100000
000000
,
000010
010000
000001
001000
000100
000000
100001
000000
,
010000
000010
001000
000001
100000
000000
001100
000000
,
000010
100000
000001
010000
,
000100
100001
001000
100010
,
000001
010000
000000
000100
000000
000010
100000
001000
,
100000
000001
000000
001000
000000
000100
100000
000010
,
001000
000010
000000
100000
000000
001000
000001
001000
,
010000
010000
000000
000100
100000
001000
000100
000001
,
000000
000000
011000
011000
,
000000
000000
000101
000101
,
010000
000000
000010
000000
,
000101
000000
011000
000000
100001
000000
001100
000010
,
100000
000000
000000
000000
;

//---------------dance-double - Edit by silenttype01----------------
#NOTES:
     dance-double:
     Edit by silenttype01:
     Challenge:
     8:
     0.531,0.664,0.305,0.273,0.142: // measure 1
00000000
00000000
00000000
00000000
,  // measure 2
00000000
00000000
00000000
00000000
,  // measure 3
00000000
00000000
00000000
00000000
,  // measure 4
00000000
00000000
00000000
00000000
,  // measure 5
00000000
00000000
00000000
00000000
,  // measure 6
00000000
10000000
00010000
01000000
00100000
01000000
00010000
10000000
,  // measure 7
00000000
00000000
01000000
00000000
00000000
00000000
00100000
00000000
00000000
00000000
01000000
10000000
00000000
00000000
00010000
00100000
,  // measure 8
00000000
00001000
00000000
00010000
00000000
00000010
00000000
00000100
,  // measure 9
00000000
00000001
00000000
00001000
00000200
00000000
00000010
00000000
,  // measure 10
00000310
00000001
00001000
00000100
00000010
00000100
00001000
00000001
,  // measure 11
00000000
00000000
00000100
00000000
00000000
00000000
00000010
00000000
00000000
00000000
00000100
00000001
00000000
00000000
00001000
00000010
,  // measure 12
00000000
00010000
00000000
00001000
00000000
00100000
00000000
01000000
,  // measure 13
00000000
10000000
00000000
00010000
02000000
00000000
00000000
00000000
,  // measure 14
03100000
00000000
10000000
00000000
00100000
01000000
00010000
10000000
,  // measure 15
02000000
00000000
03100000
00020000
00000000
10030000
02000000
00000000
,  // measure 16
03020000
00000000
00031000
00200000
00000000
00302000
00000000
00003200
,  // measure 17
00000000
00000300
00000101
00000000
00001100
00000000
00010000
00010000
,  // measure 18
00000010
00000000
00000001
00000000
00000010
00000100
00001000
00020000
,  // measure 19
00000000
00000000
00001000
00032000
00000000
00000000
00010000
00013000
,  // measure 20
00001000
00100000
00001000
00000000
00010000
00000010
00010000
00000000
00001000
01000000
00001000
00000000
00010000
00000100
00010000
00000000
,  // measure 21
00002000
00023000
00032000
00023000
,  // measure 22
00130000
00000000
00000000
01000000
00010000
00000000
10000000
00000000
01000000
00000000
00100000
00000000
01000000
00000000
00010000
00000000
,  // measure 23
00001000
00000000
00000000
00000010
00000000
00000000
00000002
00000000
00000000
00000000
00001003
00000000
00000100
00000000
00000001
00000000
,  // measure 24
00001000
00000000
00000000
00000010
00000100
00000000
00001000
00000000
00000001
00000000
00000010
00000000
00000100
00000000
00000001
00000000
,  // measure 25
00000100
00000000
00000000
00001000
00000000
00000000
00000002
00000000
00000000
00000000
00000000
00000000
00000003
00000000
00000000
00000000
,  // measure 26
00000010
00000000
00000000
00000100
00001000
00000000
00000001
00000000
00000100
00000000
00000010
00000000
00000100
00000000
00001000
00000000
,  // measure 27
00010000
00000000
00000000
00100000
00000000
00000000
20000000
00000000
00000000
00000000
30010000
00000000
01000000
00000000
10000000
00000000
,  // measure 28
00010000
00000000
00000000
00100000
01000000
00000000
00010000
00000000
10000000
00000000
00100000
00000000
01000000
00000000
10000000
00000000
,  // measure 29
01000000
00000000
00000000
00010000
00000000
00000000
20000000
00000000
00000000
00000000
00000000
00000000
30000000
00000000
00000000
00000000
,  // measure 30
10100000
00000000
00110000
00001000
00000000
00000100
00000000
00000001
,  // measure 31
00000000
00001000
00000000
00001100
00000000
00000012
00000000
00000000
,  // measure 32
00002003
00000000
00003000
00000001
00000010
00001000
00010000
01000000
,  // measure 33
00010000
00000000
00000000
00001000
00000000
00000000
00000010
00000000
00000000
00000000
00000000
00000000
00000000
00000000
00000000
00000000
,  // measure 34
00000011
00000000
00001010
00010000
00000000
01000000
00000000
10000000
,  // measure 35
00000000
00010000
00000000
01010000
00000000
20100000
00000000
00000000
,  // measure 36
30020000
00000000
00030000
10000000
00100000
00010000
00001000
00000100
,  // measure 37
00000002
00000000
00000000
00000000
,  // measure 38
00000103
00000110
00000000
00000000
00000010
00000110
00000000
00000000
,  // measure 39
00000110
00001010
00001100
00000000
00000110
00000011
00000101
00000000
,  // measure 40
00000001
00001001
00000000
00000000
00001000
00001001
00000000
00000000
,  // measure 41
00000001
00000000
00000101
00000000
00000000
00000000
00001000
00000000
00000100
00000000
00001000
00000100
00000000
00000000
00000000
00000000
,  // measure 42
00000010
00000000
00000001
00000100
00000001
00000000
00000100
00001000
00000100
00000000
00001000
00000000
00000000
00000000
00010000
00001000
,  // measure 43
00010000
00000000
00100000
00010000
00100000
00000000
10000000
00100000
10000000
00000000
01000000
00000000
00000000
00000000
00000000
10000000
,  // measure 44
01000000
00000000
10000000
00100000
10000000
00000000
00100000
00000000
00110000
00000000
00110000
00000000
00011000
00000000
00001000
00000000
,  // measure 45
00001100
00000000
00000101
00000000
00000000
00000000
00001001
00000000
00000100
00000020
00000000
00000000
00000000
00000000
00000030
00000000
,  // measure 46
00000100
00000001
00001000
00000001
00000010
00001000
00000001
00001000
,  // measure 47
00000100
00000001
00000100
00000010
00000100
00001000
00010000
00100000
,  // measure 48
01000000
10000000
00010000
10000000
00100000
00010000
10000000
00010000
,  // measure 49
01000000
10000000
01000000
00100000
01000000
00010000
10000000
00100000
,  // measure 50
00010000
00001000
00000100
00000010
00001000
00000010
00000100
00000001
,  // measure 51
00000010
00001000
00010000
01000000
00100000
01000000
00010000
10000000
,  // measure 52
00100000
00001000
00010000
00000010
00000100
00001000
00000001
00000010
,  // measure 53
00010000
00001000
00000010
00000001
00000100
00001000
00010000
00100000
,  // measure 54
11000000
00000000
00000000
00000000
;
