#TITLE:Venus;
#SUBTITLE:;
#ARTIST:Tatsh+RayZY;
#TITLETRANSLIT:;
#SUBTITLETRANSLIT:;
#ARTISTTRANSLIT:;
#CREDIT:;
#BANNER:Venus.png;
#BACKGROUND:Venus-bg.png;
#LYRICSPATH:;
#CDTITLE:./CDTITLES/GUITARFREAKS & drummania.png;
#MUSIC:Venus.mp3;
#OFFSET:-0.066;
#SAMPLESTART:65.701;
#SAMPLELENGTH:15.000;
#SELECTABLE:YES;
#BPMS:0.000=195.080;
#STOPS:;
#BGCHANGES:0.000=Venus.avi=1.000=1=0=0,
338.000=Venus-bg.png=1.000=0=0=1,
99999=-nosongbg-=1.000=0=0=0 // don't automatically add -songbackground-
;

//---------------dance-single - ----------------
#NOTES:
     dance-single:
     :
     Medium:
     7:
     0.387,0.473,0.187,0.103,0.000:
0000
0000
0000
0000
,
0000
0000
0000
0000
,
1001
0000
0000
0000
,
1000
0000
0000
0000
,
0001
0001
0000
0000
,
1000
1000
0000
0000
,
0010
0010
0000
0000
,
0100
0100
0000
0000
,
0010
0001
1000
0000
,
0001
0010
0100
1000
,
1001
0100
0010
0000
,
0110
0100
0010
0000
,
0110
0001
1000
0000
,
0110
0001
0010
0100
,
0110
0001
1000
0000
,
1001
0001
0010
0000
,
1001
1000
0100
0000
,
1000
0010
0100
0001
,
0010
0001
1000
0100
,
0010
0001
1001
1001
,
0220
0000
0000
0000
,
0000
0000
0330
2000
,
0002
0000
0000
0000
,
0000
0000
3003
0000
,
0010
0100
0110
0000
,
1000
0001
1001
0000
,
0001
1000
1001
0000
,
0010
0100
0001
1000
,
0200
0000
0000
0000
,
0000
0000
0300
0010
,
0020
0000
0000
0030
,
1001
0000
0000
0001
,
1000
0010
0100
0001
,
0010
0100
1000
0010
,
0100
0001
1000
0001
,
0010
0001
1000
1000
,
0020
0000
0000
0130
,
0010
0020
0000
1030
,
0002
0000
0000
0103
,
1000
0010
0100
0001
,
0010
0001
0000
1000
,
0010
1000
0000
0001
,
0100
0000
0000
0001
,
0100
0010
1000
0001
,
0010
0001
0010
0001
,
1000
0100
1000
0100
,
1000
0100
0001
0100
,
1000
0010
0001
0010
,
1000
0100
0010
0001
,
1000
0100
0010
0001
,
1000
0010
0001
0001
,
1000
0100
1000
0001
,
0010
0100
1000
0001
,
2000
0000
3010
0100
,
0010
0100
0001
0010
,
0100
1000
0001
1000
,
0010
0100
0001
0010
,
0001
1000
0100
0010
,
0001
0010
0100
1000
,
0100
1000
0001
0100
,
0001
0100
0010
1000
,
0001
1000
1001
0001
,
0010
0000
0110
0001
,
1000
0000
0110
0010
,
1000
0001
0010
0100
,
1000
0010
0001
0100
,
0001
0010
0001
0100
,
0001
0010
0100
1000
,
0100
1000
1001
0000
,
0000
0000
0110
0010
,
0100
0000
1000
0001
,
1000
0001
0010
0100
,
1000
0010
0100
0001
,
0010
0100
0100
1000
,
0010
0000
1000
0100
,
1000
0000
1000
0001
,
1000
0001
0010
0100
,
1000
0010
1000
0100
,
0010
0000
0001
1000
,
0010
0000
1000
0001
,
0100
0001
1000
0010
,
1000
0001
0010
0100
,
1000
0010
0100
0001
,
0001
1000
0002
0000
,
0000
0000
0003
0000
;

//---------------dance-single - ----------------
#NOTES:
     dance-single:
     :
     Hard:
     8:
     0.527,0.622,0.149,0.224,0.000:
0000
0000
0000
0000
,
0000
0000
0000
0000
,
2000
0000
0000
0000
,
3001
0100
0001
1000
,
0001
0010
0100
0000
1000
0010
0000
0000
,
0100
1000
0001
0000
0010
1000
0000
0000
,
0001
0100
0001
0000
1000
0100
1000
0000
,
0010
0001
0100
0000
1100
0000
0000
0000
,
0010
0001
1000
0100
,
0100
0010
0001
0000
1001
0000
0100
0002
,
0000
0000
0000
0000
0003
0000
0010
2000
,
0000
0000
0000
0000
3000
0000
0010
0002
,
0000
0000
0003
0000
0010
0100
1000
0000
,
0100
1000
0001
0000
0010
0000
1000
0002
,
0000
0000
0000
0000
0003
0000
0100
0020
,
0000
0000
0000
0000
0030
0000
0001
0100
,
0000
1000
0001
1000
0010
0000
1000
0010
,
0000
0001
0100
0000
1000
0000
0001
0000
,
0010
0100
0010
0000
0001
0000
1000
0000
,
0010
1000
0001
0000
0010
0001
1000
0000
,
2002
0000
0000
0000
,
0000
0000
3003
0010
,
0120
0000
0000
0030
,
1000
0000
0000
0100
0000
1000
0010
0000
,
0100
0000
0001
0000
0000
1000
0010
0000
,
0100
0000
0010
0000
0000
1000
0001
0000
,
0010
0000
0100
0000
0000
0010
0001
0000
,
1000
0100
0010
0000
0100
1000
0001
0000
,
2002
0000
0000
0000
,
0000
0000
3003
0010
,
0200
0000
0000
0000
,
0000
0000
0000
0301
,
1001
0100
1000
0010
,
1001
0100
0001
0010
,
1001
0010
1000
0100
,
1001
0010
0001
0001
,
2000
0000
3010
0100
,
0001
0002
0010
1003
,
0200
0000
0310
0000
,
1000
0000
0001
0000
0100
1000
0001
0000
,
0002
0000
0103
0010
,
1000
2000
0100
3001
,
0020
0000
0130
0000
,
0001
0000
1000
0000
0010
0001
1000
0000
,
0001
0010
0100
0001
,
1000
0100
0010
1000
,
1000
0000
0001
0000
0010
0001
0100
0000
,
1000
0000
0010
0000
0001
0000
1000
0001
,
0100
0100
0100
1000
,
0010
0010
0010
0001
,
0100
0001
0100
0000
1000
0000
1000
0000
,
0010
1000
0100
0000
0001
0010
0100
0000
,
0100
1000
0010
0000
0100
0010
0002
0000
,
0000
0000
0000
1003
0000
0000
0100
0000
,
1000
0000
0000
0110
0000
0000
1000
0000
,
0100
0000
0010
0001
0000
0001
1000
0000
,
0100
0000
0010
0001
0000
0001
0100
0001
,
1000
0000
0010
0100
0002
0000
0010
0000
,
1000
0013
0011
0110
,
1100
0000
1010
0000
0100
0001
1000
0001
,
1000
0001
1000
0001
1000
0100
0010
0001
,
1000
0100
0010
0001
0000
0100
1000
0000
,
0100
0000
0001
0010
0000
0010
0100
0000
,
1000
0000
0010
0001
0000
0010
0100
0001
,
0100
0010
0000
1000
0000
0100
0010
0000
,
0001
1000
0100
1000
0002
0000
0010
0000
,
1000
0013
2000
0100
,
0001
3100
0001
1000
,
0010
0100
0010
0100
0020
0000
0030
0000
,
0200
0000
0300
0000
1001
0000
0100
1000
,
0000
1000
0010
0000
0100
0000
0010
0000
,
0001
0010
0001
0100
0000
0010
1000
0000
,
1000
0010
1000
0100
0000
0010
0001
0000
,
0001
0100
0001
1000
0010
0000
1000
0000
,
0100
1000
0010
0100
,
0001
1000
0010
0100
0000
0100
0001
0000
,
1000
0100
0010
0001
1000
0100
1000
0100
,
0010
0001
0010
0001
1000
0100
0010
0000
,
0001
1000
0010
0000
0100
0000
0010
1000
,
0100
0010
0001
1000
0000
1000
0001
0000
,
0100
0010
0100
0001
0000
0001
0010
0100
,
0010
0001
0000
0001
1000
0010
0100
0000
,
0001
0010
0001
0100
0010
0000
1000
0010
,
0100
0010
0000
0110
0000
0000
0000
0000
;

//---------------dance-double - ----------------
#NOTES:
     dance-double:
     :
     Hard:
     7:
     0.440,0.584,0.028,0.280,0.000: // measure 1
00000000
00000000
00000000
00000000
,  // measure 2
00000000
00000000
00000000
00000000
,  // measure 3
00011000
00000000
00000000
00000000
,  // measure 4
00000100
00000000
00000000
00000000
,  // measure 5
00001000
00000000
00000001
00001000
00000000
00001000
00000001
00000000
,  // measure 6
00000010
00001000
00000100
00000000
00010000
00000000
00000100
00000000
,  // measure 7
00001000
00000000
00000100
00010000
00000000
00010000
00001000
00000000
,  // measure 8
00100000
00010000
01000000
00000000
00100000
00000000
10000000
00000000
,  // measure 9
00010000
00000000
00100000
01000000
00000000
10000000
00010000
00000000
,  // measure 10
00100000
10000000
01000000
00000000
00100000
00000000
00010000
00200000
,  // measure 11
00000000
00000000
00000000
00300000
00000000
00000000
00001000
00020000
,  // measure 12
00000000
00000000
00000000
00000000
00000000
00030000
00000100
00002000
,  // measure 13
00000000
00000000
00000000
00000000
00000000
00003000
00000001
00000000
,  // measure 14
00000001
00001000
00000000
00001000
00000010
00000000
00000100
00000020
,  // measure 15
00000000
00000000
00000000
00000000
00000000
00000030
00010000
00002000
,  // measure 16
00000000
00000000
00000000
00000000
00000000
00003000
00100000
00020000
,  // measure 17
00000000
00000000
00000000
00000000
00000000
00030000
00100000
00000000
,  // measure 18
01000000
10000000
00000000
00000000
00100000
00000000
00100000
01000000
,  // measure 19
00000000
00000000
00010000
00000000
00010000
01000000
00000000
01000000
,  // measure 20
00001000
00010000
00001000
00000000
00000100
00001000
00000100
00000000
,  // measure 21
00000020
00000000
00000000
00000000
,  // measure 22
00000000
00000000
00000000
00000000
00000000
00000030
00000001
00000000
,  // measure 23
00000200
00000000
00000000
00000000
,  // measure 24
00000000
00000000
00000300
00000010
,  // measure 25
00010000
00001000
00100000
00010000
,  // measure 26
10000000
00100000
01000000
00010000
,  // measure 27
00010000
00100000
01000000
00100000
,  // measure 28
00001000
00000000
00010000
00000000
00000100
00001000
00000100
00000000
,  // measure 29
00000020
00000000
00000000
00000000
,  // measure 30
00000000
00000000
00000000
00000000
00000000
00000030
00000001
00000100
,  // measure 31
00000002
00000000
00000000
00000000
,  // measure 32
00000000
00000000
00000000
00000000
00000000
00000003
00001000
00000001
,  // measure 33
00001000
00000100
00001000
00000010
,  // measure 34
00010000
00001000
00100000
00010000
,  // measure 35
10000000
00100000
01000000
00010000
,  // measure 36
10000000
00000000
01000000
00000000
10000000
00000000
10000000
00010000
,  // measure 37
00200000
00000000
00000000
00000000
00000000
00300000
00001000
00000000
,  // measure 38
00010000
00000000
00020000
00000000
00000000
00030000
00000100
00000000
,  // measure 39
00001000
00000000
00002000
00003000
00000100
00002000
00003000
00000100
,  // measure 40
00000020
00000030
00000100
00002000
00003000
00000100
00010000
00000000
,  // measure 41
00002000
00000000
00000000
00000000
00000000
00003000
01000000
00000000
,  // measure 42
00010000
00000000
00020000
00000000
00000000
00030000
10000000
00000000
,  // measure 43
00100000
00000000
00000000
00100000
00000000
00000000
20000000
00000000
,  // measure 44
30000000
00200000
00000000
00300000
01000000
00000000
00010000
00000000
,  // measure 45
00100000
00000000
00001000
00000000
00001000
00010000
00000000
00000010
,  // measure 46
00001000
00000000
00000010
00000000
00000100
00000010
00000000
00000010
,  // measure 47
00000100
00000000
00000001
00000000
00000100
00000001
00000000
00000001
,  // measure 48
00000010
00000000
00000000
00000100
00000000
00000000
00000100
00000000
,  // measure 49
00000100
00000000
00010000
00000000
00001000
00010000
00000000
00010000
,  // measure 50
00001000
00000000
00100000
00000000
00010000
00100000
00000000
00100000
,  // measure 51
01000000
00000000
01000000
00000000
10000000
01000000
00000000
01000000
,  // measure 52
00100000
00000000
00000000
00010000
00000000
00000000
00010000
00000000
,  // measure 53
00000000
00001000
00000000
00000000
00001000
00000000
00000000
00000200
,  // measure 54
00000000
00000000
00000300
00000010
00000000
00000000
00000001
00000000
,  // measure 55
00001000
00000000
00000100
00000001
00000000
00000000
00000100
00000000
,  // measure 56
00001000
00000000
00000010
00000001
00000000
00000000
00000010
00000000
,  // measure 57
00000100
00000000
00001000
00020000
00000000
00000000
00000000
00000000
,  // measure 58
00030000
00000000
00001000
00010000
00100000
00000000
00000000
00100000
,  // measure 59
00000000
10000000
01000000
00100000
,  // measure 60
00010000
00000000
01000000
00000000
00001000
00000000
00000000
00001000
,  // measure 61
00000000
00000010
00000020
00000000
,  // measure 62
00000000
00000000
00000030
00000002
00000000
00000003
00000100
00000000
,  // measure 63
00001000
00000000
00000010
00000001
00000000
00000000
00000010
00000000
,  // measure 64
00001000
00000000
00001000
00010000
00000000
00000000
00010000
01000000
,  // measure 65
00010000
01000000
00000000
00200000
00000000
00000000
00000000
00000000
,  // measure 66
00000000
00300000
00000000
00000000
01000000
00001000
01000000
00000000
,  // measure 67
00001000
00010000
00001000
00000000
00010000
00000010
00010000
00000000
,  // measure 68
00000010
00000110
00002000
00003002
,  // measure 69
00000013
00000100
00001000
00000001
00000020
00000000
00000000
00000030
,  // measure 70
00000200
00000000
00000000
00000300
00001000
00000000
00000010
00000000
,  // measure 71
00010000
00001000
00100000
00010000
,  // measure 72
10000000
00100000
01000000
00000000
00010000
00000000
10000000
10000000
,  // measure 73
00100000
00010000
00100000
10000000
,  // measure 74
01000000
00010000
00001000
00000000
00001000
00000000
00000010
00000000
,  // measure 75
00000001
00000001
00000100
00000010
,  // measure 76
00010000
00001000
00000000
00001000
00100000
00000000
00001000
00000000
,  // measure 77
00100000
01000000
00000000
02000000
00000000
00000000
00000000
03000000
,  // measure 78
10000000
01000000
00100000
00001000
,  // measure 79
00010000
00000000
00000100
00010000
00000100
00001000
00000100
00000000
,  // measure 80
00001000
00000001
00000000
00000001
00000000
00000000
00000001
00000100
,  // measure 81
00000010
00000000
00001000
00000010
00000000
00000000
00000010
00000000
,  // measure 82
00001000
00000100
00001000
00000000
00000010
00000001
00000010
00000000
,  // measure 83
00000100
00001000
00000000
00000000
00010000
00000000
00001000
00000000
,  // measure 84
00010000
00001000
00000000
00011000
00000000
00000000
00000000
00000000
;

//---------------dance-double - ----------------
#NOTES:
     dance-double:
     :
     Medium:
     6:
     0.308,0.351,0.047,0.159,0.000: // measure 1
00000000
00000000
00000000
00000000
,  // measure 2
00000000
00000000
00000000
00000000
,  // measure 3
02000000
00000000
00000000
03000000
,  // measure 4
00200000
00000000
00000000
00300000
,  // measure 5
00010000
00000000
00001000
00000000
,  // measure 6
00010000
00001000
00000100
00000000
,  // measure 7
00001000
00000000
00000001
00000000
,  // measure 8
00000100
00001000
00000010
00000000
,  // measure 9
00010000
00001000
00010000
00000000
,  // measure 10
00100000
00010000
10000000
00010000
,  // measure 11
20020000
00000000
00000000
30030000
,  // measure 12
02200000
00000000
00000000
03300000
,  // measure 13
00100000
00010000
00001000
00000000
,  // measure 14
00010000
00001000
00000010
00000000
,  // measure 15
00002002
00000000
00000000
00003003
,  // measure 16
00000220
00000000
00000000
00000330
,  // measure 17
00000100
00000001
00000010
00000000
,  // measure 18
00000100
00001000
00000010
00000000
,  // measure 19
00000010
00001000
00001000
00010000
,  // measure 20
00010000
01000000
01000000
00010000
,  // measure 21
20000000
00000000
00000000
00000000
,  // measure 22
00000000
00000000
30000000
00100000
,  // measure 23
00020000
00000000
00000000
00000000
,  // measure 24
00000000
00000000
00030000
00100000
,  // measure 25
00010000
10000000
01000000
00010000
,  // measure 26
00000000
00010000
00001000
00000010
,  // measure 27
00000000
00000010
00000001
00000000
,  // measure 28
00001000
00000010
00000100
00000001
,  // measure 29
00002000
00000000
00000000
00000000
,  // measure 30
00000000
00003000
00000000
00010000
,  // measure 31
00010000
00100000
01000000
10000000
,  // measure 32
00000000
01000000
00100000
01000000
,  // measure 33
00010000
01000000
10000000
00000000
,  // measure 34
10000000
01000000
00010000
00000000
,  // measure 35
00001000
00000100
00000001
00000000
,  // measure 36
00000001
00000000
00000010
00000000
,  // measure 37
00001000
00000000
00000010
00000000
,  // measure 38
00010000
00000000
00001000
00000000
,  // measure 39
01000000
00000000
00100000
00000000
,  // measure 40
10000000
00100000
01000000
00010000
,  // measure 41
10000000
00000000
00100000
00000000
,  // measure 42
00010000
00000000
00001000
00000000
,  // measure 43
00000010
00000000
00000001
00000000
,  // measure 44
00000010
00000100
00001000
00000001
,  // measure 45
00000100
00000100
00000000
00000001
,  // measure 46
00000000
00001000
00000000
00000010
,  // measure 47
00000000
00010000
00000000
00001000
,  // measure 48
00000000
00100000
00000000
00010000
,  // measure 49
00000000
10000000
00000000
00100000
,  // measure 50
00000000
00010000
00000000
00010000
,  // measure 51
00000000
00001000
00000000
00010000
,  // measure 52
00002000
00000000
00000000
00003000
00000020
00000000
00000000
00000000
,  // measure 53
00000000
00000000
00000030
00000000
,  // measure 54
00000000
00000000
00000100
00000001
,  // measure 55
00000000
00000010
00001000
00000001
,  // measure 56
00000000
00000010
00000010
00000100
,  // measure 57
00010000
00001000
00000000
00100000
,  // measure 58
01000000
10000000
00010000
00100000
,  // measure 59
00000000
00100000
00010000
10000000
,  // measure 60
00000000
01000000
00001000
00010000
,  // measure 61
00000100
00001000
00000002
00000000
,  // measure 62
00000003
00000000
00000100
00000010
,  // measure 63
00000000
00001000
00000001
00000010
,  // measure 64
00000000
00000100
00010000
00001000
,  // measure 65
00010000
00001000
00100000
00000000
,  // measure 66
00000000
00010000
00200000
00000000
,  // measure 67
00300000
10000000
01000000
00000000
,  // measure 68
00000000
00100000
00010000
00100000
,  // measure 69
00001000
00010000
00000100
00000000
,  // measure 70
00000010
00000000
00000001
00000010
,  // measure 71
00000100
00000000
00000100
00000010
,  // measure 72
00001000
00000001
00000001
00000000
,  // measure 73
00000010
00000010
00000001
00001000
,  // measure 74
00001000
00000010
00010000
00001000
,  // measure 75
01000000
00010000
10000000
01000000
,  // measure 76
00010000
01000000
10000000
00000000
,  // measure 77
10000000
01000000
00010000
00000000
,  // measure 78
00001000
00000000
00000000
00000100
,  // measure 79
00000010
00000000
00000001
00000010
,  // measure 80
00001000
00010000
00100000
00000000
,  // measure 81
00010000
00100000
10000000
00100000
,  // measure 82
10000000
00100000
00000000
00010000
,  // measure 83
00100000
00000000
00100000
00001000
,  // measure 84
00010000
00000000
00011000
00000000
;

//---------------dance-single - ----------------
#NOTES:
     dance-single:
     :
     Beginner:
     2:
     0.096,0.154,0.075,0.000,0.000:
0000
0000
0000
0000
,
0000
0000
0000
0000
,
1000
0000
0000
0000
,
0000
0000
0000
0000
,
0001
0000
0000
0000
,
0000
0000
0000
0000
,
1000
0000
0000
0000
,
0000
0000
0000
0000
,
0001
0000
0000
0000
,
0000
0000
0000
0000
,
0010
0000
0000
0000
,
0000
0000
0000
0000
,
0100
0000
0000
0000
,
0000
0000
0000
0000
,
0010
0000
0000
0000
,
0000
0000
0000
0000
,
0100
0000
0000
0000
,
0000
0000
0000
0000
,
1000
0000
0000
0000
,
0001
0000
0000
0000
,
1000
0000
0000
0000
,
0000
0000
0000
0000
,
0001
0000
0000
0000
,
0000
0000
0000
0000
,
0100
0000
0000
0000
,
0100
0000
0000
0000
,
0010
0000
0000
0000
,
0010
0000
0000
0000
,
1000
0000
0000
0000
,
0000
0000
0000
0000
,
0001
0000
0000
0000
,
0000
0000
0000
0000
,
0001
0000
0000
0000
,
1000
0000
0000
0000
,
0001
0000
0000
0000
,
1000
0000
0000
0000
,
0010
0000
0000
0000
,
0100
0000
0000
0000
,
0010
0000
0000
0000
,
0100
0000
0000
0000
,
0001
0000
0000
0000
,
1000
0000
0000
0000
,
0001
0000
0000
0000
,
1000
0000
0000
0000
,
1001
0000
0000
0000
,
0000
0000
0000
0000
,
1001
0000
0000
0000
,
0000
0000
0000
0000
,
0110
0000
0000
0000
,
0000
0000
0000
0000
,
0110
0000
0000
0000
,
0000
0000
0000
0000
,
0000
0000
0000
0000
,
0000
0000
0001
0000
,
0000
0000
1000
0000
,
0000
0000
0001
0000
,
0000
0000
1000
0000
,
0000
0000
0001
0000
,
0000
0000
0010
0000
,
0000
0000
0100
0000
,
0000
0000
1000
0000
,
0000
0000
0010
0000
,
0000
0000
1000
0000
,
0000
0000
0001
0000
,
0000
0000
0100
0000
,
0000
0000
0010
0000
,
0000
0000
1000
0000
,
0000
0000
0001
0000
,
0000
0000
0100
0000
,
0000
0000
0110
0000
,
0000
0000
0100
0000
,
0000
0000
0010
0000
,
0000
0000
0110
0000
,
0000
0000
1001
0000
,
0000
0000
1000
0000
,
0000
0000
0001
0000
,
0000
0000
1001
0000
,
0000
0000
0001
0000
,
0000
0000
1000
0000
,
0000
0000
0010
0000
,
0000
0000
0100
0000
,
0000
0000
0001
0000
,
0000
0000
1000
0000
;

//---------------dance-single - ----------------
#NOTES:
     dance-single:
     :
     Easy:
     4:
     0.199,0.234,0.075,0.131,0.000:
0000
0000
0000
0000
,
0000
0000
0000
0000
,
1000
0000
0000
0000
,
0001
0000
0000
0000
,
1001
0000
0100
0000
,
1000
0000
0000
0000
,
1001
0000
0001
0000
,
0010
0000
0000
0000
,
0110
0000
0100
0000
,
0010
0000
0000
0000
,
0001
0000
1000
0000
,
0010
0000
0100
0000
,
0001
0000
1000
0000
,
0010
0000
0000
0000
,
0001
0000
1000
0000
,
0100
0000
0010
0000
,
0001
0000
1000
0000
,
0010
0000
0100
0000
,
0001
0000
1000
0000
,
0010
0000
0010
0000
,
0200
0000
0000
0000
,
0000
0000
0000
0300
,
0002
0000
0000
0000
,
0000
0000
0000
0003
,
1000
0000
0010
0000
,
0100
0000
0000
0000
,
0001
0000
1000
0000
,
0100
0000
1000
0000
,
0020
0000
0000
0000
,
0000
0000
0000
0030
,
0200
0000
0000
0000
,
0000
0000
0000
0300
,
0001
0000
0100
0000
,
1000
0000
0100
0000
,
0001
0000
0010
0000
,
1000
0000
0010
0000
,
0002
0000
0000
0003
,
2000
0000
0000
3000
,
0020
0000
0000
0030
,
0200
0000
0000
0300
,
0020
0000
0000
0030
,
2000
0000
0000
3000
,
0002
0000
0000
0003
,
0200
0000
0000
0300
,
0001
0000
1000
0000
,
0100
0000
1000
0000
,
0001
0000
1000
0000
,
0010
0000
1000
0000
,
0100
0000
1000
0000
,
0010
0000
0001
0000
,
0100
0100
0000
0000
,
0010
0010
0000
0000
,
0001
0000
2000
0000
,
0000
3000
0010
0000
,
0100
0000
0001
0000
,
0000
0000
0010
0000
,
0100
0000
1000
0000
,
0000
0000
1000
0000
,
0100
0000
0001
0000
,
0100
0000
1000
0000
,
0010
0000
0001
0000
,
0000
0000
1001
0000
,
0000
0000
0110
0000
,
0000
0000
0110
0000
,
0000
0000
1001
0000
,
0000
0000
1000
0000
,
0001
0000
0100
0000
,
0010
0000
0100
0000
,
1000
0000
0200
0000
,
0000
0300
0010
0000
,
0001
0000
0010
0000
,
1000
0000
0100
0000
,
0010
0000
0001
0000
,
1000
0000
0010
0000
,
0100
0000
0001
0000
,
0100
0000
0010
0000
,
1000
0000
1000
0000
,
0000
0000
0100
0000
,
1000
0000
0100
0000
,
0001
0000
0010
0000
,
0100
0000
1000
0000
,
0001
0000
0100
0000
,
0010
0000
1000
0000
,
0010
0000
0110
0000
;

//---------------dance-double - ----------------
#NOTES:
     dance-double:
     :
     Easy:
     4:
     0.200,0.234,0.047,0.103,0.000:
00000000
00000000
00000000
00000000
,
00000000
00000000
00000000
00000000
,
10000000
00000000
00000000
00000000
,
01000000
00000000
00000000
00000000
,
00010000
00000000
00001000
00000000
,
00000100
00000000
00000001
00000000
,
00000010
00000000
00001000
00000000
,
00010000
00000000
00001000
00000000
,
00100000
00000000
00010000
00000000
,
10000000
00000000
00100000
00000000
,
10010000
00000000
10000000
00000000
,
00100000
00000000
00010000
00000000
,
00001000
00000000
00000010
00000000
,
00000001
00000000
00000100
00000000
,
00001001
00000000
00000001
00000000
,
00000100
00000000
00001000
00000000
,
00010000
00000000
00100000
00000000
,
10000000
00000000
01000000
00000000
,
00100000
00000000
00001000
00000000
,
00010000
00000000
00000010
00000000
,
00000200
00000000
00000000
00000000
,
00000000
00000000
00000000
00000300
,
00000002
00000000
00000000
00000000
,
00000000
00000000
00000000
00000003
,
00000010
00000000
00001000
00000000
,
00010000
00000000
00001000
00000000
,
00000100
00000000
00001000
00000000
,
00010000
00000000
00100000
00000000
,
02000000
00000000
00000000
00000000
,
00000000
00000000
00000000
03000000
,
00020000
00000000
00000000
00000000
,
00000000
00000000
00000000
00030000
,
10000000
00000000
00100000
00000000
,
01000000
00000000
00001000
00000000
,
00010000
00000000
00001000
00000000
,
00000100
00000000
00000001
00000000
,
00000020
00000000
00000000
00000030
,
00000200
00000000
00000000
00000300
,
00020000
00000000
00000000
00030000
,
00002000
00000000
00000000
00003000
,
02000000
00000000
00000000
03000000
,
00010000
00000000
00100000
00000000
,
10000000
00000000
00000000
00000000
,
10010000
00000000
00000000
00000000
,
10000000
00000000
01000000
00000000
,
00010000
00000000
00000000
00000000
,
00001000
00000000
00000100
00000000
,
00000001
00000000
00000000
00000000
,
00000010
00000000
00001000
00000000
,
00010000
00000000
00001000
00000000
,
00010000
00000000
00100000
00000000
,
20000000
00000000
00000000
00000000
,
00000000
00000000
00000000
00000000
,
00000000
30000000
01000000
00000000
,
00100000
00000000
00001000
00000000
,
00010000
00000000
00000100
00000000
,
00000010
00000000
00000100
00000000
,
00001000
00000000
00000001
00000000
,
00000100
00000000
00001000
00000000
,
00010000
00000000
01000000
00000000
,
10000000
00000000
00100000
00000000
,
00010000
00000000
00100000
00000000
,
10000000
00000000
01000000
00000000
,
00010000
00000000
00001000
00000000
,
00000010
00000000
00000001
00000000
,
00001000
00000000
00000010
00000010
,
00000000
00000000
00000100
00000100
,
00000000
00000000
00000010
00000000
,
00010000
00000000
00001000
00000000
,
00011000
00000000
00010000
00000000
,
00100000
00000000
10000000
00000000
,
01000000
00000000
00010000
00000000
,
01000000
00000000
00100000
00000000
,
01000000
00000000
00010000
00000000
,
00001000
00000000
00000010
00000000
,
00000001
00000000
00000010
00000000
,
00000100
00000000
00000020
00000000
,
00000000
00000030
00000001
00000000
,
00000100
00000000
00001000
00000000
,
00000000
00000000
00010000
00000000
,
01000000
00000000
10000000
00000000
,
00000000
00000000
00100000
00000000
,
01000000
00000000
00001000
00000000
,
00010000
00000000
00011000
00000000
;

//---------------dance-single - ----------------
#NOTES:
     dance-single:
     :
     Challenge:
     8:
     0.656,0.700,0.299,0.224,0.000:
0000
0000
0000
0000
,
0000
0000
0000
0000
,
2002
0000
0000
0000
,
0000
0000
3003
0110
,
0100
0001
1000
0010
0000
0010
1000
0000
,
0100
0001
0001
0000
0100
1000
1000
0000
,
0001
0100
0001
0010
0000
0010
0001
0000
,
0100
0100
1000
0000
0100
0100
0001
0001
,
2002
0000
0000
3003
,
1000
0100
0010
0100
0001
0100
0010
1000
,
0000
0001
1000
0001
0100
0001
1000
1000
,
0000
1000
0100
1000
0010
1000
0001
0001
,
0000
0010
0100
1000
0010
0100
0001
0010
,
0000
0010
0001
0100
0010
1000
0001
1000
,
0000
0001
0100
0001
1000
0001
0010
0010
,
0000
0010
0100
1000
0001
1000
0010
0010
,
0000
0100
1000
0100
0010
1000
0001
0010
,
0000
0001
1000
0010
0100
0100
0010
0010
,
0100
0100
0010
0001
0010
1000
0100
0010
,
0001
1000
0001
1000
0001
1000
0110
0000
,
2002
0000
0000
0000
,
0000
0000
3003
1100
,
0102
0000
0000
0000
0000
0010
0000
0000
,
1000
0000
0000
0103
0000
1000
0010
0010
,
0100
0000
0001
1000
0010
0100
0001
0010
,
0200
0000
0310
0002
0000
0013
0100
1000
,
0010
0000
1000
0001
0100
0010
1000
0100
,
0020
0000
0130
2000
0000
3100
0010
0001
,
2002
0000
0000
0000
,
0000
0000
0000
0000
3003
0000
0100
0010
,
0200
0000
0000
0000
,
1000
0000
0000
0010
0000
0000
0301
1000
,
1001
0000
0100
1000
0010
1000
0001
0100
,
0020
0000
1030
0002
0000
0103
0010
0100
,
0001
0000
1000
0100
0010
0100
1000
0001
,
0011
0000
1000
0010
1010
0000
0100
0001
,
1001
0100
1100
0010
,
1010
0000
0100
0001
0010
0001
0100
1000
,
0001
0010
0011
0100
,
0101
0000
0010
1000
0100
1000
0010
0001
,
1000
0100
0011
1000
,
1010
0100
0101
1000
,
1100
0000
0100
1000
0001
0000
0010
0001
,
1000
0000
0010
0100
0001
0010
0100
1000
,
0001
0000
1100
0000
0010
1000
0100
0000
,
0010
1000
0100
0000
0010
0100
1000
0010
,
1000
0000
0101
0000
0010
0001
0100
0000
,
0010
0001
0100
0000
0010
1000
0100
0000
,
0020
0000
0000
0032
0000
0000
1003
0000
,
0100
0000
0001
0000
0100
1000
0010
0000
,
0100
0001
0011
0000
1000
0100
1100
0000
,
0010
0001
0100
0010
0001
0010
0100
0010
,
1000
0100
0010
0001
1000
0100
0010
0002
,
0000
0000
0003
1000
0000
0001
0100
0000
,
1000
0000
0100
0001
0000
0001
1000
0000
,
0100
0000
0010
0001
0000
0001
1000
0000
,
0100
0000
0010
0002
0000
0000
0000
0003
,
1000
0000
0010
0100
0002
0000
0010
0000
,
1000
0013
0011
0110
,
1100
0000
1010
0000
0100
0001
1000
0001
,
1000
0001
1000
0001
1000
0100
0010
0001
,
1000
0100
0010
0001
0000
0100
1000
0000
,
0100
0000
0001
0010
0000
0010
0100
0000
,
1000
0000
0010
0001
0000
0010
0100
0001
,
1000
0100
0000
0020
0000
0000
0000
0000
,
0031
1000
0100
1000
0002
0000
0010
0000
,
1000
0013
2000
0100
,
0001
3100
0001
1000
,
0010
0100
0010
0100
0101
0000
0000
0000
,
1100
0000
0000
0000
1001
0000
0100
1000
,
0000
1000
0010
0000
0100
0000
0010
0000
,
0001
0010
0001
0100
0000
0010
1000
0000
,
1000
0010
1000
0100
0000
0010
0001
0000
,
0001
0100
0001
1000
0010
0000
1000
0000
,
0100
1000
0010
0100
,
0001
1000
0010
0100
0000
0100
0001
0000
,
1000
0100
0010
0001
1000
0100
1000
0100
,
0010
0001
0010
0001
1000
0100
0010
0000
,
0001
1000
0010
0000
0100
0000
0010
1000
,
0100
0010
0001
1000
0000
1000
0001
0000
,
0100
0010
0100
0001
0000
0001
0010
0100
,
0010
0001
0000
0001
1000
0010
0100
0000
,
0001
0010
0001
0100
0010
0000
1000
0010
,
0100
0010
0000
0110
0000
0000
0000
0000
;

//---------------dance-double - ----------------
#NOTES:
     dance-double:
     :
     Challenge:
     8:
     0.628,0.661,0.420,0.205,0.000: // measure 1
00000000
00000000
00000000
00000000
,  // measure 2
00000000
00000000
00000000
00000000
,  // measure 3
00000000
00000000
00000000
00000000
,  // measure 4
00001000
00000000
00010000
00000000
01000000
00000000
10000000
01000000
,  // measure 5
00010000
10000000
00100000
00010000
00000000
00010000
01000000
00000000
,  // measure 6
10000000
01001000
00010000
01001000
,  // measure 7
00010000
00000100
00001000
00000010
00000000
00000010
00000100
00000000
,  // measure 8
00000001
00001010
00010000
00001010
,  // measure 9
00000200
00000000
00000000
00000300
,  // measure 10
00010010
00000000
00011000
00000000
00101000
00000000
00011000
00100000
,  // measure 11
00000000
00010000
10000000
00010000
01000000
00001000
00010000
00000010
,  // measure 12
00000000
00001000
00000001
00001000
00000010
00010000
00001000
01000000
,  // measure 13
00000000
00100000
01000000
00010000
10000000
00010000
00100000
01000000
,  // measure 14
00000000
01000000
00100000
00001000
00010000
00000010
00000100
00000001
,  // measure 15
00000000
00001000
00000100
00001000
00000010
00010000
00001000
00100000
,  // measure 16
00000000
00010000
01000000
00010000
00100000
00001000
00010000
00000100
,  // measure 17
00000000
00001000
00000100
00010000
00000010
00001000
00000001
00000100
,  // measure 18
00000000
00000100
00000010
00010000
00001000
00001000
00010000
00010000
,  // measure 19
00001000
00001000
00010000
00001000
01000000
00001000
00010000
00000010
,  // measure 20
00010000
00000100
00010000
00001000
00100000
00010000
01000000
00000000
,  // measure 21
20020000
00000000
00000000
00000000
,  // measure 22
00000000
00000000
30030000
01100000
,  // measure 23
02000000
00000000
00000000
00000000
00000000
10000000
00000000
00000000
,  // measure 24
00100000
00000000
00000000
03010000
00000000
00001000
00010000
00001000
,  // measure 25
00011000
00000000
00000100
00010000
00001000
00010000
00000010
00001000
,  // measure 26
00000002
00000000
00001003
00000200
00000000
00010300
00001000
00100000
,  // measure 27
00010000
00000000
01000000
00001000
00010000
00001000
00100000
00010000
,  // measure 28
20000000
00000000
30010000
02000000
00000000
03001000
00010000
00001000
,  // measure 29
00022000
00000000
00000000
00000000
,  // measure 30
00000000
00000000
00000000
00000000
00033000
00000000
00000010
00000010
,  // measure 31
00000020
00000000
00000000
00000000
,  // measure 32
00000001
00000000
00000000
00000100
00000000
00000000
00001030
00000001
,  // measure 33
00001001
00000000
00000010
00010000
00001000
00000100
00000010
00010000
,  // measure 34
00002000
00000000
00103000
00020000
00000000
10030000
00100000
10000000
,  // measure 35
01000000
00000000
00100000
00001000
00010000
01000000
00100000
00001000
,  // measure 36
00011000
00000000
01000000
00001000
00011000
00000000
01001000
00000000
,  // measure 37
00010200
00000000
00001000
00000000
,  // measure 38
00000310
00000000
00000001
00001000
00000100
00000000
00010000
00001000
,  // measure 39
02000000
00000000
00010000
00000000
,  // measure 40
03100000
10000000
00000000
00010000
01000000
00000000
00001000
00010000
,  // measure 41
00000020
00000000
00000100
00000000
,  // measure 42
00000031
00000000
00000010
00001000
00000100
00000000
00010000
00001000
,  // measure 43
00200000
00000000
01000000
00000000
,  // measure 44
10300000
00000000
00100000
01000000
10000000
00010000
01000000
00100000
,  // measure 45
00010000
00000000
00011000
00000000
00001000
00000100
00000010
00000000
,  // measure 46
00001000
00000100
00000010
00000000
00001100
00000000
00010100
00000000
,  // measure 47
00001000
00000000
00011000
00000000
00010000
00100000
01000000
00000000
,  // measure 48
00010000
00100000
01000000
00000000
10000000
00000000
10010000
00000000
,  // measure 49
02000000
00000000
00000000
03000000
,  // measure 50
00001000
00110000
00001000
01010000
,  // measure 51
00001000
00010000
00010100
00000000
00001000
00010000
00010010
00000000
,  // measure 52
00001000
00000001
00000100
00000010
00010000
00001000
00100000
01000000
,  // measure 53
10000000
00010000
01000000
00100000
00010000
00001000
00000100
00000010
,  // measure 54
00000000
00000000
00000000
00001000
00000000
00000001
00000100
00000000
,  // measure 55
00000100
00000000
00001000
00010000
00000000
00010000
01000000
00000000
,  // measure 56
01000000
00000000
10000000
00100000
00000000
00100000
00010000
00000000
,  // measure 57
00001000
00000000
00000010
00001000
00010000
00000000
00100000
00010000
,  // measure 58
00001000
00000000
00000100
00000001
00000010
00000000
00000011
00000000
,  // measure 59
00000001
00000011
00000200
00020300
,  // measure 60
00032000
00000000
02003000
00000000
03010000
01000000
00001000
00100000
,  // measure 61
00000100
00010000
00000010
00001000
00000001
00000100
00000010
00010000
,  // measure 62
00001000
01000000
00100000
10000000
00000000
10000000
01000000
00000000
,  // measure 63
01000000
00000000
00010000
00001000
00000000
00001000
00000100
00000000
,  // measure 64
00000100
00000000
00000001
00000010
00000000
00001000
00000010
00000100
,  // measure 65
00010000
00001000
00000000
00100000
00000000
00010000
01000000
00000000
,  // measure 66
00100000
10100000
01010000
01001000
,  // measure 67
01010000
00011000
00010010
00001010
,  // measure 68
00001001
00000011
00000100
00010000
,  // measure 69
00001000
00010000
00001000
00010000
00011000
00000000
00000000
00000000
,  // measure 70
00011000
00000000
00100000
00110000
,  // measure 71
10000000
01000000
00100000
00000000
10000000
00000000
00100000
00000000
,  // measure 72
00001000
00010000
00000010
00000001
,  // measure 73
00000010
00000000
00010000
00000000
00001000
00100000
00001000
00000000
,  // measure 74
00010000
00000010
00010000
00000000
00000100
00000000
00001100
00000000
,  // measure 75
00000001
00000010
00000100
00000000
00010000
00000000
00001000
00000000
,  // measure 76
01000000
10000000
01000000
00001000
,  // measure 77
00010000
00000000
00000100
00000000
00000010
00000001
00001000
00000100
,  // measure 78
00010000
00001000
01000000
00010000
10000000
00000000
01010000
00000000
,  // measure 79
00100000
00000000
01010000
00000000
00001000
00100000
00010000
00000000
,  // measure 80
00100000
00001000
00010000
00000010
00000000
00000010
00000100
00000000
,  // measure 81
00000001
00000000
00000100
00000010
00000000
00000010
00010000
00000000
,  // measure 82
00000100
00010000
00001000
00000000
01000000
00000000
01100000
00000000
,  // measure 83
10000000
00000000
00010000
00100000
01000000
00000000
10000000
00010000
,  // measure 84
01000000
00100000
00000000
01100000
00000000
00000000
00000000
00000000
;

//---------------dance-single - ----------------
#NOTES:
     dance-single:
     :
     Edit:
     9:
     0.697,0.973,0.196,0.252,0.079:
0000
0000
0000
0000
,
0000
0000
0000
0000
,
0102
0000
0000
0023
0000
0000
0000
0000
,
2030
0000
0000
3000
,
0110
0100
0000
0010
,
0000
0001
0000
1000
,
0000
0000
0001
0000
0000
0000
1000
0001
,
0100
0000
0010
0000
0000
0000
1000
0001
,
0200
0000
0000
0300
,
0010
0000
0100
0000
0001
0000
1000
0000
0100
1000
0100
1000
0100
0000
0011
0000
,
0000
1000
0100
0010
0001
0100
0010
1010
,
0000
0100
0001
1000
0100
0010
0001
0011
,
0000
1000
0100
1000
0010
0100
0001
0010
,
0000
0010
0001
1000
0100
0010
0001
1100
,
0000
0001
0100
0010
1000
0001
0010
0101
,
0000
0001
0100
1000
0100
0010
1000
1100
,
0000
0100
0010
0001
1000
0010
0100
0101
,
0000
0001
0100
1000
0100
0001
1000
0100
,
0010
0000
0001
0000
0010
0000
0100
0000
0010
0000
0001
0000
1000
0010
0100
0001
,
0100
0010
1000
0100
0010
0001
0100
0000
,
2002
0000
0000
0000
,
0000
0000
0003
0001
,
3001
0000
0000
0000
0000
0020
0000
0000
,
0032
0000
0000
2003
0000
0000
3001
1000
,
0100
1000
0001
0100
0001
0100
0010
0100
,
0001
1000
0100
0010
0100
0001
0100
1000
,
0001
0100
0010
1000
0020
0000
0000
0130
,
0001
0010
0100
0010
0100
0010
0100
0010
,
0200
0000
0000
0000
,
0000
0000
0000
0000
0000
0000
1000
1000
,
1000
0000
0000
0000
,
0320
0000
0000
0032
0000
0000
1003
0100
,
1000
0000
0001
0100
1000
0100
0001
1000
,
0010
0000
0100
0001
0000
1000
0100
0010
,
0001
0000
1000
0010
0100
0001
0100
0010
,
0001
0000
0000
0000
1000
0000
0000
0000
0100
0000
0000
0000
0010
1000
0010
1000
,
0001
0000
0010
0001
0010
0000
0001
0100
,
0001
0000
0100
1000
0100
0000
0010
1000
,
0010
0000
0100
0001
1000
0100
0010
0100
,
0010
0001
1000
0010
0000
0010
1000
0001
,
0100
0000
0010
1000
0010
0000
1000
0100
,
1000
0000
0100
0001
0100
0000
0010
0001
,
0010
0000
0001
1000
0100
0000
0010
0001
,
0100
0000
0010
0000
0010
0000
0000
0000
0010
0000
1000
0000
0001
0100
0001
0100
,
0001
0000
1000
0100
1000
0100
0001
0100
,
0001
0100
0010
0100
0010
0100
1000
0010
,
1000
0010
0001
0010
0001
0010
0100
0010
,
0100
0010
1000
0100
0001
0100
1000
0001
,
0200
0000
0000
0302
0000
0000
2003
0000
,
0000
3000
0000
0000
0000
0000
0200
0000
,
0310
0001
0011
0000
1000
0010
1010
0000
,
0001
1000
0010
0100
0001
0010
0100
1000
,
0100
0010
0001
0100
1000
0001
1000
0020
,
0000
0000
0000
0032
0000
0000
1003
0000
,
0100
0000
1000
0002
0000
0000
0103
0000
,
0001
0000
1000
0002
0000
0000
0103
0000
,
0010
0000
1000
0002
0000
0000
0000
0003
,
0000
0000
0100
0001
2000
0000
0000
3002
,
0000
0013
0001
1000
,
0100
0000
0010
0000
0001
0100
0001
0100
,
0001
0100
0001
0100
0010
1000
0001
0100
,
0010
0100
0001
2000
0000
0000
3001
0000
,
1000
0000
0100
0020
0000
0000
0031
0000
,
1000
0000
0100
0020
0000
0000
0031
0100
,
1000
0010
0000
0110
0000
0000
0000
0000
,
0000
0000
0000
0000
0100
1000
0100
0000
0010
0000
0001
0000
0011
0000
0000
0000
,
1000
0100
1100
0000
0001
0100
1100
0000
,
1000
0010
0011
0000
0001
0010
1010
0000
,
1000
0100
0010
0001
1001
0000
0000
0000
,
1001
0000
0000
0000
0100
0001
1000
0001
,
0010
0100
0010
0001
1000
0010
0100
1000
,
0100
0010
0100
0001
0010
0100
1000
0100
,
1000
0010
0100
0001
1000
0001
0100
0010
,
1000
0100
0010
0001
1000
0100
0010
0100
,
1000
0001
0010
0100
0010
0001
0100
1000
,
0100
0001
0010
1000
0010
0001
0100
1000
,
0100
0000
0010
0000
1000
0000
0001
0000
1000
0100
1000
0100
1000
0100
1000
0100
,
0010
0001
0010
0001
0010
0001
0010
0001
0010
0000
0001
0000
1000
0000
0001
0000
,
0010
1000
0010
0100
1000
0001
0010
0100
,
0010
0001
0100
0010
0001
0010
0100
1000
,
0001
0010
1000
0100
0010
0001
1000
0100
,
0001
0100
0010
1000
0010
0100
1000
0010
,
0100
0010
0001
0010
1000
0000
0001
0100
,
1000
0010
0000
0110
0000
0000
0000
0000
;
