#TITLE:VJ Army;
#SUBTITLE:;
#ARTIST:good-cool;
#TITLETRANSLIT:;
#SUBTITLETRANSLIT:;
#ARTISTTRANSLIT:;
#CREDIT:;
#BANNER:VJ Army.png;
#BACKGROUND:VJ Army-bg.png;
#LYRICSPATH:;
#CDTITLE:;
#MUSIC:VJ Army.ogg;
#OFFSET:0.000;
#SAMPLESTART:48.650;
#SAMPLELENGTH:15.000;
#SELECTABLE:YES;
#DISPLAYBPM:135.000:160.000;
#BPMS:0.000=131.868,16.000=140.921,68.000=145.096,140.000=159.921,212.000=135.056;
#STOPS:;
#BGCHANGES:4.750=VJ Army.avi=1.000=1=0=0,
275.750=VJ Army-bg.png=1.000=0=0=1,
99999=-nosongbg-=1.000=0=0=0 // don't automatically add -songbackground-
;

//---------------dance-single - ----------------
#NOTES:
     dance-single:
     :
     Beginner:
     1:
     0.117,0.147,0.000,0.000,0.000:
0000
0000
0000
0000
,
0000
0000
0000
0000
,
0000
0000
0000
0000
,
0000
0000
0000
0000
,
0000
0000
0000
0000
,
0100
0000
0000
0000
,
0001
0000
0000
0000
,
1000
0000
0000
0000
,
0010
0000
0000
0000
,
0100
0000
0100
0000
,
1000
0000
0000
0000
,
0001
0000
0001
0000
,
0010
0000
0000
0000
,
1000
0000
1000
0000
,
0010
0000
0000
0000
,
0100
0000
0100
0000
,
0001
0000
0000
0000
,
0001
0000
0001
0000
,
0100
0000
0100
0000
,
1000
0000
1000
0000
,
0100
0000
0100
0000
,
0001
0000
0001
0000
,
0010
0000
0010
0000
,
1000
0000
1000
0000
,
0010
0000
0010
0000
,
0001
0000
0000
0000
,
0010
0000
0000
0000
,
0001
0000
0000
0000
,
1000
1000
0000
0000
,
0010
0000
0000
0000
,
1000
0000
0000
0000
,
0001
0000
0000
0000
,
0010
0010
0000
0000
,
0001
0000
0000
0000
,
1000
0000
0000
0000
,
0000
0000
0001
0000
,
0000
0000
0100
0000
,
0000
0000
0010
0000
,
0000
0000
0100
0100
,
0000
0000
1000
0000
,
0000
0000
0100
0000
,
0000
0000
0010
0000
,
0000
0000
0100
0100
,
0100
0000
0000
0000
,
0001
0000
1000
0000
,
0001
0000
0000
0000
,
1000
0000
0010
0000
,
1000
0000
0000
0000
,
0100
0000
0001
0000
,
0100
0000
0000
0000
,
0001
0000
1000
0000
,
0100
0000
0000
0000
,
0010
0000
0000
0000
,
0000
0000
0001
0000
,
0000
0000
1000
1000
,
0000
0000
0100
0000
,
0000
0000
1000
1000
,
0000
0000
0010
0000
,
0000
0000
0001
0001
,
0000
0000
1000
0000
,
0000
0000
0001
0001
,
0000
0000
1000
0000
,
1000
0000
0010
0010
,
0000
0000
0001
0000
,
0001
0000
1000
1000
,
0000
0000
0100
0000
,
0100
0000
0001
0001
,
0000
0000
0010
0000
,
0010
0000
1000
1000
;

//---------------dance-single - ----------------
#NOTES:
     dance-single:
     :
     Easy:
     2:
     0.151,0.176,0.009,0.136,0.000:
0000
0000
0000
0000
,
0000
0000
0000
0000
,
0000
0000
0000
0000
,
0000
0000
0000
0000
,
0000
0000
0000
0000
,
0100
0000
0010
0000
,
0001
0000
0010
0000
,
1000
0000
0001
0000
,
2000
0000
0000
3000
,
0100
0000
0010
0000
,
1000
0000
0010
0000
,
0001
0000
1000
0000
,
0002
0000
0000
0003
,
0100
0000
0010
0000
,
0001
0000
0010
0000
,
1000
0000
0001
0000
,
1001
0000
0000
0000
,
0001
0000
0100
0000
,
1000
0000
0100
0000
,
0001
0000
1000
0000
,
1000
0000
0001
0000
,
1000
0000
0100
0000
,
0001
0000
0100
0000
,
1000
0000
0001
0000
,
0001
0000
1000
0000
,
0002
0000
0000
0003
,
0020
0000
0000
0030
,
0002
0000
0000
0003
,
2000
0000
0000
3000
,
0020
0000
0000
0030
,
2000
0000
0000
3000
,
0002
0000
0000
0003
,
0020
0000
0000
0030
,
0002
0000
0000
0003
,
2000
0000
0000
3000
,
0000
0000
0001
1000
,
0000
0000
0100
0001
,
0000
0000
0010
1000
,
0000
0000
0100
0001
,
0000
0000
1000
0001
,
0000
0000
0100
1000
,
0000
0000
0010
0001
,
0000
0000
0100
1000
,
0000
0100
0000
0010
,
0000
0001
0000
1000
,
0000
0100
0000
0010
,
0000
1000
0000
0100
,
0000
0001
0000
0010
,
0000
1000
0000
0100
,
0000
0001
0000
0010
,
0000
1000
0000
0001
,
2000
0000
0000
3000
,
0002
0000
0000
0003
,
0000
0010
0000
0100
,
0000
0010
0000
0100
,
0000
0002
0000
0000
,
0000
0000
0000
0003
,
0000
1000
0000
0001
,
0000
1000
0000
0001
,
0000
2000
0000
0000
,
0000
0000
0000
3000
,
0000
0100
0000
0001
,
0000
1000
0000
0010
,
0000
0100
0000
1000
,
0000
0001
0000
0010
,
0000
0001
0000
1000
,
0000
0100
0000
0010
,
0000
1000
0000
0001
,
0000
1000
0000
0010
;

//---------------dance-single - ----------------
#NOTES:
     dance-single:
     :
     Medium:
     7:
     0.498,0.498,0.298,0.094,0.034:
0000
0000
0000
0000
,
0000
0000
0000
0000
,
0000
0000
0000
0000
,
0000
0000
0000
0000
,
0000
0000
0000
0000
,
1000
0010
1000
0001
,
1000
0100
0001
0000
1000
0100
1000
0000
,
0001
0100
1000
0000
0001
0010
0100
0000
,
1100
0000
0011
0000
0010
0100
0010
0000
,
0001
1000
0001
0100
0010
1000
0100
0000
,
1000
0100
1000
0000
1000
0100
0010
0000
,
0001
0010
0001
1000
0001
1000
0010
0000
,
0010
0100
0010
0000
1000
0010
1000
0000
,
1001
0000
0110
0000
0001
0100
1000
0000
,
0100
0001
0010
0001
0100
0010
1000
0000
,
0101
0110
0101
1100
,
0001
0010
0100
1000
0010
0100
0001
0000
,
1000
0000
0010
0000
0100
0000
0100
0000
0001
0000
0000
1000
0000
0000
0001
0000
,
0100
0000
0001
0000
1000
0000
1000
0000
0001
0000
0000
0010
0000
0000
0100
0000
,
1000
0000
0010
0000
0100
0000
0100
0000
0001
0000
0000
1000
0000
0000
0001
0000
,
0100
0000
0001
0000
1000
0000
1000
0000
0001
0000
0000
0010
0000
0000
0001
0000
,
1000
0000
0010
0000
1000
0000
1000
0000
0001
0000
0000
0100
0000
0000
0001
0000
,
1000
0000
0010
0000
0100
0000
0100
0000
0001
0000
0000
0010
0000
0000
0100
0000
,
1000
0000
0100
0000
0010
0000
0010
0000
0001
0000
0000
1000
0000
0000
0001
0000
,
0100
0000
0001
0000
1000
0000
1000
0000
0001
0000
0000
0010
0000
0000
0100
0000
,
1000
1000
2000
0000
0000
0000
3010
0000
,
0100
0100
0200
0000
0000
0000
0310
0000
,
0100
0100
0200
0000
0000
0000
0301
0000
,
0001
0100
0001
0100
0001
0100
0001
1000
,
0010
0010
0020
0000
0000
0000
1030
0000
,
0100
0100
0200
0000
0000
0000
0301
0000
,
0001
0001
0002
0000
0000
0000
0013
0000
,
0001
0010
0100
1000
0010
1000
0010
0000
,
0101
0110
0101
1100
,
0001
0010
0100
1000
0010
0100
0001
0000
,
1001
0000
0001
0100
0000
0100
0010
0000
,
1000
0010
1000
0000
0010
0100
0001
0000
,
0101
0000
0010
1000
0000
1000
0001
0000
,
0001
0100
0010
0000
0100
0010
0100
0000
,
1010
0000
0100
0001
0000
0001
1000
0000
,
1000
0010
0100
0000
0010
0100
0010
0000
,
1001
0000
1000
0100
0000
0001
0100
0000
,
0101
1100
1001
1010
,
0010
1000
0010
0100
0000
0100
0001
0000
,
0110
0000
1100
0000
0001
0010
0100
0000
,
1000
0001
1000
0010
0000
0010
0100
0000
,
0110
0000
0101
0000
0010
1000
0100
0000
,
1000
0001
0100
0010
0000
1000
0001
0000
,
0110
0000
1001
0000
0010
0001
1000
0000
,
0010
1000
0010
1000
0010
1000
0001
0100
,
0001
1000
0001
1000
0001
1000
0001
0100
,
0101
0110
0101
1100
,
0001
0010
0100
1000
0010
0100
0001
0000
,
2000
0000
0001
3001
,
2000
0010
0001
3100
,
2002
0000
3003
0000
0010
1000
0100
0000
,
0101
0100
0001
0000
1100
0100
1000
0000
,
0001
0010
0100
0000
1000
0000
0001
0000
,
1000
0010
0100
0000
0001
0000
1000
0000
,
0010
1000
0002
0000
0010
0000
1003
0000
,
0110
0010
0100
0000
1010
0010
1000
0000
,
1000
0010
0100
0010
1000
0000
1000
0010
,
0100
0001
1000
0000
0001
0100
0010
0000
,
1000
0001
1000
0010
,
1000
0010
1000
0001
0100
0000
0100
0000
,
0001
0100
0010
0100
0001
0000
1000
0010
,
0100
0010
1000
0000
0010
0100
0010
0000
,
1000
0010
1000
0100
,
1000
0010
0100
0001
1000
0001
0100
0000
;

//---------------dance-single - ----------------
#NOTES:
     dance-single:
     :
     Hard:
     9:
     0.526,0.558,0.256,0.179,0.162: // measure 1
0000
0000
0000
0000
,  // measure 2
0000
0000
0000
0000
,  // measure 3
0000
0000
0000
0000
,  // measure 4
0000
0000
0000
0000
,  // measure 5
0000
0000
0000
0000
,  // measure 6
1000
0000
0000
1000
0010
0000
0100
0000
0001
0000
0000
1000
0001
1000
0000
0000
,  // measure 7
0001
0000
0000
0001
0100
0000
0010
0000
1000
0000
0000
0001
1000
0001
0000
0000
,  // measure 8
0010
0000
0000
0010
0001
0000
1000
0000
0010
0000
0000
0100
0010
0100
0000
0000
,  // measure 9
0001
0000
0000
0001
1000
0000
0010
0000
1000
0000
0000
0010
1000
0010
0000
0000
,  // measure 10
0000
1000
0000
0010
0000
0001
0000
0110
,  // measure 11
0000
1000
0000
0010
0000
1000
0000
1001
,  // measure 12
0000
0001
0000
1010
0000
1000
0000
1001
,  // measure 13
0000
1000
0000
0011
0000
0010
0000
0100
,  // measure 14
0000
0001
0000
1000
0000
0100
0000
0101
,  // measure 15
0000
1000
0000
0100
0000
0010
0000
0110
,  // measure 16
0000
0100
0000
1100
0000
0010
0000
1001
,  // measure 17
0000
0100
0000
1000
0000
0001
1000
0000
,  // measure 18
1000
0010
1000
0001
1000
0100
1000
0001
,  // measure 19
1000
0000
0010
0000
1000
0000
0001
0000
1000
0001
1000
0000
0001
1000
0001
0000
,  // measure 20
0010
0001
0010
0100
0010
1000
0010
0100
,  // measure 21
0010
0000
0001
0000
0010
0000
0001
0000
1000
0001
1000
0000
0001
1000
0001
0000
,  // measure 22
0100
0001
0100
0010
0100
1000
0100
0010
,  // measure 23
0100
0000
0001
0000
0100
0000
0010
0000
0100
0010
0100
0000
0010
0100
0010
0000
,  // measure 24
1000
0010
1000
0001
1000
0100
1000
0001
,  // measure 25
1000
0000
0010
0000
1000
0000
0001
0000
1000
0001
1000
0000
0001
1000
0001
0000
,  // measure 26
1000
0000
0100
0000
0010
0000
0100
0000
0000
1000
0000
0000
0100
0000
0000
0010
,  // measure 27
0000
0000
1000
0000
0100
0000
0010
0000
0100
0000
0000
0001
0000
0000
0100
0000
,  // measure 28
0000
0000
0100
0000
0010
0000
0001
0000
0000
1000
0000
0000
0001
0000
0000
0001
,  // measure 29
0000
0000
1000
0000
0001
0000
0010
0000
0100
0000
0000
0010
0000
0000
0010
0000
,  // measure 30
0000
0000
0001
0000
1000
0000
0100
0000
0010
0000
0000
0001
0000
0000
0001
0000
,  // measure 31
0000
0000
0100
0000
0010
0000
1000
0000
0010
0000
0000
0100
0000
0000
0100
0000
,  // measure 32
0000
0000
0001
0000
0100
0000
1000
0000
0100
0000
0000
0001
0000
0000
0001
0000
,  // measure 33
0000
0000
0010
0000
0001
0000
0100
0000
0010
0000
0000
1000
0000
0000
1000
0000
,  // measure 34
2000
0000
3020
0000
0100
0100
0130
0100
,  // measure 35
0200
0000
0302
0000
0010
0010
0013
0000
,  // measure 36
0010
0000
0001
0000
1000
0000
0010
0000
0000
1000
0010
0000
0000
0000
0000
0000
,  // measure 37
0010
0000
1000
0000
0100
0000
0010
0000
0000
0100
0010
0000
0000
0000
0000
0000
,  // measure 38
0100
0000
1000
0000
0001
0000
1000
0000
0000
0001
1000
0000
0000
0000
0000
0000
,  // measure 39
0001
1000
0010
0000
0010
0100
0001
0000
,  // measure 40
0010
0000
0001
0000
1000
0000
0010
0000
0000
1000
0010
0000
0000
0000
0000
0000
,  // measure 41
0010
0000
1000
0000
0100
0000
0010
0000
0000
0100
0010
0000
0000
0000
0000
0000
,  // measure 42
0100
0000
1000
0000
0001
0000
1000
0000
0000
0001
1000
0000
0000
0000
0000
0000
,  // measure 43
0001
1000
0010
0000
0010
0100
0001
0000
,  // measure 44
0010
0001
0010
0100
0000
1100
0000
0000
,  // measure 45
1000
0010
1000
0001
0000
0101
0000
0000
,  // measure 46
1000
0010
0100
0010
0000
1010
0000
0000
,  // measure 47
0001
0010
0100
0010
0000
0011
0000
0000
,  // measure 48
0001
0100
1000
0100
0000
0101
0000
0000
,  // measure 49
0001
0010
1000
0010
0000
1010
0000
0000
,  // measure 50
1000
0010
0100
0010
0000
0110
0000
0000
,  // measure 51
0100
0010
0001
0010
0000
0011
0000
0000
,  // measure 52
0001
1000
0010
0100
0000
0110
0000
0000
,  // measure 53
0010
1000
0100
0000
1000
0001
0001
0001
,  // measure 54
1001
0100
0100
0000
0000
0010
1001
0000
,  // measure 55
0000
0010
1010
0000
0000
0100
0101
0000
,  // measure 56
0010
0000
0010
0000
1001
0000
0000
0000
1000
0001
1000
0000
1000
0000
0000
0001
,  // measure 57
1000
0001
1000
1001
,  // measure 58
1000
0010
1000
0000
0001
0100
0001
0000
,  // measure 59
0100
0010
0100
0000
0010
0100
0010
0000
,  // measure 60
0010
1000
0001
0000
0001
1000
0100
0000
,  // measure 61
0020
0032
0203
2300
,  // measure 62
3010
0001
0100
0001
0101
0000
0010
1000
,  // measure 63
0100
1000
1100
0000
1000
0001
1001
0000
,  // measure 64
2000
3200
0320
0032
,  // measure 65
0203
0320
2030
3001
,  // measure 66
0100
0001
0010
0001
0011
0000
0100
1000
,  // measure 67
0010
1000
1010
0000
0010
0100
0110
0000
,  // measure 68
0020
0032
0023
2030
,  // measure 69
3002
0000
0203
0000
0300
0000
0010
0010
;

//---------------dance-double - ----------------
#NOTES:
     dance-double:
     :
     Beginner:
     1:
     0.121,0.176,0.009,0.000,0.000:
00000000
00000000
00000000
00000000
,
00000000
00000000
00000000
00000000
,
00000000
00000000
00000000
00000000
,
00000000
00000000
00000000
00000000
,
00000000
00000000
00000000
00000000
,
00100000
00000000
01000000
00000000
,
10000000
00000000
01000000
00000000
,
00010000
00000000
00001000
00000000
,
00000001
00000000
00000000
00000000
,
00000010
00000000
00000100
00000000
,
00000001
00000000
00000100
00000000
,
00001000
00000000
00010000
00000000
,
10000000
00000000
00000000
00000000
,
00100000
00000000
01000000
00000000
,
10000000
00000000
01000000
00000000
,
00010000
00000000
00001000
00000000
,
00011000
00000000
00000000
00000000
,
00001000
00000000
00000010
00000000
,
00000001
00000000
00000010
00000000
,
00001000
00000000
00010000
00000000
,
00010000
00000000
00001000
00000000
,
00010000
00000000
00100000
00000000
,
10000000
00000000
00100000
00000000
,
00010000
00000000
00001000
00000000
,
00001000
00000000
00010000
00000000
,
00001000
00000000
00000000
00000000
,
00000100
00000000
00000000
00000000
,
00001000
00000000
00000000
00000000
,
00010000
00000000
00000000
00000000
,
01000000
00000000
00000000
00000000
,
00010000
00000000
00000000
00000000
,
00001000
00000000
00000000
00000000
,
00000100
00000000
00000000
00000000
,
00001000
00000000
00000000
00000000
,
00010000
00000000
00000000
00000000
,
00000000
00000000
00001000
00000000
,
00000000
00000000
00100000
00000000
,
00000000
00000000
01000000
00000000
,
00000000
00000000
00100000
00000000
,
00000000
00000000
00010000
00000000
,
00000000
00000000
00000010
00000000
,
00000000
00000000
00000100
00000000
,
00000000
00000000
00000010
00000000
,
00000000
00000010
00000000
00000100
,
00000000
00001000
00000000
00010000
,
00000000
00100000
00000000
01000000
,
00000000
00010000
00000000
00001000
,
00000000
00000001
00000000
00001000
,
00000000
00010000
00000000
10000000
,
00000000
10000000
00000000
00010000
,
00000000
00001000
00000000
00000001
,
00000000
00000000
00000000
00000000
,
00010000
00000000
00000000
00000000
,
00000000
00001000
00000000
00010000
,
00000000
00001000
00000000
00010000
,
00000000
10000000
00000000
00000000
,
00000000
00000000
00000000
00000000
,
00000000
00010000
00000000
00001000
,
00000000
00010000
00000000
00001000
,
00000000
00000001
00000000
00000000
,
00000000
00000000
00000000
00000000
,
00000000
00000010
00000000
00001000
,
00000000
00010000
00000000
01000000
,
00000000
00100000
00000000
00010000
,
00000000
00001000
00000000
00000100
,
00000000
00000001
00000000
00001000
,
00000000
00000010
00000000
00010000
,
00000000
00001000
00000000
01000000
,
00000000
00010000
00000000
10000000
;

//---------------dance-double - ----------------
#NOTES:
     dance-double:
     :
     Easy:
     2:
     0.151,0.176,0.009,0.136,0.000:
00000000
00000000
00000000
00000000
,
00000000
00000000
00000000
00000000
,
00000000
00000000
00000000
00000000
,
00000000
00000000
00000000
00000000
,
00000000
00000000
00000000
00000000
,
00100000
00000000
01000000
00000000
,
10000000
00000000
01000000
00000000
,
00010000
00000000
00001000
00000000
,
00000002
00000000
00000000
00000003
,
00000010
00000000
00000100
00000000
,
00000001
00000000
00000100
00000000
,
00001000
00000000
00010000
00000000
,
20000000
00000000
00000000
30000000
,
00100000
00000000
01000000
00000000
,
10000000
00000000
01000000
00000000
,
00010000
00000000
00001000
00000000
,
00011000
00000000
00000000
00000000
,
00001000
00000000
00000010
00000000
,
00000001
00000000
00000010
00000000
,
00001000
00000000
00010000
00000000
,
00010000
00000000
00001000
00000000
,
00010000
00000000
00100000
00000000
,
10000000
00000000
00100000
00000000
,
00010000
00000000
00001000
00000000
,
00001000
00000000
00010000
00000000
,
00002000
00000000
00000000
00003000
,
00000200
00000000
00000000
00000300
,
00002000
00000000
00000000
00003000
,
00020000
00000000
00000000
00030000
,
02000000
00000000
00000000
03000000
,
00020000
00000000
00000000
00030000
,
00002000
00000000
00000000
00003000
,
00000200
00000000
00000000
00000300
,
00002000
00000000
00000000
00003000
,
00020000
00000000
00000000
00030000
,
00000000
00000000
00001000
00010000
,
00000000
00000000
00100000
10000000
,
00000000
00000000
01000000
00010000
,
00000000
00000000
00100000
10000000
,
00000000
00000000
00010000
00001000
,
00000000
00000000
00000010
00000001
,
00000000
00000000
00000100
00001000
,
00000000
00000000
00000010
00000001
,
00000000
00000010
00000000
00000100
,
00000000
00001000
00000000
00010000
,
00000000
00100000
00000000
01000000
,
00000000
00010000
00000000
00001000
,
00000000
00000001
00000000
00001000
,
00000000
00010000
00000000
10000000
,
00000000
10000000
00000000
00010000
,
00000000
00001000
00000000
00000001
,
00002000
00000000
00000000
00003000
,
00020000
00000000
00000000
00030000
,
00000000
00001000
00000000
00010000
,
00000000
00001000
00000000
00010000
,
00000000
20000000
00000000
00000000
,
00000000
00000000
00000000
30000000
,
00000000
00010000
00000000
00001000
,
00000000
00010000
00000000
00001000
,
00000000
00000002
00000000
00000000
,
00000000
00000000
00000000
00000003
,
00000000
00000010
00000000
00001000
,
00000000
00010000
00000000
01000000
,
00000000
00100000
00000000
00010000
,
00000000
00001000
00000000
00000100
,
00000000
00000001
00000000
00001000
,
00000000
00000010
00000000
00010000
,
00000000
00001000
00000000
01000000
,
00000000
00010000
00000000
10000000
;

//---------------dance-double - ----------------
#NOTES:
     dance-double:
     :
     Medium:
     6:
     0.375,0.381,0.367,0.000,0.034:
00000000
00000000
00000000
00000000
,
00000000
00000000
00000000
00000000
,
00000000
00000000
00000000
00000000
,
00000000
00000000
00000000
00000000
,
00000000
00000000
00000000
00000000
,
00000001
00000000
00001000
00000000
00000000
00000100
00001000
00000000
,
00000010
00000000
00000100
00000000
00000000
00000001
00001000
00000000
,
00000010
00000000
00010000
00000000
00000000
00001000
00010000
00000000
,
00101000
00011000
00010100
00001100
,
00000000
00001000
00000000
00000100
00000000
00000010
00000000
00000011
,
00000000
00000100
00000000
00000001
00000000
00001000
00000000
00001100
,
00000000
00000001
00000000
00000010
00000000
00000100
00000000
00000110
,
00000000
00001000
00000000
00000010
00000000
00010000
00000000
00011000
,
00000000
01000000
00000000
00010000
00000000
00100000
00000000
01100000
,
00000000
10000000
00000000
00010000
00000000
01000000
00000000
01010000
,
00000000
00100000
00000000
00001000
00000000
00010000
00000000
00011000
,
00000000
00001000
00000000
00010000
00000000
01000000
10000000
00000000
,
00100000
00000000
10000000
00000000
01000000
00000000
00000000
00000000
00100000
00000000
00000000
00100000
00000000
00000000
00100000
00000000
,
00000000
00000000
00001000
00000000
00010000
00000000
00000000
00000000
00001000
00000000
00000000
00001000
00000000
00000000
00001000
00000000
,
00000000
00000000
00010000
00000000
00000010
00000000
00000000
00000000
00000100
00000000
00000000
00000100
00000000
00000000
00000100
00000000
,
00000000
00000000
00001000
00000000
00010000
00000000
00000000
00000000
00100000
00000000
00000000
00100000
00000000
00000000
00100000
00000000
,
10000000
00000000
01000000
00000000
00010000
00000000
00000000
00000000
01000000
00000000
00000000
01000000
00000000
00000000
01000000
00000000
,
00000000
00000000
00100000
00000000
00001000
00000000
00000000
00000000
00010000
00000000
00000000
00010000
00000000
00000000
00010000
00000000
,
00000000
00000000
00000010
00000000
00001000
00000000
00000000
00000000
00000100
00000000
00000000
00000100
00000000
00000000
00000100
00000000
,
00000000
00000000
00001000
00000000
00000001
00000000
00000000
00000000
00000010
00000000
00000000
00000010
00000000
00000000
00000010
00000000
,
00000010
00000011
00000000
00001100
,
00001000
00001001
00000000
00001100
,
00010000
00011000
00000000
01001000
,
00010000
00110000
00000000
11000000
,
00100000
01100000
00000000
10010000
,
01000000
11000000
00000000
01010000
,
00001000
00011000
00000000
00001001
,
00000010
00000110
00000000
00001001
,
00000001
00000000
00001000
00000000
00000010
00000001
00000100
00001000
,
00010000
00000000
01000000
00000000
10000000
01000000
10000000
00000000
,
00010000
00010000
01000000
00000000
00000000
00100000
00100000
00000000
,
10000000
10000000
01000000
00000000
00000000
00010000
00010000
00000000
,
01000000
01000000
00100000
00000000
00000000
00001000
00001000
00000000
,
00010000
00010000
00001000
00000000
00000000
00000100
00000100
00000000
,
00000001
00000001
00001000
00000000
00000000
00000010
00000010
00000000
,
00000100
00000100
00000010
00000000
00000000
00001000
00001000
00000000
,
00000100
00000100
00010000
00000000
00000000
00001000
00001000
00000000
,
00100000
00100000
00100000
00000000
00000000
01000000
01000000
00000000
,
00000000
00000100
00000000
00001100
,
00000000
00010000
00000000
00011000
,
00000000
00100000
00000000
00110000
,
00000000
10000000
00000000
11000000
,
00000000
10010000
00000000
00011000
,
00000000
00001001
00000000
00011000
,
00001000
00000010
00001000
00000100
,
00001000
00100000
00010000
01000000
,
00010000
00001000
00000010
00000001
,
00000001
00000000
00000001
00000000
00001000
00001000
00001000
00000000
,
00000001
00000100
00000001
00000000
00000100
00000000
00001000
00000000
,
00010000
01000000
00010000
00000000
10000000
00000000
10000000
00000000
,
00000000
00100000
00000000
10000000
,
00000000
00100000
00000000
00010000
,
00100000
00010000
00100000
00000000
00000000
00000000
01000000
00000000
,
10000000
00100000
10000000
00000000
00000000
00000000
00010000
00000000
,
00010000
00010000
00001000
00001000
,
00000001
00000001
00001000
00001000
,
00010000
00001000
00010000
00000000
00011000
00000000
00001000
00000010
,
00000001
00001000
00000001
00000000
00000100
00000010
00000010
00000000
,
00000100
00000000
00000110
00000000
00000000
00000100
00000100
00000000
,
00001000
00000000
00001001
00000000
00000000
00001000
00001000
00000000
,
00000001
00000100
00001000
00000000
00001100
00000000
00000001
00000100
,
00001000
00010000
01000000
00000000
10000000
00010000
00010000
00000000
,
00100000
01000000
10000000
00000000
00000000
01000000
01000000
00000000
,
00110000
11000000
01010000
10010000
;

//---------------dance-double - ----------------
#NOTES:
     dance-double:
     :
     Hard:
     9:
     0.603,0.588,0.051,0.094,0.247:
00000000
00000000
00000000
00000000
,
00000000
00000000
00000000
00000000
,
00000000
00000000
00000000
00000000
,
00000000
00000000
00000000
00000000
,
00000000
00000000
00000000
00000000
,
00000000
00000000
10000000
00000000
01000000
10000000
00000000
00010000
00000000
00000000
00000000
00100000
00000000
00100000
00000000
00000000
,
00000000
00000000
00010000
00000000
01000000
00010000
00000000
10000000
00000000
00000000
00000000
00100000
00000000
00100000
00000000
00000000
,
00000000
00000000
00001000
00000000
00000010
00001000
00000000
00000001
00000000
00000000
00000000
00000100
00000000
00000100
00000000
00000000
,
00000000
00000000
00000001
00000000
00000010
00000001
00000000
00001000
00000000
00000000
00000000
00000100
00000000
00000100
00000000
00000000
,
00001000
00000000
00000010
00000000
00001000
00000000
00000100
00000000
00000010
00000000
00000001
00000000
00000100
00000010
00000000
00000000
,
00000100
00000000
00000001
00000000
00001000
00000000
00000100
00000000
00000010
00000000
00000001
00000000
00000100
00001000
00000000
00000000
,
00010000
00000000
01000000
00000000
00100000
00000000
00010000
00000000
01000000
00000000
10000000
00000000
01000000
00010000
00000000
00000000
,
10000000
00000000
00100000
00000000
00010000
00000000
00100000
00000000
01000000
00000000
00010000
00000000
10000000
01000000
00000000
00000000
,
10000000
00000000
00010000
00000000
01000000
00000000
00001000
00000000
00100000
00000000
00010000
00000000
10000000
01000000
00000000
00000000
,
00100000
00000000
00001000
00000000
00010000
00000000
00001000
00000000
00000100
00000000
00000001
00000000
00000010
00000100
00000000
00000000
,
00000010
00000000
00000001
00000000
00000100
00000000
00010000
00000000
01000000
00000000
10000000
00000000
01000000
00010000
00000000
00000000
,
10000000
01000000
10000000
00000000
00010000
01000000
00010000
00000000
10000000
01000000
10000000
00000000
00010000
01000000
00010000
00000000
,
10000000
01000000
10000000
00010000
00000000
01000000
00100000
10000000
,
00010000
01000000
00001000
00020000
01000000
02030000
10000000
13000000
,
00100000
00100000
10000000
00010000
00000000
00100000
01000000
00010000
,
00001000
00000010
00000001
00002000
00000100
00003200
00001000
00001300
,
00000001
00000001
00001000
00000100
00000000
00000010
00000001
00000010
,
00000100
00001000
00000010
00000200
00000001
00000302
00000010
00000013
,
00000100
00010000
00001000
00000100
00000010
00001000
00000100
00010000
,
01000000
10000000
00100000
02000000
00010000
03020000
10000000
10030000
,
01000000
00000000
10000000
00000000
00010000
00000000
01000000
00000000
00010000
00000000
00100000
00000000
00010000
10000000
00010000
00000000
,
01000000
00000000
00100000
00000000
10000000
00000000
01000000
00000000
00010000
00000000
00001000
00000000
00010000
00001000
00010000
00000000
,
00000100
00000000
00001000
00000000
00000100
00000000
00001000
00000000
00000001
00000000
00000010
00000000
00000001
00000100
00000001
00000000
,
00001000
00000000
00000001
00000000
00000100
00000000
00000001
00000000
00000010
00000000
00001000
00000000
00010000
00001000
00010000
00000000
,
00000100
00000000
00000010
00000000
00000001
00000000
00000100
00000000
00000010
00000000
00001000
00000000
00000001
00000100
00000001
00000000
,
00001000
00000000
00000100
00000000
00010000
00000000
01000000
00000000
10000000
00000000
00100000
00000000
01000000
00010000
01000000
00000000
,
00010000
00000000
10000000
00000000
01000000
00000000
10000000
00000000
00010000
00000000
01000000
00000000
00010000
00100000
00010000
00000000
,
10000000
00000000
00100000
00000000
10000000
00000000
01000000
00000000
00010000
00000000
00001000
00000000
00000100
00000001
00000100
00000000
,
00000010
00000000
00001001
00000000
00000010
00000100
00000010
00000100
,
00000010
00000000
00000110
00000000
00000001
00001000
00000001
00001000
,
00000001
00000000
00000100
00000000
00000000
00000000
00001000
00000000
00000100
00000000
00000100
00001000
00000000
00000000
00000010
00000000
,
00010000
00000000
00000010
00000000
00000000
00000000
00010000
00000000
00001000
00000000
00001000
00010000
00000000
00000000
01000000
00000000
,
10000000
00000000
01000000
00000000
00000000
00000000
00100000
00000000
01000000
00000000
01000000
00100000
00000000
00000000
00010000
00000000
,
10000000
00000000
00010000
00000000
00000000
00000000
00100000
00000000
00010000
00000000
00010000
00100000
00000000
00000000
00010000
00000000
,
10000000
00000000
01000000
00000000
00100000
00000000
01000000
00000000
10000000
00000000
10000000
01000000
00000000
00000000
10000000
00000000
,
01000000
00000000
00010000
00000000
00001000
00000000
00010000
00000000
00000100
00000000
00000100
00010000
00000000
00000000
00000010
00000000
,
00000100
00000000
00000001
00000000
00000100
00000000
00000010
00000000
00001000
00000000
00001000
00000010
00000000
00000000
00001000
00000000
,
00000001
00000000
00000100
00000000
00000001
00000000
00001000
00000000
00000010
00000000
00000010
00001000
00000000
00000000
00000100
00000000
,
00010000
00001000
01000000
00100000
00010000
00100000
10000000
01000000
,
10000000
00100000
01000000
00010000
00100000
00001000
00000010
00000001
,
00000010
00000100
00000001
00000100
00001000
00000010
00000100
00000001
,
00000100
00001000
00010000
00100000
01000000
00010000
00100000
01000000
,
10000000
00100000
01000000
00100000
10000000
00010000
01000000
00010000
,
10000000
00010000
01000000
00001000
00000010
00001000
00010000
01000000
,
00010000
00001000
00000100
00000001
00000010
00000100
00000010
00000001
,
00000100
00001000
00010000
00001000
00000010
00001000
00010000
00000000
,
01000000
00000000
01000000
00000000
00000000
00000000
00000000
00000000
10000000
00010000
00000000
00000000
00000000
00000000
00000000
00000000
,
00100000
00000000
01000000
00000000
00100000
00000000
01000000
00000000
10000000
00010000
10000000
00010000
10000000
00000000
01000000
00000000
,
00100000
00000000
00010000
00000000
10000000
01000000
00000000
00000000
00000000
00000000
10000000
00000000
10010000
00000000
00000000
00000000
,
00100000
00000000
10000000
00000000
00010000
01000000
00000000
00000000
00000000
00000000
00010000
00000000
10010000
00000000
00000000
00000000
,
01000000
00000000
00010000
00000000
00001000
00010000
00000000
00000000
00000100
00001000
00000100
00000000
00000010
00000000
00000001
00002000
,
00000000
00003000
00000000
00000000
,
00000100
00000000
00001000
00000000
00000001
00000010
00000000
00000000
00000000
00000000
00000001
00000000
00001001
00000000
00000000
00000000
,
00000100
00000000
00000001
00000000
00001000
00000010
00000000
00000000
00000000
00000000
00001000
00000000
00001001
00000000
00000000
00000000
,
00000010
00000000
00001000
00000000
00010000
00001000
00000000
00000000
00100000
00010000
00100000
00000000
01000000
00000000
10000000
00020000
,
00000000
00030000
00000000
00000000
,
00100000
00010000
10000000
00010000
01000000
00000000
00100000
10000000
,
01000000
10000000
00010000
01000000
00001000
01000000
00001000
00010000
,
00001000
00100000
00001000
00010000
00000100
00010000
00000010
00001000
,
00000100
00000000
00000010
00000000
00000001
00000100
00000000
00000001
00000100
00000000
00000010
00000000
00000000
00000000
00000000
00000000
,
00000100
00000001
00001000
00000001
00000010
00000000
00000100
00001000
,
00000010
00001000
00000001
00000010
00001000
00010000
00100000
00010000
,
00001000
01000000
00010000
00100000
01000000
10000000
00100000
00010000
,
00100000
10000000
01000000
00010000
00001000
00000100
00000002
00000000
,
00000003
00000000
00000000
00000000
;

//---------------dance-double - ----------------
#NOTES:
     dance-double:
     :
     Challenge:
     10:
     0.747,0.821,0.171,0.136,0.699:
00000000
00000000
00000000
00000000
,
00000000
00000000
00000000
00000000
00000000
00000000
10010000
00000000
00000000
00000000
00000000
00000000
00000000
00000000
10010000
00000000
00000000
00000000
00000000
00000000
00000000
00000000
00000000
00000000
01000000
00000000
00000000
00000000
00000000
01000000
00000000
00000000
,
00000000
00000000
00000000
00000000
00000000
00000000
00000000
00000000
00000000
00000000
00000000
00000000
00100000
00000000
00000000
00000000
00000000
00000000
00000000
00000000
00000000
00000000
00010000
00000000
00000000
00000000
00000000
00010000
00000000
00000000
00000000
00000000
,
00000000
00000000
00000000
00000000
00000000
00000000
00000000
00000000
00000000
00000000
00000010
00000000
00000000
00000000
00000000
00000000
00000000
00000000
00000000
00001000
00000000
00000000
00000000
00000000
00001000
00000000
00000000
00000000
00000000
00000000
00000000
00000000
,
00000000
00000000
00000000
00000000
00000100
00000000
00000000
00000000
00000000
00000010
00000000
00000000
00000010
00000000
00000000
00000000
,
00001001
00000000
00000000
00000000
00001001
00000000
00000000
00000000
00000000
00000100
00000000
00000000
00000100
00000000
00000000
00000000
,
00000000
00000000
00000000
00000000
00000010
00000000
00000000
00000000
00000000
00010000
00000000
00000000
00010000
00000000
00000000
00000000
,
00000000
00000000
00000000
00000000
00100000
00000000
00000000
00000000
00000000
00001000
00000000
00000000
00001000
00000000
00010000
00001000
,
00010000
00001000
00010000
00001000
00100000
00001000
00100000
00001000
00010000
00000010
00010000
00000010
00010000
00001000
00010000
00001000
,
00010000
00000000
00001000
00000000
00010000
00000000
00001000
00000000
00000100
00000001
00000000
00000000
00001010
00000000
00000001
00000000
,
00000100
00000000
00001000
00000000
00010000
00000000
01000000
00000000
10000000
00010000
00000000
00000000
11000000
00000000
10000000
00000000
,
01000000
00000000
00010000
00000000
00001000
00000000
00000100
00000000
00000010
00001000
00000000
00000000
00000101
00000000
00000100
00000000
,
00000001
00000000
00000010
00000000
00000001
00001000
00000000
00000100
00000000
00000010
00000001
00000000
00000110
00000000
00000011
00000000
,
00000101
00000000
00000100
00000000
00000010
00000000
00010000
00000000
00000100
00001000
00000000
00000000
00000101
00000000
00000010
00000000
,
00000100
00000000
00001000
00000000
00010000
00000000
01000000
00000000
00100000
00001000
00000000
00000000
00011000
00000000
01000000
00000000
,
10000000
00000000
00100000
00000000
00010000
00000000
00001000
00000000
00000100
00000001
00000000
00000000
00001010
00000000
00000010
00010000
,
00001000
00010000
00001000
00010000
00000100
00010000
00000100
00010000
00001000
01000000
00001000
01000000
00001000
00010000
00001000
00010000
,
00001000
00000000
01000000
00000000
00100000
00000000
20000000
00000000
01000000
00000000
00000000
00010000
00000000
00000000
30100000
00000000
,
01000000
00000000
00001000
00000000
00100000
00000000
00020000
00000000
01000000
00000000
00000000
00100000
00000000
00000000
01030000
00000000
,
00100000
00000000
00010000
00000000
00001000
00000000
00000200
00000000
00000010
00000000
00000000
00001000
00000000
00000000
00000301
00000000
,
00000010
00000000
00000001
00000000
00001000
00000000
00000200
00000000
00000010
00000000
00000000
00000001
00000000
00000000
00001300
00000000
,
00000001
00000000
00000100
00000000
00001000
00000000
00200000
00000000
00010000
00000000
00000000
00310000
00000000
10000000
00100000
00000000
,
00010000
00000000
00001000
00000000
00000010
00000000
00000002
00000000
00000100
00000000
00000000
00001003
00000000
00001000
00000001
00000000
,
00000010
00000000
00000001
00000000
00000100
00000000
00002000
00000000
00010000
00000000
00000000
00013000
00000000
00001000
00010000
00000000
,
00000010
00000000
00000100
00000000
00010000
00000000
02000000
00000000
00100000
00000000
00000000
03010000
00000000
00010000
10000000
00000000
,
01000000
00000000
00100000
00000000
01000000
00000000
00010000
00000000
01000000
00000000
10000000
01000000
00000000
00100000
00010000
00000000
,
01000000
00000000
00001000
00000000
00010000
00000000
01000000
00000000
00010000
00000000
00001000
00100000
00000000
00001000
00010000
00000000
,
00000010
00000000
00000001
00000000
00000010
00000000
00001000
00000000
00000001
00000000
00000100
00000001
00000000
00001000
00000010
00000000
,
00000100
00000000
00000001
00000000
00000100
00000000
00001000
00000000
00010000
00000000
00000010
00000100
00000000
00001000
00010000
00000000
,
00001000
00000000
00000100
00000000
00000001
00000000
00000100
00000010
00000100
00000000
00001000
00010000
00000000
00010000
00100000
00000000
,
00010000
00000000
00001000
00000000
00010000
00000000
01000000
00100000
01000000
00000000
10000000
00010000
00000000
00010000
10000000
00000000
,
00100000
00000000
00010000
00000000
00000010
00000000
00000100
00000001
00000100
00000000
00001000
00100000
00000000
00100000
00010000
00000000
,
00100000
00000000
10000000
00000000
00100000
00000000
00001000
00010000
00001000
00000000
01000000
00100000
00000000
00100000
01000000
00000000
,
00020000
00000000
00000000
00000000
20030000
00000000
00000000
30010000
00000000
00100000
01000000
00100000
01000000
00100000
00010000
10000000
,
00020000
00000000
00000000
00000000
20030000
00000000
00000000
30010000
00000000
00100000
01000000
00100000
01000000
00100000
00010000
10000000
,
00010000
00000000
00010000
00000000
00000000
00000000
01000000
00000000
01000000
00000000
10000000
01000000
00000000
00000000
01000000
00000000
,
00100000
00000000
00100000
00000000
00000000
00000000
10000000
00000000
10000000
00000000
00010000
00100000
00000000
00000000
00100000
00000000
,
00001000
00000000
00001000
00000000
00000000
00000000
00010000
00000000
00010000
00000000
01000000
10000000
00000000
00000000
10000000
00000000
,
00010000
00000000
01000000
00010000
01000000
00010000
00000000
10000000
00100000
01000000
00010000
10000000
00010000
00000000
10010000
00000000
,
00100000
00000000
00100000
00000000
00000000
00000000
00001000
00000000
00001000
00000000
00010000
00001000
00000000
00000000
00001000
00000000
,
00000010
00000000
00000010
00000000
00000000
00000000
00000001
00000000
00000001
00000000
00001000
00000100
00000000
00000000
00000010
00000000
,
00000001
00000000
00000001
00000000
00000000
00000000
00000010
00000000
00000010
00000000
00001000
00010000
00000000
00000000
00001000
00000000
,
00000010
00000000
00000001
00001000
00000001
00001000
00000000
00000001
00000100
00000000
00001001
00000000
00000100
00000000
00001001
00000000
,
00000100
00000000
00000100
00000000
00000001
00000100
00000001
00000100
00000000
00000001
00001000
00000001
00001000
00000000
00000100
00000000
,
00000010
00000001
00000010
00000001
00000000
00000100
00000010
00010000
00000010
00000000
00001000
00000100
00000010
00000100
00000000
00010000
,
00000000
00001000
00010000
00001000
00010000
00000000
00001000
00010000
00000000
00001000
00100000
00001000
00100000
00000000
00010000
01000000
,
00100000
00000000
10000000
00100000
10000000
00100000
10000000
00010000
00000000
00010000
00000000
10000000
01000000
00100000
00010000
00000000
,
00110000
00000000
00100000
00000000
01000000
10000000
01000000
10000000
00000000
10000000
00010000
10000000
00010000
00000000
00010000
00000000
,
01000000
00100000
01000000
00100000
00000000
00100000
10000000
00010000
10000000
00000000
00010000
00100000
00010000
00100000
00010000
00100000
,
00000000
00001000
00010000
00001000
00010000
00000000
00000010
00000100
00000001
00001000
00000001
00001000
00000000
00000001
00000010
00000001
,
00001000
00000100
00001000
00000100
00001000
00000001
00000000
00000001
00000010
00000100
00001000
00000000
00001000
00000100
00000010
00000000
,
00000011
00000000
00000001
00000000
00001000
00000100
00000010
00000000
00000001
00000100
00000010
00000000
00001000
00000100
00000010
00000000
,
00000001
00000000
00000100
00000000
00001000
00010000
00000000
00010000
00001000
00100000
00010000
00100000
01000000
10000000
01000000
10000000
,
01000000
10000000
01000000
00010000
01000000
10000000
01000000
00010000
,
00001000
00000010
00000001
00000010
00001000
00000010
00000001
00000100
,
00001000
00000000
00010000
00000000
00000010
00000000
00000100
00000000
00000001
00001000
00000001
00000000
00000100
00000000
00000010
00002000
,
00000000
00000001
00000001
00000000
00003001
00000000
00000000
00000000
00000000
00000000
00000100
00000000
00000010
00000000
00000000
00000000
,
00000011
00000000
00000000
00000000
00001000
00000000
00000000
00000000
00000000
00000001
00000100
00000000
00001000
00000000
00000000
00000000
,
00000000
00000100
00001000
00000000
00010000
00000000
00000000
00001000
00000000
00001000
00010000
00000000
01000000
00000000
00000000
00000000
,
00010000
00000000
01000000
00000000
10000000
00000000
00000000
00000000
00010000
10000000
00010000
00000000
01000000
00000000
00100000
20000000
,
00000000
00010000
00010000
00000000
30010000
00000000
00000000
00000000
01100000
00000000
00000000
00000000
00020000
00000000
00000000
00000000
,
00030100
00001000
00000001
00001000
00000010
00000100
00000001
00000010
,
00000001
00001000
00000010
00010000
00000100
00001000
00000010
00010000
,
00000100
00010000
00001000
00100000
00010000
01000000
00001000
00100000
,
01000000
00000000
10000000
00000000
00100000
10000000
00000000
00100000
01000000
00000000
00200000
00000000
00000000
00000000
00000000
00000000
,
10300000
00010000
10000000
01000000
00100000
00010000
01000000
00010000
,
10000000
01000000
00010000
00001000
00000100
00001000
00010000
00000010
,
00001000
00000100
00000010
00000001
00000100
00001000
00000100
00000001
,
00000010
00000000
00001000
00000000
00010000
00100000
00000000
00000000
10000000
00100000
00000000
00000000
01000000
00000000
00000000
00000000
;

//---------------dance-single - ----------------
#NOTES:
     dance-single:
     :
     Challenge:
     10:
     0.747,0.821,0.171,0.136,0.699: // measure 1
0000
0000
0000
0000
,  // measure 2
0000
0000
0000
0000
0000
0000
1001
0000
0000
0000
0000
0000
0000
0000
1001
0000
0000
0000
0000
0000
0000
0000
0000
0000
0100
0000
0000
0000
0000
0100
0000
0000
,  // measure 3
0000
0000
0000
0000
0000
0000
0000
0000
0000
0000
0000
0000
0010
0000
0000
0000
0000
0000
0000
0000
0000
0000
0001
0000
0000
0000
0000
0001
0000
0000
0000
0000
,  // measure 4
0000
0000
0000
0000
0000
0000
0000
0000
0000
0000
1000
0000
0000
0000
0000
0000
0000
0000
0000
0100
0000
0000
0000
0000
0100
0000
0000
0000
0000
0000
0000
0000
,  // measure 5
0000
0000
0000
0000
0010
0000
0000
0000
0000
0001
0000
0000
0001
0000
0000
0000
,  // measure 6
1100
0000
0000
0000
1100
0000
0000
0000
0000
1000
0000
0000
1000
0000
0000
0000
,  // measure 7
0000
0000
0000
0000
0010
0000
0000
0000
0000
0100
0000
0000
0100
0000
0000
0000
,  // measure 8
0000
0000
0000
0000
0001
0000
0000
0000
0000
1000
0000
0000
1000
0000
0001
1000
,  // measure 9
0001
1000
0001
1000
0010
1000
0010
1000
0001
1000
0001
1000
0100
1000
0100
1000
,  // measure 10
0001
0000
0100
0000
0010
0000
1000
0000
0001
0100
0000
0000
0101
0000
0010
0000
,  // measure 11
1000
0000
0100
0000
0010
0000
0001
0000
1000
0100
0000
0000
1100
0000
0010
0000
,  // measure 12
0001
0000
0100
0000
1000
0000
0100
0000
0001
1000
0000
0000
1001
0000
0010
0000
,  // measure 13
1000
0000
0100
0000
0001
0100
0000
1000
0000
0001
0100
0000
0110
0000
1001
0000
,  // measure 14
1001
0000
0100
0000
0001
0000
0100
0000
0001
0010
0000
0000
0110
0000
0100
0000
,  // measure 15
1000
0000
0100
0000
1000
0000
0100
0000
1000
0010
0000
0000
0110
0000
0001
0000
,  // measure 16
1000
0000
0010
0000
0001
0000
0010
0000
1000
0001
0000
0000
1001
0000
1000
0001
,  // measure 17
1000
0001
1000
0001
0010
0001
0010
0001
1000
0001
1000
0001
0100
0001
0100
0001
,  // measure 18
1000
0000
0010
0000
0100
0000
0001
0000
2000
0000
0000
0001
0000
0000
0001
0000
,  // measure 19
3001
0000
0010
0000
0100
0000
1000
0000
0002
0000
0000
1000
0000
0000
1000
0000
,  // measure 20
1003
0000
0100
0000
0010
0000
0100
0000
0020
0000
0000
0100
0000
0000
0100
0000
,  // measure 21
0130
0000
1000
0000
0010
0000
0100
0000
0002
0000
0000
0100
0000
0000
0100
0000
,  // measure 22
0103
0000
0010
0000
0100
0000
1000
0000
0200
0000
0000
0001
0000
0301
0100
0000
,  // measure 23
0010
0000
1000
0000
0100
0000
0010
0000
0200
0000
0000
0001
0000
0301
0100
0000
,  // measure 24
1000
0000
0010
0000
0001
0000
0010
0000
0200
0000
0000
1000
0000
1300
0100
0000
,  // measure 25
0010
0000
0001
0000
0010
0000
0100
0000
0002
0000
0000
0010
0000
0013
0001
0000
,  // measure 26
1000
0000
0100
0000
0001
0000
0100
0000
1000
0000
0100
0010
0000
0010
0001
0000
,  // measure 27
0100
0000
0001
0000
0100
0000
0010
0000
0100
0000
0010
1000
0000
1000
0001
0000
,  // measure 28
1000
0000
0100
0000
0010
0000
0100
0000
1000
0000
0010
0100
0000
0100
0001
0000
,  // measure 29
0100
0000
1000
0000
0100
0000
0001
0000
0100
0000
0010
0001
0000
0001
0010
0000
,  // measure 30
1000
0000
0100
0000
0010
0000
0001
0100
0001
0000
0100
0010
0000
1000
0001
0000
,  // measure 31
0010
0000
0100
0000
1000
0000
0001
0100
0001
0000
1000
0010
0000
0100
0001
0000
,  // measure 32
0010
0000
0001
0000
0100
0000
0010
1000
0010
0000
0100
0001
0000
0100
0010
0000
,  // measure 33
1000
0000
0100
0000
0010
0000
0100
1000
0100
0000
0010
0001
0000
0010
0100
0000
,  // measure 34
2000
0000
0000
0000
3002
0000
0000
1003
0000
0010
0100
0010
0100
0010
1000
0001
,  // measure 35
2000
0000
0000
0000
3002
0000
0000
1003
0000
0010
0100
0010
0100
0010
1000
0001
,  // measure 36
1000
0000
1000
0000
0000
0000
0100
0000
0100
0000
1000
0100
0000
0000
0100
0000
,  // measure 37
0010
0000
0010
0000
0000
0000
0001
0000
0001
0000
1000
0010
0000
0000
0010
0000
,  // measure 38
0100
0000
0100
0000
0000
0000
0001
0000
0001
0000
0100
1000
0000
0000
1000
0000
,  // measure 39
0100
0000
0100
0001
0100
0001
0000
1000
0010
0100
0001
1000
0001
0000
1001
0000
,  // measure 40
0010
0000
0010
0000
0000
0000
0100
0000
0100
0000
1000
0001
0000
0000
0001
0000
,  // measure 41
0100
0000
0100
0000
0000
0000
0010
0000
0010
0000
1000
0100
0000
0000
0100
0000
,  // measure 42
0010
0000
0010
0000
0000
0000
0001
0000
0001
0000
0100
0001
0000
0000
0001
0000
,  // measure 43
0010
0000
0100
1000
0100
1000
0000
0001
0100
0000
1001
0000
0010
0000
1001
0000
,  // measure 44
0100
0000
0100
0000
0001
0100
0001
0100
0000
0001
1000
0001
1000
0000
0100
0000
,  // measure 45
0010
0001
0010
0001
0000
1000
0100
1000
0100
0000
0010
0001
0010
0001
0000
1000
,  // measure 46
0000
0100
0010
0100
0010
0000
0001
1000
0000
0001
0010
0100
0010
0000
0001
0100
,  // measure 47
0010
0000
1000
0010
1000
0010
1000
0001
0000
0001
0000
1000
0100
0010
0001
0000
,  // measure 48
0011
0000
0010
0000
0100
1000
0100
1000
0000
1000
0001
1000
0001
0000
0001
0000
,  // measure 49
0100
0010
0100
0010
0000
0010
1000
0001
1000
0000
0001
0010
0001
0010
0001
0010
,  // measure 50
0000
0001
1000
0001
1000
0000
0010
0100
0001
1000
0001
1000
0000
0001
0010
0001
,  // measure 51
1000
0100
1000
0100
1000
0001
0000
0001
0010
0100
1000
0000
1000
0100
0010
0000
,  // measure 52
0011
0000
0001
0000
1000
0100
0010
0000
0001
0100
0010
0000
1000
0100
0010
0000
,  // measure 53
0001
0000
0100
0000
0010
1000
0000
1000
0010
0100
0001
0100
1000
0100
0001
0100
,  // measure 54
1000
0100
0001
0100
1000
0100
0001
0100
,  // measure 55
1000
0001
0010
1000
0010
0001
0010
1000
,  // measure 56
0010
0000
0001
0000
0010
0000
1000
0000
0001
0100
0001
0000
1000
0000
0100
0020
,  // measure 57
0000
0001
0001
0000
0031
0000
0000
0000
0000
0000
0100
0000
0010
0000
0000
0000
,  // measure 58
1001
0000
0000
0000
1000
0000
0000
0000
0000
0001
0100
0000
0010
0000
0000
0000
,  // measure 59
0000
0001
0100
0000
0010
0000
0000
0001
0000
0001
0100
0000
0010
0000
0000
0000
,  // measure 60
0001
0000
0100
0000
1000
0000
0000
0000
0001
1000
0001
0000
0100
0000
0010
2000
,  // measure 61
0000
0001
0001
0000
3001
0000
0000
0000
0110
0000
0000
0000
0002
0000
0000
0000
,  // measure 62
0103
1000
0001
1000
0010
0100
0001
0010
,  // measure 63
0001
1000
0010
1000
0100
1000
0010
1000
,  // measure 64
0001
1000
0100
0010
0001
0100
0001
0010
,  // measure 65
0100
0000
1000
0000
0010
1000
0000
0010
0100
0000
0020
0000
0000
0000
0000
0000
,  // measure 66
1030
0001
1000
0100
0010
0001
0100
0001
,  // measure 67
1000
0100
0001
0100
1000
0001
0100
0010
,  // measure 68
1000
0001
0100
0001
0010
0001
0100
0001
,  // measure 69
1000
0000
0100
0000
0001
0010
0000
0000
1000
0010
0000
0000
0100
0000
0000
0000
;
