#TITLE:V;
#SUBTITLE:(for EXTREME);
#ARTIST:TAKA;
#TITLETRANSLIT:;
#SUBTITLETRANSLIT:;
#ARTISTTRANSLIT:;
#CREDIT:;
#BANNER:V(for EXTREME).png;
#BACKGROUND:V(for EXTREME)-bg.png;
#LYRICSPATH:;
#CDTITLE:./CDTITLES/BEATMANIAIIDX.PNG;
#MUSIC:V(for EXTREME).mp3;
#OFFSET:-0.047;
#SAMPLESTART:81.600;
#SAMPLELENGTH:15.000;
#SELECTABLE:YES;
#DISPLAYBPM:150.000;
#BPMS:0.000=150.000;
#STOPS:;
#BGCHANGES:;

//---------------dance-single - ----------------
#NOTES:
     dance-single:
     :
     Easy:
     4:
     0.250,0.332,0.170,0.133,0.000:
0000
0000
0000
0000
,
0000
0000
0000
0000
,
0000
0000
0000
0000
,
1100
0000
0100
0000
,
0100
0000
0100
0000
,
1001
0000
0001
0000
,
1010
0000
0010
0000
,
0101
0000
0001
0000
,
0001
0000
0001
0000
,
0100
0100
0100
0000
,
1100
1000
1100
0000
,
0001
0001
0001
0000
,
1001
0001
1001
0000
,
0020
0000
0000
0030
,
0200
0000
0000
0300
,
2000
3000
0002
0003
,
1001
0000
1001
0000
,
2002
0000
0000
0000
,
0000
3003
0000
0000
,
0000
0000
0000
0000
,
0100
0000
0100
0000
,
0001
0000
0001
0000
,
1000
0000
1000
0000
,
0010
0000
0010
0100
,
1000
0000
1000
0100
,
0001
0000
0001
0010
,
0100
0000
0100
0010
,
1001
0000
0100
1001
,
0010
0000
0100
0000
,
1000
1000
0001
0000
,
0100
0000
0010
0000
,
1000
1000
0001
0000
,
0010
0000
0100
0000
,
0001
0001
1000
0000
,
0100
0000
0010
0000
,
0001
0001
1000
0000
,
0001
0100
0001
0100
,
0010
1000
0010
1000
,
0100
0010
0100
0010
,
0001
1000
0001
1000
,
0100
0010
0100
0010
,
1000
0000
0001
0100
,
0010
0010
1000
1000
,
0100
0000
0100
0000
,
0001
0000
1000
0100
,
0010
0010
0001
0001
,
0100
0000
0100
0000
,
0010
0000
1010
0000
,
0100
0000
0101
0000
,
0010
1000
0001
0001
,
0200
0300
0020
0030
,
2000
0000
0001
3001
,
0010
0000
0010
0000
,
0002
0000
1000
1003
,
0010
0000
0010
0000
,
2000
0000
0001
3001
,
0100
0000
0100
0000
,
0002
0000
1000
1003
,
0100
0000
0100
0000
,
1000
1000
0001
1001
,
0100
0100
0010
0110
,
1000
1000
0001
0001
,
2002
0000
0000
0000
,
0000
0000
0000
3003
;

//---------------dance-single - ----------------
#NOTES:
     dance-single:
     :
     Medium:
     6:
     0.434,0.513,0.322,0.208,0.000:
0000
0000
0000
0000
,
0000
0000
0000
0000
,
0000
0000
0000
0000
,
1100
0100
0100
0100
,
0100
0100
0100
0100
,
1001
0001
0001
0001
,
1010
0000
0010
0000
0010
0000
0001
0100
,
1010
0010
0010
0010
,
0010
0010
0010
0010
,
1100
0000
1000
0100
1000
0000
1000
0000
,
1000
0000
1000
0100
1000
0000
1000
0000
,
1001
0000
0001
0100
0001
0000
0001
0000
,
0001
0000
0001
0100
0001
0000
0001
0000
,
2020
0000
0000
3030
,
0022
0000
0000
0033
,
2200
3300
0202
0303
,
1100
0110
0011
0110
,
2002
0000
0000
0000
,
0000
0000
0000
0000
,
0000
0000
0000
3003
,
0100
0100
0100
0100
,
0101
0101
0101
0101
,
1000
0100
1000
0100
1000
0100
1000
0100
,
0011
0012
0010
0013
,
1001
2001
0001
3001
,
0110
0120
0100
0130
,
0101
0201
0001
0301
,
0001
0000
0001
0000
1000
1000
0010
0100
,
1000
0001
0010
0001
1000
0000
2000
0000
,
0010
0010
0010
3010
,
0001
1000
0010
1000
0001
0000
0002
0000
,
0100
0100
0100
0103
,
0010
1000
0001
1000
0010
0000
0020
0000
,
1000
1000
1000
1030
,
0100
0001
1000
0001
0100
0000
0200
0000
,
0001
0001
0001
0301
,
1000
0100
0001
0010
,
0001
0100
1000
0010
,
1000
0100
0001
0010
,
0001
0100
1000
0010
,
0100
0001
0100
1000
,
0010
0000
1000
0100
0001
0000
0001
0000
,
1000
1000
0100
0100
,
0001
0010
1000
0001
,
0010
0000
0001
0100
1000
0000
1000
0000
,
0001
0001
0100
0100
,
1000
0010
0001
1000
,
0012
0000
0000
0000
1000
1000
1003
0000
,
2100
0000
0000
0000
0001
0001
3001
0000
,
0010
1000
0010
0000
0100
0001
0100
0000
,
1100
0101
1100
0101
,
0010
1000
0100
1000
0001
0000
0001
0000
,
0010
0100
0001
0000
0010
0100
1000
0000
,
0010
0001
0100
0001
1000
0000
1000
0000
,
0010
0100
1000
0000
0010
0100
0001
0000
,
0100
1000
0010
1000
0001
0000
0001
0000
,
0100
0010
0001
0000
0100
0010
1000
0000
,
0100
0001
0010
0001
1000
0000
1000
0000
,
0100
0010
1000
0000
0100
0010
0001
0000
,
1000
0100
1000
0000
1000
0001
1000
0000
,
0001
0100
0001
0000
0001
1000
0001
0000
,
1000
0100
0001
0100
1000
0010
0001
0010
,
2002
0000
0000
0000
,
0000
0000
0000
3003
;

//---------------dance-single - ----------------
#NOTES:
     dance-single:
     :
     Hard:
     8:
     0.534,0.574,0.133,0.152,0.085:
0000
0000
0000
0000
,
0000
0000
0000
0000
,
0000
0000
0000
0000
,
0110
0100
0100
0100
,
0100
0100
0100
0100
,
1001
0001
0001
0001
,
1010
0000
0010
0000
0010
0000
1000
0100
,
0011
0010
0010
0010
,
0010
0010
0010
0010
,
1100
0000
0000
0001
1000
0000
0100
0000
1000
0000
0000
0000
1000
0000
0000
0000
,
0001
0000
0000
1000
0001
0000
0100
0000
0001
0000
0000
0000
0001
0000
0000
0000
,
0011
0000
0000
0100
0010
0000
0001
0000
0010
0000
0000
0000
0010
0000
0000
0000
,
0100
0000
0000
0010
0100
0000
1000
0000
0100
0000
0000
0000
0100
0000
0000
0000
,
0220
0000
0330
0000
0010
0100
0010
0001
,
0220
0000
0330
0000
0100
0010
0100
1000
,
1001
0100
1000
0000
1001
0100
0001
0000
,
1010
0000
0101
0000
0010
1000
0100
0010
,
2002
0000
0000
0000
,
0000
0000
0000
0000
,
0000
0000
0000
3003
,
0100
0100
0100
0100
,
0010
0010
0010
0010
,
1000
0100
1000
0100
0001
0100
0001
0100
,
0010
0000
0010
0000
0001
0100
0001
0100
,
0010
0000
0010
0000
1000
0100
1000
0100
,
0010
0000
0010
0000
1000
0100
1000
0001
,
0010
0000
0010
0000
0001
0100
0001
1000
,
0010
0000
0010
0000
1000
0100
0001
0100
,
0010
0000
1000
0100
1000
0000
0001
0000
0100
0000
0010
0000
0100
0000
0010
0000
,
0002
1000
1000
1003
,
0010
0000
0001
0100
0001
0000
1000
0000
0100
0000
0010
0000
0100
0000
0010
0000
,
2000
0001
0001
3001
,
0001
0000
0100
0010
0100
0000
0001
0000
1000
0000
0100
0000
1000
0000
0100
0000
,
0002
1000
1000
1003
,
1000
0000
0100
0010
0100
0000
1000
0000
0001
0000
0100
0000
0001
0000
0100
0000
,
2000
0001
0001
3001
,
0001
0100
1000
0100
0001
0010
0001
0100
,
0001
0010
1000
0010
0001
0100
0010
1000
,
1000
0100
0001
0100
1000
0010
1000
0100
,
1000
0010
0001
0010
1000
0100
0010
0001
,
1000
0100
0001
0100
1000
0010
0001
0010
,
1000
0000
0000
1000
0100
0000
0010
0000
0001
0000
0100
0000
0001
0000
1000
0000
,
0001
0100
0001
0100
1000
0100
1000
0100
,
0001
0010
1000
0010
0001
0010
1000
0010
,
0001
0000
0000
0001
0100
0000
0010
0000
1000
0000
0100
0000
1000
0000
0001
0000
,
1000
0010
1000
0010
0001
0010
0001
0010
,
1000
0100
0001
0100
1000
0100
0001
0100
,
1000
0000
0000
0000
0001
0000
0000
0100
0010
0000
1000
0000
1000
0000
1000
0000
,
0001
0000
0000
0000
1000
0000
0000
0100
0010
0000
0001
0000
0001
0000
0001
0000
,
1000
0100
1000
1000
0001
0100
0001
0001
,
0010
0000
0010
0000
0100
1000
0001
0100
,
0010
0000
1000
0100
1000
0000
0001
0000
0100
0000
0010
0000
1000
0000
0100
0000
,
0002
0100
0010
1003
,
0010
0000
0001
0100
0001
0000
1000
0000
0100
0000
0010
0000
0001
0000
0100
0000
,
2000
0100
0010
3001
,
0100
0000
1000
0010
1000
0000
0001
0000
0010
0000
0100
0000
1000
0000
0010
0000
,
0002
0010
0100
1003
,
0100
0000
0001
0010
0001
0000
1000
0000
0010
0000
0100
0000
0001
0000
0010
0000
,
2000
0010
0100
3001
,
1000
0000
0001
0100
0010
0000
1000
0000
0001
0000
0100
0000
0001
0000
1000
0000
,
0001
0000
1000
0100
0010
0000
0001
0000
1000
0000
0100
0000
1000
0000
0001
0000
,
1000
0100
0001
0100
1000
0010
0001
0010
,
2002
0000
0000
0000
,
0000
0000
0000
3003
;

//---------------dance-double - ----------------
#NOTES:
     dance-double:
     :
     Easy:
     4:
     0.241,0.302,0.095,0.114,0.000:
00000000
00000000
00000000
00000000
,
00000000
00000000
00000000
00000000
,
00000000
00000000
00000000
00000000
,
11000000
00000000
01000000
00000000
,
00010000
00000000
00010000
00000000
,
00011000
00000000
00001000
00000000
,
00001010
00000000
00000010
00000000
,
00000011
00000000
00000001
00000000
,
00000001
00000000
00000001
00000000
,
00000100
00000100
00000100
00000000
,
00001000
00001000
00001000
00000000
,
00010000
00010000
00010000
00000000
,
00100000
00100000
00100000
00000000
,
20000000
00000000
00000000
30000000
,
00020000
00000000
00000000
00030000
,
02000000
03000000
00002000
00003000
,
00020000
00030000
00000200
00000300
,
00002002
00000000
00000000
00000000
,
00000000
00003003
00000000
00000000
,
00000000
00000000
00000000
00000000
,
10000000
00000000
10000000
00000000
,
01000000
00000000
01000000
00000000
,
00001000
00000000
00001000
00000000
,
00010000
00000000
00010000
00000010
,
00000001
00000000
00000001
00000100
,
00001000
00000000
00001000
00100000
,
10000000
00000000
10000000
01000000
,
00010000
00000000
00001000
00010000
,
00001000
00000000
00000010
00000000
,
00000001
00000001
00000001
00000000
,
00000100
00000000
00001000
00000000
,
00010000
00010000
00010000
00000000
,
01000000
00000000
10000000
00000000
,
00100000
00100000
00100000
00000000
,
00010000
00000000
00001000
00000000
,
00000100
00000100
00000100
00000000
,
00000100
00001000
00010000
00100000
,
00100000
00010000
00001000
00000100
,
00000010
00001000
00010000
01000000
,
01000000
00010000
00001000
00000010
,
00001000
00000000
00000001
00000000
,
00000010
00000000
00000001
00000100
,
00001000
00001000
00010000
00010000
,
00100000
00000000
10000000
00000000
,
00100000
00000000
10000000
01000000
,
00010000
00010000
00001000
00001000
,
00000010
00000000
00000001
00000000
,
00000100
00000000
00000101
00000000
,
00000010
00000000
00011000
00000000
,
00100000
00000000
10000000
10000000
,
02000000
03000000
00200000
00300000
,
10000000
00000000
01000000
00010000
,
00001000
00010000
00001000
00010000
,
00001000
00000000
00000010
00000001
,
00000100
00000010
00000100
00000010
,
00000001
00000000
00000100
00001000
,
00010000
00001000
00010000
00001000
,
00010000
00000000
00100000
10000000
,
01000000
00100000
01000000
00100000
,
10000000
00000000
01000000
11000000
,
00010000
00000000
00001000
00011000
,
00000010
00001000
00010000
00001000
,
00022000
00000000
00000000
00000000
,
00000000
00000000
00000000
00033000
;

//---------------dance-double - ----------------
#NOTES:
     dance-double:
     :
     Medium:
     6:
     0.361,0.423,0.076,0.208,0.000:
00000000
00000000
00000000
00000000
,
00000000
00000000
00000000
00000000
,
00000000
00000000
00000000
00000000
,
00010000
00010000
00010000
00010000
,
00010000
00010000
00010000
00010000
,
00001000
00001000
00001000
00001000
,
00100000
00100000
00100000
00010000
,
00000010
00000010
00000010
00000010
,
00000010
00000010
00000010
00000010
,
00000001
00000100
00000001
00000000
00001000
00000000
00002000
00000000
,
00003100
00000100
00010000
00010000
,
00100000
10000000
00100000
00000000
01000000
00000000
02000000
00000000
,
03001000
00001000
00010000
00010000
,
00002200
00000000
00000000
00003300
,
00022000
00000000
00000000
00033000
,
02020000
03030000
20200000
30300000
,
10000000
01000000
00010000
00001000
,
00022000
00000000
00000000
00000000
,
00000000
00000000
00000000
00000000
,
00000000
00000000
00000000
00033000
,
00000100
00000100
00000100
00000100
,
00000001
00000001
00000001
00000001
,
00000010
00000100
00000010
00000100
00010000
00000100
00010000
00000100
,
00001000
00002000
00013000
00010000
,
00100000
00200000
10300000
10000000
,
01000000
02000000
03010000
00010000
,
00001000
00002000
00003100
00000100
,
00000001
00000000
00000001
00000000
00000001
00000000
00000010
00000100
,
00010000
00000000
00001000
01000000
00100000
00000000
00100000
00000000
,
10000000
01000000
00010000
01000000
,
00001000
00000000
00010000
00000100
00000010
00000000
00000010
00000000
,
00000001
00000100
00001000
00000100
,
00010000
00000000
00001000
00100000
01000000
00000000
01000000
00000000
,
10000000
00100000
00010000
00100000
,
00001000
00000000
00010000
00000010
00000100
00000000
00000100
00000000
,
00000001
00000010
00001000
00000010
,
00000001
00000100
00001000
00010000
,
00100000
10000000
01000000
00010000
,
00001000
00000010
00000001
00000100
,
00001000
00010000
00100000
10000000
,
01000000
00100000
00001000
00010000
,
00100000
00000000
10000000
00010000
10000000
00000000
01000000
00000000
,
00010000
00001000
00000100
00001000
,
00010000
00001000
00000010
00000100
,
00000010
00000000
00000001
00001000
00000001
00000000
00000100
00000000
,
00001000
00010000
01000000
00010000
,
00001000
00010000
00100000
01000000
,
02200000
00000000
03300000
00000000
00001000
00010000
00000000
00000000
,
00000220
00000000
00000330
00000000
00010000
00001000
00000000
00000000
,
00100000
00001000
00100000
00000000
00010000
00000100
00010000
00000000
,
00000100
00010000
00001000
01000000
,
00001000
00000000
00010000
00000100
00000010
00000000
00001000
00000000
,
00000001
00000100
00001000
00000100
,
00010000
00000000
00001000
01000000
00100000
00000000
00010000
00000000
,
10000000
01000000
00010000
01000000
,
00001000
00000000
00010000
00000010
00000100
00000000
00001000
00000000
,
00000001
00000010
00001000
00000010
,
00010000
00000000
00001000
00100000
01000000
00000000
00010000
00000000
,
10000000
00100000
00010000
00100000
,
10000000
00010000
01000000
00000000
00001000
00000000
00010000
00000000
,
00000010
00000100
00000001
00000000
00001000
00000000
00000100
00000000
,
00000010
00000001
00000100
00001000
,
00022000
00000000
00000000
00000000
,
00000000
00000000
00000000
00033000
;

//---------------dance-double - ----------------
#NOTES:
     dance-double:
     :
     Hard:
     8:
     0.483,0.513,0.189,0.057,0.000:
00000000
00000000
00000000
00000000
,
00000000
00000000
00000000
00000000
,
00000000
00000000
00000000
00000000
,
11000000
01000000
01000000
01000000
,
01000000
01000000
01000000
01000000
,
00101000
00001000
00001000
00001000
,
00010010
00000000
00000010
00000000
00000010
00000000
00000010
00000100
,
00001001
00000001
00000001
00000001
,
00000001
00000001
00000001
00000001
,
00000101
00000000
00000100
00000010
00000100
00000000
00000100
00000000
,
00000100
00000000
00000100
00001000
00000100
00000000
00000100
00000000
,
00001100
00000000
00001000
00010000
00001000
00000000
00001000
00000000
,
00001000
00000000
00001000
00100000
00001000
00000000
00001000
00000000
,
02010000
00000000
00100000
03100000
,
20100000
00000000
00010000
30010000
,
10000000
01000000
10000000
00000000
10000000
00010000
10000000
00000000
,
11000000
00101000
00011000
00010010
,
00022000
00000000
00000000
00000000
,
00000000
00000000
00000000
00000000
,
00000000
00000000
00000000
00033000
,
01000000
01000000
01000000
01000000
,
00010000
00010000
00010000
00010000
,
00100000
00001000
00100000
00001000
00100000
00001000
00100000
00001000
,
00010000
00000000
00010000
00000000
00010000
00000100
00010000
00000100
,
00000010
00000000
00000010
00000000
00000010
00000001
00000010
00000001
,
00001000
00000000
00001000
00000000
00001000
00000100
00001000
00000100
,
00000010
00000000
00000010
00000000
00000010
00010000
00000010
00010000
,
00001000
00000000
00001000
00000000
00010000
00010000
00001000
01000000
,
00100000
10000000
01000000
00100000
01000000
10000000
01000000
01000000
,
00010000
00010000
00001000
00001000
,
00000010
00000001
00000100
00000010
00000100
00000001
00000100
00000100
,
00001000
00001000
00010000
00010000
,
01000000
10000000
00100000
01000000
00100000
10000000
00100000
00100000
,
00010000
00010000
00001000
00001000
,
00000100
00000001
00000010
00000100
00000010
00000001
00000010
00000010
,
00001000
00001000
00010000
00010000
,
00100000
10000000
01000000
00100000
00001000
00010000
00100000
10000000
,
01000000
00010000
00001000
00000100
00000010
00001000
00000100
00010000
,
00001000
01000000
00100000
10000000
01000000
00010000
00001000
01000000
,
00100000
10000000
01000000
00010000
00001000
00000010
00000001
00001000
,
00000010
00000100
00001000
00010000
00000100
00000010
00000001
00001000
,
00000010
00000000
00001000
00000001
00000010
00000001
00000100
00000001
,
00000010
00000001
00000100
00000001
00000010
00000001
00000100
00001000
,
00000100
00001000
00010000
00001000
00000100
00001000
00010000
00100000
,
01000000
00000000
00010000
10000000
00100000
10000000
01000000
10000000
,
00100000
10000000
01000000
10000000
00100000
10000000
01000000
00010000
,
01000000
00010000
00001000
00010000
01000000
00010000
00001000
00010000
,
00101000
00000000
00010000
00000000
00000100
00000100
00000100
00000000
,
00010010
00000000
00001000
00000000
01000000
01000000
01000000
00000000
,
00010000
00010000
00010000
00000000
10000000
10000000
10000000
00000000
,
11000000
00101000
00010100
00000011
,
00000100
00000001
00000010
00000100
00000010
00000001
00000100
00000100
,
00001000
00010000
00001000
00010000
,
01000000
10000000
00100000
01000000
00100000
10000000
01000000
01000000
,
00010000
00001000
00010000
00001000
,
00000010
00000001
00000100
00000010
00000100
00000001
00000010
00000010
,
00001000
00001000
00010000
00010000
,
00100000
10000000
01000000
00100000
01000000
10000000
00100000
00100000
,
00010000
00010000
00001000
00001000
,
00010000
00100000
00010000
00000000
00001000
00000010
00001000
00000000
,
00010000
01000000
00010000
00000000
00001000
00000100
00001000
00000000
,
00010000
00100000
01000000
00010000
10000000
01000000
00010000
00001000
,
00022000
00000000
00000000
00000000
,
00000000
00000000
00000000
00033000
;

//---------------dance-single - ----------------
#NOTES:
     dance-single:
     :
     Beginner:
     1:
     0.177,0.206,0.076,0.000,0.000:
0000
0000
0000
0000
,
0000
0000
0000
0000
,
0000
0000
0000
0000
,
0100
0000
0100
0000
,
0100
0000
0100
0000
,
1001
0000
0001
0000
,
0010
0000
0010
0000
,
0001
0000
0001
0000
,
0001
0000
0001
0000
,
0100
0100
0100
0000
,
1000
1000
1000
0000
,
0001
0001
0001
0000
,
1000
0000
0001
0000
,
0010
0000
0000
0000
,
0100
0000
0000
0000
,
1000
0000
0001
0000
,
1001
0000
1001
0000
,
1001
0000
0000
0000
,
0000
0000
0000
0000
,
0000
0000
0000
0000
,
0100
0000
0100
0000
,
0001
0000
0001
0000
,
1000
0000
1000
0000
,
0010
0000
0010
0000
,
1000
0000
1000
0000
,
0001
0000
0001
0000
,
0100
0000
0100
0000
,
1001
0000
0100
0000
,
0010
0000
0100
0000
,
1000
1000
0000
0100
,
0100
0000
0010
0000
,
1000
1000
0000
0010
,
0010
0000
0100
0000
,
0001
0001
0000
0100
,
0100
0000
0010
0000
,
0001
0001
0000
1000
,
1000
0000
0001
0000
,
0010
0000
0010
0000
,
0100
0000
0100
0000
,
0001
0000
0001
0000
,
0100
0000
0100
0000
,
1000
0000
1000
0000
,
0010
0000
1000
0000
,
0001
0000
0100
0000
,
0001
0000
1000
0000
,
0010
0000
1000
0000
,
0010
0000
0100
0000
,
0010
0000
0010
0000
,
0100
0000
0100
0000
,
0010
0000
0100
0000
,
0001
0000
1000
0000
,
0010
0000
0001
0001
,
0000
0010
0000
0001
,
0001
0000
1000
1000
,
0000
0010
0000
1000
,
1000
0000
0001
0001
,
0000
0100
0000
0001
,
0001
0000
1000
1000
,
0000
0100
0000
0001
,
0001
0000
1001
0000
,
0010
0000
0110
0000
,
1000
0000
0001
0000
,
1001
0000
0000
0000
;

//---------------dance-single - ----------------
#NOTES:
     dance-single:
     :
     Challenge:
     9:
     0.640,0.755,0.161,0.076,0.284: // measure 1
0000
0000
0000
0000
,  // measure 2
0000
0000
0000
0000
,  // measure 3
0000
0000
0000
0000
,  // measure 4
0110
0100
0100
0100
,  // measure 5
0100
0100
0100
0100
,  // measure 6
1001
0001
0001
0001
,  // measure 7
1010
0000
0010
0000
0010
0000
1000
0100
,  // measure 8
0011
0010
0010
0010
,  // measure 9
0010
0010
0010
0010
,  // measure 10
1100
0000
0000
0001
1000
0000
0100
0000
1000
0000
0000
0001
1000
0000
0000
0000
,  // measure 11
0001
0000
0000
1000
0001
0000
0100
0000
0001
0000
0000
1000
0001
0000
0000
0000
,  // measure 12
0011
0000
0000
0100
0010
0000
0001
0000
0010
0000
0000
0100
0010
0000
0000
0000
,  // measure 13
0100
0000
0000
0010
0100
0000
1000
0000
0100
0000
0000
0010
0100
0000
0010
0000
,  // measure 14
0220
0000
0330
0000
0010
0100
0010
0001
,  // measure 15
0220
0000
0330
0000
0100
0010
0100
1000
,  // measure 16
0001
0100
0001
0000
0110
0000
0000
0000
1000
0010
1000
0000
0110
0000
0000
0000
,  // measure 17
1100
0101
0011
1010
,  // measure 18
2002
0000
0000
0000
,  // measure 19
0000
0000
0000
0000
,  // measure 20
0000
0000
0000
3003
,  // measure 21
0100
0100
0100
0100
,  // measure 22
0010
0010
0010
0010
,  // measure 23
1000
0100
1000
0100
0001
0100
0001
0100
,  // measure 24
0010
0000
0000
0100
0010
0000
1000
0000
0001
0000
0100
0000
0001
0000
0100
0000
,  // measure 25
0010
0000
0000
0100
0010
0000
0001
0000
1000
0000
0100
0000
1000
0000
0100
0000
,  // measure 26
0010
0000
0000
0100
0010
0000
0001
0000
1000
0000
0100
0000
1000
0000
0001
0000
,  // measure 27
0010
0000
0000
0100
0010
0000
1000
0000
0001
0000
0100
0000
0001
0000
1000
0000
,  // measure 28
0010
0100
0010
0001
1000
0100
0001
0100
,  // measure 29
0010
0000
0001
0010
0001
0010
0001
0010
0001
0000
0010
0000
0010
0000
0010
0000
,  // measure 30
1000
0010
0001
0010
1000
0010
0001
0010
,  // measure 31
0100
0000
1000
0100
1000
0100
1000
0100
1000
0000
0100
0000
0100
0000
0100
0000
,  // measure 32
0001
0100
1000
0100
0001
0100
1000
0100
,  // measure 33
0001
0000
0100
0010
0100
0010
0100
0010
0100
0000
0010
0000
0010
0000
0010
0000
,  // measure 34
1000
0010
0001
0010
1000
0010
0001
0010
,  // measure 35
1000
0000
0010
0100
0010
0100
0010
0100
0010
0000
0100
0000
0100
0000
0100
0000
,  // measure 36
0001
0100
1000
0100
0001
0100
1000
0100
,  // measure 37
0001
0010
1000
0010
0001
0100
0001
0010
,  // measure 38
0001
0100
1000
0100
0001
0010
0100
1000
,  // measure 39
1000
0010
0001
0010
1000
0100
1000
0010
,  // measure 40
1000
0100
0001
0100
1000
0010
0100
0001
,  // measure 41
1000
0010
0001
0010
1000
0100
0001
0100
,  // measure 42
1000
0000
0000
1000
0010
0000
0100
0000
0001
0000
0010
0000
0001
0000
1000
0000
,  // measure 43
0001
0010
0001
0010
1000
0010
1000
0010
,  // measure 44
0001
0100
1000
0100
0001
0100
1000
0100
,  // measure 45
0001
0000
0000
0001
0100
0000
0010
0000
1000
0000
0100
0000
1000
0000
0001
0000
,  // measure 46
1000
0010
1000
0010
0001
0010
0001
0010
,  // measure 47
1000
0100
0001
0100
1000
0100
0001
0100
,  // measure 48
1000
0000
0001
0000
0001
0000
0000
0100
0010
0000
1000
0000
1000
0000
1000
0000
,  // measure 49
0001
0000
1000
0000
1000
0000
0000
0100
0010
0000
0001
0000
0001
0000
0001
0000
,  // measure 50
1000
0100
1000
0000
0001
0000
1000
0000
0001
0100
0001
0000
1000
0000
0001
0000
,  // measure 51
0010
0100
0010
0100
0010
0000
0010
0000
0100
0000
1000
0000
0001
0000
0100
0000
,  // measure 52
0010
0000
1000
0100
1000
0100
1000
0100
1000
0000
0100
0000
0010
0000
0001
0000
,  // measure 53
1000
0100
0001
0100
1000
0100
0001
0100
,  // measure 54
0010
0000
0001
0100
0001
0100
0001
0100
0001
0000
0100
0000
0010
0000
1000
0000
,  // measure 55
0001
0010
1000
0010
0001
0010
1000
0010
,  // measure 56
0100
0000
1000
0010
1000
0010
1000
0010
1000
0000
0010
0000
0100
0000
0001
0000
,  // measure 57
1000
0010
0001
0010
1000
0010
0001
0010
,  // measure 58
0100
0000
0001
0010
0001
0010
0001
0010
0001
0000
0010
0000
0100
0000
1000
0000
,  // measure 59
0001
0100
0001
0000
1000
0100
1000
0000
0001
0100
0001
0000
1000
0100
1000
0100
,  // measure 60
0010
0000
0001
0010
0001
0010
0001
0010
0001
0000
0010
0000
1000
0000
0010
0000
,  // measure 61
0100
0000
1000
0100
1000
0100
1000
0100
1000
0000
0100
0000
0001
0000
0100
0000
,  // measure 62
0010
0000
0001
1000
0001
1000
0001
1000
0001
0000
0010
0000
0100
0000
0110
0000
,  // measure 63
2002
0000
0000
0000
,  // measure 64
0000
0000
0000
3003
;

//---------------dance-double - ----------------
#NOTES:
     dance-double:
     :
     Challenge:
     9:
     0.610,0.725,0.189,0.057,0.227:
00000000
00000000
00000000
00000000
,
00000000
00000000
00000000
00000000
,
00000000
00000000
00000000
00000000
,
00000011
00000010
00000010
00000010
,
00000010
00000010
00000010
00000010
,
00010100
00010000
00010000
00010000
,
01001000
00000000
01000000
00000000
01000000
00000000
01000000
00100000
,
10010000
10000000
10000000
10000000
,
10000000
10000000
10000000
10000000
,
10100000
00000000
00000000
00000000
00100000
00000000
01000000
00000000
00100000
00000000
00000000
10000000
00100000
00000000
00000000
00000000
,
00100000
00000000
00100000
00010000
00100000
00000000
00100000
00000000
,
00110000
00000000
00000000
00000000
00010000
00000000
00001000
00000000
00010000
00000000
00000000
00001000
00010000
00000000
00000000
00000000
,
00010000
00000000
00010000
00000100
00010000
00000000
00010000
00000000
,
00001020
00000000
00000000
00000000
00000100
00000100
00000130
00000000
,
00000102
00000000
00000000
00000000
00001000
00001000
00001003
00000000
,
00000001
00000010
00000001
00000000
00001000
00000000
00000001
00000000
00000001
00000000
00001000
00000000
00000001
00000000
00000010
00000000
,
00000011
00010100
00011000
01001000
,
00022000
00000000
00000000
00000000
,
00000000
00000000
00000000
00000000
,
00000000
00000000
00000000
00033000
,
00000010
00000010
00000010
00000010
,
00001000
00001000
00001000
00001000
,
00000100
00010000
00001000
00010000
00000010
00010000
00001000
00010000
,
00001000
00000000
00000000
00010000
00001000
00000000
00000000
00000000
00001000
00000000
00100000
00000000
00001000
00000000
00100000
00000000
,
01000000
00000000
00000000
00100000
01000000
00000000
00000000
00000000
01000000
00000000
10000000
00000000
01000000
00000000
10000000
00000000
,
00010000
00000000
00000000
10000000
00010000
00000000
00000000
00000000
00010000
00000000
00100000
00000000
00010000
00000000
00100000
00000000
,
01000000
00000000
00000000
00100000
01000000
00000000
00000000
00000000
01000000
00000000
00001000
00000000
01000000
00000000
00001000
00000000
,
00010000
00010000
00001000
00010000
00001000
00001000
00010000
00000010
,
00000100
00000000
00000001
00000010
00000001
00000010
00000001
00000010
00000001
00000000
00000010
00000000
00000001
00000000
00000010
00000000
,
00001000
00010000
00001000
00000100
00001000
00010000
00001000
00100000
,
01000000
00000000
10000000
00100000
10000000
00100000
10000000
00100000
10000000
00000000
00100000
00000000
10000000
00000000
00100000
00000000
,
00010000
00001000
00010000
01000000
00010000
00001000
00010000
00000010
,
00000100
00000000
00000001
00001000
00000001
00001000
00000001
00001000
00000001
00000000
00001000
00000000
00000001
00000000
00000010
00000000
,
00001000
00010000
00001000
00000100
00001000
00010000
00001000
00100000
,
01000000
00000000
10000000
00010000
10000000
00010000
10000000
00010000
10000000
00000000
00010000
00000000
00100000
00000000
01000000
00000000
,
00010000
00001000
00010000
01000000
00010000
00001000
00010000
00000010
,
00000100
00000001
00000010
00000100
00010000
00001000
00000100
00000001
,
00000010
00001000
00010000
00100000
01000000
00010000
00100000
00001000
,
00010000
00000010
00000100
00000001
00000010
00001000
00010000
00000010
,
00000100
00000001
00000010
00001000
00010000
01000000
10000000
00010000
,
01000000
00100000
00010000
00001000
00100000
01000000
10000000
00010000
,
00100000
00000000
00000000
00100000
00010000
00000000
10000000
00000000
00100000
00000000
10000000
00000000
01000000
00000000
10000000
00000000
,
00100000
10000000
01000000
10000000
00100000
10000000
01000000
00010000
,
01000000
00010000
00001000
00010000
01000000
00010000
00001000
00000010
,
00000100
00000000
00000000
00000100
00001000
00000000
00000001
00000000
00000010
00000000
00000001
00000000
00000100
00000000
00000001
00000000
,
00000010
00000001
00000100
00000001
00000010
00000001
00000100
00001000
,
00000100
00001000
00010000
00001000
00000100
00001000
00010000
00001000
,
00010010
00000000
00000000
00000000
00001000
00000000
00000000
00100000
01000000
00000000
01000000
00000000
01000000
00000000
00010000
00000000
,
00101000
00000000
00000000
00000000
00010000
00000000
00000000
00000010
00000100
00000000
00000100
00000000
00000100
00000000
00000010
00000000
,
00001000
00001000
00001000
00000001
00000010
00000010
00000010
00000001
,
00000101
00010010
01001000
10100000
,
01000000
00000000
00100000
00010000
00100000
00010000
00100000
00010000
00100000
00000000
01000000
00000000
10000000
00000000
01000000
00000000
,
00010000
00001000
00010000
00010000
00001000
00010000
00001000
00001000
,
00000010
00000000
00000001
00000100
00000001
00000100
00000001
00000100
00000001
00000000
00000010
00000000
00001000
00000000
00010000
00000000
,
00001000
00010000
00001000
00001000
00010000
00001000
00010000
00010000
,
01000000
00000000
10000000
00100000
10000000
00100000
10000000
00100000
10000000
00000000
00010000
00000000
01000000
00000000
00100000
00000000
,
00010000
00001000
00010000
00010000
00001000
00010000
00001000
00001000
,
00000100
00000000
00000001
00000010
00000001
00000010
00000001
00000010
00000001
00000000
00001000
00000000
00000001
00000000
00000100
00000000
,
00001000
00010000
00001000
00000000
00001000
00100000
00001000
00000000
00010000
00001000
00010000
00000000
00010000
00000010
00010000
00000000
,
00001000
00000000
01000000
00100000
01000000
00100000
01000000
00100000
01000000
00000000
00001000
00000000
00010000
00000000
00001000
00000000
,
00010000
00000000
00000100
00000010
00000100
00000010
00000100
00000010
00000100
00000000
00010000
00000000
00001000
00000000
00010000
00000000
,
01000000
00000000
00100000
00001000
00100000
00010000
00100000
00001000
00010000
00000000
00000100
00000000
00000010
00000000
00001000
00000000
,
00022000
00000000
00000000
00000000
,
00000000
00000000
00000000
00033000
;

//---------------dance-double - ----------------
#NOTES:
     dance-double:
     :
     Beginner:
     1:
     0.162,0.206,0.076,0.000,0.000:
00000000
00000000
00000000
00000000
,
00000000
00000000
00000000
00000000
,
00000000
00000000
00000000
00000000
,
01100000
00000000
01000000
00000000
,
00010000
00000000
00010000
00000000
,
00011000
00000000
00001000
00000000
,
00001001
00000000
00000010
00000000
,
00001001
00000000
00000001
00000000
,
00000001
00000000
00000001
00000000
,
00000100
00000000
00000100
00000000
,
00001000
00000000
00001000
00000000
,
00010000
00000000
00010000
00000000
,
00100000
00000000
00100000
00000000
,
10000000
00000000
00000000
00000000
,
00010000
00000000
00000000
00000000
,
01000000
00000000
00001000
00000000
,
00010000
00000000
00000100
00000000
,
00001001
00000000
00000000
00000000
,
00000000
00000000
00000000
00000000
,
00000000
00000000
00000000
00000000
,
10000000
00000000
10000000
00000000
,
01000000
00000000
01000000
00000000
,
00001000
00000000
00001000
00000000
,
00010000
00000000
00010000
00000000
,
00000001
00000000
00000001
00000000
,
00001000
00000000
00001000
00000000
,
10000000
00000000
10000000
00000000
,
00010000
00000000
00001000
00000000
,
00001000
00000000
00000010
00000000
,
00000001
00000000
00000001
00000000
,
00000100
00000000
00001000
00000000
,
00010000
00000000
00010000
00000000
,
01000000
00000000
10000000
00000000
,
00100000
00000000
00100000
00000000
,
00010000
00000000
00001000
00000000
,
00000100
00000000
00000100
00000000
,
00000100
00000000
00010000
00000000
,
00100000
00000000
00001000
00000000
,
00000010
00000000
00010000
00000000
,
01000000
00000000
00001000
00000000
,
00001000
00000000
00000001
00000000
,
00000010
00000000
00000001
00000000
,
00001000
00000000
00010000
00000000
,
00100000
00000000
10000000
00000000
,
00100000
00000000
10000000
00000000
,
00010000
00000000
00001000
00000000
,
00000010
00000000
00000001
00000000
,
00000100
00000000
00000110
00000000
,
00000010
00000000
00011000
00000000
,
00100000
00000000
10000000
00000000
,
01000000
00000000
00100000
00000000
,
10000000
00000000
01000000
00000000
,
00001000
00000000
00001000
00000000
,
00001000
00000000
00000010
00000000
,
00000100
00000000
00000100
00000000
,
00000001
00000000
00000100
00000000
,
00010000
00000000
00010000
00000000
,
00010000
00000000
00100000
00000000
,
01000000
00000000
01000000
00000000
,
10000000
00000000
01000000
00000000
,
00010000
00000000
00001000
00000000
,
00000010
00000000
00010000
00000000
,
00011000
00000000
00000000
00000000
;

//---------------dance-single - ----------------
#NOTES:
     dance-single:
     :
     Edit:
     10:
     0.710,0.879,0.076,0.133,0.545: // measure 1
0000
0000
0000
0000
,  // measure 2
0000
0000
0000
0000
,  // measure 3
0000
0000
0000
0000
,  // measure 4
0101
0001
0001
0001
,  // measure 5
0001
0001
0001
0001
,  // measure 6
1100
1000
1000
1000
,  // measure 7
0011
0000
0010
0000
0010
0000
0010
0100
,  // measure 8
1000
0001
0100
0001
1000
0001
0100
0001
,  // measure 9
0100
0001
0100
0001
0100
0001
0100
0001
,  // measure 10
0001
0000
0000
1000
0100
0000
0000
0010
0001
0000
0000
1000
0010
0000
0000
0100
,  // measure 11
0001
0000
0000
0010
0001
0000
0000
0001
1000
0000
0000
0010
1000
0000
0000
0001
,  // measure 12
0100
0010
0100
0000
0001
0100
0001
0000
1000
0001
1000
0000
0100
1000
0100
0000
,  // measure 13
0010
0100
0010
0000
0001
0010
0001
0000
1000
0010
0100
0000
0001
1000
0010
0000
,  // measure 14
2001
0000
0100
3100
,  // measure 15
1002
0000
0010
0013
,  // measure 16
0100
1000
0100
0000
1000
0000
0000
0000
0100
0001
0100
0000
0001
0000
0000
0000
,  // measure 17
0120
0032
0203
1300
,  // measure 18
0110
0010
1000
0010
0100
0001
0010
0100
,  // measure 19
1000
0000
0001
0010
0001
0010
0001
0010
0001
0000
1000
0010
1000
0010
1000
0010
,  // measure 20
1000
0000
0000
0001
0100
0000
0000
0001
0100
0000
0000
0001
0100
0000
0000
0001
,  // measure 21
1000
1000
1000
1000
,  // measure 22
0001
0001
0001
0001
,  // measure 23
0010
0000
0010
0000
0010
0000
0010
0000
0010
0100
0010
0100
0010
0100
0010
0100
,  // measure 24
0010
0001
0010
0001
0010
0001
0010
0001
,  // measure 25
1000
0010
1000
0010
1000
0010
1000
0010
,  // measure 26
0100
0010
0100
0010
0100
0010
0100
0010
,  // measure 27
1000
0001
1000
0001
1000
0001
1000
0001
,  // measure 28
1000
1000
0100
0100
0010
0010
0001
0100
,  // measure 29
0010
0000
1000
0100
1000
0100
1000
0100
1000
0000
1000
0000
1000
0000
1000
0000
,  // measure 30
0010
0100
0001
0100
0010
0100
0001
1000
,  // measure 31
0100
0000
0010
0001
0010
0001
0010
0001
0010
0000
0001
0000
0001
0000
0001
0000
,  // measure 32
0010
0100
1000
0001
0010
0100
1000
0001
,  // measure 33
0100
0000
0001
1000
0001
1000
0001
1000
0001
0000
0001
0000
0001
0000
0001
0000
,  // measure 34
0010
0100
1000
0001
0100
1000
0100
0001
,  // measure 35
1000
0000
0001
0100
0001
0100
0001
0100
0001
0000
0100
0000
0100
0000
0100
0000
,  // measure 36
0001
0000
0001
0000
1000
0000
1000
0000
0001
0010
0000
0100
1000
0100
1000
0000
,  // measure 37
0001
0100
0001
1000
0100
0010
0001
1000
,  // measure 38
0010
0100
0001
1000
0100
1000
0001
0100
,  // measure 39
0010
0000
1000
0100
1000
0100
1000
0100
0010
0000
0001
0000
0100
0000
0001
0000
,  // measure 40
0010
0100
1000
0100
0010
0100
1000
0100
0010
0100
1000
0100
0010
0100
1000
0100
,  // measure 41
0010
0000
0100
0000
1000
0000
0001
0000
0010
0001
1000
0100
0010
0001
0100
0010
,  // measure 42
1000
0000
0000
0001
0100
0010
0100
0001
1000
0000
0010
0000
0100
0000
0001
0000
,  // measure 43
0010
0001
0100
0001
0010
0001
0100
0001
0010
0001
0100
0001
0010
0001
0100
0001
,  // measure 44
0010
0000
0001
0000
1000
0000
0010
0000
0100
0001
0010
0100
1000
0001
0010
0001
,  // measure 45
1000
0000
0000
0001
0100
0010
0100
0001
1000
0000
0001
0000
0010
0000
0100
0000
,  // measure 46
1000
0100
0010
0001
1000
0100
0010
0001
,  // measure 47
1000
0001
0100
0001
0100
0000
0010
0000
1000
0001
0100
0001
0010
0000
0001
0000
,  // measure 48
1000
0000
0000
0000
0000
0000
0000
0000
0100
0000
1000
0000
0001
0000
0010
0001
,  // measure 49
1000
0000
0000
0000
0000
0000
0000
0000
0001
0000
0010
0000
0100
0000
1000
0001
,  // measure 50
0100
0010
0100
0001
0010
0100
1000
0001
,  // measure 51
0100
0001
0100
0001
0100
0001
0100
0000
0010
1000
0010
1000
0010
1000
0010
1000
,  // measure 52
0010
0000
0000
0000
0000
0000
0000
0000
0100
0001
0100
0001
0100
0001
0100
0001
,  // measure 53
0010
0001
0010
0100
0010
0001
0010
0100
,  // measure 54
2000
0001
0000
0001
,  // measure 55
3020
0000
0100
0000
0030
0010
1000
0001
,  // measure 56
0200
0000
0001
0000
0300
0001
1000
0100
,  // measure 57
0020
2030
3002
0013
,  // measure 58
0220
0000
0000
0330
,  // measure 59
0001
1000
0100
1000
0001
1000
0100
1000
0001
1000
0100
1000
0001
1000
0100
1000
,  // measure 60
0010
0000
1000
0001
1000
0001
1000
0001
1000
0000
0001
0000
0100
0000
0010
0000
,  // measure 61
1000
0000
0001
0010
0001
0010
0001
0010
0001
0000
1000
0000
1000
0000
0010
0000
,  // measure 62
0100
0000
0100
0000
0001
0000
0001
0000
1000
0100
1000
0001
0100
0001
1000
0100
,  // measure 63
0020
0000
0000
0000
,  // measure 64
0000
0000
0000
0000
,  // measure 65
0030
0000
0000
0000
;
