#TITLE:TYPICAL TROPICAL;
#SUBTITLE:;
#ARTIST:BAMBEE;
#TITLETRANSLIT:;
#SUBTITLETRANSLIT:;
#ARTISTTRANSLIT:;
#CREDIT:;
#BANNER:TYPICAL TROPICAL.png;
#BACKGROUND:TYPICAL TROPICAL-bg.png;
#LYRICSPATH:;
#CDTITLE:./CDTITLES/DANCEMANIA 13.PNG;
#MUSIC:TYPICAL TROPICAL.ogg;
#OFFSET:0.000;
#SAMPLESTART:38.098;
#SAMPLELENGTH:15.000;
#SELECTABLE:YES;
#DISPLAYBPM:137.000;
#BPMS:0.000=136.994;
#STOPS:;
#BGCHANGES:;

//---------------dance-single - ----------------
#NOTES:
     dance-single:
     :
     Easy:
     3:
     :
0000
0000
0000
0000
,
0000
0000
0000
0000
,
0000
0000
0000
0000
,
0000
0000
0000
0000
,
0000
0000
0000
0000
,
0000
0000
0000
0000
,
1000
0100
0001
0010
,
0100
0001
0010
0000
,
1000
0010
0100
0001
,
1000
0000
0000
0000
,
0001
1000
0010
1000
,
0001
1000
0010
0100
,
0001
0100
1000
0100
,
1000
0010
1000
0001
,
1000
0000
0010
0001
,
1000
0000
0010
0001
,
1000
0100
0001
0100
,
0010
1000
0100
0010
,
0001
0000
0010
1000
,
0001
0000
0010
1000
,
0001
0100
1000
0100
,
0001
0000
0000
0000
,
1000
0100
0001
0010
,
0100
0001
0010
0000
,
1000
0010
0100
0001
,
0010
1000
0010
0000
,
1000
0100
0001
0010
,
0100
0001
0010
0000
,
1000
0010
0100
0001
,
0010
1000
0100
0000
,
0010
0000
0100
0000
,
0001
0010
0100
0000
,
1000
0000
0010
0000
,
0001
0000
1000
0000
,
0001
0000
1000
0000
,
0001
0010
0100
0000
,
1000
0000
0010
0000
,
0001
0000
0010
0000
,
0001
0000
1000
0000
,
0001
0100
0001
0100
,
0010
1000
0001
0010
,
1000
0100
1000
0100
,
0010
0001
1000
0010
,
1000
0100
0001
0010
,
0100
0001
0010
0000
,
1000
0010
0100
0001
,
0010
1000
0100
0000
,
0010
1000
0001
0100
,
0010
0001
0010
0000
,
1000
0010
0001
0010
,
0001
1000
0100
0000
;

//---------------dance-single - ----------------
#NOTES:
     dance-single:
     :
     Medium:
     6:
     :
0000
0000
0000
0000
,
0000
0000
0000
0000
,
0000
0000
0000
0000
,
0000
0000
0000
0000
,
0000
0000
0000
0000
,
0000
0000
0000
0000
,
0010
1000
0001
0000
0010
0001
1000
0000
,
0010
0000
0100
0100
0000
0000
0000
0000
,
0000
0000
0010
1000
0001
0100
0010
1000
,
0000
0001
0000
0000
0100
0000
0100
0000
,
0001
0010
0001
0100
,
0010
0100
0001
0000
0100
0001
0100
0000
,
0001
1000
0100
0010
,
0001
1000
0001
0000
1000
0010
0100
0000
,
0001
0000
0010
0000
0001
0010
0000
0000
,
1000
0000
0010
0000
1000
0100
0000
0000
,
0010
0001
0100
0010
,
1000
0100
0010
0001
,
1000
0000
0010
0000
1000
0001
0000
0000
,
1000
0000
0001
0000
0100
0010
0000
0000
,
1000
0100
0010
0001
,
1000
0000
0000
0000
,
0010
0001
0010
0000
0001
0100
0010
0000
,
1000
0000
0001
0001
0000
0000
1000
0100
,
1000
0000
0010
0100
0000
0100
0000
0001
,
0000
1000
0000
0010
0000
0000
0000
0000
,
1000
0100
0010
0000
0001
0100
0010
0000
,
1000
0000
0001
0010
0000
0000
0000
0000
,
0000
0000
0100
0010
0001
0100
0010
1000
,
0000
0010
0000
0000
0000
0000
0100
0010
,
0100
0010
0100
0010
,
0001
0000
0001
1000
0000
0000
0000
0000
,
0001
0000
0000
0000
0010
0000
1000
0001
,
0000
0100
0000
0000
0000
0000
0000
0000
,
0010
0010
1000
0100
,
1000
0000
0010
1000
0000
0000
0001
1000
,
0100
0000
0000
1000
0010
0000
1000
1000
,
0000
0010
0000
0000
0000
0000
0000
0000
,
0000
0000
0001
0010
,
1000
0010
1000
0100
,
1000
0100
1000
0000
0001
0100
0001
0000
,
1000
0100
0010
0001
,
1000
0010
1000
0000
0001
0010
0001
0000
,
1000
0001
0100
0000
1000
0001
0100
0000
,
0001
0000
0100
0100
0000
0000
0001
0100
,
0001
0000
1000
0100
0000
1000
0000
0001
,
0000
0010
0000
0001
0000
0000
0000
0000
,
1000
0010
1000
0000
0001
0010
0001
0000
,
1000
0000
0100
0100
0000
0000
0000
0000
,
0000
0000
1000
0100
1000
0001
0010
0001
,
0000
0100
0000
0000
0000
0000
0000
0000
;

//---------------dance-single - ----------------
#NOTES:
     dance-single:
     :
     Hard:
     7:
     :
0000
0000
0000
0000
,
0000
0000
0000
0000
,
0000
0000
0000
0000
,
0000
0000
0000
0000
,
0000
0000
0000
0000
,
0000
0000
0000
0000
,
0001
0000
0000
0000
1000
0000
0000
0100
0000
0000
1000
0000
0001
0000
1000
0000
,
0001
0000
0000
0000
1000
0000
0000
0100
0000
0000
1000
0000
0001
0000
1000
0000
,
0001
0000
0000
0000
1000
0000
0000
0100
0000
0000
1000
0000
0001
0000
1000
0000
,
0001
0000
0000
0000
0000
0000
0000
0000
0000
0000
0000
0000
0000
0000
0000
0000
0000
0000
0000
0000
0000
0000
0000
0000
0000
0000
0000
0000
0000
0000
0000
0000
1000
0000
0000
0000
0000
0001
0000
0000
0000
0000
0000
0010
0000
0000
0000
0000
0100
0000
0000
0000
0000
0000
0000
0000
0000
0000
0000
0000
0000
0000
0000
0000
,
0000
0100
0010
0001
1000
0001
1000
0100
,
0000
0010
0010
0010
0001
0100
0001
0000
,
0000
1000
0100
0010
0001
0100
0001
0010
,
0000
0001
0001
0001
0100
0010
1000
0000
,
1000
0000
0000
0100
0000
0000
1000
0000
0001
0000
0000
0100
0000
0000
0001
0000
,
1000
0000
0000
0100
0000
0000
1000
0000
0001
0000
0000
0100
0000
0000
0001
0000
,
0010
0000
0000
0100
0000
0000
1000
0000
0010
0000
0000
0100
0000
0000
0001
0000
,
0010
0000
0000
0100
0000
0000
1000
0000
0010
0000
0000
0100
0000
0000
0001
0000
,
1000
0000
0000
0100
0000
0000
1000
0000
0001
0000
0000
0100
0000
0000
0001
0000
,
1000
0000
0000
0100
0000
0000
1000
0000
0001
0000
0000
0100
0000
0000
0001
0000
,
0010
0000
0000
0100
0000
0000
1000
0000
0010
0000
0000
0100
0000
0000
0001
0000
,
1000
0000
0000
0000
,
0001
0000
0000
0000
1000
0000
0000
0100
0000
0000
1000
0000
0001
0000
1000
0000
,
0001
0000
0000
0000
1000
0000
0000
0100
0000
0000
1000
0000
0001
0000
1000
0000
,
0010
0000
0000
0000
0100
0000
0000
0001
0000
0000
1000
0000
0100
0000
0010
0000
,
0001
0000
0000
0000
0100
0000
0000
0001
0000
0000
1000
0000
0100
0000
1000
0000
,
0001
0000
0000
0000
0100
0000
0000
0010
0000
0000
1000
0000
0100
0000
0010
0000
,
0001
0000
0000
0000
0100
0000
0000
0010
0000
0000
1000
0000
0100
0000
0010
0000
,
0001
0000
0000
0000
0100
0000
0000
0001
0000
0000
1000
0000
0010
0000
1000
0000
,
0100
0000
0000
0000
0010
0000
0000
0001
0000
0000
0100
0000
0001
0000
0000
0000
,
1000
0000
0000
0000
0100
0000
0000
0100
0000
0000
0000
0000
0000
0000
0000
0000
,
0001
0000
0000
0000
0100
0000
0000
0100
0000
0000
0000
0000
0000
0000
0000
0000
,
1000
0000
0000
0000
0010
0000
0000
0010
0000
0000
0000
0000
0000
0000
0000
0000
,
0001
0000
0000
0000
0010
0000
0000
0010
0000
0000
0000
0000
0000
0000
0000
0000
,
1000
0000
0000
0000
0010
0000
0000
0100
0000
0000
0000
0000
0000
0000
0000
0000
,
0001
0000
0000
0000
0001
0000
0000
0100
0000
0000
0000
0000
0000
0000
0000
0000
,
0001
0000
0000
0000
0010
0000
0000
0100
0000
0000
0000
0000
0000
0000
0000
0000
,
0010
0000
0000
0000
0001
0000
0000
0100
0000
0000
0000
0000
0000
0000
0000
0000
,
1000
0000
0000
0000
0000
0000
0000
0000
0000
0000
0000
0000
0000
0000
0000
0000
0000
0000
0000
0000
0000
0000
0000
0000
0000
0000
0000
0000
0000
0000
0000
0000
0001
0000
0000
0000
0000
0100
0000
0000
0000
0000
0000
0001
0000
0000
0000
0000
1000
0000
0000
0000
0000
0000
0000
0000
0000
0000
0000
0000
0000
0000
0000
0000
,
0000
0100
0010
0001
1000
0100
1000
0010
,
0000
1000
0100
0010
0100
1000
0001
0000
,
0000
0100
0010
1000
0100
1000
0001
0100
,
0000
0010
0010
0010
1000
0100
1000
0000
,
1000
0000
0000
0000
0100
0000
0000
1000
0000
0000
0100
0000
0010
0000
0001
0000
,
1000
0000
0000
0000
0010
0000
0000
0100
0000
0000
0001
0000
1000
0000
0001
0000
,
1000
0000
0000
0000
0100
0000
0000
1000
0000
0000
0100
0000
0010
0000
0001
0000
,
1000
0000
0000
0000
0001
0000
0000
0100
0000
0000
0010
0000
1000
0000
0100
0000
,
1000
0000
0000
0000
0001
0000
0000
0100
0000
0000
0010
0000
1000
0000
0100
0000
,
1000
0000
0000
0000
0010
0000
0000
0100
0000
0000
0001
0000
1000
0000
0100
0000
,
1000
0000
0000
0000
0001
0000
0000
0100
0000
0000
0001
0000
1000
0000
0100
0000
,
0010
0000
0000
0000
0001
0000
0000
0100
0000
0000
0001
0000
0001
0000
0000
0000
;

//---------------dance-solo - ----------------
#NOTES:
     dance-solo:
     :
     Easy:
     3:
     :
000000
000000
000000
000000
,
000000
000000
000000
000000
,
000000
000000
000000
000000
,
000000
000000
000000
000000
,
000000
000000
000000
000000
,
000000
000000
000000
000000
,
100000
001000
000001
000100
,
000010
000001
000010
000000
,
100000
000100
001000
000001
,
100000
000000
000000
000000
,
000001
010000
000100
010000
,
000001
100000
000100
001000
,
000001
001000
100000
001000
,
100000
000100
010000
000010
,
100000
000000
000100
000010
,
100000
000000
000100
000010
,
100000
001000
000001
001000
,
000100
100000
001000
000100
,
000001
000000
000100
010000
,
000001
000000
000100
010000
,
000001
001000
100000
001000
,
000001
000000
000000
000000
,
100000
001000
000001
000100
,
000010
000001
000010
000000
,
100000
000100
001000
000001
,
010000
100000
010000
000000
,
100000
001000
000001
000100
,
000010
000001
000010
000000
,
100000
000100
001000
000001
,
010000
100000
010000
000000
,
000100
000000
001000
000000
,
000001
000100
001000
000000
,
010000
000000
000100
000000
,
000001
000000
010000
000000
,
000010
000000
010000
000000
,
000001
000100
001000
000000
,
010000
000000
000100
000000
,
000010
000000
000100
000000
,
000001
000000
100000
000000
,
000001
001000
000001
001000
,
000100
100000
000010
000010
,
100000
001000
100000
001000
,
000100
000001
010000
010000
,
100000
001000
000001
000100
,
000010
000001
000010
000000
,
100000
000100
001000
000001
,
010000
100000
010000
000000
,
000100
100000
000001
001000
,
000010
000001
000010
000000
,
010000
000100
000010
000100
,
000001
100000
001000
000000
;

//---------------dance-solo - ----------------
#NOTES:
     dance-solo:
     :
     Medium:
     6:
     :
000000
000000
000000
000000
,
000000
000000
000000
000000
,
000000
000000
000000
000000
,
000000
000000
000000
000000
,
000000
000000
000000
000000
,
000000
000000
000000
000000
,
000100
010000
000001
000000
000100
000010
100000
000000
,
000100
000000
001000
001000
000000
000000
000000
000000
,
000000
000000
000100
100000
000001
001000
000100
100000
,
000000
000010
000000
000000
001000
000000
001000
000000
,
000001
000100
000010
001000
,
000100
001000
000010
000000
001000
000001
001000
000000
,
000001
100000
001000
000100
,
000001
010000
000010
000000
100000
000100
001000
000000
,
000001
000000
000100
000000
000010
000100
000000
000000
,
010000
000000
000100
000000
100000
001000
000000
000000
,
000100
000001
001000
000100
,
100000
001000
000100
000001
,
100000
000000
000100
000000
010000
000010
000000
000000
,
100000
000000
000001
000000
001000
000100
000000
000000
,
100000
001000
000100
000001
,
010000
000000
000000
000000
,
010000
000010
000100
000000
000001
001000
000100
000000
,
100000
000000
000001
000001
000000
000000
100000
001000
,
100000
000000
000100
001000
000000
001000
000000
000010
,
000000
010000
000000
000100
000000
000000
000000
000000
,
100000
001000
000100
000000
000001
001000
000100
000000
,
100000
000000
000010
000010
000000
000000
000000
000000
,
000000
000000
001000
000100
100000
001000
000100
000001
,
000000
000010
000000
000000
000000
000000
001000
000100
,
001000
000100
001000
000100
,
000001
000000
000001
100000
000000
000000
000000
000000
,
000010
000000
000000
000000
000010
000000
010000
000001
,
000000
001000
000000
000000
000000
000000
000000
000000
,
000100
000100
100000
001000
,
010000
000000
010000
000001
000000
000000
000001
100000
,
001000
000000
000000
010000
010000
000000
000001
000001
,
000000
000100
000000
000000
000000
000000
000000
000000
,
000000
000000
000010
000010
,
010000
000100
100000
001000
,
100000
001000
100000
000000
000001
001000
000001
000000
,
100000
001000
000100
000001
,
010000
000100
010000
000000
000010
000100
000010
000000
,
100000
000001
001000
000000
100000
000001
001000
000000
,
000010
000000
001000
001000
000000
000000
000001
001000
,
000001
000000
100000
001000
000000
010000
000000
000001
,
000000
000100
000000
000010
000000
000000
000000
000000
,
100000
000100
010000
000000
000001
000100
000010
000000
,
100000
000000
001000
001000
000000
000000
000000
000000
,
000000
000000
100000
000100
010000
000010
000100
000001
,
000000
001000
000000
000000
000000
000000
000000
000000
;

//---------------dance-solo - ----------------
#NOTES:
     dance-solo:
     :
     Hard:
     7:
     :
000000
000000
000000
000000
,
000000
000000
000000
000000
,
000000
000000
000000
000000
,
000000
000000
000000
000000
,
000000
000000
000000
000000
,
000000
000000
000000
000000
,
000010
000000
000000
000000
100000
000000
000000
001000
000000
000000
010000
000000
000001
000000
100000
000000
,
000010
000000
000000
000000
100000
000000
000000
001000
000000
000000
010000
000000
000001
000000
100000
000000
,
000010
000000
000000
000000
100000
000000
000000
001000
000000
000000
010000
000000
000001
000000
100000
000000
,
000010
000000
000000
000000
000000
000000
000000
000000
000000
000000
000000
000000
000000
000000
000000
000000
000000
000000
000000
000000
000000
000000
000000
000000
000000
000000
000000
000000
000000
000000
000000
000000
100000
000000
000000
000000
000000
000001
000000
000000
000000
000000
000000
000100
000000
000000
000000
000000
001000
000000
000000
000000
000000
000000
000000
000000
000000
000000
000000
000000
000000
000000
000000
000000
,
000000
001000
000100
000001
010000
000001
100000
001000
,
000000
000100
000100
000100
000001
001000
000010
000000
,
000000
100000
001000
000100
000001
001000
000010
000010
,
000000
100000
100000
100000
001000
000100
000001
000000
,
100000
000000
000000
001000
000000
000000
010000
000000
000001
000000
000000
001000
000000
000000
000010
000000
,
100000
000000
000000
001000
000000
000000
010000
000000
000001
000000
000000
001000
000000
000000
000010
000000
,
000100
000000
000000
001000
000000
000000
010000
000000
000100
000000
000000
001000
000000
000000
000010
000000
,
000100
000000
000000
001000
000000
000000
010000
000000
000100
000000
000000
001000
000000
000000
000010
000000
,
100000
000000
000000
001000
000000
000000
010000
000000
000001
000000
000000
001000
000000
000000
000010
000000
,
100000
000000
000000
001000
000000
000000
010000
000000
000001
000000
000000
001000
000000
000000
000010
000000
,
000100
000000
000000
001000
000000
000000
010000
000000
000100
000000
000000
001000
000000
000000
000010
000000
,
100000
000000
000000
000000
,
000010
000000
000000
000000
100000
000000
000000
001000
000000
000000
010000
000000
000001
000000
100000
000000
,
000010
000000
000000
000000
100000
000000
000000
001000
000000
000000
010000
000000
000001
000000
100000
000000
,
000100
000000
000000
000000
001000
000000
000000
000010
000000
000000
100000
000000
001000
000000
000100
000000
,
000001
000000
000000
000000
001000
000000
000000
000010
000000
000000
100000
000000
001000
000000
010000
000000
,
000001
000000
000000
000000
001000
000000
000000
000100
000000
000000
010000
000000
001000
000000
000100
000000
,
000001
000000
000000
000000
001000
000000
000000
000100
000000
000000
010000
000000
001000
000000
000100
000000
,
000001
000000
000000
000000
001000
000000
000000
000010
000000
000000
100000
000000
000100
000000
010000
000000
,
001000
000000
000000
000000
000100
000000
000000
000001
000000
000000
001000
000000
000010
000000
000000
000000
,
100000
000000
000000
000000
001000
000000
000000
001000
000000
000000
000000
000000
000000
000000
000000
000000
,
000001
000000
000000
000000
001000
000000
000000
001000
000000
000000
000000
000000
000000
000000
000000
000000
,
100000
000000
000000
000000
000100
000000
000000
000100
000000
000000
000000
000000
000000
000000
000000
000000
,
000001
000000
000000
000000
000100
000000
000000
000100
000000
000000
000000
000000
000000
000000
000000
000000
,
010000
000000
000000
000000
010000
000000
000000
001000
000000
000000
000000
000000
000000
000000
000000
000000
,
000001
000000
000000
000000
000001
000000
000000
001000
000000
000000
000000
000000
000000
000000
000000
000000
,
000010
000000
000000
000000
000010
000000
000000
001000
000000
000000
000000
000000
000000
000000
000000
000000
,
000100
000000
000000
000000
010000
000000
000000
001000
000000
000000
000000
000000
000000
000000
000000
000000
,
100000
000000
000000
000000
000000
000000
000000
000000
000000
000000
000000
000000
000000
000000
000000
000000
000000
000000
000000
000000
000000
000000
000000
000000
000000
000000
000000
000000
000000
000000
000000
000000
000001
000000
000000
000000
000000
001000
000000
000000
000000
000000
000000
000010
000000
000000
000000
000000
100000
000000
000000
000000
000000
000000
000000
000000
000000
000000
000000
000000
000000
000000
000000
000000
,
000000
001000
000100
000001
100000
001000
010000
010000
,
000000
000001
001000
000100
001000
000010
100000
000000
,
000000
001000
000100
000001
001000
000010
100000
001000
,
000000
000100
000100
000100
000001
001000
000010
000000
,
100000
000000
000000
000000
001000
000000
000000
010000
000000
000000
001000
000000
000100
000000
000001
000000
,
100000
000000
000000
000000
000100
000000
000000
001000
000000
000000
000010
000000
100000
000000
000001
000000
,
100000
000000
000000
000000
001000
000000
000000
010000
000000
000000
001000
000000
000100
000000
000001
000000
,
100000
000000
000000
000000
000010
000000
000000
001000
000000
000000
000100
000000
100000
000000
001000
000000
,
010000
000000
000000
000000
000001
000000
000000
001000
000000
000000
000100
000000
100000
000000
001000
000000
,
010000
000000
000000
000000
000100
000000
000000
001000
000000
000000
000001
000000
100000
000000
001000
000000
,
010000
000000
000000
000000
000001
000000
000000
001000
000000
000000
000010
000000
100000
000000
001000
000000
,
000100
000000
000000
000000
000010
000000
000000
001000
000000
000000
000001
000000
000001
000000
000000
000000
;

//---------------dance-double - ----------------
#NOTES:
     dance-double:
     :
     Easy:
     3:
     0.182,0.245,0.000,0.054,0.000:
00000000
00000000
00000000
00000000
,
00000000
00000000
00000000
00000000
,
00000000
00000000
00000000
00000000
,
00000000
00000000
00000000
00000000
,
00000000
00000000
00000000
00000000
,
00000000
00000000
00000000
00000000
,
00000000
00000000
00000000
00000000
,
00000000
00000000
00000000
00000000
,
00000000
00000000
00000000
00000000
,
00000000
00000000
00000000
00000000
,
10000000
01000000
00100000
00010000
,
10000000
01000000
00100000
00010000
,
00001000
00000100
00000010
00000001
,
00001000
00000100
00000010
00000001
,
00001000
00000000
00000001
00000100
,
00000001
00000000
00001000
00000010
,
00001000
00000000
00000001
00000100
,
00001000
00000000
00001000
00000100
,
00000001
00000000
00000100
00001000
,
00010000
00000000
00001000
00010000
,
01000000
00000000
00010000
01000000
,
10000000
00000000
00000000
00000000
,
10000000
10000000
00010000
00010000
,
01000000
01000000
00100000
00000000
,
10000000
00000000
00010000
00000000
,
00001000
00000000
00000001
00000000
,
00001000
00001000
00000001
00000001
,
00000100
00000100
00000010
00000000
,
00001000
00000000
00000001
00000000
,
00001000
00000000
00010000
00000000
,
10000000
10000000
10000000
00000000
,
01000000
01000000
01000000
00000000
,
00020000
00000000
00000000
00030000
,
00002000
00000000
00000000
00003000
,
00000100
00000100
00000100
00000000
,
00000001
00000001
00000001
00000000
,
00002000
00000000
00000000
00003000
,
00000002
00000000
00000000
00000003
,
00000000
00000000
00000000
00000000
,
00000001
00000010
00000100
00001000
,
00000001
00000010
00000100
00001000
,
00010000
00100000
01000000
10000000
,
00010000
00100000
01000000
10000000
,
00010000
00010000
10000000
10000000
,
01000000
01000000
00100000
00000000
,
10000000
00000000
00010000
00000000
,
00001000
00000000
00000001
00000000
,
00001000
00001000
00000001
00000001
,
00000100
00000100
00000010
00000000
,
00000001
00000000
00001000
00000000
,
00020000
00000000
00030000
00000000
;

//---------------dance-double - ----------------
#NOTES:
     dance-double:
     :
     Medium:
     6:
     0.292,0.354,0.000,0.215,0.011:
00000000
00000000
00000000
00000000
,
00000000
00000000
00000000
00000000
,
00000000
00000000
00000000
00000000
,
00000000
00000000
00000000
00000000
,
00000000
00000000
00000000
00000000
,
00000000
00000000
00000000
00000000
,
00000000
00000000
00000000
00000000
,
00000000
00000000
00000000
00000000
,
00000000
00000000
00000000
00000000
,
00000000
00000000
00000000
00000000
,
00010000
00100000
00010000
01000000
,
00100000
01000000
00010000
00000000
01000000
00010000
01000000
00000000
,
00010000
00100000
00010000
01000000
,
00100000
01000000
00010000
00000000
01000000
00010000
01000000
00000000
,
00100000
00000000
10000000
00000000
00010000
00100000
00000000
00000000
,
01000000
00000000
10000000
00000000
00010000
00100000
00000000
00000000
,
01000000
10000000
00010000
00100000
,
00001000
00010000
00000100
00001000
,
00000010
00000000
00001000
00000000
00000001
00000010
00000000
00000000
,
00000100
00000000
00001000
00000000
00000001
00000010
00000000
00000000
,
00000001
00000000
00000100
00000000
00000010
00020000
00000000
00002000
,
00000000
00000000
00033000
00000000
,
00100000
00010000
00100000
00000000
01000000
10000000
01000000
00000000
,
00200000
00000000
00010000
00010000
00300000
00000000
10000000
01000000
,
10000000
00000000
00100000
01000000
00000000
01000000
00000000
00100000
,
00000000
00200000
00000000
20000000
00000000
00000000
30300000
00000000
,
00100000
10000000
00100000
00000000
01000000
00010000
01000000
00000000
,
00200000
00000000
10000000
20000000
00000000
00000000
30300000
00000000
,
00000000
00000000
01000000
00010000
00001000
00010000
01000000
20000000
,
00000000
00020000
00000000
00000000
30030000
00000000
10000000
00100000
,
01000000
00100000
00010000
00001000
,
00000010
00000000
00000010
00000001
00000000
00000000
00000000
00000000
,
00000020
00000000
00000000
00000000
00000230
00000000
00002300
00000001
,
00000000
00000001
00003000
00000000
00000000
00000000
00000000
00000000
,
00000010
00001000
00010000
00100000
,
10000000
00000000
00100000
10000000
00000000
00000000
00010000
10000000
,
01000000
00000000
00000000
10000000
00100000
00000000
10000000
20000000
,
00000000
00020000
00000000
00000000
00000000
00000000
30030000
00000000
,
00000000
00000000
00000000
00000000
00000000
00000000
00010000
10000000
00010000
10000000
00000000
00000000
,
00010000
00100000
00010000
01000000
,
00100000
01000000
00010000
00000000
01000000
00010000
02000000
00000000
,
03010000
00100000
00010000
01000000
,
00100000
01000000
00010000
00000000
01000000
00010000
01000000
00000000
,
10000000
00010000
01000000
00000000
10000000
00010000
01000000
00000000
,
00010000
00000000
01000000
01000000
00000000
00000000
00100000
01000000
,
00100000
00000000
00010000
00001000
00000000
00000100
00000000
00000200
,
00000000
00000001
00000000
00000002
00000000
00000000
00000303
00000000
,
00000001
00001000
00000100
00000000
00000001
00001000
00000100
00000000
,
00001000
00000000
00000100
00000200
00000000
00000000
00000000
00000000
,
00000300
00000000
00000001
00000100
00001000
00010000
00001000
00000200
,
00000000
00000002
00000000
00000000
00000303
00000000
00000000
00000000
;

//---------------dance-double - ----------------
#NOTES:
     dance-double:
     :
     Hard:
     9:
     0.489,0.575,0.108,0.205,0.339:
00000000
00000000
00000000
00000000
,
00000000
00000000
00000000
00000000
,
00000000
00000000
00000000
00000000
,
00000000
00000000
00000000
00000000
,
00000000
00000000
00000000
00000000
,
00000000
00000000
00000000
00000000
,
02000000
00000000
00000000
00000000
,
00000000
00000000
00000000
00000000
,
00000000
00000000
00000000
00000000
,
03000000
00000000
00000000
00000000
00000000
00000000
10000000
00010000
00010000
10000000
00000000
00000000
,
00000000
00100000
00010000
00100000
10000000
00010000
01000000
00010000
,
00000000
01000000
01000000
01000000
00100000
00010000
20000000
00000000
,
30000000
01000000
00100000
01000000
00010000
00010000
00100000
00100000
,
00000000
00100000
00100000
00100000
00001000
00010000
00001000
00000000
,
00010000
00000000
00000000
00001000
00010000
00000000
00001000
00000000
00010000
00000000
00000000
00000010
00001000
00000000
00000001
00000000
,
00001000
00000000
00000000
00000001
00000100
00000000
00000010
00000000
00000100
00000000
00000000
00000001
00000100
00000000
00001000
00000000
,
00000100
00000000
00000000
00001000
00010000
00000000
00001000
00000000
00010000
00000000
00000000
00001000
01000000
00000000
00100000
00000000
,
01000000
00000000
00000000
00010000
00100000
00000000
00001000
00000000
00010000
00000000
00000000
01000000
00100000
00000000
00001000
00000000
,
00010000
00000000
00000000
01000000
00100000
00000000
00010000
00000000
00100000
00000000
00000000
01000000
10000000
00000000
00010000
00000000
,
00100000
00000000
00000000
00010000
01000000
00000000
00100000
00000000
10000000
00000000
00000000
01000000
00100000
00000000
01000000
00000000
,
00010000
00001000
00000100
00000010
,
00001001
00000000
00000000
00000000
,
00000010
00000000
00000000
00000000
00000110
00000000
00000000
00000010
00000000
00000000
00000001
00000000
00000100
00000000
00000001
00000000
,
00000100
00000000
00000000
00000000
00000110
00000000
00000000
00000100
00000000
00000000
00001000
00000000
00010000
00000000
00001000
00000000
,
00010000
00000000
00000000
00000000
00011000
00000000
00000000
00010000
00000000
00000000
00100000
00000000
10000000
00000000
00100000
00000000
,
10000000
00000000
00000000
00000000
10010000
00000000
00000000
10000000
00000000
00000000
01000000
00000000
00010000
00000000
01000000
00000000
,
00010000
00000000
00000000
00000000
00011000
00000000
00000000
00010000
00000000
00000000
00001000
00000000
00000010
00000000
00001000
00000000
,
00000010
00000000
00000000
00000000
00000110
00000000
00000000
00000010
00000000
00000000
00000100
00000000
00001000
00000000
00000100
00000000
,
00001000
00000000
00000000
00000000
00001001
00000000
00000000
00001000
00000000
00000000
00000001
00000000
00000100
00000000
00000001
00000000
,
00000100
00000000
00000000
00000000
00000110
00000000
00000000
00000100
00000000
00000000
00000010
00000000
00010000
00000000
00000010
00000000
,
00010000
00002000
00003000
02000000
03000000
00200000
00300000
02000000
,
03000000
00002000
00003000
00020000
00030000
02000000
03000000
20000000
,
30000000
00000000
01000000
10000000
00000000
00000000
01000000
10000000
00000000
00000000
00010000
00100000
00000000
00000000
00010000
00100000
,
00000000
00000000
00000100
00001000
00000000
00000000
00000100
00001000
00000000
00000000
00000001
00000010
00000000
00000000
00000001
00000010
,
00000000
00000200
00000300
00020000
00030000
00000200
00000300
00000020
,
00000030
00000200
00000300
00020000
00030000
00002000
00003000
00000200
,
00000300
00000000
00000001
00000100
00000000
00000000
00000001
00000100
00000000
00000000
00000010
00001000
00000000
00000000
00000010
00001000
,
00000000
00000000
00010000
01000000
00000000
00000000
00010000
01000000
00000000
00000000
00100000
10000000
00000000
00000000
00100000
10000000
,
MMMMMMMM
00000000
00000000
00000000
00000000
00000000
00001000
00010000
00010000
00001000
00000000
00000000
,
00000000
00000010
00001000
00000010
00000001
00001000
00000100
00001000
,
00000000
00000100
00000100
00000100
00000010
00001000
00000002
00000000
,
00000003
00000100
00000010
00000100
00001000
00001000
00000010
00000010
,
00000000
00000010
00000010
00000010
00010000
00001000
00010000
00000000
,
00001000
00000000
00010000
00000000
00001000
00000000
00010000
00000010
00000000
00000010
00010000
00000000
00001000
00010000
00001000
00000000
,
00010000
00000000
00001000
00000000
00010000
00000000
00001000
00100000
00000000
00100000
00001000
00000000
00010000
00001000
00010000
00000000
,
00001000
00000000
01000000
00000000
00001000
00000000
00010000
00000100
00000000
00000100
00010000
00000000
00001000
00010000
00001000
00000000
,
00010000
00000000
00000100
00000000
00010000
00000000
00001000
01000000
00000000
01000000
00001000
00000000
00011000
00000000
00000000
00000000
,
00001000
00000000
00010000
00000000
00100000
00000000
10000000
00010000
00000000
00010000
10000000
00000000
01000000
10000000
01000000
00000000
,
00010000
00000000
00001000
00000000
00000010
00000000
00000001
00001000
00000000
00001000
00000001
00000000
00000100
00000001
00000100
00000000
,
00001000
00000000
00010000
00000000
00100000
00000000
01000000
00001000
00000000
00001000
01000000
00000000
00001000
00010000
00001000
00000000
,
00010000
00000000
00001000
00000000
00000010
00000000
00000100
00010000
00000000
00010000
00000100
00000000
00010000
00001000
00010000
00000000
;

//---------------dance-single - ----------------
#NOTES:
     dance-single:
     :
     Challenge:
     9:
     0.489,0.575,0.108,0.205,0.339: // measure 1
0000
0000
0000
0000
,  // measure 2
0000
0000
0000
0000
,  // measure 3
0000
0000
0000
0000
,  // measure 4
0000
0000
0000
0000
,  // measure 5
0000
0000
0000
0000
,  // measure 6
0000
0000
0000
0000
,  // measure 7
0200
0000
0000
0000
,  // measure 8
0000
0000
0000
0000
,  // measure 9
0000
0000
0000
0000
,  // measure 10
0300
0000
0000
0000
0000
0000
1000
0001
0001
1000
0000
0000
,  // measure 11
0000
0010
0001
0010
1000
0001
0100
0001
,  // measure 12
0000
0100
0100
0100
0010
0001
2000
0000
,  // measure 13
3000
0100
0010
0100
0001
0001
0010
0010
,  // measure 14
0000
0010
0010
0010
0100
1000
0100
0000
,  // measure 15
1000
0000
0000
0100
1000
0000
0100
0000
1000
0000
0000
0001
0100
0000
0001
0000
,  // measure 16
0100
0000
0000
0010
1000
0000
0010
0000
1000
0000
0000
0001
0010
0000
0001
0000
,  // measure 17
0010
0000
0000
0001
1000
0000
0001
0000
1000
0000
0000
0100
0010
0000
0100
0000
,  // measure 18
0010
0000
0000
0001
1000
0000
0001
0000
1000
0000
0000
0010
0100
0000
0010
0000
,  // measure 19
0100
0000
0000
0001
0100
0000
1000
0000
0100
0000
0000
0010
1000
0000
0010
0000
,  // measure 20
0001
0000
0000
0010
1000
0000
0001
0000
0100
0000
0000
0001
0010
0000
0100
0000
,  // measure 21
1000
1000
1000
1000
,  // measure 22
1001
0000
0000
0000
,  // measure 23
0100
0000
0000
0000
0110
0000
0000
0010
0000
0000
1000
0000
0100
0000
1000
0000
,  // measure 24
0100
0000
0000
0000
0110
0000
0000
0010
0000
0000
0001
0000
1000
0000
0001
0000
,  // measure 25
1000
0000
0000
0000
1001
0000
0000
1000
0000
0000
0010
0000
1000
0000
0100
0000
,  // measure 26
1000
0000
0000
0000
1001
0000
0000
0001
0000
0000
0010
0000
0001
0000
0100
0000
,  // measure 27
0001
0000
0000
0000
0110
0000
0000
0100
0000
0000
0001
0000
1000
0000
0001
0000
,  // measure 28
1000
0000
0000
0000
1100
0000
0000
0100
0000
0000
0010
0000
0001
0000
0010
0000
,  // measure 29
0100
0000
0000
0000
0011
0000
0000
0010
0000
0000
0100
0000
1000
0000
0100
0000
,  // measure 30
0010
0000
0000
0000
0101
0000
0000
0001
0000
0000
0100
0000
1000
0000
0100
0000
,  // measure 31
0001
2000
3000
0200
0300
2000
3000
0002
,  // measure 32
0003
0200
0300
0002
0003
2000
3000
0200
,  // measure 33
0300
0000
1000
0010
0000
0000
1000
0010
0000
0000
0100
0001
0000
0000
0100
0001
,  // measure 34
0000
0000
0010
0001
0000
0000
0010
0001
0000
0000
1000
0100
0000
0000
1000
0100
,  // measure 35
0000
0020
0030
0002
0003
2000
3000
0020
,  // measure 36
0030
2000
3000
0002
0003
0020
0030
0002
,  // measure 37
0003
0000
1000
0010
0000
0000
0010
0100
0000
0000
0100
0001
0000
0000
0001
1000
,  // measure 38
0000
0000
1000
0100
0000
0000
0100
0010
0000
0000
0010
0001
0000
0000
0001
1000
,  // measure 39
MMMM
0000
0000
0000
0000
0000
0001
1000
1000
0001
0000
0000
,  // measure 40
0000
0010
1000
0010
0001
1000
0100
1000
,  // measure 41
0000
0100
0100
0100
0010
1000
0002
0000
,  // measure 42
0003
0100
0010
0100
1000
1000
0010
0010
,  // measure 43
0000
0010
0010
0010
0100
0001
0100
0000
,  // measure 44
0010
0000
1000
0000
0100
0000
0010
0001
0000
0001
0010
0000
0100
0010
0100
0000
,  // measure 45
0010
0000
0001
0000
0100
0000
0010
1000
0000
1000
0010
0000
0100
0010
0100
0000
,  // measure 46
0001
0000
0100
0000
1000
0000
0100
0001
0000
0001
1000
0000
0100
1000
0100
0000
,  // measure 47
1000
0000
0100
0000
0001
0000
0100
1000
0000
1000
0001
0000
1001
0000
0000
0000
,  // measure 48
0001
0000
0100
0000
0010
0000
0100
0001
0000
1000
0100
0000
0010
0001
0010
0000
,  // measure 49
0100
0000
1000
0000
0001
0000
0100
0010
0000
1000
0001
0000
1000
0100
1000
0000
,  // measure 50
0010
0000
0100
0000
1000
0000
0100
0001
0000
1000
0010
0000
0100
0001
0100
0000
,  // measure 51
0010
0000
1000
0000
0100
0000
1000
0010
0000
0100
0001
0000
1000
0001
0100
0000
;
