#TITLE:Try 2 Luv. U;
#SUBTITLE:;
#ARTIST:S.F.M.P.;
#TITLETRANSLIT:;
#SUBTITLETRANSLIT:;
#ARTISTTRANSLIT:;
#CREDIT:;
#BANNER:Try 2 Luv. U.png;
#BACKGROUND:Try 2 Luv. U-bg.png;
#LYRICSPATH:;
#CDTITLE:Dance Dance Revolution PSX -Max2 USA-.png;
#MUSIC:Try 2 Luv. U.ogg;
#OFFSET:0.000;
#SAMPLESTART:43.580;
#SAMPLELENGTH:15.000;
#SELECTABLE:YES;
#DISPLAYBPM:115.000;
#BPMS:0.000=115.016,12.000=115.016;
#STOPS:;
#BGCHANGES:;

//---------------dance-single - ----------------
#NOTES:
     dance-single:
     :
     Beginner:
     1:
     0.122,0.135,0.049,0.000,0.000:
0000
0000
0000
0000
,
0000
0000
0000
0000
,
0000
0000
0000
0000
,
0000
0000
0000
0000
,
0010
0000
0000
0000
,
0100
0000
0000
0000
,
0001
0000
0100
0000
,
0001
0000
1000
1000
,
1000
0000
0100
0000
,
0001
0000
0100
0000
,
0010
0000
1000
0000
,
0001
0001
0001
0000
,
0100
0000
0100
0000
,
1000
0000
1000
0000
,
0001
0000
1000
0000
,
0010
0000
0110
0000
,
0010
0000
0010
0000
,
0001
0000
0001
0000
,
1000
1000
1000
0000
,
1001
0000
0000
0000
,
0001
0000
1000
0000
,
1000
0000
0100
0000
,
1000
0000
0100
0000
,
0001
0000
0001
0000
,
1000
0000
0001
0000
,
0001
0000
0010
0000
,
0001
0000
1000
0000
,
1001
0000
0000
0000
,
0001
0000
0000
0000
,
1000
0000
0100
0000
,
0001
0000
0100
0000
,
0010
0010
0010
0000
,
1000
0000
0000
0000
,
0001
0000
0100
0000
,
1000
0000
0100
0000
,
0010
0010
0010
0000
,
0010
0000
0010
0000
,
1001
0000
0000
0000
;

//---------------dance-single - ----------------
#NOTES:
     dance-single:
     :
     Easy:
     3:
     0.166,0.204,0.049,0.220,0.000:
0000
0000
0000
0000
,
0000
0000
0000
0000
,
0000
0000
0000
0000
,
0000
0000
0000
0000
,
0000
0000
0000
0000
,
0020
0030
0000
0000
,
0200
0300
0000
0000
,
0001
0000
0100
0000
,
0001
0000
1000
0100
,
2000
3000
0100
0000
,
0002
0003
0100
0000
,
0010
0000
1000
0000
,
0001
1000
0100
0000
,
0200
0300
0100
0000
,
2000
3000
1000
0000
,
0001
0001
1000
1000
,
0010
0000
0110
0000
,
0020
0030
0010
0000
,
0002
0003
0001
0000
,
1000
0001
0001
1000
,
1001
0000
0000
0000
,
0002
0003
1000
0000
,
1000
0001
0100
0000
,
1000
0000
0100
0000
,
0001
0100
0001
0000
,
2000
3000
0001
0000
,
0001
1000
0010
0000
,
0001
0000
1000
0000
,
1001
0000
0000
0000
,
0002
0000
0003
0000
,
1000
0200
0300
0000
,
0001
0200
0300
0000
,
0010
1000
1000
0100
,
2000
0000
3000
0000
,
0001
2000
3100
0000
,
1000
0020
0130
0000
,
0010
0010
0100
0000
,
0220
0330
0000
0000
;

//---------------dance-single - ----------------
#NOTES:
     dance-single:
     :
     Medium:
     4:
     0.272,0.318,0.171,0.207,0.000:
0000
0000
0000
0000
,
0000
0000
0000
0000
,
0000
0000
0000
0000
,
0000
0000
0000
0000
,
0000
0000
0000
0000
,
0020
0001
0000
0031
,
0200
1000
0000
1300
,
0001
0100
1000
0100
,
0001
0001
1010
1001
,
0002
1000
0100
1003
,
2000
0001
0100
3001
,
0020
0000
0000
0030
,
0002
0000
1003
0200
0000
0000
0300
0000
,
0010
0000
0010
0000
0001
0100
0010
0000
,
0010
1000
0100
0000
0001
0000
1000
0000
,
0001
1000
0001
0000
1000
0000
0100
0000
,
0001
0000
0010
0001
1000
0000
1001
0000
,
0100
0000
0100
0000
1000
0010
0100
0000
,
0100
0001
0010
0000
1000
0000
0001
0000
,
0000
1001
0010
1001
,
0200
0000
0300
0000
1000
0001
0100
0000
,
1001
0100
1000
0001
,
2000
3010
0002
0103
,
1000
0000
0100
0000
0001
0100
0010
0000
,
1010
0000
1100
0000
0010
0100
0010
0000
,
1000
0001
0011
0101
,
2000
3100
0002
0013
,
1000
0000
0100
0000
0010
0001
0100
0000
,
0002
1003
0010
0110
,
0200
0000
0000
0000
,
0000
0000
0010
0300
1000
0001
1000
0000
,
0010
0000
0100
1001
,
0010
0001
0100
1000
,
0020
0000
0000
0000
,
0000
0000
0000
0030
1000
0000
0100
0000
,
0001
1000
0001
0000
1000
0100
0010
0000
,
0001
0100
0010
0000
0100
0000
1001
0000
,
0220
0330
0000
0000
;

//---------------dance-single - ----------------
#NOTES:
     dance-single:
     :
     Hard:
     5:
     0.338,0.341,0.159,0.378,0.012:
0000
0000
0000
0000
,
0000
0000
0000
0000
,
0000
0000
0000
0000
,
0000
0000
0000
0000
,
0000
0000
0000
0000
,
2000
0000
3100
0000
0001
0010
0100
0000
,
0002
0013
0200
1300
,
1000
0100
1000
0000
0001
0100
0001
0000
,
1000
0100
0001
1000
,
0002
0000
1003
0010
0100
0001
1000
0000
,
0002
0013
2000
3100
,
1000
0010
0100
0000
0010
0001
0100
0000
,
1000
0000
0001
0200
0000
0000
0300
0000
,
0001
0101
1000
1100
,
0020
0000
0031
1000
0002
0000
1003
0000
,
0010
0001
1000
0000
1000
0100
0010
0100
,
0010
0001
0010
0001
1000
0000
0110
0000
,
0001
1000
0101
1100
,
0010
1000
0100
0000
1010
0000
1001
0000
,
0020
0000
1030
0001
1000
0010
0100
0000
,
0020
0000
1030
0101
,
0001
0000
1000
0000
0001
1000
0100
0000
,
0002
0000
0103
0010
2000
0000
3100
0000
,
0001
0100
0001
0000
1000
0100
1000
0000
,
0001
0000
1000
0000
0001
0100
0020
0000
,
0230
0300
0101
1010
,
2000
0000
3100
0010
0002
0000
0103
0000
,
1000
0001
1000
0000
0010
0100
0001
0000
,
0001
0000
1000
0000
0001
0010
0100
1000
,
0020
0000
0230
0000
,
0302
0000
0000
0000
0003
0000
0010
0100
0000
0000
0000
0000
0110
0000
0000
0000
,
1000
0002
0023
0230
,
2300
0000
3001
0100
0010
1000
0001
0100
,
0020
0000
0000
0000
,
0000
0000
0000
0000
0030
0000
0010
0100
0000
0000
0000
0000
1001
0000
0000
0000
,
0000
2000
3020
0230
,
0302
0000
1003
0010
1000
0001
0100
0000
,
2002
3003
0000
0000
;

//---------------dance-double - ----------------
#NOTES:
     dance-double:
     :
     Easy:
     2:
     0.172,0.203,0.037,0.098,0.000:
00000000
00000000
00000000
00000000
,
00000000
00000000
00000000
00000000
,
00000000
00000000
00000000
00000000
,
00000000
00000000
00000000
00000000
,
00000000
00000000
00000000
00000000
,
00001000
00000000
00000000
00000000
,
00010000
00000000
00000000
00000000
,
00100000
00000000
00100000
00000000
,
01000000
01000000
01000000
00000000
,
00010000
00000000
10000000
00000000
,
01000000
00010000
00001000
00000000
,
00010000
00001000
00000010
00000010
,
00000002
00000003
00002000
00003000
,
00000001
00000000
00000001
00000000
,
00000100
00000100
00001000
00000000
,
00010000
00000000
00010000
00000000
,
00100000
00100000
01000000
01000000
,
00000000
00010000
00000000
10000000
,
00000000
00100000
01000000
00010000
,
00000000
10000000
00000000
01000000
,
01000000
00010000
00010000
00001000
,
00011000
00000000
00001000
00000000
,
00000010
00000100
00000100
00000000
,
00001000
00001000
00000001
00000001
,
00000100
00000100
00000100
00000000
,
00000000
00001000
00000000
00001000
,
00010000
00010000
00010000
00000000
,
00100000
00100000
01000000
01000000
,
00010000
00010000
10000000
00000000
,
20020000
00000000
00000000
30030000
,
01000000
00000000
00010000
00001000
,
00010000
00000000
00010000
00001000
,
00000100
00000010
00001000
00000001
,
00002000
00003000
00000002
00000003
,
00000200
00000300
00002000
00003000
,
00010000
00010000
00100000
01000000
,
00010000
10000000
01000000
00100000
,
10010000
00000000
00000000
00000000
;

//---------------dance-double - ----------------
#NOTES:
     dance-double:
     :
     Medium:
     4:
     0.260,0.316,0.134,0.134,0.000:
00000000
00000000
00000000
00000000
,
00000000
00000000
00000000
00000000
,
00000000
00000000
00000000
00000000
,
00000000
00000000
00000000
00000000
,
00000000
00000000
00000000
00000000
,
00000001
00000100
00001000
00010000
,
00010000
01000000
10000000
00010000
,
00100000
00100000
01000000
01000000
,
10000000
00000000
00100000
00000000
00010000
00001000
00000010
00000000
,
00000001
00000100
00000010
00001000
,
00000001
00000001
00001000
00001000
,
00000010
00000100
00000001
00000010
,
00002000
00000000
00020000
00033000
,
00011000
00000000
00010000
00000000
00010000
01000000
10000000
00000000
,
00100000
00100000
00100000
01000000
,
10010000
00100000
10010000
01000000
,
00010000
00000000
00001000
00000000
00000100
00000001
00001000
00000000
,
00000000
00001000
00001000
00000001
,
00000000
00000001
00000001
00001000
,
00000000
00000100
00000010
00000001
,
00000100
00000000
00001000
00000000
00010000
01000000
10000000
00000000
,
10010000
00100000
01000000
01000000
,
00010000
00000000
10000000
00100000
00010000
00000000
00001000
00000000
,
00000110
00000001
00000110
00001000
,
00000010
00000000
00000010
00000100
00000001
00000000
00001100
00000000
,
00000000
00000001
00000010
00000010
,
00001000
00010000
00100000
00100000
,
10000000
00000000
10000000
00000000
00010000
00100000
01000000
00000000
,
20010000
30200000
01000000
01300000
,
20020000
30000000
00200000
00330000
,
00002000
00003000
00000020
00000030
,
00000002
00000003
00002000
00003000
,
00000010
00000000
00000010
00000000
00000100
00000010
00000100
00000000
,
00001001
00000001
00000010
00001000
,
00010000
01000000
10000000
00010000
,
01000000
00100000
10000000
01000000
,
00010000
00001000
00000100
00000000
00000001
00000010
00000100
00000000
,
00001001
00000000
00000000
00000000
;

//---------------dance-double - ----------------
#NOTES:
     dance-double:
     :
     Hard:
     6:
     0.326,0.316,0.061,0.159,0.000:
00000000
00000000
00000000
00000000
,
00000000
00000000
00000000
00000000
,
00000000
00000000
00000000
00000000
,
00000000
00000000
00000000
00000000
,
00000000
00000000
00000000
00000000
,
00020000
01030000
20000000
31000000
,
00010000
00100000
01000000
10000000
,
00100000
01000000
00010000
10000000
,
01000000
00000000
00010000
00000000
00001000
00000100
00000001
00000000
,
00002000
00003100
00000002
00000103
,
00000010
00001000
00000001
00000010
,
00000100
00001000
00000001
00000000
00000100
00000010
00001000
00000000
,
00000100
00000010
00000001
00000100
00001000
00010000
01000000
00000000
,
11000000
00000000
00010000
00000000
00100000
01000000
10000000
00000000
,
00100000
01000000
00010000
00000000
00100000
00000000
01000000
00000000
,
10000000
00100000
00010000
00000000
00100000
00010000
00001000
00000000
,
00000010
00000100
00001000
00000000
00000010
00000100
00000001
00000000
,
00001000
00000100
00000010
00000001
,
00001000
00000000
00000010
00000000
00000100
00000001
00001000
00000000
,
00000010
00000100
00000001
00000010
,
00001000
00010000
00000010
00000100
00001000
00010000
01000000
00000000
,
11000000
00010000
00100000
00100000
,
11000000
00000000
00100000
01000000
00100000
00000000
10000000
00000000
,
00010000
10000000
01000000
00000000
00010000
00001000
00000100
00000000
,
00000001
00001000
00000001
00000010
00000100
00001000
00000100
00000000
,
00001000
00000001
00000100
00000000
00000010
00001000
00000100
00000000
,
00000010
00000001
00000100
00001000
00010000
00001000
01000000
00000000
,
00100000
10000000
01000000
00000000
01000000
00100000
00010000
00000000
,
10000000
00100000
00010000
00100000
10000000
01000000
01000000
00000000
,
20020000
00030000
02000000
30000000
,
00100000
10000000
10000000
23000000
,
30200000
00320000
00032000
00003020
,
00000031
00001000
00000100
00000010
00000002
00000000
00001003
00000000
,
00000110
00000000
00000001
00000000
00000100
00001000
00010000
00000000
,
00100000
00000000
10000000
00000000
00010000
00100000
01000000
00000000
,
10000000
00100000
00010000
00000000
00001000
00010000
00000100
00000000
,
00000010
00000001
00000100
00000010
00001000
00000001
00000100
00001000
,
00010000
00000000
00000000
00000000
;

//---------------dance-single - ----------------
#NOTES:
     dance-single:
     :
     Challenge:
     8:
     0.415,0.564,0.012,0.415,0.226: // measure 1
0000
0000
0000
0000
,  // measure 2
0000
0000
0000
0000
,  // measure 3
0000
0000
0000
0000
,  // measure 4
0000
0000
0000
0000
,  // measure 5
0000
0000
0000
0000
0010
1000
0001
0100
,  // measure 6
0020
0000
1030
0002
0000
0000
0013
0002
,  // measure 7
0000
0000
0000
2003
,  // measure 8
3200
2300
3002
0023
,  // measure 9
0032
0000
0000
0000
0103
0000
0020
0000
0000
0000
0000
0000
0000
0000
1030
0001
,  // measure 10
0020
0000
0130
2000
0000
0000
3001
2000
,  // measure 11
0000
0000
0000
3002
,  // measure 12
0203
0320
0230
0302
,  // measure 13
2003
0000
3100
2000
0000
0000
3000
0000
,  // measure 14
0001
0010
0001
0010
0100
1000
0100
1000
0001
0100
0001
0100
0010
1000
0010
1000
,  // measure 15
0001
0100
0010
0100
0010
0000
0100
0000
0100
0000
0000
0000
0001
0100
0001
2000
,  // measure 16
0000
3020
0000
1030
0010
0000
0100
0001
1000
0000
0100
1000
0100
0000
0010
0001
,  // measure 17
0010
0000
0001
1000
0001
0000
0100
0000
1000
0000
0000
0000
0100
0010
1000
0000
,  // measure 18
0000
0001
0010
0100
1000
0000
0001
0100
0001
0000
1000
0010
0000
0000
0100
0000
,  // measure 19
0000
0010
0100
0001
1000
0000
0100
1000
0010
0000
0100
0001
0000
1000
0001
0000
,  // measure 20
0000
1000
0100
0010
0001
0000
1000
0100
1000
0100
1000
0001
0010
0000
0001
0000
,  // measure 21
0100
0000
0000
0100
0000
0000
0000
0000
0100
0000
0001
0000
0010
0000
0100
0000
,  // measure 22
0000
1000
0010
0100
0001
1000
0000
0001
,  // measure 23
0010
0000
0010
0100
1000
0000
0000
0000
,  // measure 24
0000
0001
0100
0010
0100
0001
0100
0010
,  // measure 25
0100
0001
0010
0100
0000
0000
0000
0000
,  // measure 26
0000
1000
0010
0100
0001
0000
1000
0010
,  // measure 27
0100
0000
0100
0001
1000
0000
0000
0000
,  // measure 28
0000
1000
0010
0100
0010
1000
0010
0100
,  // measure 29
0010
1000
0100
0010
0000
0100
0010
0001
,  // measure 30
2000
0100
0100
0100
,  // measure 31
0100
0000
0000
0000
3100
0000
1000
0001
0000
0000
0000
0000
0100
0000
0100
0000
,  // measure 32
0100
0020
0230
0302
,  // measure 33
2003
0000
3100
2000
0000
3100
0010
0001
,  // measure 34
2000
0010
0010
0010
,  // measure 35
0010
0000
0000
0000
3010
0000
1000
0001
0000
0000
0000
0000
0100
0000
0100
0000
,  // measure 36
0100
0020
0230
0302
,  // measure 37
2003
0000
3100
2000
0010
0000
3010
0000
,  // measure 38
1001
0000
0000
0000
;

//---------------dance-double - ----------------
#NOTES:
     dance-double:
     :
     Beginner:
     1:
     0.122,0.135,0.049,0.000,0.000:
00000000
00000000
00000000
00000000
,
00000000
00000000
00000000
00000000
,
00000000
00000000
00000000
00000000
,
00000000
00000000
00000000
00000000
,
00100000
00000000
00000000
00000000
,
01000000
00000000
00000000
00000000
,
00010000
00000000
01000000
00000000
,
00010000
00000000
10000000
10000000
,
10000000
00000000
01000000
00000000
,
00010000
00000000
01000000
00000000
,
00100000
00000000
10000000
00000000
,
00010000
00010000
00010000
00000000
,
01000000
00000000
01000000
00000000
,
10000000
00000000
10000000
00000000
,
00010000
00000000
10000000
00000000
,
00100000
00000000
01100000
00000000
,
00100000
00000000
00100000
00000000
,
00010000
00000000
00010000
00000000
,
10000000
10000000
10000000
00000000
,
10010000
00000000
00000000
00000000
,
00010000
00000000
10000000
00000000
,
10000000
00000000
01000000
00000000
,
10000000
00000000
01000000
00000000
,
00010000
00000000
00010000
00000000
,
10000000
00000000
00010000
00000000
,
00010000
00000000
00100000
00000000
,
00010000
00000000
10000000
00000000
,
10010000
00000000
00000000
00000000
,
00010000
00000000
00000000
00000000
,
10000000
00000000
01000000
00000000
,
00010000
00000000
01000000
00000000
,
00100000
00100000
00100000
00000000
,
10000000
00000000
00000000
00000000
,
00010000
00000000
01000000
00000000
,
10000000
00000000
01000000
00000000
,
00100000
00100000
00100000
00000000
,
00100000
00000000
00100000
00000000
,
10010000
00000000
00000000
00000000
;

//---------------dance-double - ----------------
#NOTES:
     dance-double:
     :
     Challenge:
     8:
     0.378,0.384,0.024,0.146,0.122:
00000000
00000000
00000000
00000000
,
00000000
00000000
00000000
00000000
,
00000000
00000000
00000000
00000000
,
00000000
00000000
00000000
00000000
,
00000000
00000000
00000000
00000000
,
00000000
00000000
10000000
00100000
00000000
00000000
01000000
00010000
00000000
00000000
00100000
00000000
00000000
00000000
01000000
00000000
,
00000000
00000000
10000000
00000000
00000000
00000000
01000000
00100000
00000000
00000000
01000000
00000000
00000000
00000000
00010000
00000000
,
00000000
00000000
00001000
00000000
00000000
00000000
00000100
00000010
00000000
00000000
00000100
00000000
00000000
00000000
00000001
00000000
,
00000000
00000000
00001000
00000000
00000000
00000000
00000100
00000010
00000000
00000000
00000001
00000000
00000000
00000000
00000100
00000000
,
00000000
00000000
00000010
00000000
00000000
00000000
00001000
00000100
00000000
00000000
00100000
00000000
00000000
00000000
00010000
00000000
,
00000000
00000000
01000000
00000000
00000000
00000000
00100000
10000000
00000000
00000000
01000000
00000000
00000000
00000000
00010000
00000000
,
00000000
00000000
00001000
00000000
00000000
00000000
00010000
00100000
00000000
00000000
10000000
00000000
00000000
00000000
00010000
00000000
,
00000000
00000000
00100000
00000000
00000000
00000000
00001000
00010000
00000000
00000000
01000000
00000000
00000000
00000000
10000000
00000000
,
01000000
01000000
00010000
00010000
00001000
00001000
00010000
00010000
,
01000000
00000000
01000000
00000000
00010000
00000000
00001000
00000000
00000100
00000000
00000000
00000001
00000000
00000000
00000010
00000000
,
00000000
00000001
00000000
00000000
00000010
00000000
00000010
00000000
00001000
00000000
00001000
00000000
00000010
00000000
00000010
00000000
,
00000001
00000001
00000100
00001000
00010000
00000000
00000100
00000100
,
00000000
00000000
00010000
00000000
00010000
00000000
01000000
00000000
01000000
00000000
00000000
10000000
00000000
00000000
00100000
00000000
,
00000000
01000000
00010000
00000000
00100000
00000000
00100000
00000000
01100000
00000000
00000000
10000000
00000000
00000000
10000000
00000000
,
00000000
10000000
00100000
00000000
00100000
00000000
01000000
00000000
01000000
00000000
00010000
00000000
00010000
00000000
00100000
00000000
,
00100000
01000000
01000000
10000000
10000000
00100000
00100000
01000000
,
00010000
00100000
00010000
01000000
10000000
02000000
00000000
03010000
,
00200000
00000000
01300000
10000000
00020000
00000000
20030000
00000000
,
30000000
00100000
01000000
00010000
00100000
01000000
10000000
00100000
,
01000000
00010000
00100000
00001000
00000000
00010000
00000100
00001000
,
00000010
00001000
00000100
00000001
00000200
00000000
00002300
00000000
,
00003020
00000000
00000130
00000001
00002000
00000000
00003002
00000000
,
00000003
00000010
00000100
00001000
00000010
00000100
00000001
00000010
,
00000100
00001000
00000010
00010000
00000000
00001000
00100000
00001000
,
00020000
00001000
01000000
10000000
,
00100000
00000000
00000000
00000000
00031000
00000000
00010000
00001000
00000000
00000000
00000000
00000000
00010000
00000000
00010000
00000000
,
00002000
00000100
00000001
00000010
,
00013000
00000000
00001000
00020000
00000000
00031000
00100000
00001000
,
00000100
00000000
00000001
00000000
00000100
00000000
00000001
00000010
00000000
00000000
00000100
00000000
00000001
00000000
00000100
00000000
,
00001000
00000000
00000100
00000000
00010000
00000000
00001000
00010000
00000000
00000000
01000000
00000000
00010000
00000000
00001000
00000000
,
00010000
00000000
01000000
00000000
10000000
00000000
01000000
00100000
00000000
00000000
01000000
00000000
10000000
00000000
00100000
00000000
,
10000000
00000000
00100000
00000000
00010000
00000000
00000010
00001000
00000000
00000000
00000001
00000000
00000010
00000000
00001000
00000000
,
00011000
00000000
00000000
00000000
;
