#TITLE:TRIP MACHINE;
#SUBTITLE:(Luv Mix);
#ARTIST:2MB;
#TITLETRANSLIT:;
#SUBTITLETRANSLIT:;
#ARTISTTRANSLIT:;
#CREDIT:;
#BANNER:TRIP MACHINE~luv mix~.png;
#BACKGROUND:TRIP MACHINE~luv mix~-bg.png;
#LYRICSPATH:;
#CDTITLE:DanceDanceRevolutionSolo2000.png;
#MUSIC:TRIP MACHINE~luv mix~.ogg;
#OFFSET:0.000;
#SAMPLESTART:56.949;
#SAMPLELENGTH:15.000;
#SELECTABLE:YES;
#DISPLAYBPM:160.000;
#BPMS:0.000=160.178,16.000=160.142;
#STOPS:;
#BGCHANGES:;

//---------------dance-single - ----------------
#NOTES:
     dance-single:
     :
     Beginner:
     1:
     0.132,0.264,0.000,0.000,0.000:
0000
0000
0000
0000
,
0000
0000
0000
0000
,
0000
0000
0000
0000
,
0000
0000
0000
0000
,
0000
0000
0000
0000
,
0000
0000
0000
0000
,
0001
0000
0000
0000
,
0001
0000
0000
0000
,
1000
0000
0000
0000
,
1000
0000
0000
0000
,
0010
0000
0000
0000
,
0010
0000
0000
0000
,
0100
0000
0000
0000
,
0100
0000
0000
0000
,
0001
0000
0001
0000
,
1000
0000
1000
0000
,
0001
0000
0001
0000
,
1000
0000
1000
0000
,
0010
0000
0010
0000
,
0100
0000
0100
0000
,
0010
0000
0010
0000
,
0100
0000
0100
0000
,
0001
0001
0001
0000
,
1000
1000
1000
0000
,
0001
0001
0001
0000
,
1000
1000
1000
0000
,
0010
0000
0100
0000
,
0010
0000
0100
0000
,
0001
0000
1000
0000
,
0001
0000
1000
0000
,
0001
0001
0000
0000
,
1000
1000
0000
0000
,
0001
0001
0000
0000
,
1000
1000
0000
0000
,
0010
0000
0000
0000
,
0010
0000
0000
0000
,
0010
0000
0000
0000
,
0010
0000
0000
0000
,
0000
0000
0000
0000
,
0000
0000
0000
0000
,
1000
1000
1000
1000
,
1000
1000
1000
1000
,
1000
0000
0000
0000
,
0001
0000
0000
0000
,
0100
0000
0100
0000
,
0100
0000
0000
0000
,
0001
0001
0000
0000
,
1000
1000
0000
0000
,
0010
0010
0000
0000
,
0100
0100
0000
0000
,
0001
0000
0000
0000
,
0001
0000
0000
0000
,
1000
0000
0000
0000
,
1000
0000
0000
0000
,
0100
0000
0100
0000
,
0100
0000
0100
0000
,
0001
0000
0001
0000
,
0001
0000
0001
0000
,
1000
0000
1000
0000
,
1000
0000
1000
0000
,
0010
0000
0010
0000
,
0010
0000
0010
0000
;

//---------------dance-single - ----------------
#NOTES:
     dance-single:
     :
     Easy:
     6:
     0.301,0.354,0.114,0.000,0.000:
0000
0000
0000
0000
,
0000
0000
0000
0000
,
0000
0000
0000
0000
,
0000
0000
0000
0000
,
0000
0000
0000
0000
,
0000
0000
0000
0000
,
0010
0000
0000
0000
0000
0000
0000
0001
,
0100
0000
0000
0100
,
0010
0000
0000
0000
0000
0000
0000
0100
,
0010
0000
0001
1000
,
0100
0000
0000
0000
0000
0000
0000
1000
,
0010
0000
0010
0001
,
0100
0000
0000
0000
,
0010
0001
0000
1000
0001
0000
0100
0000
,
0010
0010
0000
1000
0000
0010
0000
0001
,
0000
0010
0000
1000
0000
0100
0000
1000
,
0000
0010
0000
0100
0000
0001
0000
0100
,
0000
0001
1000
1000
0000
0000
0000
1000
,
0100
0100
0000
0001
0000
0010
0000
1000
,
0000
0010
0000
0001
0000
0100
0000
0001
,
0000
0010
0000
0100
0000
1000
0000
0100
,
0000
1000
0001
0001
0000
1000
0000
0001
,
0100
0000
0000
0000
0000
0000
0100
1000
,
0001
0000
0000
0000
0000
0001
0100
0000
,
0000
0001
0001
0000
1000
0010
0100
0000
,
1001
0000
0000
0000
1000
0001
1000
0001
,
1000
0001
0000
1000
0000
0010
0000
0001
,
0000
0010
0000
1000
0000
0100
0000
1000
,
0000
0010
0000
0100
0000
0001
0000
0100
,
0000
0001
1000
1000
0000
0000
0000
1000
,
0100
0100
0000
0001
0000
0010
0000
1000
,
0000
0010
0000
0001
0000
0100
0000
0001
,
0000
0010
0000
0100
0000
1000
0000
0100
,
0000
1000
0001
0001
0000
1000
0000
0001
,
0100
0000
0000
0000
,
1001
0000
0010
0010
0000
1000
0100
0000
,
0001
0000
0000
0000
0000
0010
0000
0010
,
1000
0001
0000
0100
0010
0000
0001
0000
,
0000
0000
0000
0000
,
0000
0000
0000
0000
,
1001
0010
0010
0010
,
0010
0010
0010
0100
,
1001
0100
0100
0100
,
1000
0000
0001
0000
,
0010
0000
0100
0000
,
1001
0000
0000
0000
,
0100
0000
0100
0000
0010
0000
0001
0100
,
0000
1000
0010
0000
0011
0000
1100
0000
,
1000
0000
0010
0000
0010
0000
1000
0100
,
0000
0001
0010
0000
0011
0000
1100
0000
,
0001
0000
0010
0000
0100
0000
1000
0010
,
0000
0001
0100
0000
1010
0000
0101
0000
,
0001
0000
0100
0000
1000
0000
0010
0010
,
0000
0100
0100
0000
0010
0000
1001
0000
,
0010
0000
1000
0000
0000
0010
0000
0001
,
0000
0100
0000
0000
0010
1000
0010
0100
,
0000
0010
0001
0000
0000
0010
0000
1000
,
0000
0100
0000
0000
0010
0001
0010
0100
,
0010
0000
1000
0000
0000
0010
0000
0001
,
0000
0100
0000
0000
0010
1000
0010
0100
,
0000
0010
0001
0000
0000
0010
0000
1000
,
0000
0100
0000
0000
0010
0001
0010
0100
;

//---------------dance-single - ----------------
#NOTES:
     dance-single:
     :
     Medium:
     7:
     0.379,0.413,0.257,0.000,0.005:
0000
0000
0000
0000
,
0000
0000
0000
0000
,
0000
0000
0000
0000
,
0000
0000
0000
0000
,
0000
0000
0000
0000
,
0000
0000
0000
0000
,
0010
0000
0001
0010
1000
0000
0010
0000
,
0100
0000
0100
0000
0010
1000
0100
0000
,
0110
0000
0000
0000
1000
0000
0001
1000
,
0100
0000
0000
0000
1000
0001
1000
0001
,
1000
0000
0010
0000
0001
0000
0100
1000
,
0010
0000
0000
0000
0010
1000
0100
0000
,
1001
0000
0010
1000
,
0100
0001
0000
1000
0010
0000
1100
0000
,
0000
0011
0000
0100
0000
0001
0000
1010
,
0000
0010
0000
1000
0000
0010
0000
1001
,
0000
0010
0000
0100
0000
0001
0000
0100
,
0000
0001
1000
1000
0000
0010
0000
0001
,
0100
1000
0000
0001
0000
0010
0000
0011
,
0000
1100
0000
0100
0000
0010
0000
1001
,
0000
0010
0000
0100
0000
1000
0000
0110
,
0000
1000
0001
0001
0000
0010
0000
1000
,
0100
0000
0001
0010
0000
0000
0100
1000
,
0001
0000
0000
0000
0001
0100
0001
1000
,
0000
0100
0100
0000
0010
0001
0100
0000
,
1001
0000
0000
0000
1000
0100
1000
0001
,
0000
0011
0000
0100
0000
0001
0000
1010
,
0000
0010
0000
1000
0000
0010
0000
1001
,
0000
0010
0000
0100
0000
0001
0000
0101
,
0000
0001
1000
1000
0000
0000
0000
0010
,
1000
0100
0000
0001
0000
0010
1000
0010
,
0000
1000
0001
0100
0000
0010
0000
1001
,
0000
0010
0100
0001
0000
1000
0001
0010
,
0000
1000
0001
0001
0000
0010
0000
1000
,
0100
0000
0000
0000
,
1001
0000
0010
0010
0000
1000
0100
0000
,
0001
0000
0000
0000
0000
0010
0000
0010
,
1000
0001
0000
0010
0100
0000
0101
0000
,
0000
0000
0000
0000
,
0110
0000
0000
0000
0000
1000
1000
0001
,
0100
0000
0000
0000
0000
0100
0000
0001
,
0100
0000
0000
0000
,
1001
0000
0000
0000
0000
1000
0000
0001
,
0100
0000
0000
0000
0000
0000
0000
0000
0000
0000
0000
0000
0000
0000
0001
1000
,
0001
0000
0000
0000
0000
0010
0000
0010
,
0000
0001
1000
0100
0000
0000
0000
0000
,
1001
0000
0010
1000
0100
0000
0001
0010
,
0000
1000
0100
0000
1100
0000
0011
0000
,
1000
0000
1000
0001
0010
0000
0010
0001
,
0000
0100
1000
0000
0011
0000
0101
0000
,
1000
0000
0010
1000
0100
0000
0001
0010
,
0000
1000
0100
0000
1100
0000
0011
0000
,
0100
0000
0001
0010
0100
0000
0010
0001
,
0000
1000
0100
0000
0010
0000
1000
0000
,
0100
0000
0001
0000
0010
0001
0100
1000
,
0000
0010
0000
0100
0010
1000
0010
1000
,
0000
0010
0001
0000
0100
0010
0100
1000
,
0000
0001
0000
0010
0010
1000
0100
0001
,
0100
0000
0001
0000
0010
0001
0100
1000
,
0000
0010
0000
0100
0010
1000
0010
1000
,
0000
0010
0001
0000
0100
0010
0100
1000
,
0000
0001
0000
0010
0010
1000
0100
0001
;

//---------------dance-single - ----------------
#NOTES:
     dance-single:
     :
     Hard:
     8:
     0.418,0.501,0.133,0.000,0.005:
0000
0000
0000
0000
,
0000
0000
0000
0000
,
0000
0000
0000
0000
,
0000
0000
0000
0000
,
0000
0000
0000
0000
,
0000
0000
0000
0000
,
0010
0000
0001
0010
1000
0000
0010
0100
,
0000
0100
0100
0000
0010
1000
0100
0000
,
0100
0000
0000
0000
0001
0000
0010
0100
,
0000
0010
0010
0000
0010
0001
0100
0000
,
0110
0000
0000
0000
1000
0000
0010
0100
,
0000
0100
0100
0000
0010
1000
0100
0000
,
0110
0000
1000
0010
0001
0000
0010
0100
,
0010
0010
0000
0001
0100
0100
0100
0000
,
0000
0010
1000
0001
0000
0001
0100
1000
,
0000
0010
0001
1000
0000
1000
0100
0001
,
0000
0010
1000
0100
0000
0001
0100
0001
,
0000
0001
1000
1000
0000
0001
0000
1000
,
0000
0010
0001
1000
0000
1000
0100
0001
,
0000
0010
1000
0001
0000
0001
0100
1000
,
0000
0010
0001
0100
0000
1000
0100
1000
,
0000
1000
0001
0001
0000
1000
0000
0001
,
0010
0000
0000
0010
,
0100
0000
0000
0000
0001
1000
0001
1000
,
0000
0000
0100
0100
,
0010
0000
0000
0000
1000
0001
1000
0001
,
0010
1000
0001
0000
0001
0100
1000
0000
,
0010
0001
1000
0000
1000
0100
0001
0000
,
0010
1000
0100
0000
0001
0100
0001
0000
,
0000
0001
1000
1000
0000
0001
0000
1000
,
0000
0010
0001
1000
0000
1000
0100
0001
,
0000
0010
1000
0001
0000
0001
0100
1000
,
0000
0010
0001
0100
0000
1000
0100
1000
,
0000
1000
0001
0001
0000
1000
0000
0001
,
0100
0000
0000
0000
,
1001
0000
0010
0010
0000
1000
0100
0000
,
0101
0000
0000
0000
0000
0010
0000
0010
,
1000
0001
0000
0010
0100
0000
0101
0000
,
0000
0000
0000
0000
,
0110
0000
0000
0000
0000
1000
0010
0001
,
1001
0000
0000
0000
0000
0100
0000
0001
,
0110
0000
0000
0000
,
1001
0000
0000
0000
0000
1000
0000
0001
,
0101
0000
0000
0000
0000
0000
0000
0000
0000
0000
0000
0000
0000
0000
0001
1000
,
0001
0000
0000
0000
0000
0010
0000
0010
,
0000
0001
1000
0100
0000
0000
0000
0000
,
1001
0000
0010
1000
0100
0000
0001
0010
,
0000
1000
0100
0000
1000
0100
0010
0001
,
1001
0000
0010
0001
0100
0000
1000
0010
,
0000
0001
0100
0000
0001
0100
0010
1000
,
1001
0000
0010
1000
0100
0000
0001
0010
,
0000
1000
0100
0000
1000
0100
0010
0001
,
1001
0000
0010
0001
0100
0000
1000
0010
,
0000
0001
0100
0000
0001
0100
0010
1000
,
0010
0001
0010
0001
1000
0010
1000
0010
,
0001
0010
0001
1000
0010
0001
0100
1000
,
0001
0010
0010
0001
1000
0010
1000
0010
,
0001
0010
0001
0010
1000
0100
0001
0010
,
0010
1000
0010
1000
0001
0010
0001
0010
,
1000
0010
1000
0001
0010
1000
0100
0001
,
1000
0010
0010
1000
0001
0010
0001
0010
,
1000
0010
1000
0010
0001
0100
1000
0010
;

//---------------dance-double - ----------------
#NOTES:
     dance-double:
     :
     Easy:
     7:
     0.301,0.354,0.114,0.000,0.000: // measure 1
00000000
00000000
00000000
00000000
,  // measure 2
00000000
00000000
00000000
00000000
,  // measure 3
00000000
00000000
00000000
00000000
,  // measure 4
00000000
00000000
00000000
00000000
,  // measure 5
00000000
00000000
00000000
00000000
,  // measure 6
00000000
00000000
00000000
00000000
,  // measure 7
00100000
00000000
00000000
00000000
00000000
00000000
00000000
00001000
,  // measure 8
00000100
00000000
00000000
00001000
,  // measure 9
00100000
00000000
00000000
00000000
00000000
00000000
00000000
01000000
,  // measure 10
00100000
00000000
00010000
00001000
,  // measure 11
00000100
00000000
00000000
00000000
00000000
00000000
00000000
00000001
,  // measure 12
00000010
00000000
00001000
00010000
,  // measure 13
01000000
00000000
00000000
00000000
,  // measure 14
00100000
00010000
00000000
00001000
00000001
00000000
00000100
00000000
,  // measure 15
00000010
00000010
00000000
00000001
00000000
00000010
00000000
00001000
,  // measure 16
00000000
00100000
00000000
10000000
00000000
01000000
00000000
10000000
,  // measure 17
00000000
00100000
00000000
01000000
00000000
00001000
00000000
00000100
,  // measure 18
00000000
00000001
00001000
00001000
00000000
00000000
00000000
00000001
,  // measure 19
00000100
00000100
00000000
00001000
00000000
00000010
00000000
00001000
,  // measure 20
00000000
00000010
00000000
00000001
00000000
00000100
00000000
00010000
,  // measure 21
00000000
00100000
00000000
01000000
00000000
00010000
00000000
01000000
,  // measure 22
00000000
10000000
00010000
00010000
00000000
00010000
00000000
00001000
,  // measure 23
00000001
00000000
00000000
00000000
00000000
00000000
00000100
00000001
,  // measure 24
00001000
00000000
00000000
00000000
00000000
00001000
00010000
00000000
,  // measure 25
00000000
00010000
00010000
00000000
00001000
00000010
00000100
00000000
,  // measure 26
00001001
00000000
00000000
00000000
00001000
00010000
00001000
00010000
,  // measure 27
00001000
00010000
00000000
10000000
00000000
00100000
00000000
00010000
,  // measure 28
00000000
00100000
00000000
10000000
00000000
01000000
00000000
10000000
,  // measure 29
00000000
00100000
00000000
01000000
00000000
00001000
00000000
00000100
,  // measure 30
00000000
00000001
00001000
00001000
00000000
00000000
00000000
00001000
,  // measure 31
00000100
00000100
00000000
00010000
00000000
00100000
00000000
10000000
,  // measure 32
00000000
00100000
00000000
00010000
00000000
01000000
00000000
00010000
,  // measure 33
00000000
00001000
00000000
00000100
00000000
00000001
00000000
00000100
,  // measure 34
00000000
00001000
00000001
00000001
00000000
00001000
00000000
00010000
,  // measure 35
01000000
00000000
00000000
00000000
,  // measure 36
10010000
00000000
00100000
00100000
00000000
10000000
01000000
00000000
,  // measure 37
00010000
00000000
00000000
00000000
00000000
00100000
00000000
00001000
,  // measure 38
00000100
00001000
00000000
00000100
00000010
00000000
00000001
00000000
,  // measure 39
00000000
00000000
00000000
00000000
,  // measure 40
00000000
00000000
00000000
00000000
,  // measure 41
00001001
00000010
00000010
00000010
,  // measure 42
00000010
00000010
00000010
00000100
,  // measure 43
00011000
01000000
01000000
01000000
,  // measure 44
10000000
00000000
00010000
00000000
,  // measure 45
00000010
00000000
00000100
00000000
,  // measure 46
00001001
00000000
00000000
00000000
,  // measure 47
00000100
00000000
00000100
00000000
00000010
00000000
00000001
00000100
,  // measure 48
00000000
00010000
00100000
00000000
01010000
00000000
11000000
00000000
,  // measure 49
10000000
00000000
00100000
00000000
00100000
00000000
10000000
01000000
,  // measure 50
00000000
00010000
00001000
00000000
00000101
00000000
00001100
00000000
,  // measure 51
00000001
00000000
00000010
00000000
00001000
00000000
00010000
01000000
,  // measure 52
00000000
10000000
00100000
00000000
00110000
00000000
00011000
00000000
,  // measure 53
00001000
00000000
00000100
00000000
00000001
00000000
00000010
00000010
,  // measure 54
00000000
00000100
00000100
00000000
00000010
00000000
00001001
00000000
,  // measure 55
00000010
00000000
00000001
00000000
00000000
00000100
00000000
00001000
,  // measure 56
00000000
00010000
00000000
00000000
00100000
10000000
00100000
01000000
,  // measure 57
00000000
00100000
00010000
00000000
00000000
00001000
00000000
00000100
,  // measure 58
00000000
00000001
00000000
00000000
00000010
00000001
00000010
00000100
,  // measure 59
00000010
00000000
00001000
00000000
00000000
00000010
00000000
00001000
,  // measure 60
00000000
01000000
00000000
00000000
00100000
10000000
00100000
01000000
,  // measure 61
00000000
00100000
00010000
00000000
00000000
00100000
00000000
00001000
,  // measure 62
00000000
00000100
00000000
00000000
00000010
00000001
00000010
00000100
;

//---------------dance-double - ----------------
#NOTES:
     dance-double:
     :
     Medium:
     8:
     0.404,0.472,0.438,0.000,0.005: // measure 1
00000000
00000000
00000000
00000000
,  // measure 2
00000000
00000000
00000000
00000000
,  // measure 3
00000000
00000000
00000000
00000000
,  // measure 4
00000000
00000000
00000000
00000000
,  // measure 5
00000000
00000000
00000000
00000000
,  // measure 6
00000000
00000000
00000000
00000000
,  // measure 7
00100000
00000000
00001000
00000010
00000001
00000000
00000010
00000000
,  // measure 8
00000100
00000000
00000100
00000000
00000010
00001000
00010000
00000000
,  // measure 9
01100000
00000000
00000000
00000000
10000000
00000000
00010000
10000000
,  // measure 10
01000000
00000000
00000000
00000000
00001000
00010000
00001000
00010000
,  // measure 11
00001000
00000000
00000010
00000000
00000001
00000000
00000100
00001000
,  // measure 12
00000010
00000000
00000000
00000000
00000010
00001000
00010000
00000000
,  // measure 13
10010000
00000000
00100000
10000000
,  // measure 14
01000000
00010000
00000000
00001000
00000010
00000000
00000101
00000000
,  // measure 15
00000000
00000011
00000000
00001010
00000000
00011000
00000000
01010000
,  // measure 16
00000000
11000000
00000000
10100000
00000000
00110000
00000000
00011000
,  // measure 17
00000000
00001100
00000000
00000101
00000000
00000011
00000000
00001010
,  // measure 18
00000000
00000001
00001000
00001000
00000000
00000010
00000000
00000001
,  // measure 19
00000100
00001000
00000000
00000001
00000000
00000010
00000000
00001010
,  // measure 20
00000000
01010000
00000000
01000000
00000000
00100000
00000000
10010000
,  // measure 21
00000000
00100000
00000000
01000000
00000000
10000000
00000000
01100000
,  // measure 22
00000000
10000000
00010000
00010000
00000000
00100000
00000000
00011000
,  // measure 23
00000100
00000000
00000001
00000010
00000000
00000000
00000100
00001000
,  // measure 24
00010000
00000000
00000000
00000000
00010000
00000100
00010000
00001000
,  // measure 25
00000000
00000100
00000100
00000000
00000010
00000001
00000100
00000000
,  // measure 26
00001001
00000000
00000000
00000000
00010000
01000000
00010000
10000000
,  // measure 27
00000000
10100000
00000000
00110000
00000000
00011000
00000000
00001100
,  // measure 28
00000000
00000101
00000000
00000011
00000000
00001010
00000000
00011000
,  // measure 29
00000000
01010000
00000000
11000000
00000000
10100000
00000000
00110000
,  // measure 30
00000000
10000000
00010000
00010000
00000000
00000000
00000000
00100000
,  // measure 31
00010000
01000000
00000000
00010000
00000000
00100000
10000000
00100000
,  // measure 32
00000000
10000000
00010000
01000000
00000000
00100000
00000000
00011000
,  // measure 33
00000000
00000010
00000100
00000001
00000000
00001000
00000001
00000010
,  // measure 34
00000000
00001000
00000001
00000001
00000000
00000010
00000000
00001000
,  // measure 35
01000000
00000000
00000000
00000000
,  // measure 36
10010000
00000000
00100000
00100000
00000000
10000000
01000000
00000000
,  // measure 37
00010000
00000000
00000000
00000000
00000000
00000010
00000000
00000010
,  // measure 38
00001000
00000001
00000000
00000010
00000100
00000000
00000101
00000000
,  // measure 39
00000000
00000000
00000000
00000000
,  // measure 40
01100000
00000000
00000000
00000000
00000000
10000000
10000000
00010000
,  // measure 41
01000000
00000000
00000000
00000000
00000000
00000100
00000000
00001000
,  // measure 42
00000100
00000000
00000000
00000000
,  // measure 43
10010000
00000000
00000000
00000000
00000000
10000000
00000000
00010000
,  // measure 44
01000000
00000000
00000000
00000000
00000000
00000000
00000000
00000000
00000000
00000000
00000000
00000000
00000000
00000000
00000001
00001000
,  // measure 45
00000001
00000000
00000000
00000000
00000000
00000010
00000000
00000010
,  // measure 46
00000000
00000001
00001000
00000100
00000000
00000000
00000000
00000000
,  // measure 47
00001001
00000000
00000010
00001000
00000100
00000000
00001000
00100000
,  // measure 48
00000000
10000000
01000000
00000000
11000000
00000000
00110000
00000000
,  // measure 49
10000000
00000000
10000000
00010000
01000000
00000000
00010000
00001000
,  // measure 50
00000000
00000100
00001000
00000000
00000011
00000000
00000101
00000000
,  // measure 51
00001000
00000000
00000010
00001000
00000100
00000000
00000001
00000010
,  // measure 52
00000000
00001000
00010000
00000000
01010000
00000000
00110000
00000000
,  // measure 53
01000000
00000000
00001000
00000010
00000100
00000000
00000010
00000001
,  // measure 54
00000000
00000001
00000100
00000000
00000010
00000000
00001000
00000000
,  // measure 55
00000100
00000000
00011000
00000000
00100000
00010000
01000000
10000000
,  // measure 56
00000000
00100000
00000000
01000000
00100000
10000000
00100000
10000000
,  // measure 57
00000000
00100000
00010000
00000000
00001000
00010000
00001000
00010000
,  // measure 58
00000000
00000100
00000000
00000010
00000010
00000001
00000001
00000100
,  // measure 59
00000100
00000000
00001000
00000000
00100000
10000000
01000000
00010000
,  // measure 60
00000000
00100000
00000000
01000000
00100000
00010000
00100000
00010000
,  // measure 61
00000000
00100000
00010000
00000000
00001000
00010000
00001000
00000100
,  // measure 62
00000000
00001000
00000000
00000010
00000010
00001000
00001000
00000100
;

//---------------dance-double - ----------------
#NOTES:
     dance-double:
     :
     Hard:
     9:
     0.459,0.500,0.324,0.000,0.000: // measure 1
00000000
00000000
00000000
00000000
,  // measure 2
00000000
00000000
00000000
00000000
,  // measure 3
00000000
00000000
00000000
00000000
,  // measure 4
00000000
00000000
00000000
00000000
,  // measure 5
00000000
00000000
00000000
00000000
,  // measure 6
00000000
00000000
00000000
00000000
,  // measure 7
00100000
00000000
10000000
00000000
01000000
00000000
00010000
01000000
,  // measure 8
00000000
00001000
00010000
00000000
00001000
00000100
00000001
00000000
,  // measure 9
00000010
00000000
00000001
00000000
00000100
00000000
00001000
00000100
,  // measure 10
00000000
00010000
00001000
00000000
00010000
01000000
10000000
00000000
,  // measure 11
10100000
00000000
01010000
00000000
00100000
00000000
10000000
01000000
,  // measure 12
00000000
00010000
00001000
00000000
00001000
00000100
00000001
00000000
,  // measure 13
00000011
00000000
00001100
00000000
00000010
00000000
00000001
00000100
,  // measure 14
00000000
00001000
00010000
00000000
00010000
01000000
10000000
00000000
,  // measure 15
00100000
10000000
01000000
11000000
00000000
01000000
00010000
00001000
,  // measure 16
00010000
00001000
00000100
00000001
00000000
00000001
00001000
00000100
,  // measure 17
00000010
00000001
00000100
00000101
00000000
00000100
00001000
00010000
,  // measure 18
00001000
00010000
01000000
10000000
00000000
10000000
00000000
10000000
,  // measure 19
00010000
00100000
01000000
10000000
00000000
11000000
00000000
10010000
,  // measure 20
00100000
00001000
00010000
00000100
00000000
00001100
00000000
00000101
,  // measure 21
00000010
00000001
00000100
00000001
00000000
00000101
00000000
00001001
,  // measure 22
00000010
00010000
00001000
01000000
00000000
10010000
00000000
01000000
,  // measure 23
01000000
00000000
10000000
00000000
00010000
00000000
01000000
01000000
,  // measure 24
00000000
00001000
00010000
00000000
00000100
00000001
00000001
00000000
,  // measure 25
00000100
00000000
00000001
00000000
00001000
00000000
00000100
00000100
,  // measure 26
00000000
00010000
00001000
00000000
01000000
10000000
10000000
00000000
,  // measure 27
00010000
01000000
00100000
10000000
00000000
10000000
01000000
00010000
,  // measure 28
00001000
00000100
00000001
00001000
00000000
00000010
00000001
00000100
,  // measure 29
00001000
00010000
01000000
10000000
00000000
00100000
00010000
01000000
,  // measure 30
10000000
01000000
00010000
00100000
00000000
10010000
00000000
01010000
,  // measure 31
00010000
01000000
00100000
10000000
00000000
10000000
01000000
00010000
,  // measure 32
00001000
00000100
00000001
00001000
00000000
00000010
00000001
00000100
,  // measure 33
00001000
00010000
01000000
10000000
00000000
00100000
00010000
01000000
,  // measure 34
10000000
01000000
00010000
00100000
00000000
10010000
00000000
01000000
,  // measure 35
01000000
00000000
00000000
00000000
,  // measure 36
00001001
00000000
00000100
00001000
00000000
00001000
00000001
00000100
,  // measure 37
00000101
00000000
00000000
00000000
,  // measure 38
00000010
00010000
01000000
10000000
,  // measure 39
00000000
10000000
00000000
10000000
00000000
00010000
00000000
00010000
,  // measure 40
00000000
00001000
00000000
00001000
00000000
00000001
00000000
00000001
,  // measure 41
00000101
00001100
00010100
00011000
,  // measure 42
00010100
00011000
01010000
11000000
,  // measure 43
00100000
00000000
00100000
00000000
00010000
10000000
01000000
00000000
,  // measure 44
00100000
00010000
01000000
00001000
00010000
00000010
00001000
00000001
,  // measure 45
00000010
00000000
00000010
00000000
00001000
00000001
00000100
00000000
,  // measure 46
00000010
00001000
00000100
00010000
00001000
00100000
00010000
10000000
,  // measure 47
10010000
00000000
10010000
00000000
01000000
00000000
00100000
00010000
,  // measure 48
00000000
10000000
01000000
00000000
00010000
00001000
00000100
00000000
,  // measure 49
00001001
00000000
00001001
00000000
00000100
00000000
00000010
00001000
,  // measure 50
00000000
00000001
00000100
00000000
00001000
00010000
01000000
00000000
,  // measure 51
10010000
00000000
00100000
10000000
01000000
00000000
00100000
00010000
,  // measure 52
00000000
00001000
00010000
00000000
00000010
00000100
00000001
00000000
,  // measure 53
00001001
00000000
00000010
00000001
00000100
00000000
00000010
00001000
,  // measure 54
00000000
00010000
00001000
00000000
00100000
01000000
10000000
00000000
,  // measure 55
00010000
00000000
01000000
00000000
00100000
10000000
01000000
00010000
,  // measure 56
01000000
10000000
00100000
00010000
00001000
00000010
00000001
00000000
,  // measure 57
00000000
00001000
00000001
00000000
00000000
00000001
00000000
00000100
,  // measure 58
00000000
00001000
00000000
00010000
00000000
00010000
10000000
00000000
,  // measure 59
01100000
00000000
10010000
00000000
00100000
00010000
10000000
01000000
,  // measure 60
00100000
00001000
00010000
00000100
00000010
00000001
00000100
00000000
,  // measure 61
00000000
00001000
00000100
00000000
00000000
00000001
00000000
00000100
,  // measure 62
00000000
00001000
00000000
00010000
00000000
01000000
10000000
00000000
;

//---------------dance-couple - ----------------
#NOTES:
     dance-couple:
     :
     Challenge:
     8:
     0.586,1.000,1.000,0.000,0.005:
00000000
00000000
00000000
00000000
,
00000000
00000000
00000000
00000000
,
00000000
00000000
00000000
00000000
,
00000000
00000000
00000000
00000000
,
00000000
00000000
00000000
00000000
,
00000000
00000000
00000000
00000000
,
00100000
00000000
00010000
00100000
10000000
00000000
00100000
00000000
,
00000100
00000000
00000100
00000000
00000010
00001000
00000100
00000000
,
01100110
00000000
00000000
00000000
10001000
00000000
00010001
10001000
,
01000100
00000000
00000000
00000000
10001000
00010001
10001000
00010001
,
10001000
00000000
00100010
00000000
00010001
00000000
01000000
10000000
,
00100000
00000000
00000000
00000000
00000010
00001000
00000100
00000000
,
10011001
00000000
00100010
10001000
,
00000100
00000001
00000000
10000000
00100000
00000000
11001100
00000000
,
00100001
00100000
00000000
10000000
00000000
00100000
00000000
00010000
,
00000000
00100000
00000000
10000000
00000000
01000000
00000000
10000000
,
00000001
00100000
00000000
01000000
00000000
00010000
00000000
01000000
,
00000000
00010000
10000000
10000000
00000000
00000000
00000000
10000000
,
00000010
00000010
00000000
00000001
00000000
00000010
00000000
00001000
,
10000000
00000010
00000000
00000001
00000000
00000100
00000000
00000001
,
00000000
00000010
00000000
00000100
00000000
00001000
00000000
00000100
,
10000000
00001000
00000001
00000001
00000000
00001000
00000000
00000000
,
00100010
00000000
00000000
00100010
,
01000100
00000000
00000000
00000000
00010001
10001000
00010001
10001000
,
00000000
00000000
01000100
01000100
,
00100010
00000000
00000000
00000000
10001000
00010001
10001000
00010001
,
00000000
00110000
00000000
01000000
00000000
00010000
00000000
10100000
,
00000000
00100000
00000000
10000000
00000000
00100000
00000000
10010000
,
00000100
00100000
00000000
01000000
00000000
00010000
00000000
01010000
,
00000000
00010000
10000000
10000000
00000000
00000000
00000000
00100000
,
00000000
00000011
00000000
00000100
00000000
00000001
00000000
00001010
,
00000000
00000010
00000000
00001000
00000000
00000010
00000000
00001001
,
00100000
00000010
00000000
00000100
00000000
00000001
00000000
00000101
,
00000000
00000001
00001000
00001000
00000000
00000010
00000000
00000000
,
01000100
00000000
00000000
00000000
,
10011001
00000000
00100010
00100010
00000000
10001000
01000100
00000000
,
01010101
00000000
00000000
00000000
00000000
00100010
00000000
00100010
,
10001000
00010001
00000000
00100010
01000100
00000000
01010101
00000000
,
00000000
00000000
00000000
00000000
,
01100110
00000000
00000000
00000000
00000000
10001000
00100010
00010001
,
10011001
00000000
00000000
00000000
00000000
01000100
00000000
00010001
,
01100110
00000000
00000000
00000000
,
10011001
00000000
00000000
00000000
00000000
10001000
00000000
00010001
,
01010101
00000000
00000000
00000000
00000000
00000000
00000000
00000000
00000000
00000000
00000000
00000000
00000000
00000000
00010001
10001000
,
00010001
00000000
00000000
00000000
00000000
00100010
00000000
00100010
,
00000000
00010001
10001000
01000100
00000000
00000000
00000000
00000000
,
10010000
00000000
00100000
10000000
01000000
00000000
00010000
00100000
,
00000000
10000000
01000000
00000000
11000000
00000000
00110000
00000000
,
00001001
00000000
00000010
00001000
00000100
00000000
00000001
00000010
,
00000000
00001000
00000100
00000000
00001100
00000000
00000011
00000000
,
01010000
00000000
00100000
10000000
01000000
00000000
00010000
00100000
,
00000000
10000000
01000000
00000000
11000000
00000000
00110000
00000000
,
00000101
00000000
00000010
00001000
00000100
00000000
00000001
00000010
,
00000000
00001000
00000100
00000000
00001100
00000000
00000011
00000000
,
00100010
00010001
00100010
00010001
10001000
00100010
10001000
00100010
,
00010001
00100010
00010001
10001000
00100010
00010001
01000100
10001000
,
00010001
00100010
00100010
00010001
10001000
00100010
10001000
00100010
,
00010001
00100010
00010001
00100010
10001000
01000100
00010001
00100010
,
00100010
10001000
00100010
10001000
00010001
00100010
00010001
00100010
,
10001000
00100010
10001000
00010001
00100010
10001000
01000100
00010001
,
10001000
00100010
00100010
10001000
00010001
00100010
00010001
00100010
,
10001000
00100010
10001000
00100010
00010001
01000100
10001000
00100010
;

//---------------dance-solo - ----------------
#NOTES:
     dance-solo:
     :
     Easy:
     6:
     0.301,0.354,0.114,0.000,0.000:
000000
000000
000000
000000
,
000000
000000
000000
000000
,
000000
000000
000000
000000
,
000000
000000
000000
000000
,
000000
000000
000000
000000
,
000000
000000
000000
000000
,
000100
000000
000000
000000
000000
000000
000000
000001
,
001000
000000
000000
010000
,
000100
000000
000000
000000
000000
000000
000000
001000
,
000100
000000
000010
010000
,
100000
000000
000000
000000
000000
000000
000000
100000
,
000100
000000
000100
000010
,
100000
000000
000000
000000
,
000100
000001
000000
010000
000001
000000
001000
000000
,
000100
000100
000000
100000
000000
000100
000000
000010
,
000000
000100
000000
100000
000000
001000
000000
010000
,
000000
000100
000000
001000
000000
000001
000000
001000
,
000000
000001
010000
010000
000000
000000
000000
100000
,
001000
001000
000000
000001
000000
000100
000000
100000
,
000000
000100
000000
000001
000000
001000
000000
000010
,
000000
000100
000000
001000
000000
100000
000000
001000
,
000000
100000
000010
000010
000000
010000
000000
000001
,
001000
000000
000000
000000
000000
000000
001000
010000
,
000001
000000
000000
000000
000000
000001
001000
000000
,
000000
000001
000001
000000
100000
000100
001000
000000
,
100001
000000
000000
000000
100000
000001
100000
000001
,
010000
000010
000000
100000
000000
000100
000000
000001
,
000000
000100
000000
100000
000000
001000
000000
010000
,
000000
000100
000000
001000
000000
000001
000000
001000
,
000000
000010
100000
100000
000000
000000
000000
100000
,
001000
001000
000000
000001
000000
000100
000000
100000
,
000000
000100
000000
000010
000000
001000
000000
000001
,
000000
000100
000000
001000
000000
100000
000000
001000
,
000000
100000
000010
000010
000000
100000
000000
000001
,
001000
000000
000000
000000
,
100001
000000
010000
010000
000000
100000
001000
000000
,
000001
000000
000000
000000
000000
000010
000000
000010
,
100000
000001
000000
001000
000100
000000
000010
000000
,
000000
000000
000000
000000
,
000000
000000
000000
000000
,
100001
000010
000010
000010
,
010000
010000
010000
001000
,
100001
001000
001000
001000
,
100000
000000
000001
000000
,
000100
000000
001000
000000
,
010010
000000
000000
000000
,
001000
000000
001000
000000
000100
000000
000001
001000
,
000000
100000
000100
000000
100001
000000
001100
000000
,
100000
000000
000100
000000
000100
000000
100000
001000
,
000000
000001
000100
000000
100001
000000
001100
000000
,
000001
000000
000100
000000
001000
000000
100000
000100
,
000000
000001
001000
000000
001100
000000
100001
000000
,
000001
000000
001000
000000
100000
000000
000100
000100
,
000000
001000
001000
000000
000100
000000
100001
000000
,
000100
000000
010000
000000
000000
000100
000000
000010
,
000000
001000
000000
000000
000100
100000
000100
001000
,
000000
000100
000010
000000
000000
000100
000000
100000
,
000000
001000
000000
000000
000100
000001
000100
001000
,
000100
000000
010000
000000
000000
000100
000000
000001
,
000000
001000
000000
000000
000100
100000
000100
001000
,
000000
000100
000010
000000
000000
000100
000000
100000
,
000000
001000
000000
000000
000100
000001
000100
001000
;

//---------------dance-solo - ----------------
#NOTES:
     dance-solo:
     :
     Medium:
     7:
     0.379,0.413,0.257,0.000,0.005:
000000
000000
000000
000000
,
000000
000000
000000
000000
,
000000
000000
000000
000000
,
000000
000000
000000
000000
,
000000
000000
000000
000000
,
000000
000000
000000
000000
,
000100
000000
000001
000100
100000
000000
000100
000000
,
001000
000000
001000
000000
000100
100000
001000
000000
,
001100
000000
000000
000000
010000
000000
000001
100000
,
001000
000000
000000
000000
100000
000001
100000
000001
,
010000
000000
000010
000000
000001
000000
001000
100000
,
000100
000000
000000
000000
000100
100000
001000
000000
,
100001
000000
000100
100000
,
001000
000001
000000
010000
000100
000000
000110
000000
,
000000
000101
000000
100000
000000
000001
000000
010100
,
000000
000100
000000
100000
000000
000100
000000
100001
,
000000
000100
000000
001000
000000
000001
000000
001000
,
000000
000001
010000
100000
000000
000100
000000
000001
,
001000
100000
000000
000010
000000
000100
000000
000101
,
000000
101000
000000
001000
000000
000100
000000
010010
,
000000
000100
000000
001000
000000
010000
000000
001100
,
000000
100000
000001
000001
000000
000100
000000
010000
,
100000
000000
100000
000100
000000
000000
001000
100000
,
000001
000000
000000
000000
000001
001000
000001
100000
,
000000
001000
001000
000000
000100
000001
001000
000000
,
100001
000000
000000
000000
100000
001000
100000
000001
,
000000
000110
000000
000100
000000
000001
000000
010100
,
000000
000100
000000
100000
000000
000100
000000
100001
,
000000
000100
000000
001000
000000
000010
000000
000110
,
000000
000010
010000
010000
000000
000000
000000
000100
,
100000
001000
000000
000001
000000
000100
100000
000100
,
000000
100000
000001
001000
000000
000100
000000
100001
,
000000
000100
001000
000001
000000
100000
000001
000100
,
000000
100000
000010
000010
000000
000100
000000
010000
,
100000
000000
000000
000000
,
100001
000000
010000
010000
000000
100000
000100
000000
,
000010
000000
000000
000000
000000
000010
000000
000010
,
100000
000001
000000
000100
001000
000000
001001
000000
,
000000
000000
000000
000000
,
010010
000000
000000
000000
000000
100000
100000
000001
,
001000
000000
000000
000000
000000
001000
000000
000001
,
001000
000000
000000
000000
,
010010
000000
000000
000000
000000
100000
000000
000001
,
001000
000000
000000
000000
000000
000000
000000
000000
000000
000000
000000
000000
000000
000000
000001
100000
,
000001
000000
000000
000000
000000
000100
000000
000010
,
000000
000001
100000
001000
000000
000000
000000
000000
,
100001
000000
010000
100000
001000
000000
000100
000010
,
000000
000001
001000
000000
101000
000000
000101
000000
,
100000
000000
100000
000001
000010
000000
000010
000001
,
000000
001000
100000
000000
000101
000000
001001
000000
,
100000
000000
000100
100000
001000
000000
000001
000100
,
000000
100000
010000
000000
100010
000000
010001
000000
,
000001
000000
000001
000100
001000
000000
000100
000001
,
000000
100000
001000
000000
000100
000000
100000
000000
,
001000
000000
000001
000000
000010
000001
001000
100000
,
000000
000100
000000
001000
000100
100000
000100
100000
,
000000
000100
000001
000000
001000
000100
001000
100000
,
000000
000001
000000
000100
000100
100000
001000
000001
,
001000
000000
000010
000000
000100
000001
001000
100000
,
000000
000100
000000
100000
000100
010000
000100
100000
,
000000
000100
000001
000000
001000
000100
001000
100000
,
000000
000001
000000
000010
000010
100000
000001
001000
;

//---------------dance-solo - ----------------
#NOTES:
     dance-solo:
     :
     Hard:
     8:
     0.418,0.501,0.143,0.000,0.005:
000000
000000
000000
000000
,
000000
000000
000000
000000
,
000000
000000
000000
000000
,
000000
000000
000000
000000
,
000000
000000
000000
000000
,
000000
000000
000000
000000
,
000100
000000
000001
000010
100000
000000
000100
001000
,
000000
001000
001000
000000
000100
100000
001000
000000
,
001000
000000
000000
000000
000010
000000
000100
001000
,
000000
000100
000010
000000
000100
000010
100000
000000
,
001100
000000
000000
000000
010000
000000
000100
001000
,
000000
001000
001000
000000
000100
100000
001000
000000
,
001100
000000
100000
000010
000001
000000
000100
001000
,
000100
000100
000000
000001
001000
001000
001000
000000
,
000000
000100
100000
000010
000000
000001
001000
100000
,
000000
000100
000001
010000
000000
100000
001000
000001
,
000000
000100
100000
001000
000000
000001
001000
000001
,
000000
000001
100000
100000
000000
000010
000000
010000
,
000000
000100
000001
100000
000000
100000
001000
000001
,
000000
000100
100000
000010
000000
000001
001000
100000
,
000000
000100
000001
001000
000000
100000
001000
100000
,
000000
100000
000001
000001
000000
010000
000000
000010
,
000100
000000
000000
000100
,
001000
000000
000000
000000
000001
100000
000010
010000
,
000000
000000
000100
000100
,
000010
000000
000000
000000
010000
000010
000000
100001
,
000100
100000
000001
000000
000001
001000
100000
000000
,
000100
000010
100000
000000
100000
001000
000001
000000
,
000100
100000
001000
000000
000001
001000
000001
000000
,
000000
000001
100000
100000
000000
000010
000000
010000
,
000000
000100
000001
100000
000000
100000
001000
000001
,
000000
000100
010000
000001
000000
000001
001000
100000
,
000000
000100
000001
001000
000000
100000
001000
100000
,
000000
100000
000010
000001
000000
010000
000000
000010
,
001000
000000
000000
000000
,
100010
000000
000100
000100
000000
100000
001000
000000
,
001001
000000
000000
000000
000000
000100
000000
000100
,
010000
000001
000000
000100
001000
000000
001001
000000
,
000000
000000
000000
000000
,
001100
000000
000000
000000
000000
010000
000100
000010
,
100001
000000
000000
000000
000000
001000
000000
000001
,
001100
000000
000000
000000
,
010010
000000
000000
000000
000000
100000
000000
000001
,
001001
000000
000000
000000
000000
000000
000000
000000
000000
000000
000000
000000
000000
000000
000010
010000
,
000010
000000
000000
000000
000000
000100
000000
000100
,
000000
000001
100000
001000
000000
000000
000000
000000
,
010010
000000
000100
100000
001000
000000
000001
000100
,
000000
100000
001000
000000
100000
001000
000100
000001
,
100001
000000
000100
000001
001000
000000
010000
000100
,
000000
000001
001000
000000
000010
001000
000100
100000
,
100001
000000
000100
100000
001000
000000
000010
000100
,
000000
100000
001000
000000
100000
001000
000100
000001
,
010001
000000
000100
000001
001000
000000
010000
000100
,
000000
000001
001000
000000
000001
001000
000100
100000
,
000100
000001
000100
000001
100000
000100
100000
000100
,
000001
000100
000001
100000
000100
000001
001000
100000
,
000010
000100
000100
000001
100000
000100
100000
000100
,
000001
000100
000001
000100
100000
001000
000010
000100
,
000100
100000
000100
100000
000010
000100
000010
000100
,
010000
000100
010000
000001
000100
100000
001000
000001
,
100000
000100
000100
100000
000001
000010
000001
000010
,
100000
010000
100000
010000
000001
001000
100000
000100
;

//---------------dance-double - Edit by silenttype01----------------
#NOTES:
     dance-double:
     Edit by silenttype01:
     Challenge:
     9:
     0.568,0.689,0.315,0.267,0.100: // measure 1
00000000
00000000
00000000
00000000
,  // measure 2
00000000
00000000
00000000
00000000
,  // measure 3
00000000
00000000
00000000
00000000
,  // measure 4
00000000
00000000
00000000
00000000
,  // measure 5
00000000
00000000
00000000
00000000
,  // measure 6
00000000
00000000
00000000
00000000
,  // measure 7
00200000
20300000
32000000
03020000
,  // measure 8
00032000
00000000
00003020
00000000
00000031
00000001
00000200
00000000
,  // measure 9
00002300
00023000
00230000
20300000
,  // measure 10
32000000
00000000
03002000
00000000
00003100
00000100
00000002
00000000
,  // measure 11
00000203
00000000
00010300
00010000
00002000
00000000
02003000
00000000
,  // measure 12
23000000
00000000
32000000
00000000
03010000
00010000
00200000
00000000
,  // measure 13
00302000
00000000
00003010
00000010
00000002
00000000
00000203
00000000
,  // measure 14
00002300
00010000
00003000
00010000
00200000
00000000
20300000
00000000
,  // measure 15
30100000
10000000
01000000
00000000
00100000
10000000
01000000
00000000
,  // measure 16
10000000
01000000
00010000
00000000
10000000
01000000
00010000
00000000
,  // measure 17
01000000
00001000
00100000
00000000
01000000
00001000
00100000
00000000
,  // measure 18
00001000
00000100
00000010
00001000
00000100
00000010
00000010
00000010
,  // measure 19
00000010
00000001
00000100
00000000
00000010
00000001
00000100
00000000
,  // measure 20
00000001
00000100
00001000
00000000
00000001
00000100
00001000
00000000
,  // measure 21
00000100
00010000
00000010
00000000
00000100
00010000
00000010
00000000
,  // measure 22
00010000
00000010
00000100
00000000
00000001
00000001
00000001
00000001
,  // measure 23
00000010
00000001
00000100
00001000
00010000
00000100
00001000
00000001
,  // measure 24
00000100
00001000
01000000
00010000
00000100
00001000
01000000
00010000
,  // measure 25
10000000
01000000
00010000
00001000
01000000
00010000
10000000
01000000
,  // measure 26
00010000
00001000
00000010
00000001
00000010
00000100
00001000
00000001
,  // measure 27
00000100
00000001
00000010
00000000
00000100
00000001
00000010
00000000
,  // measure 28
00000001
00000010
00001000
00000000
00000001
00000010
00001000
00000000
,  // measure 29
00000010
00010000
00000100
00000000
00000010
00010000
00000100
00000000
,  // measure 30
00010000
00100000
01000000
00010000
00100000
01000000
01000000
01000000
,  // measure 31
01000000
10000000
00100000
00000000
01000000
10000000
00100000
00000000
,  // measure 32
10000000
00100000
00010000
00000000
10000000
00100000
00010000
00000000
,  // measure 33
00100000
00001000
01000000
00000000
00100000
00001000
01000000
00000000
,  // measure 34
00001000
01000000
00100000
00000000
10000000
10000000
10000000
10000000
,  // measure 35
00020000
10000000
00000000
01000000
00000000
00100000
00030000
10000000
,  // measure 36
00000000
01000000
00000000
00001000
00000000
00000100
00000000
00000010
,  // measure 37
00000000
00000001
00000000
00000100
00000000
00001000
00000000
00100000
,  // measure 38
00000000
00000000
01000000
00010000
00000000
00000000
00010000
00001000
00000000
00000000
00001000
00000001
00000000
00000000
00000001
00001000
,  // measure 39
00000000
00000000
00000000
00000000
,  // measure 40
00000000
00000000
00000000
00000000
,  // measure 41
00000101
00000101
00001100
00001100
,  // measure 42
00000101
00001100
00000101
00001100
,  // measure 43
00000101
00000000
00001100
00000000
00000001
00000100
00001000
00000000
,  // measure 44
00000001
00000100
00001000
00010000
00100000
10000000
01000000
00010000
,  // measure 45
01010000
00000000
11000000
00000000
00010000
01000000
10000000
00000000
,  // measure 46
00010000
01000000
10000000
00100000
00010000
00001000
00000100
00000001
,  // measure 47
00000101
00000000
00000101
00000100
00000010
00010000
00000100
00000110
,  // measure 48
00000000
00000001
00000011
00000000
00001000
00001100
00000010
00000000
,  // measure 49
00010100
00000000
00001100
00001000
00000010
00010000
00001000
00011000
,  // measure 50
00000000
01000000
01001000
00000000
00100000
10100000
00010000
00100000
,  // measure 51
11000000
00000000
00000000
00000000
11000000
00000000
00010000
00000000
00001000
00000000
00010000
00001000
00010000
00000000
00110000
00000000
,  // measure 52
00000000
00000000
00110000
00000000
00100000
00000000
00000000
00000000
10000000
00010000
10000000
00010000
10000000
00000000
00000000
00000000
,  // measure 53
01100000
00000000
00000000
00000000
11000000
00000000
10000000
00000000
01000000
00000000
00100000
00001000
00100000
00000000
00011000
00000000
,  // measure 54
00000000
00000000
00010000
00000000
00010100
00000000
00000000
00000000
00001000
00000010
00001000
00000010
00001000
00000000
00000110
00000000
,  // measure 55
00000101
00000000
00000010
00000000
00001000
00000000
00000001
00000000
00000100
00000000
00001000
00000000
00100000
00000000
01000000
10000000
,  // measure 56
00000000
00000000
10000000
00100000
00000000
00000000
00100000
00010000
00000000
00000000
00010000
00001000
00000000
00000000
00001000
00100000
,  // measure 57
00010000
00000000
10000000
00000000
01000000
00000000
00010000
00000000
00000010
00000000
00001000
00000010
00000100
00000000
00000001
00000000
,  // measure 58
00000100
00000000
00001000
00000000
00100000
00000000
01000000
00000000
00010000
00000000
01000000
00000000
10000000
01000000
00100000
00000000
,  // measure 59
11000000
00100000
00010000
10000000
01000000
00010000
00010000
00000010
,  // measure 60
00000010
00000000
00000100
00000000
00000100
00000000
00000001
00000000
00000001
00000000
00000010
00000000
00000010
00000000
00001000
00010000
,  // measure 61
00001000
00000000
00100000
00000000
01000000
00000000
00010000
00000000
00000010
00000000
00000100
00001000
00010000
00000000
00001000
00000000
,  // measure 62
00100000
00000000
00001000
00000000
00000010
00000000
00000100
00000000
00001000
00000000
00000100
00000000
00000001
00000100
00000010
00001000
,  // measure 63
00000010
00002000
00000000
00000000
00000000
00000000
00000000
00003000
;

//---------------dance-single - Edit by silenttype01----------------
#NOTES:
     dance-single:
     Edit by silenttype01:
     Challenge:
     9:
     0.568,0.689,0.315,0.267,0.100:
0000
0000
0000
0000
,
0000
0000
0000
0000
,
0000
0000
0000
0000
,
0000
0000
0000
0000
,
0000
0000
0000
0000
,
0000
0000
0000
0000
,
0020
2030
3200
0320
,
0032
0000
0203
0000
0310
0010
2000
0000
,
3200
0320
0032
0203
,
0320
0000
2030
0000
3100
0100
0020
0000
,
0032
0000
0103
0100
2000
0000
3020
0000
,
2030
0000
3200
0000
0301
0001
0020
0000
,
2030
0000
3100
0100
2000
0000
3020
0000
,
0032
0100
0003
0100
0020
0000
2030
0000
,
3001
0100
1000
0000
0001
0100
1000
0000
,
0100
1000
0010
0000
0100
1000
0010
0000
,
1000
0010
0001
0000
1000
0010
0001
0000
,
0010
0001
0100
0010
0001
0100
0100
0100
,
0001
0100
1000
0000
0001
0100
1000
0000
,
0100
1000
0010
0000
0100
1000
0010
0000
,
1000
0010
0001
0000
1000
0010
0001
0000
,
0010
0001
0100
0000
0010
0001
0100
0100
,
0001
0010
0100
1000
0010
0100
0001
1000
,
0100
0001
0100
1000
0010
0100
0001
0010
,
0100
1000
0010
0001
0010
1000
0001
0100
,
0001
0100
0010
1000
0010
1000
0100
0010
,
1000
0100
0001
0000
1000
0100
0001
0000
,
0100
0001
0010
0000
0100
0001
0010
0000
,
0001
0010
1000
0000
0001
0010
1000
0000
,
0010
1000
0100
0010
1000
0100
0100
0100
,
1000
0100
0001
0000
1000
0100
0001
0000
,
0100
0001
0010
0000
0100
0001
0010
0000
,
0001
0010
1000
0000
0001
0010
1000
0000
,
0010
1000
0100
0000
0010
1000
0100
0100
,
0002
1000
0000
0100
0000
1000
0003
0100
,
0000
0001
0000
1000
0000
0100
0000
0010
,
0000
1000
0000
0001
0000
0100
0000
0010
,
0000
0000
0100
0001
0000
0000
0001
1000
0000
0000
1000
0100
0000
0000
0100
0010
,
0000
0000
0000
0000
,
0000
0000
0000
0000
,
0101
0101
1100
1100
,
0101
1100
0101
1100
,
0101
0000
1100
0000
0001
0100
1000
0000
,
0001
0100
1000
0100
0001
0010
1000
0001
,
0101
0000
1100
0000
0001
0100
1000
0000
,
0001
0100
1000
0010
0001
0010
0100
0001
,
0101
0000
1010
1000
0100
0010
0001
0101
,
0000
0001
1001
0000
1000
1100
0010
0000
,
0011
0000
1100
0100
0010
0001
0100
0110
,
0000
0001
1001
0000
0010
1010
0001
0010
,
1100
0000
0000
0000
1100
0000
0010
0000
0001
0000
0100
0001
0100
0000
1001
0000
,
0000
0000
0110
0000
0010
0000
0000
0000
1000
0001
1000
0001
1000
0000
0000
0000
,
0110
0000
0000
0000
1001
0000
0010
0000
0100
0000
1000
0100
1000
0000
0011
0000
,
0000
0000
0100
0000
0101
0000
0000
0000
0010
1000
0010
1000
0010
0000
1001
0000
,
0110
0000
0001
0000
0100
0000
1000
0000
0100
0000
0001
0000
0100
0000
0010
1000
,
0000
0000
1000
0100
0000
0000
0100
0001
0000
0000
0001
0100
0000
0000
0100
1000
,
0001
0000
0100
0000
0010
0000
1000
0000
0100
0000
0010
0001
1000
0000
0100
0000
,
0010
0000
1000
0000
0010
0000
0001
0000
0010
0000
0100
0000
1000
0100
0010
0000
,
1100
0010
0001
0010
1000
0010
0001
0010
,
0010
0000
1000
0000
1000
0000
0010
0000
0010
0000
0100
0000
0100
0000
1000
0001
,
0100
0000
0010
0000
0100
0000
1000
0000
0001
0000
0010
1000
0100
0000
0010
0000
,
0100
0000
1000
0000
0100
0000
0001
0000
0100
0000
0010
0000
1000
0010
0100
0010
,
0100
0002
0000
0000
0000
0000
0000
0003
;
