#TITLE:Trim;
#SUBTITLE:;
#ARTIST:kobo;
#TITLETRANSLIT:;
#SUBTITLETRANSLIT:;
#ARTISTTRANSLIT:;
#CREDIT:;
#BANNER:Trim.png;
#BACKGROUND:Trim-bg.png;
#LYRICSPATH:;
#CDTITLE:./CDTITLES/Dance Dance Revolution SuperNOVA.png;
#MUSIC:Trim.mp3;
#OFFSET:-0.070;
#SAMPLESTART:74.940;
#SAMPLELENGTH:15.000;
#SELECTABLE:YES;
#DISPLAYBPM:85.000:340.000;
#BPMS:0.000=169.986,164.000=84.986,179.500=339.965,307.500=169.986;
#STOPS:179.500=0.340
;
#BGCHANGES:;

//---------------dance-single - ----------------
#NOTES:
     dance-single:
     :
     Beginner:
     3:
     0.150,0.200,0.009,0.000,0.000:
0000
0000
0000
0000
,
0000
0001
0000
0000
,
0000
0001
0000
0000
,
0000
1000
0000
0000
,
0000
1000
0000
0000
,
0000
0010
0000
0000
,
0000
0010
0000
0000
,
0000
0100
0000
0000
,
0000
0100
0000
0000
,
0000
0010
0000
0010
,
0000
0010
0000
0010
,
0000
0100
0000
0100
,
0000
0100
0000
0100
,
0000
0010
0000
0010
,
0000
0010
0000
0010
,
0000
0100
0000
0100
,
0000
0001
0000
1000
,
1000
0000
0000
0000
,
1000
0000
0000
0000
,
0001
0000
0000
0000
,
0001
0000
0000
0000
,
0010
0000
0000
0000
,
0100
0000
0000
0000
,
1000
0000
0000
0000
,
0001
0000
1000
0000
,
0001
0000
0001
0000
,
0001
0000
0000
0000
,
1000
0000
1000
0000
,
1000
0000
0000
0000
,
0010
0000
0010
0000
,
0100
0000
0100
0000
,
0001
0000
0000
0000
,
1000
0000
0000
0000
,
0100
0000
0000
0000
,
0100
0000
0100
0000
,
0010
0000
0000
0000
,
0010
0000
0010
0000
,
0001
0000
0000
0000
,
1000
0000
1000
0000
,
0010
0000
0000
0000
,
0100
0000
0100
0000
,
0001
0000
0010
0000
,
1000
0000
0100
0000
,
0001
0000
0100
0000
,
1000
0000
0010
0000
,
0000
0000
0000
1000
0000
0000
0000
0000
,
0000
0000
0000
1000
0000
0000
0000
0000
,
0000
0000
0000
0010
0000
0000
0000
0000
,
0000
0000
0000
0100
0000
0000
0000
0000
,
0000
0000
0000
0001
0000
0000
0000
0000
,
0000
0000
0000
1000
0000
0000
0000
0000
,
0000
0000
0000
0001
0000
0000
0000
0000
,
0000
0000
0000
1000
0000
0000
0000
0000
,
0000
0000
0000
0100
0000
0000
0000
0000
,
0000
0000
0000
0010
0000
0000
0000
0000
,
0000
0000
0000
0001
0000
0000
0000
0000
,
0000
0000
0000
1000
0000
0000
0000
0000
,
0000
0000
0000
0001
0000
0000
0000
0000
,
0000
0000
0000
0100
0000
0000
0000
0000
,
0000
0000
0000
0010
0000
0000
0000
0000
,
0000
0000
0000
1000
0000
0000
0000
1000
,
0000
0000
0000
0000
0000
0000
0000
0001
,
0000
0000
0000
0000
0000
0000
0000
1000
,
0000
0000
0000
1000
0000
0000
0000
1000
,
0000
0000
0000
0000
0000
0000
0000
0001
,
0000
0000
0000
0000
0000
0000
0000
1000
,
0000
0000
0000
0000
0000
0000
0000
0001
,
0000
0000
0000
0001
0000
0000
0000
0001
,
0000
0000
0000
0000
0000
0000
0000
0100
,
0000
0000
0000
0000
0000
0000
0000
0010
,
0000
0000
0000
0000
0000
0000
0000
0100
,
0000
0000
0000
0000
0000
0000
0000
0010
,
0000
0000
0000
0000
0000
0000
0000
1000
,
0000
0000
0000
1000
0000
0000
0000
1000
,
0000
0000
0000
0000
0000
0000
0000
0001
,
0000
0000
0000
0001
0000
0000
0000
0001
,
0000
0000
0000
0000
0000
0000
0000
1000
,
0000
0000
0000
0000
0000
0000
0000
0001
,
0000
0000
0000
0000
0000
0000
0000
0010
,
0000
0000
0000
0000
0000
0000
0000
0100
,
0000
0000
0000
0000
0000
0000
0000
1000
,
0000
0000
0000
0000
0000
0000
0000
0001
,
0000
0000
0000
0000
0000
0000
0000
0100
,
0000
0000
0000
0000
0000
0000
0000
0010
,
0000
0000
0000
0000
0000
0000
0000
1001
;

//---------------dance-single - ----------------
#NOTES:
     dance-single:
     :
     Easy:
     5:
     0.297,0.440,0.170,0.151,0.000:
0000
0000
0000
0000
,
1000
0000
1000
0000
,
1000
0000
0010
0000
,
0200
0000
0000
0300
,
0101
0000
0011
0000
,
0010
0000
0010
0000
,
0100
0000
0100
0000
,
2000
0000
0000
3000
,
0010
0000
0100
0100
,
0110
0000
0001
0000
,
1000
0000
0001
0000
,
0010
0000
0100
0000
,
1100
0000
1010
0000
,
0010
0000
1000
0000
,
0001
0000
1000
0000
,
0100
0000
0010
0000
,
0011
0000
0101
0001
,
1000
0100
0000
1000
,
0100
0010
0000
0001
,
1000
0010
0000
0100
,
0001
0001
1000
1000
,
0010
0100
0000
0010
,
0100
0001
0000
0010
,
0100
1000
0000
0001
,
0010
0010
0100
0100
,
1000
0000
1001
0000
,
0010
0001
0100
0001
,
1000
0000
1001
0000
,
0100
1000
0010
1000
,
0001
0000
0110
0000
,
1000
0010
0100
0010
,
0001
0000
0110
0000
,
0001
0100
0010
0100
,
1000
0000
0010
0000
,
0001
0001
0010
0010
,
1000
0000
0100
0000
,
0001
0001
0100
0100
,
1100
0000
1001
0000
,
0110
0000
0101
0000
,
0011
0000
1100
0000
,
1000
0010
0100
0001
,
2000
0001
0001
3001
,
0002
1000
1000
1003
,
0200
0010
0010
0310
,
0020
0100
0100
0130
,
0000
0000
0000
1000
0000
0000
0000
0000
,
0000
0000
0000
0001
0000
0000
0000
0000
,
0000
0000
0000
0010
0000
0000
0000
0000
,
0000
0000
0000
0100
0000
0000
0000
1000
,
0000
0000
0000
0100
0000
0000
0000
1000
,
0000
0000
0000
0000
0000
0000
0000
0001
,
0000
0000
0000
0100
0000
0000
0000
0001
,
0000
0000
0000
0100
0000
0000
0000
0010
,
0000
0000
0000
0000
0000
0000
0000
1000
,
0000
0000
0000
0000
0000
0000
0000
0001
,
0000
0000
0000
0000
0000
0000
0000
1000
,
0000
0000
0000
0100
0000
0000
0000
0010
,
0000
0000
0000
0000
0000
0000
0000
0001
,
0000
0000
0000
0000
0000
0000
0000
1000
,
0000
0000
0000
0001
0000
0000
0000
0001
,
0000
0000
0000
1000
0000
0000
0000
1000
,
0000
0000
0000
0000
0000
0000
0000
0010
,
0000
0000
0000
0000
0000
0000
0000
0001
,
0000
0000
0000
0010
0000
0000
0000
1000
,
0000
0000
0000
0010
0000
0000
0000
0100
,
0000
0000
0000
0000
0000
0000
0000
1000
,
0000
0000
0000
0000
0000
0000
0000
0100
,
0000
0000
0000
0001
0000
0000
0000
0100
,
0000
0000
0000
0010
0000
0000
0000
1000
,
0000
0000
0000
0000
0000
0000
0000
0100
,
0000
0000
0000
0000
0000
0000
0000
0010
,
0000
0000
0000
0001
0000
0000
0000
0010
,
0000
0000
0000
0100
0000
0000
0000
1000
,
0000
0000
0000
0000
0000
0000
0000
0001
,
0000
0000
0000
0000
0000
0000
0000
0100
,
0000
0000
0000
0010
0000
0000
0000
1000
,
0000
0000
0000
0010
0000
0000
0000
0100
,
0000
0000
0000
0002
0000
0000
0000
0023
,
0000
0000
0000
0230
0000
0000
0000
2300
,
0000
0000
0000
3002
0000
0000
0000
1003
,
0000
0010
0000
0100
0000
0001
0000
0010
,
0000
0000
0000
0200
0000
0000
0000
2300
,
0000
0000
0000
3020
0000
0000
0000
0230
,
0000
0000
0000
0302
0000
0000
0000
1003
,
0000
0001
0000
0010
0000
0110
0000
0000
;

//---------------dance-single - ----------------
#NOTES:
     dance-single:
     :
     Medium:
     8:
     0.498,0.639,0.406,0.142,0.028:
0000
0000
0000
0000
,
0110
0000
1010
0000
,
1001
0000
0011
0000
,
0220
0000
0000
0300
,
0100
0000
0100
0100
0000
0001
0031
0000
,
1001
0000
0101
0000
,
0110
0000
1010
0000
,
2002
0000
0000
0003
,
0001
0000
0100
0000
0000
0100
3000
0000
,
1100
1000
1000
1000
,
0010
0010
0100
0100
,
0001
0001
1000
1000
,
0200
0000
0010
0010
0000
1000
1300
0000
,
0001
0001
0001
0001
,
0100
0100
0010
0010
,
1000
1000
0001
0001
,
2001
0000
3001
0002
0000
1000
1003
0000
,
0110
0000
0001
0000
1000
0010
0001
0000
,
0100
0000
0010
1000
0000
1000
0100
0000
,
0010
0000
0001
0000
1000
0100
0001
0000
,
0010
0000
0100
1000
0000
1000
0010
0100
,
0001
0000
1000
0000
0001
0010
1000
0000
,
0100
0000
0010
0001
0000
0001
0100
0000
,
0010
0000
1000
0000
0001
0100
1000
0000
,
0010
0000
0100
0001
0000
0001
0010
0100
,
1000
1010
0100
0101
,
1000
1100
0010
0011
,
0001
1000
0010
0000
0001
0100
1000
0100
,
0002
0000
0000
2003
0000
0100
3100
0000
,
1000
0101
0001
1100
,
1000
0011
0001
1010
,
0001
1000
0100
0000
0001
0010
1000
0010
,
0001
0000
1000
0010
0000
0100
0001
0000
,
1000
0000
0002
0000
0000
1003
0001
0000
,
0100
0000
0020
0000
0000
0130
0010
0000
,
1000
0000
0200
0000
0000
1300
0010
0100
,
0001
0000
1000
0100
0000
0010
0001
0000
,
0100
0000
0020
0000
0000
0130
0010
0000
,
1000
0000
0002
0000
0000
1003
0001
0000
,
0010
0000
0200
0000
0000
1300
0100
0010
,
0001
0000
1000
0010
0000
0100
0001
0000
,
1001
0000
0000
0000
1100
0000
0000
0000
0100
0000
0100
0000
0010
0000
0000
1001
,
0000
1001
0000
0000
0101
0000
0000
0000
0100
0000
0100
0000
0010
0000
0000
0000
,
1001
0000
0000
0000
0011
0000
0000
0000
0010
0000
0010
0000
0100
0000
0000
1001
,
0000
1001
0000
0000
0010
0000
0000
0000
0100
0000
0010
0100
0000
0110
0001
0000
,
0000
1000
0000
0100
0000
0000
0000
0010
,
0000
0000
0000
0100
0000
0100
0000
0000
,
0000
0010
0000
0010
0000
0000
0000
0001
,
0000
0000
0000
1100
0000
0000
0000
0010
,
0000
1000
0000
0001
0000
0000
0000
0010
,
0000
0100
0000
1000
0000
0000
0000
0001
,
0000
0000
0000
0010
0000
0010
0000
0000
,
0000
0100
0000
0100
0000
0000
0000
1000
,
0000
0010
0000
0001
0000
0000
0000
1000
,
0000
0010
0000
0001
0000
0000
0000
1000
,
0000
0100
0000
0001
0000
0000
0000
1000
,
0000
0000
0000
0101
0000
0000
0000
1000
,
0000
0100
0000
0001
0000
0000
0000
1000
,
0000
0010
0000
0001
0000
0000
0000
0000
,
0000
0100
0000
0000
0000
0100
0000
0000
,
0000
0011
0000
0000
0000
0000
0000
1100
,
0000
0000
0000
1000
0000
1000
0000
0000
,
0000
0001
0000
0001
0000
0000
0000
0100
,
0000
0000
0000
0010
0000
0100
0000
0001
,
0000
1000
0000
0100
0000
0000
0000
1000
,
0000
0000
0000
0001
0000
0001
0000
0000
,
0000
1000
0000
1000
0000
0000
0000
0010
,
0000
1000
0000
0010
0000
0000
0000
0100
,
0000
0001
0000
0100
0000
0010
0000
1000
,
0000
0000
0000
0100
0000
1000
0000
0100
,
0000
0010
0000
0001
0000
0000
0000
1000
,
0000
0000
0000
0100
0000
0010
0000
0001
,
0000
0010
0000
0100
0000
0000
0000
1000
,
0000
0000
0000
0010
0000
0100
0000
0001
,
0000
0100
0000
0010
0000
0000
0000
1000
,
0000
0001
0000
1000
0000
0001
0000
0010
,
0000
0100
0000
0010
0000
0100
0000
1000
,
0000
0000
0000
1001
0000
0000
0000
0110
,
0000
0000
0000
0101
0000
0000
0000
1100
,
0000
0000
0000
1000
0100
0010
0000
0001
,
0100
0010
0000
1000
0010
0100
0001
1000
,
0000
0000
0000
0110
0000
0000
0000
1001
,
0000
0000
0000
0011
0000
0000
0000
1010
,
0000
0000
0000
1000
0010
0100
0000
0001
,
0010
0100
0000
1000
0100
0010
0000
0000
;

//---------------dance-single - ----------------
#NOTES:
     dance-single:
     :
     Hard:
     10:
     0.765,0.842,0.661,0.283,0.076:
0000
0000
0000
0000
,
0000
2020
0000
0000
,
0000
0030
0002
3000
,
0020
0000
0003
0030
0210
0000
0000
0000
,
2300
0000
0001
3002
0000
1000
1003
0000
,
0000
0202
0000
0000
,
0000
0300
2000
0003
,
0200
0000
0000
0000
,
3300
0000
1100
0000
0000
1001
0000
0000
,
0101
1002
1000
1000
,
0103
0200
0010
0320
,
1000
1030
2001
3001
,
0012
0000
1000
1000
0000
0100
0103
0000
,
2001
0001
0001
0001
,
3100
0200
0010
0320
,
0001
0032
1000
1003
,
1001
0000
0100
0010
0000
1001
1001
0000
,
0110
0000
1000
0000
0100
1000
0010
0000
,
0100
0000
0001
0010
0100
0010
0001
0100
,
0001
0000
1010
0000
0100
0001
0010
0000
,
0100
0000
1000
0001
0000
1001
1001
0000
,
0110
0000
0001
0000
0010
0001
0100
0000
,
0010
0000
1000
0100
0010
0100
1000
0010
,
1000
0000
0101
0000
0010
1000
0100
0000
,
1000
0000
1100
0000
0000
0110
0000
0000
,
0001
0000
0011
0010
0100
1000
1100
0000
,
0101
0000
0000
0000
1010
0000
0000
0010
0100
0000
0001
0000
0101
0000
0001
0000
,
0010
0000
1100
1000
0001
0100
0101
0000
,
1001
0000
0010
1001
0000
0110
0110
0000
,
1000
0000
1100
0100
0010
0001
0011
0000
,
1010
0000
0101
0100
0010
1000
1010
1000
,
0100
0000
0011
0001
1000
0010
1010
0000
,
0100
0000
0000
0000
0101
0000
0000
0001
0010
0000
0100
0000
1000
0001
1000
0001
,
1000
0000
0110
0000
0001
0100
0010
1000
,
0001
0000
1000
0000
0110
0000
0000
0001
1000
0001
1000
0000
0100
0000
0000
0000
,
0011
0000
0101
0000
1000
0010
0100
0001
,
0010
0000
0000
0100
1001
0110
0110
0000
,
1010
0000
0101
0000
1000
0100
0010
0001
,
1000
0000
0001
0000
0110
0000
0000
1000
0001
1000
0001
0000
0100
0000
0000
0000
,
1010
0000
1100
0000
1000
0100
0010
0001
,
0110
0000
0000
0000
1001
0000
0000
0100
0010
0100
0010
0000
0100
0000
0010
0000
,
1001
0000
0100
0000
0010
0000
1000
0000
0100
0000
1000
0000
0010
0000
0100
1000
,
0100
0001
0100
0000
0010
0000
1000
0000
0100
0000
0010
0000
0001
0000
1000
0000
,
1001
0000
0001
0000
0010
0000
0100
0000
1000
0000
0010
0000
0100
0000
0001
0100
,
1000
0100
0001
0000
1000
0000
0001
0000
1001
0000
0010
0100
0000
1001
1001
0000
,
0100
1000
0000
0010
0000
1000
0100
1000
,
0100
1000
0000
0010
1000
0100
1000
0100
,
1000
0001
0100
0001
0100
0001
1000
0001
,
1000
0100
0000
0100
0010
0001
1000
0001
,
0000
1000
0000
0001
0000
0010
0100
0010
,
0100
1000
0000
1000
0010
1000
0010
0100
,
0000
0100
0001
0000
0001
1000
0001
1000
,
0000
0110
0000
0110
0000
1000
1000
0001
,
0010
0001
0010
0100
0000
0100
1000
0100
,
1000
0010
0000
0010
0010
0100
0001
0100
,
0010
1000
0010
0100
0001
1000
0001
0100
,
0010
1000
0000
0001
0000
1000
1000
0001
,
0000
1000
0000
0001
0000
1000
0100
0010
,
0100
0010
0000
0100
0010
0100
0010
0001
,
0000
1000
1000
0000
0001
0001
0000
0100
,
0001
0010
0100
1000
0001
0100
0010
1000
,
0000
0001
0000
1000
0000
0100
1000
0010
,
1000
0010
0000
0010
0100
0001
1000
0001
,
1000
0100
1000
0100
1000
0001
0100
0001
,
0100
0010
0000
0100
0000
0001
1000
1000
,
0000
1000
0000
0001
0000
0010
0001
0010
,
0001
1000
0000
1000
0001
1000
0010
0100
,
0001
1000
0001
0010
0100
1000
0001
1000
,
0000
1001
0000
1001
0000
0010
1000
0100
,
0000
1000
0000
0100
0000
1000
0010
0100
,
0001
0010
0000
0010
0001
0010
0100
1000
,
0100
0010
0001
0010
0100
1000
0010
0100
,
0001
0010
0000
0001
0000
0010
0100
0100
,
0000
1000
0000
0100
0000
1000
0100
0010
,
0001
0100
0000
0100
0100
0001
1000
0010
,
1000
0001
0100
0001
0010
0100
1000
0001
,
0000
1001
0000
1001
0000
1000
0002
0100
,
0000
0100
0000
0100
0000
0203
0000
0001
,
0000
0302
0000
1000
0000
2003
0000
0100
,
0000
0100
0000
0100
0000
0100
0000
3100
,
0000
1001
0000
0000
0110
0000
0000
0102
,
0000
0100
0000
0100
0000
0100
0000
0203
,
0000
0010
0000
0320
0000
1000
0000
2030
,
0000
0001
0000
0001
0000
0001
0000
3001
,
0000
1001
0000
0000
0220
0000
0000
0330
;

//---------------dance-double - ----------------
#NOTES:
     dance-double:
     :
     Easy:
     4:
     0.295,0.440,0.113,0.161,0.000:
00000000
00000000
00000000
00000000
,
00001000
00000000
00001000
00000000
,
00010000
00000000
00010000
00000000
,
02000000
00000000
00000000
03000000
,
11000000
00000000
00110000
00000000
,
00010000
00000000
00010000
00000000
,
10000000
00000000
10000000
00000000
,
00200000
00000000
00000000
00300000
,
00010000
00000000
00001000
00010000
,
00011000
00000000
00000100
00000000
,
00001000
00000000
00000010
00000000
,
00000100
00000000
00000010
00000100
,
00000110
00000000
00001001
00000000
,
00000001
00000000
00001000
00000000
,
00000100
00000000
00000010
00000000
,
00001000
00000000
00010000
00001000
,
00011000
00010000
00011000
00001000
,
00010000
00100000
00000000
00010000
,
00100000
10000000
00000000
00010000
,
10000000
01000000
00000000
00100000
,
01000000
01000000
10000000
10000000
,
00100000
00010000
00000000
00100000
,
00010000
00001000
00000000
00000100
,
00000010
00001000
00000000
00000100
,
00000010
00000010
00000001
00000001
,
00000100
00000000
00001001
00000000
,
00000010
00001000
00000100
00010000
,
00001000
00000000
00011000
00000000
,
00010000
00001000
01000000
00010000
,
10000000
00000000
10010000
00000000
,
10000000
00010000
00100000
00001000
,
00010000
00000000
00011000
00000000
,
00010000
00001000
00000100
00000001
,
00000010
00000001
00001000
00000000
,
00000010
00001000
00000001
00000000
,
00000100
00000000
00001000
00000000
,
00010000
00001000
00010000
01000000
,
00100000
00010000
10000000
00000000
,
00100000
10000000
00010000
00000000
,
00100000
00000000
01000000
00000000
,
00010000
00001000
00010000
00001000
,
00000200
00001000
00000010
00000301
,
00000020
00000001
00000100
00001030
,
00020000
00000100
00001000
00130000
,
02000000
00010000
00100000
13000000
,
00000000
00000000
00000000
10000000
00000000
00000000
00000000
00000000
,
00000000
00000000
00000000
01000000
00000000
00000000
00000000
00000000
,
00000000
00000000
00000000
00010000
00000000
00000000
00000000
00000000
,
00000000
00000000
00000000
00100000
00000000
00000000
00000000
01000000
,
00000000
00000000
00000000
00100000
00000000
00000000
00000000
01000000
,
00000000
00000000
00000000
00000000
00000000
00000000
00000000
10000000
,
00000000
00000000
00000000
00010000
00000000
00000000
00000000
10000000
,
00000000
00000000
00000000
00010000
00000000
00000000
00000000
00100000
,
00000000
00000000
00000000
00000000
00000000
00000000
00000000
00001000
,
00000000
00000000
00000000
00000000
00000000
00000000
00000000
00010000
,
00000000
00000000
00000000
00000000
00000000
00000000
00000000
00000100
,
00000000
00000000
00000000
00001000
00000000
00000000
00000000
00000010
,
00000000
00000000
00000000
00000000
00000000
00000000
00000000
00010000
,
00000000
00000000
00000000
00000000
00000000
00000000
00000000
00001000
,
00000000
00000000
00000000
00000000
00000000
00000000
00000000
01000000
,
00000000
00000000
00000000
00010000
00000000
00000000
00000000
00100000
,
00000000
00000000
00000000
00000000
00000000
00000000
00000000
00001000
,
00000000
00000000
00000000
00000000
00000000
00000000
00000000
00010000
,
00000000
00000000
00000000
00000100
00000000
00000000
00000000
00001000
,
00000000
00000000
00000000
00000010
00000000
00000000
00000000
00000100
,
00000000
00000000
00000000
00000000
00000000
00000000
00000000
00000001
,
00000000
00000000
00000000
00000000
00000000
00000000
00000000
00001000
,
00000000
00000000
00000000
00000100
00000000
00000000
00000000
00000010
,
00000000
00000000
00000000
00000001
00000000
00000000
00000000
00001000
,
00000000
00000000
00000000
00000000
00000000
00000000
00000000
00000001
,
00000000
00000000
00000000
00000000
00000000
00000000
00000000
00000100
,
00000000
00000000
00000000
00000010
00000000
00000000
00000000
00001000
,
00000000
00000000
00000000
00000001
00000000
00000000
00000000
00000100
,
00000000
00000000
00000000
00000000
00000000
00000000
00000000
00001000
,
00000000
00000000
00000000
00000000
00000000
00000000
00000000
00010000
,
00000000
00000000
00000000
00001000
00000000
00000000
00000000
00010000
,
00000000
00000000
00000000
01000000
00000000
00000000
00000000
10000000
,
00000000
00000000
00000000
00020000
00000000
00000000
00000000
20030000
,
00000000
00000000
00000000
32000000
00000000
00000000
00000000
03020000
,
00000000
00000000
00000000
02030000
00000000
00000000
00000000
03100000
,
00000000
00001000
00000000
00010000
00000000
00000100
00000000
00002000
,
00000000
00000000
00000000
00003020
00000000
00000000
00000000
00000032
,
00000000
00000000
00000000
00000023
00000000
00000000
00000000
00002030
,
00000000
00000000
00000000
00003002
00000000
00000000
00000000
00000013
,
00000000
00001000
00000000
00010000
00000000
00011000
00000000
00000000
;

//---------------dance-double - ----------------
#NOTES:
     dance-double:
     :
     Medium:
     8:
     0.514,0.641,0.331,0.349,0.028:
00000000
00000000
00000000
00000000
,
00001002
00000000
00000203
00000000
,
00002300
00000000
00023000
00000000
,
02030000
00000000
03100000
00000000
,
10010000
00000000
00110000
00000000
00000000
11000000
00000000
00000000
,
20010000
00000000
30200000
00000000
,
00320000
00000000
00032000
00000000
,
00003020
00000000
00000032
00000000
,
00001003
00000000
00001010
00000000
00000000
00000101
00000000
00000000
,
00001001
00000100
00001000
00000100
,
00000001
00000010
00000100
00001000
,
00000100
00010000
00001000
01000000
,
00010000
00000000
01010000
00000000
00000000
10100000
00000000
00000000
,
10010000
00100000
00010000
00100000
,
10000000
01000000
00100000
00010000
,
01000000
00001000
00010000
00000100
,
00001000
00000000
00000010
00000110
00000000
00000110
00000100
00000000
,
00001001
00000000
00000100
00000001
00000000
00000001
00001000
00000000
,
00000001
00000000
00000010
00001000
00010000
00001000
00000010
00000000
,
00000100
00000000
00010000
00001000
00000000
00001000
01000000
00000000
,
00010000
00000000
10000000
00100000
00010000
00100000
10000000
00000000
,
00010000
00000000
00100000
10000000
00000000
10000000
00010000
00000000
,
00100000
00000000
01000000
00010000
00001000
00010000
01000000
00000000
,
00100000
00000000
00001000
00010000
00000000
00010000
00000010
00000000
,
00001000
00000000
00000001
00000100
00001000
00000100
00000001
00000000
,
00001002
00000100
00001000
00000103
,
00002000
00013000
00200000
01300000
,
20000000
01000000
00010000
31000000
,
01100000
00000000
00000000
10010000
00000000
01000000
00100000
00000000
,
00020000
00001000
00000100
00031000
,
00000200
00000310
00000002
00000103
,
00000020
00000100
00001000
00000130
,
00000001
00000000
00001000
00000100
00000000
00010000
00001000
00000000
,
01000000
02000000
00000000
00000000
03100000
00200000
00000000
00000000
,
01300000
00000000
00010000
00100000
00000000
01000000
10000000
00000000
,
01000000
02000000
00000000
00000000
13000000
20000000
00000000
00000000
,
31000000
00000000
00100000
00001000
00000000
00010000
00000010
00000000
,
00000100
00000200
00000000
00000000
00000310
00000020
00000000
00000000
,
00000130
00000000
00000001
00000010
00000000
00000100
00001000
00000000
,
00000001
00000002
00000000
00000000
00001003
00002000
00000000
00000000
,
00003001
00000000
00000100
00001000
00010000
01000000
00010000
00001000
,
00010000
00000000
00000000
00000000
00011000
00000000
00000000
00000000
00100000
00000000
00100000
00000000
01000000
00000000
00000000
11000000
,
00000000
01010000
00000000
00000000
01100000
00000000
00000000
00000000
00010000
00000000
00010000
00000000
10000000
00000000
00000000
00000000
,
01100000
00000000
00000000
00000000
00011000
00000000
00000000
00000000
00000100
00000000
00000100
00000000
00000010
00000000
00000000
00001010
,
00000000
00000011
00000000
00000000
00000110
00000000
00000000
00000000
00001000
00000000
00000001
00001000
00000000
00001001
00000001
00000000
,
00000000
00000100
00000000
00001000
00000000
00000000
00000000
00010000
,
00000000
00000000
00000000
00001000
00000000
00001000
00000000
00000000
,
00000000
00010000
00000000
00010000
00000000
00000000
00000000
00100000
,
00000000
00000000
00000000
10010000
00000000
00000000
00000000
00100000
,
00000000
10000000
00000000
00010000
00000000
00000000
00000000
10000000
,
00000000
01000000
00000000
00010000
00000000
00000000
00000000
00001000
,
00000000
00000000
00000000
00010000
00000000
00010000
00000000
00000000
,
00000000
00001000
00000000
00001000
00000000
00000000
00000000
00000100
,
00000000
00000001
00000000
00000010
00000000
00000000
00000000
00000100
,
00000000
00001000
00000000
00000010
00000000
00000000
00000000
00001000
,
00000000
00000001
00000000
00000100
00000000
00000000
00000000
00000010
,
00000000
00000000
00000000
00001001
00000000
00000000
00000000
00000100
,
00000000
00000001
00000000
00000010
00000000
00000000
00000000
00000001
,
00000000
00001000
00000000
00000100
00000000
00000000
00000000
00000000
,
00000000
00010000
00000000
00000000
00000000
00001000
00000000
00000000
,
00000000
00011000
00000000
00000000
00000000
00000000
00000000
00110000
,
00000000
00000000
00000000
00010000
00000000
00010000
00000000
00000000
,
00000000
10000000
00000000
10000000
00000000
00000000
00000000
01000000
,
00000000
00000000
00000000
00100000
00000000
00010000
00000000
10000000
,
00000000
00100000
00000000
10000000
00000000
00000000
00000000
00100000
,
00000000
00000000
00000000
01000000
00000000
01000000
00000000
00000000
,
00000000
00100000
00000000
00100000
00000000
00000000
00000000
01000000
,
00000000
00010000
00000000
01000000
00000000
00000000
00000000
00001000
,
00000000
00010000
00000000
00001000
00000000
00000100
00000000
00000010
,
00000000
00000000
00000000
00001000
00000000
00000010
00000000
00001000
,
00000000
00000001
00000000
00000100
00000000
00000000
00000000
00001001
,
00000000
00000000
00000000
00000001
00000000
00000010
00000000
00000001
,
00000000
00001000
00000000
00000100
00000000
00000000
00000000
00010100
,
00000000
00000000
00000000
00001000
00000000
00010000
00000000
00000010
,
00000000
00010000
00000000
00001000
00000000
00000000
00000000
00010000
,
00000000
01000000
00000000
00010000
00000000
01000000
00000000
10000000
,
00000000
01000000
00000000
10000000
00000000
00010000
00000000
20010000
,
00000000
00000000
00000000
32000000
00000000
00000000
00000000
03020000
,
00000000
00000000
00000000
00032000
00000000
00000000
00000000
00003200
,
00000000
00000000
00000000
00000310
00000100
00000001
00000000
00000001
,
00001000
00000100
00000000
00000100
00010000
00001000
00100000
20010000
,
00000000
00000000
00000000
30200000
00000000
00000000
00000000
00320000
,
00000000
00000000
00000000
00032000
00000000
00000000
00000000
00003020
,
00000000
00000000
00000000
00000130
00000010
00000001
00000000
00000001
,
00001000
00000010
00000000
00000010
00010000
00001000
01000000
00010000
;

//---------------dance-double - ----------------
#NOTES:
     dance-double:
     :
     Hard:
     10:
     0.714,0.802,0.359,0.274,0.038:
00000000
00000000
00000000
00000000
,
00000000
22000000
00000000
00000000
,
00000000
03000000
00200000
30000000
,
00020000
00330000
11000000
00000000
,
00110000
00000000
00000000
00011000
00000000
00000000
00001100
00000000
,
00000000
00000202
00000000
00000000
,
00000000
00000300
00000020
00000003
,
00000200
00000030
00000000
00001300
,
00000000
00000000
00010010
00000000
00000000
00011000
00000000
00000000
,
02001000
00010000
00100000
13000000
,
02000000
03010000
20000000
31000000
,
00200000
10000000
01000000
00310000
,
00101000
00000000
00000000
00011000
00000000
00000000
00010010
00000000
,
00000200
00010000
00001000
00000310
,
00000002
00000013
00000200
00001300
,
00000020
00000100
00001000
00010030
,
00011000
00000000
00001000
00011000
00000000
00010000
00011000
00000000
,
00010000
00100000
10000000
00000000
01000000
10000000
00100000
00000000
,
01000000
00010000
00100000
00000000
00010000
10000000
00100000
00010000
,
00001000
00000100
00000001
00000000
00000010
00000001
00000100
00000000
,
00000010
00001000
00000100
00000000
00001000
00000001
00000100
00001000
,
00010000
00100000
10000000
00000000
00100000
01000000
00010000
00000000
,
00100000
00010000
01000000
00000000
10000000
01000000
00010000
00001000
,
00000010
00000001
00000010
00000000
00000100
00000010
00001000
00000000
,
00000100
00001000
00000010
00000000
00000011
00000000
00001100
00000000
,
00011000
00001000
00100000
01000000
10000000
00100000
00010000
00100000
,
01000000
00100000
10000000
01000000
00100000
00001000
00010000
00000100
,
00000010
00000001
00000100
00000010
00010000
00001000
01000000
00100000
,
10100000
00000000
00000000
10010000
00000000
00000000
11000000
00000000
,
00100000
00010000
01000000
00100000
10000000
01000000
00010000
01000000
,
00100000
01000000
10000000
00100000
01000000
00001000
00010000
00000010
,
00000100
00000001
00000010
00000100
00010000
00001000
00100000
01000000
,
11000000
00000000
00000000
00000000
01010000
00000000
00000000
00000000
00100000
00000000
10000000
00000000
00010000
10000000
00010000
10000000
,
01000000
00100000
00010000
10000000
01000000
00100000
00010000
10000000
,
01100000
00000000
00000000
00011000
00000000
00000000
00000110
00000000
,
00000001
00000100
00000010
00001000
00000001
00000100
00000010
00001000
,
00000100
00010000
00001000
01000000
00010000
00100000
01000000
00000000
,
10000000
00100000
01000000
00010000
10000000
00100000
01000000
00010000
,
00100000
01000000
10000000
01000000
00010000
00001000
00000100
00000000
,
00000001
00000010
00000100
00001000
00000001
00000010
00000100
00001000
,
00000010
00000100
00000001
00000100
00001000
00010000
01000000
00000000
,
10010000
00000000
10000000
00000000
00100000
00000000
01000000
00000000
00100000
00000000
00010000
00000000
00001000
00000000
00000000
00110000
,
00000000
00001100
00000000
00000000
00010000
00000000
00001000
00000000
00000100
00000000
00000010
00000000
00000100
00000000
00000001
00000000
,
00001001
00000000
00001000
00000000
00000010
00000000
00000100
00000000
00000001
00000000
00000100
00000000
00001000
00000000
00000000
00010100
,
00000000
00101000
00000000
00000000
00010000
00000000
01000000
00000000
10000000
00000000
00010000
00010000
00000000
10000000
10000000
00000000
,
00010000
10000000
01000000
00100000
00000000
01000000
00100000
00010000
,
10000000
00010000
00000000
10000000
00100000
10000000
00100000
10000000
,
00010000
01000000
00010000
01000000
00010000
00100000
00001000
00100000
,
00000000
00001000
00000000
00100000
00001000
00010000
00001000
00010000
,
00000000
00001000
00000000
00010000
00000000
00000010
00001000
00000010
,
00001000
00000010
00000000
00001000
00000000
00000100
00001000
00000100
,
00000000
00000010
00000001
00000000
00000001
00000010
00000000
00000001
,
00000000
00000001
00000000
00000001
00000000
00000100
00000001
00000100
,
00000000
00000001
00000000
00000100
00000010
00000100
00000010
00001000
,
00000000
00000010
00000000
00001000
00000100
00001000
00000100
00010000
,
00001000
00010000
00001000
00010000
00001000
00100000
00010000
00100000
,
00000000
00010000
00000000
00100000
00000000
00010000
01000000
00010000
,
00000000
01000000
00000000
00100000
00000000
01000000
00100000
01000000
,
00100000
10000000
00000000
00010000
10000000
00010000
10000000
00010000
,
00000000
00100000
00010000
00000000
00010000
00100000
00000000
01000000
,
00000000
01000000
00000000
01000000
00000000
10000000
00010000
10000000
,
00000000
00010000
00000000
10000000
00000000
00100000
01000000
00100000
,
01000000
00100000
00000000
00010000
00000000
00001000
00010000
00001000
,
00010000
00001000
00010000
00001000
00000000
00000100
00000000
00000010
,
00000100
00000010
00000000
00001000
00000000
00000001
00001000
00000001
,
00000000
00000010
00000000
00000100
00000000
00001000
00000001
00001000
,
00000100
00001000
00000000
00000010
00000000
00000100
00000010
00000100
,
00000001
00001000
00000000
00000001
00001000
00000010
00001000
00000010
,
00010000
00000010
00010000
00001000
00000000
00100000
00010000
00100000
,
00000000
00010000
00000000
10000000
00000000
01000000
10000000
01000000
,
10000000
00100000
00000000
01000000
00000000
00010000
01000000
00010000
,
01000000
00010000
00100000
00001000
00000000
00100000
00000000
00001000
,
00010000
00000100
00000000
00010000
00000000
00000100
00001000
00000001
,
00000000
00001000
00000000
00000001
00000000
00000100
00000001
00000100
,
00000010
00000100
00000000
00000010
00000000
00001000
00000001
00001000
,
00000100
00001000
00000000
00000001
00000100
00000010
00001000
00000100
,
00010000
00001000
00100000
00010000
01000000
00100000
00000000
02100000
,
00000000
00010000
00000000
03020000
00000000
00100000
00000000
00230000
,
00000000
01000000
00000000
02300000
00000000
10000000
00000000
23000000
,
00000000
00010000
00000000
30020000
00000000
01000000
00000000
01030000
,
00000000
01100000
00000000
00000000
00011000
00000000
00000000
00000120
,
00000000
00000001
00000000
00000001
00000000
00000031
00000000
00000002
,
00000000
00000100
00000000
00000203
00000000
00000010
00000000
00000320
,
00000000
00001000
00000000
00002030
00000000
00000100
00000000
00003100
,
00000000
00011000
00000000
00000000
02200000
00000000
00000000
03300000
;

//---------------dance-single - ----------------
#NOTES:
     dance-single:
     :
     Challenge:
     10:
     0.843,0.920,0.349,0.434,0.368: // measure 1
0000
0000
0000
0000
,  // measure 2
0000
0000
0000
0000
1000
0001
0010
0200
0000
0000
0000
0000
0000
0000
0000
0000
,  // measure 3
0000
0000
0000
0000
,  // measure 4
0320
0000
0032
0000
,  // measure 5
0103
0000
0020
0000
0030
0020
0000
0030
,  // measure 6
0110
0000
0000
0000
0000
0000
0000
0000
1000
0000
0100
0000
1000
0000
0001
0000
0000
0000
0000
0100
0000
0000
0000
0000
0000
0010
0000
0000
0000
0000
0000
1000
,  // measure 7
0000
0000
0000
0000
0000
0100
0000
0000
0000
0000
0000
1000
0000
0000
0000
0000
0000
0010
0000
0000
0000
0000
0000
0100
0000
0000
0000
0000
0000
0001
0000
0000
,  // measure 8
0000
0000
0000
0010
0000
0000
0000
0000
0000
0001
0000
0000
0000
0000
0000
0100
0000
0000
0000
0000
0000
1000
0000
0000
0000
0000
0000
0100
0000
0000
0000
0000
,  // measure 9
0000
0001
0000
0000
0000
0000
0000
0000
2000
0000
0000
0000
0000
0000
0000
0000
3000
0000
0000
0000
2000
0000
0000
0000
0000
0000
0000
0000
3000
0000
0000
0000
,  // measure 10
0120
0100
1000
1030
,  // measure 11
0002
0000
0020
0003
2000
0030
0200
3000
,  // measure 12
0020
0300
2000
0030
0002
3000
0010
0003
,  // measure 13
0110
0000
0002
0000
0003
0002
0000
0003
,  // measure 14
0001
0000
0000
0000
1000
0100
0010
0002
2000
0000
0003
0000
0002
0000
3000
0000
,  // measure 15
0200
0003
2000
0300
0020
3000
0002
0030
,  // measure 16
0200
0003
0020
0300
0002
0030
0200
0003
,  // measure 17
2000
0300
3001
0100
0000
0110
0110
0000
,  // measure 18
1000
0000
0100
0000
1000
0000
0001
0100
0000
0001
0100
0000
0010
0000
0000
0000
,  // measure 19
0100
0000
0001
0000
1000
0000
0100
1000
0000
0100
1000
0000
0010
0000
0000
0000
,  // measure 20
0100
0000
0001
0000
1000
0000
0010
1000
0000
0010
1000
0000
0100
0000
0010
0000
,  // measure 21
0010
0000
0100
0100
0000
1001
1001
0000
,  // measure 22
0010
0000
0100
0000
0001
0000
1000
0100
0000
1000
0100
0000
0010
0000
0000
0000
,  // measure 23
0100
0000
1000
0000
0001
0000
0100
0001
0000
0100
0001
0000
0010
0000
0000
0000
,  // measure 24
0001
0000
1000
0000
0010
0000
0100
0001
0000
0100
0001
0000
0010
0000
0100
0000
,  // measure 25
0100
0000
0220
0000
0330
0022
0000
0033
,  // measure 26
1100
1000
0100
0001
0100
1000
0010
0100
,  // measure 27
0001
0010
0100
1000
0010
0001
0010
1000
,  // measure 28
0001
0100
1000
0100
0001
0010
0100
0010
,  // measure 29
0001
0000
1000
1000
0000
0110
0110
0000
,  // measure 30
0001
0100
0010
0100
0001
1000
0100
0010
,  // measure 31
0100
1000
0010
0100
0001
1000
0100
0001
,  // measure 32
0100
1000
0010
0100
0001
1000
0100
1000
,  // measure 33
0010
0000
0000
0000
0100
0000
0100
0000
0000
0000
0010
0000
1000
0001
1000
0001
,  // measure 34
1000
0000
0010
0000
0100
0000
0001
1000
0001
1000
0001
0000
0010
0000
0100
0000
,  // measure 35
0001
0000
0100
0000
1000
0000
0001
0100
0001
0100
0001
0000
1000
0000
0010
0000
,  // measure 36
0001
0000
0010
0000
1000
0000
0100
1000
0100
1000
0100
0000
0010
0000
0001
0000
,  // measure 37
0100
0010
1001
1001
0100
0011
0011
1000
,  // measure 38
0010
0000
0100
0000
0001
0000
1000
0100
1000
0001
1000
0000
0010
0000
0100
0000
,  // measure 39
0001
0000
1000
0000
0100
0000
0010
0001
0010
0100
0010
0000
0001
0000
1000
0000
,  // measure 40
0100
0000
1000
0000
0010
0000
0100
0001
0100
0010
0100
0000
0001
0000
1000
0000
,  // measure 41
0010
0000
0100
0000
0001
0000
1000
0100
0001
0100
1000
0000
0001
0000
0010
0000
,  // measure 42
0100
0000
0010
0001
0000
1000
0001
0000
0100
0010
0000
1000
0010
0000
0100
0001
,  // measure 43
0000
1000
0010
0100
0001
0000
0010
0001
0000
0001
0100
0000
0100
0010
0000
0000
,  // measure 44
1000
0000
0100
1000
0000
0001
0100
0000
0010
0100
0000
0010
1000
0000
0001
0010
,  // measure 45
0000
0010
0100
1000
0001
0000
0100
0001
1000
0000
0010
0100
0000
2002
3003
0100
,  // measure 46
0000
1000
0000
0000
0000
0000
0011
0000
0000
0000
0000
0000
1000
0000
0000
0000
,  // measure 47
1000
0010
0000
0110
0000
0100
0100
0001
,  // measure 48
0000
1000
0000
0010
1000
0000
0001
0000
,  // measure 49
0010
0100
0000
1000
0000
0001
0100
0001
,  // measure 50
0000
1000
0000
0100
0010
0000
1001
0000
,  // measure 51
0000
0110
0000
0001
0100
0010
1000
0001
,  // measure 52
0000
0010
0000
0100
0100
0000
0000
1001
,  // measure 53
0000
1100
0000
1001
0000
0001
0010
0200
,  // measure 54
0000
0300
0000
1000
1000
0000
0001
0000
,  // measure 55
1000
0100
0010
0001
0000
0100
0100
0010
,  // measure 56
0000
1000
0000
0001
0010
0100
0000
0001
,  // measure 57
0000
0100
0000
1000
0000
0010
0100
0001
,  // measure 58
0000
1000
0000
0010
0100
0001
1000
0100
,  // measure 59
0000
0010
0000
0100
1000
0001
0000
1001
,  // measure 60
0000
0001
0001
0000
1000
1000
0000
0110
,  // measure 61
0000
0101
0000
1001
0000
0010
0010
0200
,  // measure 62
0000
0301
0000
1000
0000
0000
0001
0010
,  // measure 63
0100
0010
0100
1000
0000
0001
0010
0001
,  // measure 64
0000
1001
0000
1100
0000
0000
1000
0010
,  // measure 65
0100
0010
0100
0001
0000
1000
0010
1000
,  // measure 66
0000
1001
0000
0101
0000
0000
1000
0001
,  // measure 67
0010
0001
0010
0100
1000
0001
0100
0001
,  // measure 68
0100
0010
1000
0100
1000
0100
1000
0001
,  // measure 69
0000
0101
0000
0101
0000
0101
0000
2001
,  // measure 70
0000
0010
0000
0100
0000
3001
0000
0100
,  // measure 71
0001
0100
0001
1000
0100
0010
0001
0010
,  // measure 72
0000
0100
0000
1000
0000
0010
0000
0100
,  // measure 73
0001
0100
0001
1000
0100
0010
0100
1000
,  // measure 74
0001
0100
0001
1000
0100
0010
0100
1000
,  // measure 75
0001
0100
0010
0100
0001
1000
0100
0010
,  // measure 76
0001
1000
0001
0010
0100
1000
0001
0100
,  // measure 77
0010
1000
0100
0010
0100
1000
0010
0002
,  // measure 78
0000
0103
0000
0110
0000
0020
0000
0032
,  // measure 79
0000
2003
0000
0000
3010
0000
0010
0200
,  // measure 80
0000
0302
0000
1003
0100
0010
0001
0100
,  // measure 81
0000
0000
0020
0000
0000
0000
0030
0000
0020
0000
0000
0000
0030
0000
1000
0100
,  // measure 82
1000
0000
0001
0000
0100
0010
0100
0000
0001
0000
0010
0000
0001
1000
0001
0000
,  // measure 83
0100
0000
0010
1000
0010
0000
0100
0000
0001
0010
0001
0000
0100
0000
1000
0000
,  // measure 84
0100
0000
0010
0000
1000
0100
1000
0000
0100
0000
0001
0000
0100
0010
0100
0000
,  // measure 85
1000
0000
0001
0000
0100
0010
0100
0000
0001
0000
0010
0000
1000
0000
0000
0000
;
