#TITLE:TOGETHER & FOREVER;
#SUBTITLE:(Solo Bass Mix);
#ARTIST:NINEBALL feat.ATOMIC GUN & JULIA;
#TITLETRANSLIT:;
#SUBTITLETRANSLIT:;
#ARTISTTRANSLIT:;
#CREDIT:;
#BANNER:TOGETHER & FOREVER.png;
#BACKGROUND:TOGETHER & FOREVER-bg.png;
#LYRICSPATH:;
#CDTITLE:Dance Dance Revolution Solo.png;
#MUSIC:TOGETHER & FOREVER.ogg;
#OFFSET:0.000;
#SAMPLESTART:39.985;
#SAMPLELENGTH:15.000;
#SELECTABLE:YES;
#DISPLAYBPM:150.000;
#BPMS:0.000=150.057;
#STOPS:;
#BGCHANGES:;

//---------------dance-single - ----------------
#NOTES:
     dance-single:
     :
     Easy:
     3:
     :
0000
0000
0000
0000
,
0000
0000
0000
0000
,
0000
0000
0000
0000
,
0000
0000
0000
0000
,
0000
0000
0000
0000
,
0000
0000
0001
0010
,
0000
0000
1000
0100
,
0000
0000
0010
0010
,
0000
0000
0100
0001
,
0000
0000
1000
0100
,
0001
0000
1000
0000
,
0000
0000
0010
0010
,
0000
0000
0100
0100
,
0000
0000
0001
0100
,
0000
0001
0010
1001
,
0000
0000
1000
0100
,
0000
1000
0010
1001
,
0000
0000
0100
0001
,
0000
0100
0010
1001
,
0000
0000
0010
0100
,
1001
0110
1001
0100
,
1000
0000
0000
0100
,
0001
0000
0000
0000
,
0010
0010
0100
0100
,
0001
0001
0001
0001
,
0010
0001
0100
0000
,
0100
1000
0010
0000
,
1000
1000
0001
0001
,
0100
0100
0010
0010
,
0010
0001
0100
0000
,
0100
1000
0010
0000
,
0010
0010
0100
0100
,
1000
1000
0001
0001
,
0010
0001
1000
0100
,
0010
0000
0010
0000
0010
0000
1000
0001
,
0000
0000
0010
0001
,
0000
0000
0100
1000
,
0001
0010
1000
0100
,
0010
0000
0010
0000
0010
0000
1000
0001
,
0000
0000
0100
0100
,
0001
0001
1000
1000
,
0100
0000
0001
0000
,
0100
0000
1000
0000
,
0001
0001
1000
1000
,
0010
0010
0100
0100
,
0100
0000
0001
0000
,
0100
0000
1000
0000
,
0010
1000
0100
0001
,
0001
1000
0000
0000
,
0001
0001
0010
0001
,
1000
1000
0010
1000
,
0010
0010
0100
0100
,
0010
0000
0010
0010
0000
0000
0000
0000
,
1000
1000
0010
1000
,
0001
0001
0010
0001
,
0100
0100
0010
0010
,
0100
0000
0100
0100
0000
0000
0000
0000
;

//---------------dance-single - ----------------
#NOTES:
     dance-single:
     :
     Medium:
     5:
     :
0000
0000
0000
0000
,
0000
0000
0000
0000
,
0000
0000
0000
0000
,
0000
0000
0000
0000
,
0000
0000
0000
0000
,
0001
0000
0010
0000
0000
1000
0001
0000
,
0010
0000
0010
0000
0001
1000
0001
0000
,
1000
0000
0010
0000
0000
0001
1000
0000
,
0010
0000
0010
0000
1000
0001
1000
0000
,
0100
1000
0100
0001
,
0010
0010
1001
0000
,
0000
0000
0010
0001
,
0000
0000
0010
1000
,
0010
1000
0001
0000
1000
0001
0100
0000
,
0000
0000
1001
1001
,
0010
0001
0010
0000
1000
0010
1000
0000
,
0100
0010
0100
0010
0100
0000
1001
0000
,
0000
0000
0000
0000
0100
0100
0100
0000
,
0010
1000
0001
0010
0100
0000
1001
0000
,
0000
0000
0000
0000
0001
0001
0001
0000
,
0010
0001
1000
0010
0100
0000
0000
0000
,
0000
0000
0100
0001
0010
0000
0000
0000
,
0000
0000
0100
1000
0010
0000
0000
0000
,
0100
0010
0100
0010
1000
0001
0100
0001
,
1000
0010
1000
0100
,
0010
0000
0001
0010
0000
0001
0100
0000
,
0010
0000
1000
0010
0000
1000
0100
0000
,
1001
0110
0001
0100
,
0010
0001
0100
1000
,
0010
0000
1000
0010
0000
1000
0100
0000
,
0010
0000
0001
0010
0000
0001
0100
0000
,
1001
0110
1000
0100
,
0010
1000
0100
0001
,
0001
0100
1000
0100
,
0001
1000
0001
0000
0100
0000
0100
0100
,
0000
0000
0100
0001
,
0010
1000
0100
0001
,
1000
0100
0001
0100
,
1000
0001
1000
0000
0100
0000
0100
0100
,
0000
0000
0100
1000
,
1000
0100
0001
0100
,
1000
0100
1000
0000
0000
0100
0100
0000
,
1000
0100
1000
0000
0000
0100
0100
0000
,
0010
0001
0100
1000
,
1000
0100
0001
0010
,
0010
0100
0010
0000
0000
1000
1000
0000
,
0100
0010
0100
0000
0000
0001
0001
0000
,
0010
0010
0000
0000
1000
1000
0000
0000
,
0100
0010
0000
0000
,
0001
0100
0001
0000
0000
0100
1000
0000
,
1000
0100
1000
0000
0000
0100
0001
0000
,
0001
0100
0001
0000
0000
0100
1000
0000
,
0010
0000
0001
0001
0000
0000
0000
0000
,
0001
0100
0001
0000
0000
0100
1000
0000
,
1000
0100
1000
0000
0000
0100
0001
0000
,
0001
0100
0001
0000
0000
0100
1000
0000
,
1000
0000
0100
0100
0000
0000
0000
0000
;

//---------------dance-single - ----------------
#NOTES:
     dance-single:
     :
     Hard:
     7:
     :
0000
0000
0000
0000
,
0000
0000
0000
0000
,
0000
0000
0000
0000
,
0000
0000
0000
0000
,
0000
0000
0000
0000
,
0010
0000
0100
0010
0000
0100
0010
0000
,
0001
0000
1000
0001
0000
1000
0001
0000
,
1000
0000
0001
1000
0000
0001
1000
0000
,
0100
0000
0010
0100
0000
0010
0100
0000
,
1000
0000
0001
1000
0000
0001
1000
0000
,
0001
0000
1000
0001
0000
1000
0001
0000
,
1000
1000
1000
1000
,
0001
0001
0001
0001
,
0010
0100
1000
0000
0010
0100
0001
0000
,
0010
0100
1000
0010
0100
0000
1001
0000
,
0010
1000
0100
0000
0010
0001
0100
0000
,
0010
0100
1000
0010
0100
0000
1001
0000
,
0010
0100
0001
0000
0100
0001
1000
0000
,
1000
0100
0010
0001
1000
0000
0110
0000
,
0001
1000
0100
0010
0001
1000
1000
0000
,
0010
1000
0010
0100
0010
0000
0000
0000
,
0001
1000
0010
0000
,
0100
0001
0010
0000
,
0100
1000
0010
0100
0001
0010
0100
1000
,
1100
0011
0110
1001
,
0000
0001
0000
0001
,
0000
0010
0100
1000
,
0000
0001
0000
0001
,
0000
0100
0010
1000
,
0000
0001
0000
0001
,
0000
0010
0100
1000
,
0000
0001
0000
0001
,
0000
1000
0001
0010
,
0001
0000
0001
0000
1000
0010
0100
0000
,
1000
0000
1000
0000
0001
0010
0100
0000
,
0001
0000
0001
0000
0100
0010
1000
0000
,
1000
0000
1000
0000
0100
0010
0001
0000
,
0010
0000
0100
0000
0001
0100
0010
0000
,
1000
0000
0010
0000
1000
0100
0010
0000
,
0100
0000
0001
0000
0100
0010
1000
0000
,
0001
0100
0100
0100
,
0010
1000
0100
1000
0010
1000
0100
1000
,
0010
1000
0100
1000
0010
1000
0100
0000
,
0010
0001
0100
0001
0010
0001
0100
0001
,
0010
0001
0100
0001
0010
0001
0100
0000
,
0010
1000
0100
1000
0010
1000
0100
0010
,
0001
0100
0001
1000
0010
1000
0100
0000
,
0010
0001
0100
0001
0010
0001
0100
0010
,
1000
0100
1000
0001
0010
0001
0100
0000
,
0001
0000
0100
0001
0000
0100
0001
0000
,
1000
0000
0100
1000
0000
0100
1000
0000
,
0001
0000
0100
0001
0000
0100
0001
0000
,
1000
0000
0100
1000
0000
0000
0000
0000
,
0001
0000
0100
0010
0000
0100
0010
0000
,
1000
0000
0100
0001
0000
0100
1000
0000
,
0010
0000
0100
0010
0000
0100
0010
0000
,
1000
0000
0100
0001
0000
0000
0000
0000
;

//---------------dance-solo - ----------------
#NOTES:
     dance-solo:
     :
     Easy:
     3:
     :
000000
000000
000000
000000
,
000000
000000
000000
000000
,
000000
000000
000000
000000
,
000000
000000
000000
000000
,
000000
000000
000000
000000
,
000000
000000
000010
000010
,
000000
000000
010000
010000
,
000000
000000
000100
000100
,
000000
000000
001000
000001
,
000000
000000
100000
001000
,
000001
000000
100000
000000
,
000000
000000
000100
000100
,
000000
000000
001000
001000
,
000000
000000
000001
001000
,
000000
000001
000100
010010
,
000000
000000
100000
001000
,
000000
100000
000100
010010
,
000000
000000
001000
000001
,
000000
000010
000100
100001
,
000000
000000
000100
001000
,
100001
001100
100001
001000
,
100000
000000
000000
001000
,
000001
000000
000000
000000
,
000100
000100
001000
001000
,
000001
000001
000001
000001
,
000100
000001
001000
000000
,
001000
100000
000100
000000
,
100000
100000
000001
000001
,
001000
001000
000100
000100
,
000100
000001
001000
000000
,
001000
100000
000100
000000
,
000100
000100
001000
001000
,
100000
100000
000001
000001
,
000010
000010
010000
010000
,
000100
000000
000100
000000
000100
000000
010000
000010
,
000000
000000
000100
000001
,
000000
000000
001000
100000
,
000010
000010
010000
010000
,
000100
000000
000100
000000
000100
000000
010000
000010
,
000000
000000
001000
001000
,
000001
000001
100000
100000
,
001000
000000
000001
000000
,
001000
000000
100000
000000
,
000001
000001
100000
100000
,
000100
000100
001000
001000
,
001000
000000
000001
000000
,
001000
000000
100000
000000
,
000100
100000
001000
000001
,
000001
100000
000000
000000
,
000001
000001
000010
000010
,
100000
100000
010000
010000
,
000100
000100
001000
001000
,
000100
000000
000100
000100
000000
000000
000000
000000
,
100000
100000
010000
010000
,
000001
000001
000010
000010
,
001000
001000
000100
000100
,
001000
000000
001000
001000
000000
000000
000000
000000
;

//---------------dance-solo - ----------------
#NOTES:
     dance-solo:
     :
     Medium:
     6:
     :
000000
000000
000000
000000
,
000000
000000
000000
000000
,
000000
000000
000000
000000
,
000000
000000
000000
000000
,
000000
000000
000000
000000
,
000010
000000
000010
000000
000000
100000
000001
000000
,
000100
000000
000100
000000
000001
100000
000001
000000
,
010000
000000
010000
000000
000000
000001
100000
000000
,
000100
000000
000100
000000
100000
000001
100000
000000
,
001000
010000
001000
000010
,
000100
000100
010010
000000
,
000000
000000
000100
000011
,
000000
000000
000100
110000
,
000100
100000
000001
000000
100000
000001
001000
000000
,
000000
000000
100001
010010
,
000010
000010
000010
000000
010000
010000
010000
000000
,
001000
001000
001000
001000
001000
000000
100001
000000
,
000000
000000
000000
000000
001000
001000
001000
000000
,
000100
100000
000001
000100
001000
000000
100001
000000
,
000000
000000
000000
000000
000001
000001
000001
000000
,
000100
000001
100000
000100
001000
000000
000000
000000
,
000000
000000
001000
000001
000010
000000
000000
000000
,
000000
000000
001000
100000
010000
000000
000000
000000
,
001000
001000
001000
001000
100000
000001
001000
000001
,
010000
010000
010000
010000
,
000100
000000
000001
000100
000000
000010
000010
000000
,
000100
000000
000001
000100
000000
000010
000010
000000
,
000101
000110
000001
001000
,
000100
000001
001000
100000
,
000100
000000
100000
000100
000000
010000
010000
000000
,
000100
000000
100000
000100
000000
010000
010000
000000
,
100100
010100
100000
001000
,
000100
100000
001000
000001
,
000001
001000
100000
001000
,
000001
100000
000001
000000
001000
000000
001000
001000
,
000000
000000
001000
000001
,
000100
100000
001000
000001
,
100000
001000
000001
001000
,
100000
000001
100000
000000
001000
000000
001000
001000
,
000000
000000
001000
100000
,
100000
001000
000001
001000
,
100000
001000
100000
000000
000000
001000
001000
000000
,
010000
001000
010000
000000
000000
001000
001000
000000
,
000100
000001
001000
100000
,
100000
001000
000001
000100
,
000100
001000
000100
000000
000000
100000
100000
000000
,
001000
000100
001000
000000
000000
000001
000001
000000
,
000100
000100
000000
000000
100000
100000
000000
000000
,
001000
000010
000000
000000
,
000001
001000
000001
000000
000000
001000
100000
000000
,
100000
001000
100000
000000
000000
001000
000001
000000
,
000001
001000
000001
000000
000000
001000
100000
000000
,
000100
000000
000001
000001
000000
000000
000000
000000
,
000001
001000
000001
000000
000000
001000
100000
000000
,
100000
001000
100000
000000
000000
001000
000001
000000
,
000001
001000
000001
000000
000000
001000
100000
000000
,
100000
000000
001000
001000
000000
000000
000000
000000
;

//---------------dance-solo - ----------------
#NOTES:
     dance-solo:
     :
     Hard:
     7:
     :
000000
000000
000000
000000
,
000000
000000
000000
000000
,
000000
000000
000000
000000
,
000000
000000
000000
000000
,
000000
000000
000000
000000
,
000100
000000
001000
000100
000000
001000
000100
000000
,
000001
000000
100000
000001
000000
100000
000001
000000
,
100000
000000
000001
100000
000000
000001
100000
000000
,
001000
000000
000100
001000
000000
000100
001000
000000
,
010000
000000
000001
010000
000000
000001
010000
000000
,
000010
000000
100000
000010
000000
100000
000010
000000
,
100000
100000
100000
100000
,
000001
000001
000001
000001
,
000100
001000
100000
000000
000100
001000
000001
000000
,
000010
001000
010000
000100
001000
000000
100001
000000
,
000100
100000
010000
000000
000100
000001
000010
000000
,
000100
001000
100000
000100
001000
000000
100001
000000
,
010000
001000
000010
000000
001000
010000
000010
000000
,
100000
001000
000100
000001
100000
000000
001100
000000
,
000001
100000
001000
000100
000001
100000
100000
000000
,
010000
100000
000100
000001
000010
000000
000000
000000
,
001000
100000
000100
000000
,
001000
000001
000100
000000
,
001000
100000
000100
001000
000001
000010
100000
010000
,
010100
000110
001100
100001
,
000000
000001
000000
000001
,
000000
000010
100000
001000
,
000000
000001
000000
000001
,
000000
000100
100000
001000
,
000000
000001
000000
000001
,
000000
010000
100000
001000
,
000000
000001
000000
000001
,
000000
010000
000010
000100
,
000001
000000
000001
000000
100000
000100
010000
000000
,
100000
000000
100000
000000
000001
000100
000010
000000
,
000001
000000
000001
000000
001000
000100
100000
000000
,
100000
000000
100000
000000
001000
000100
000001
000000
,
000010
000000
000010
000000
000001
001000
000100
000000
,
010000
000000
010000
000000
100000
001000
000100
000000
,
000010
000000
000001
000000
001000
000100
100000
000000
,
000001
001000
001000
001000
,
000100
100000
001000
010000
000100
100000
001000
010000
,
000100
100000
001000
010000
000100
100000
001000
000000
,
000100
000001
001000
000010
000100
000001
001000
000010
,
000100
000001
001000
000010
000100
000001
001000
000000
,
000100
100000
001000
010000
000100
100000
001000
000100
,
000010
001000
000001
010000
000100
100000
001000
000000
,
000100
000001
001000
000010
000100
000001
001000
000100
,
010000
001000
100000
000010
000100
000001
001000
000000
,
000001
000000
001000
000001
000000
001000
000001
000000
,
100000
000000
001000
100000
000000
001000
100000
000000
,
000010
000000
001000
000010
000000
001000
000010
000000
,
010000
000000
001000
010000
000000
000000
000000
000000
,
000010
000000
001000
000100
000000
001000
010000
000000
,
100000
000000
001000
000001
000000
001000
100000
000000
,
010000
000000
001000
000100
000000
001000
000010
000000
,
000001
000000
001000
100000
000000
000000
000000
000000
;

//---------------dance-solo - ----------------
#NOTES:
     dance-solo:
     :
     Challenge:
     9:
     :
000000
000000
000000
000000
,
000000
000000
000000
000000
,
000000
000000
000000
000000
,
000000
000000
000000
000000
,
000000
000000
000000
000000
,
110000
001000
100100
000000
100100
001000
110000
000000
,
001100
000000
000010
000000
010010
000000
000000
000000
010010
000000
000000
000010
001100
000001
000000
000000
,
001000
000110
001001
000000
001001
000000
001001
000000
,
001100
000010
010000
000000
010000
000010
001100
000000
,
011000
000000
000000
000000
100100
000000
011000
000000
100000
000000
000000
000100
011000
000000
000000
000000
,
000000
000000
000000
000000
,
110000
001000
100100
000000
100100
001000
110000
000000
,
001100
000000
000010
000000
010010
000000
000000
000000
010010
000000
000000
000010
001100
000001
000000
000000
,
001000
000110
001001
000000
001001
000000
001001
000000
,
001100
000010
010000
000000
010000
000010
001100
000000
,
011000
000000
000000
000000
100100
000000
011000
000000
100000
000000
000000
000100
011000
000000
000000
000000
,
000000
000000
000000
000000
,
110000
001000
100100
001000
110000
001000
100100
000000
,
001100
000000
000000
000000
010010
000000
001100
000000
010000
000000
000000
000010
001100
000000
000000
000000
,
001001
001001
000101
000010
,
001100
010010
010010
001100
,
100000
100000
100000
100000
,
010010
010010
010010
001100
,
000100
001010
000100
000000
000100
000000
000100
000000
,
000010
000000
000000
000010
000010
000010
000010
000000
,
000110
001001
001001
000110
,
010000
001100
010010
000000
010010
000000
010010
000000
,
000000
000000
000000
000000
,
011000
100100
001000
000000
001000
000000
001000
000000
,
010000
000000
010000
001100
010010
000000
010010
000000
,
001100
000000
000010
000000
010010
000000
000000
000000
010010
000000
000000
000010
001100
000001
000000
000000
,
001000
000110
001001
000000
001001
000000
001001
000000
,
010000
000000
010100
001000
011000
000100
010010
000000
,
000000
000000
000000
000000
,
100100
011000
001000
001000
,
001100
010010
010010
001100
,
001001
001001
001001
000110
,
000000
000000
000000
000000
,
001100
110000
100000
001000
110000
000000
100000
000000
,
001100
010010
010010
001100
,
001000
000011
001100
000000
001000
000000
001000
000000
,
000000
000000
000000
000000
,
100100
011000
001000
001000
,
001100
010010
010010
001100
,
001001
001001
001001
000110
,
010000
000110
011000
000000
010000
000000
010000
000000
,
000000
000000
000000
000000
,
110000
001000
100100
001000
110000
000000
100000
000000
,
010000
010000
010000
010000
,
001100
000000
000010
000000
010010
000000
000000
000000
010010
000000
000000
000010
001100
000001
000000
000000
,
001001
000110
000100
001000
,
000001
000000
000000
000001
000001
000001
000001
000000
,
010000
001100
010010
000000
010010
000000
010010
000000
,
011000
000000
100100
000000
100100
011000
000100
100000
,
011000
000000
000000
000000
,
010100
010100
010100
010100
000000
000000
010100
000000
;

//---------------dance-double - ----------------
#NOTES:
     dance-double:
     :
     Easy:
     3:
     0.197,0.243,0.043,0.108,0.000:
00000000
00000000
00000000
00000000
,
00000000
00000000
00000000
00000000
,
00000000
00000000
00000000
00000000
,
00000000
00000000
00000000
00000001
,
00000002
00000000
00000000
00000003
,
00000000
00000000
00000000
00001000
,
00002000
00000000
00000000
00003000
,
00000000
00000000
00000000
00010000
,
00020000
00000000
00000000
00030000
,
00000000
00000000
00000000
10000000
,
20000000
00000000
30000000
00000000
,
20020000
00000000
00000000
00000000
,
00000000
00000000
30030000
00000000
,
10000000
00000000
00100000
00000000
,
10000000
00000000
00100000
00000000
,
10000000
10000000
00100000
00100000
,
00010000
00010000
00001000
00000000
,
00000100
00000000
00000001
00000000
,
00000100
00000000
00000001
00000000
,
00000100
00000100
00000001
00000001
,
00000010
00000010
00001000
00000000
,
00011000
00000000
00010000
00000000
,
00011000
00000000
00001000
00000000
,
00010000
00000000
00100000
00000000
,
01000000
01000000
01000000
01000000
,
00100000
10000000
00010000
00000000
,
10000000
00100000
00010000
00000000
,
00100000
01000000
00001000
00000000
,
00001000
00100000
01000000
00000000
,
00100000
00001000
00010000
00000000
,
00001000
00000100
00000001
00000000
,
00000100
00000010
00001000
00000000
,
00000100
00000010
00001000
00000000
,
00000010
00010000
00000010
00000000
,
00010000
00001000
00010000
00000000
,
00100000
00001000
00100000
00000000
,
00001000
00010000
00001000
00000000
,
01000000
00100000
10000000
00000000
,
01000000
00100000
00010000
00000000
,
10000000
00100000
00010000
00000000
,
00001000
00000010
00000001
00000000
,
00000010
00000000
00001000
00000000
,
00010000
00000000
01000000
00000000
,
10000000
00000000
00100000
00000000
,
00010000
00000000
00001000
00000000
,
00000100
00000000
00000001
00000000
,
00000010
00000000
00001000
00000000
,
00010000
00000000
01000000
00000000
,
10000000
00000000
00010000
00000000
,
10010000
00000000
00000000
10000000
,
20000000
00000000
00000000
30000000
,
00000000
00000000
00000000
00010000
,
00020000
00000000
00000000
00030000
,
00000000
00000000
00000000
00001000
,
00002000
00000000
00000000
00003000
,
00000000
00000000
00000000
00000001
,
00000002
00000000
00000000
00000003
00000000
00000000
00000000
00000000
;

//---------------dance-double - ----------------
#NOTES:
     dance-double:
     :
     Medium:
     7:
     0.407,0.425,0.086,0.065,0.000:
00000000
00000000
00000000
00000000
,
00000000
00000000
00000000
00000000
,
00000000
00000000
00000000
00000000
,
00001000
00000000
00100000
00000000
00000000
00001000
00010000
00000000
,
00000100
00000000
00010000
00000000
00001000
00010000
00000010
00000000
,
00001000
00000000
00000100
00000000
00000000
00001000
00000100
00000000
,
00000010
00000000
00000001
00000000
00001000
00000010
00001000
00000000
,
00000001
00000000
00000100
00000000
00000000
00000001
00000100
00000000
,
00000001
00000000
00000010
00000000
00001000
00010000
00001000
00000000
,
00010000
00000000
00001000
00000000
00000000
00010000
00001000
00000000
,
00010000
00000000
00100000
00000000
10000000
00100000
10000000
00000000
,
20020000
00000000
00000000
00000000
,
00000000
00000000
00000000
30030000
,
10000000
00010000
00100000
00000000
00010000
10000000
00100000
00000000
,
10000000
00100000
00010000
00001000
00010000
00000000
00011000
00000000
,
00010000
00100000
00010000
00000000
00001000
00000010
00001000
00000000
,
00000010
00000100
00000010
00000100
00000010
00000000
00001001
00000000
,
00000001
00001000
00000010
00000000
00001000
00000001
00000010
00000000
,
00000001
00000010
00001000
00010000
00001000
00000000
00011000
00000000
,
00001000
00000010
00001000
00000000
00010000
00100000
00010000
00000000
,
00100000
01000000
00100000
01000000
00100000
00000000
00000000
00000000
,
00000000
00000000
01000000
00100000
01000000
00000000
00000000
00000000
,
00000000
00000000
00000100
00000010
00000100
00000000
00000000
00000000
,
00000010
00000100
00000010
00000100
00000001
00001000
00000010
00001000
,
00000001
00001001
00001001
00001001
,
00000000
00000100
00001000
00000100
00000000
00001000
00000010
00000100
,
00000000
00000000
00000001
00000000
00000100
00000000
00000001
00000010
,
00000000
00000100
00010000
00001000
00000000
00000010
00000100
00001000
,
00000000
00000000
00000010
00000000
00010000
00000000
00001000
01000000
,
00000000
00010000
00100000
00010000
00000000
00100000
00010000
01000000
,
00000000
00000000
00100000
00000000
10000000
00000000
01000000
10000000
,
00000000
00010000
00100000
00010000
00000000
10000000
01000000
10000000
,
00000000
01000000
10000000
00100000
,
00010000
00001000
00010000
00000000
00001000
00010000
00001000
00000000
,
00000100
00000010
00000100
00000000
00000002
00000000
00001000
00001003
,
00000000
00001000
00000001
00000010
,
00001000
00010000
00000010
00010000
,
00001000
00010000
00001000
00000000
00010000
00001000
00010000
00000000
,
01000000
00100000
01000000
00000000
20000000
00000000
00010000
30010000
,
00000000
00010000
10000000
00100000
,
00010000
00001000
00100000
00001000
,
00010000
00001000
00010000
00000000
00000000
01000000
01000000
00000000
,
10000000
00100000
10000000
00000000
00000000
00100000
00100000
00000000
,
00010000
00001000
00010000
00000000
00000000
00001000
00001000
00000000
,
00000100
00000001
00000100
00000000
00000000
00000001
00000001
00000000
,
00000010
00001000
00000010
00000000
00000000
00001000
00001000
00000000
,
00010000
00001000
00010000
00000000
00000000
01000000
01000000
00000000
,
10000000
00010000
00000000
00010000
10000000
00010000
00000000
00010000
,
20000000
30200000
00310000
00000000
,
00011000
00000000
00001000
00000000
00000000
00010000
00001000
00000000
,
00100000
00000000
00001000
00000000
00010000
00001000
01000000
00000000
,
00010000
00000000
00100000
00000000
00000000
00010000
00100000
00000000
,
01000000
00000000
10000000
00010000
00000000
00000000
00000000
00000000
,
10000000
00000000
00100000
00000000
00000000
10000000
00100000
00000000
,
10000000
00000000
01000000
00000000
00010000
00001000
00010000
00000000
,
00001000
00000000
00010000
00000000
00000000
00001000
00010000
00000000
,
00001000
00000000
00000100
00000100
00000000
00000000
00000000
00000000
;

//---------------dance-double - ----------------
#NOTES:
     dance-double:
     :
     Hard:
     10:
     0.756,0.760,0.334,0.183,0.464:
00000000
00000000
00000000
00000000
,
00000000
00000000
00000000
00000000
,
00000000
00000000
00000000
00001010
,
00000001
00000001
00000010
00000001
00000000
00001000
00000010
00000000
,
00000100
00000000
00000100
00000000
00000010
00000000
00001000
00000001
00001000
00000000
00000001
00000000
00000010
00000100
00000010
00000000
,
00001000
00001000
00010000
00001000
00000000
00010000
00100000
00000000
,
10000000
00000000
10000000
00000000
00100000
00000000
10000000
00010000
10000000
00000000
00100000
01000000
00100000
00000000
10000000
00010000
,
10000000
10000000
00100000
01000000
00000000
00010000
00100000
00000000
,
01000000
00000000
01000000
00000000
10000000
00000000
00010000
10000000
00010000
00000000
01000000
00000000
00100000
01000000
00100000
00000000
,
00010000
00010000
00001000
01000000
00000000
00100000
00010000
00000000
,
00001000
00000000
00001000
00000000
00000100
00000000
00000001
00000100
00000001
00000000
00001000
00000000
00000100
00000000
00000000
00000000
,
00000010
00000001
00000010
00000000
00000001
00000000
00000010
00000001
00000000
00001000
00000100
00000000
00001000
00000000
00000100
00010000
,
00000000
00001000
00010000
00000000
00001000
00000000
00100000
00010000
00000000
00100000
00010000
00000000
10000000
01000000
10000000
01000000
,
10000000
00000000
00010000
00100000
01000000
00100000
00010000
00000000
,
10000000
00000000
10000000
00000000
00100000
00000000
00010000
00000000
00000000
00000000
00100000
00000000
10000000
00100000
10000000
00000000
,
00100000
00000000
00010000
00001000
01000000
00001000
00000100
00000000
,
00001000
00000000
00001000
00000000
00000100
00000000
00000010
00000000
00000000
00000000
00001000
00000010
00001000
00000000
00000010
00001000
,
00000010
00000000
00010000
00001000
01000000
00001000
00000010
00000000
,
00000001
00000000
00000001
00000000
00000010
00000000
00001000
00000000
00000000
00000000
00001000
00000000
00000010
00000100
00000010
00000000
,
00000001
00001000
00000001
00000100
00000010
00000100
00001000
00000000
,
00001100
00000000
00000100
00000000
00000001
00001000
00000001
00001000
00000001
00000000
00000000
00000000
00001001
00000000
00000000
00000000
,
00000010
00000000
00001000
00000010
00000100
00000010
00000001
00000000
,
00000100
00000000
00000100
00000000
00001000
00000000
00010000
00000000
00000100
00000000
00010000
00000000
00100000
01000000
00100000
00000000
,
10000000
00000000
00010000
00100000
10000000
00100000
00010000
01000000
,
10100000
01010000
00110000
10010000
,
10000000
00100000
10000000
00100000
01000000
00010000
01000000
00010000
01000000
00010000
01000000
00010000
10000000
00100000
10000000
00100000
,
20000000
30200000
00320000
00032000
,
00003100
00000001
00000100
00000001
00001000
00000010
00001000
00000010
00001000
00000010
00001000
00000010
00000100
00000001
00000100
00000001
,
00000200
00000302
00000023
00002030
,
00013000
00001000
00010000
00001000
00100000
00010000
00100000
00010000
00100000
00010000
00100000
00010000
01000000
00001000
01000000
00001000
,
02000000
03200000
20300000
30020000
,
01030000
00010000
01000000
00010000
10000000
00100000
10000000
00100000
10000000
00100000
10000000
00100000
01000000
00010000
01000000
00010000
,
02000000
00000000
00000000
00000000
03200000
00000000
00000000
00000000
10300000
00100000
10000000
00000000
00010000
01000000
00010000
01000000
,
00010000
00000000
00000000
10000000
00100000
00000000
00010000
00000000
00010000
00000000
00100000
00000000
00100000
10000000
00100000
00000000
,
01000000
00000000
00000000
00100000
00010000
00000000
00100000
00000000
10000000
00000000
01000000
00000000
00010000
00000000
01000000
00000000
,
00010000
00000000
00001000
00000000
00001000
00010000
00001000
00000000
00010000
00001000
00010000
00000000
00001000
00000000
00001000
00000000
,
00000000
00000000
00011000
00000000
00011000
00000000
00000000
00000000
00011000
00000000
00011000
00000000
00001000
00000100
00000000
00000100
,
00001000
00000000
00000000
00000000
00000100
00000000
00000001
00000000
00000000
00000100
00000001
00000000
00000001
00000000
00000010
00000000
,
00000010
00000000
00000000
00000010
00000001
00000000
00000010
00000000
00001000
00000000
00000010
00000000
00000001
00000000
00000100
00000000
,
00001000
00000000
00010000
00000000
00010000
00001000
00010000
00000000
00010000
00000000
00010000
00000000
00010000
00000000
00100000
00000000
,
01000000
10010000
10010000
00100000
10010000
10010000
00000000
01000000
,
00110000
00100000
01000000
11000000
00000000
11000000
00010000
00000000
,
00110000
00100000
01000000
21000000
00000000
00000000
00100000
30100000
,
10100000
00100000
01000000
01010000
00000000
01010000
00100000
00000000
,
10100000
00100000
00010000
00012000
00000000
00010000
00010000
00013000
,
00011000
00001000
00000010
00001010
00000000
00001010
00000001
00000000
,
00000011
00000010
00000001
00002001
00000000
00000010
00003010
00000000
,
00000010
00000000
00010000
00000000
00010000
00000010
00000000
00000010
00010000
00000000
00000100
00000000
00010000
00000010
00000000
00000010
,
00001000
00000010
00001000
00000010
00000100
00000001
00000100
00000001
00000100
00000000
00000000
00000000
00001001
00000000
00001000
00000010
,
00001000
00000010
00001000
00000010
00000100
00000001
00000100
00000001
,
00000010
00000000
00001000
00000000
00000010
00000000
00001000
00010000
00001000
00000000
00010000
00000000
01000000
00010000
01000000
00010000
,
01000000
10000000
01000000
10000000
00100000
00010000
00100000
00010000
,
00001000
00000000
00000100
00000000
00001000
00000000
00000100
00000001
00000000
00000000
00000000
00000000
MMMMMMMM
00000000
00000000
00000000
,
00000010
00000001
00000010
00000001
00000100
00001000
00000100
00001000
,
00010000
00000000
00100000
00000000
00010000
00000000
00100000
10000000
00100000
00000000
10000000
00000000
01000000
10000000
01000000
10000000
,
01000000
00010000
01000000
00010000
00001000
00000010
00001000
00000010
,
00000001
00000000
00000100
00000000
00000001
00000000
00000100
00001000
00000000
00000000
00000000
00000000
00000000
00000000
00000000
00000000
;

//---------------dance-single - Edit by silenttype01----------------
#NOTES:
     dance-single:
     Edit by silenttype01:
     Challenge:
     10:
     0.750,0.760,0.334,0.140,0.464:
0000
0000
0000
0000
,
0000
0000
0000
0000
,
0000
0000
0000
1010
,
0001
0001
0010
0001
0000
1000
0010
0000
,
0100
0000
0100
0000
0010
0000
1000
0001
1000
0000
0001
0000
0010
0100
0010
0000
,
0001
0001
0100
0010
0000
1000
0100
0000
,
1000
0000
1000
0000
0010
0000
1000
0001
1000
0000
0010
0100
0010
0000
1000
0001
,
1000
1000
0010
0100
0000
0001
0010
0000
,
0100
0000
0100
0000
1000
0000
0001
1000
0001
0000
0100
0000
0010
0100
0010
0000
,
1000
1000
0001
0100
0000
0010
1000
0000
,
0001
0000
0001
0000
0100
0000
1000
0100
1000
0000
0100
0000
0001
0000
0000
0000
,
1000
0010
1000
0000
0010
0000
1000
0010
0000
0100
0001
0000
1000
0000
0010
1000
,
0000
0010
1000
0000
0001
0000
0100
0001
0000
0100
0001
0000
1000
0100
1000
0100
,
1000
0000
0001
0010
0100
0010
0001
0000
,
1000
0000
1000
0000
0010
0000
0001
0000
0000
0000
0010
0000
1000
0010
1000
0000
,
0010
0000
0100
0001
0100
1000
0100
0000
,
0100
0000
0100
0000
0010
0000
1000
0000
0000
0000
0001
0100
0001
0000
1000
0010
,
1000
0000
0100
1000
0001
0100
0001
0000
,
1000
0000
1000
0000
0001
0000
0010
0000
0000
0000
0010
0000
0001
1000
0001
0000
,
0100
1000
0010
1000
0100
0010
1000
0000
,
0101
0000
0001
0000
1000
0100
1000
0100
1000
0000
0000
0000
1001
0000
0000
0000
,
0100
0000
1000
0100
0001
0100
0001
0000
,
0100
0000
0100
0000
1000
0000
0100
0000
0001
0000
0100
0000
0010
0001
0010
0000
,
0001
0000
1000
0100
0001
0100
1000
0010
,
0101
1010
1100
0011
,
0010
0001
0010
0001
1000
0100
1000
0100
1000
0100
1000
0100
0010
0001
0010
0001
,
0020
0032
0203
0301
,
1000
0010
1000
0010
0100
0001
0100
0001
0100
0001
0100
0001
1000
0010
1000
0010
,
2000
3200
0302
0103
,
0010
0001
0010
0001
1000
0100
1000
0100
1000
0100
1000
0100
0010
0001
0010
0001
,
0020
0230
2300
3001
,
0100
0001
0100
0001
1000
0010
1000
0010
1000
0010
1000
0010
0100
0001
0100
0001
,
0200
0000
0000
0000
0310
0000
0000
0000
1000
0010
1000
0000
0001
0100
0001
0100
,
0001
0000
0000
1000
0010
0000
0001
0000
0001
0000
0010
0000
0010
1000
0010
0000
,
0100
0000
0000
0010
1000
0000
0010
0000
0100
0000
1000
0000
0100
0000
0001
0000
,
0100
0000
1000
0000
1000
0100
1000
0000
0100
0010
0100
0000
0010
0000
0010
0000
,
0000
0000
0110
0000
0110
0000
0000
0000
0110
0000
0110
0000
0010
0100
0000
0100
,
0001
0000
0000
0000
1000
0000
0100
0000
0000
0010
0100
0000
0001
0000
0001
0000
,
0100
0000
0000
1000
0100
0000
0010
0000
0001
0000
1000
0000
0100
0000
0010
0000
,
0100
0000
0001
0000
0001
0100
0001
0000
0001
0000
0001
0000
0001
0000
0100
0000
,
0010
1001
1001
0100
1001
1001
0000
0100
,
1010
0100
0001
0101
0000
0101
1000
0000
,
0011
0010
0100
2100
0000
0000
0010
3010
,
1010
0100
0001
0101
0000
0101
0010
0000
,
1010
1000
0001
1002
0000
1000
1000
1003
,
1001
0100
0010
1001
0000
1001
0100
0000
,
0101
0001
1000
2010
0000
0010
3010
0000
,
1000
0000
0001
0000
0001
0100
0000
0100
0001
0000
0010
0000
0001
1000
0000
1000
,
0010
0100
0010
0100
0001
1000
0001
1000
0001
0000
0000
0000
1001
0000
1000
0010
,
1000
0010
1000
0010
0100
0001
0100
0001
,
0010
0000
1000
0000
0010
0000
1000
0010
1000
0000
0010
0000
0001
0010
0001
0010
,
0001
0100
0001
0100
0010
1000
0010
1000
,
0100
0000
0001
0000
0100
0000
0001
0100
0000
0000
0000
0000
MMMM
0000
0000
0000
,
1000
0100
0010
0001
1000
0100
0010
0001
,
1000
0000
0100
0000
0010
0000
0001
0010
0001
0000
0010
0000
0100
1000
0100
1000
,
0100
1000
0001
0010
0100
1000
0001
0010
,
0100
0000
1000
0000
0001
0000
0010
0100
0000
0000
0000
0000
0000
0000
0000
0000
;
