#TITLE:think ya better D;
#SUBTITLE:;
#ARTIST:sAmi;
#TITLETRANSLIT:;
#SUBTITLETRANSLIT:;
#ARTISTTRANSLIT:;
#CREDIT:;
#BANNER:think ya better D.png;
#BACKGROUND:think ya better D-bg.png;
#LYRICSPATH:;
#CDTITLE:DanceDanceRevolutionSolo2000.png;
#MUSIC:think ya better D.ogg;
#OFFSET:0.000;
#SAMPLESTART:5.291;
#SAMPLELENGTH:15.000;
#SELECTABLE:YES;
#DISPLAYBPM:136.000;
#BPMS:0.000=136.364,4.000=136.008;
#STOPS:;
#BGCHANGES:;

//---------------dance-single - ----------------
#NOTES:
     dance-single:
     :
     Beginner:
     1:
     0.146,0.246,0.172,0.000,0.000:
0000
0000
0000
0000
,
0000
0000
0000
0000
,
0000
0000
0000
0000
,
0010
0000
0000
0000
,
0010
0000
0010
0000
,
0100
0000
0000
0000
,
0100
0000
0100
0000
,
0001
0000
0000
0000
,
0001
0000
1000
0000
,
1000
0000
0000
0000
,
1000
0000
0001
0000
,
0000
0000
0000
0000
,
0001
0000
0100
0000
,
0001
0000
0100
0000
,
0010
0000
0000
0000
,
0010
0000
0000
0000
,
1000
0000
0010
0000
,
1000
0000
0010
0000
,
0100
0000
0000
0000
,
0100
0000
0000
0000
,
1001
0000
0001
0000
,
0001
0000
0001
0000
,
1001
0000
1000
0000
,
1000
0000
1000
0000
,
0010
0000
0001
0000
,
0001
0000
0100
0000
,
0010
0000
1000
0000
,
1000
0000
0100
0000
,
1001
0000
0000
0000
,
1001
0000
0000
0000
,
0110
0000
0000
0000
,
0110
0000
0000
0000
,
1001
0000
0110
0000
,
1001
0000
0110
0000
,
0100
0000
0100
0000
,
0100
0000
0100
0000
,
1000
0000
0100
0000
,
0001
0000
0100
0000
,
1000
0000
0100
0000
,
0001
0000
0100
0000
,
0001
0000
0010
0000
,
0100
0000
0100
0000
,
1000
0000
0010
0000
,
0100
0000
0100
0000
,
1001
0000
0000
0000
,
1001
0000
0000
0000
,
1001
0000
0110
0000
,
1001
0000
0110
0000
,
0001
0000
0001
0000
,
0001
0001
0001
0000
,
1000
0000
0000
0000
,
1000
0000
0000
0000
,
0100
0000
0000
0000
,
0100
0000
0000
0000
,
1001
0000
0000
0000
;

//---------------dance-single - ----------------
#NOTES:
     dance-single:
     :
     Easy:
     3:
     0.215,0.246,0.010,0.000,0.000:
0000
0000
0000
0000
,
0000
0000
0000
0000
,
0000
0000
0000
0000
,
0010
0000
0100
1000
,
0010
0000
0001
0100
,
1000
0000
0100
0001
,
0010
0000
1000
0100
,
0001
0000
1000
0000
,
0010
0000
0001
0000
,
0100
0000
1000
0000
,
1000
0000
0100
0010
,
0001
0000
0100
0000
,
0010
0000
0000
0000
1000
0001
1000
0000
,
0100
0010
0001
1000
,
0010
1000
0100
0001
,
0000
0000
0000
0000
0001
1000
0001
0000
,
0010
0000
0010
0001
,
0100
1000
0010
0001
,
0100
0000
0001
1000
,
0010
0000
0001
0000
1000
0001
1000
0000
,
0010
0000
0000
0000
,
1000
0000
0000
0000
,
0100
0000
0000
0000
,
0001
1000
0001
1000
,
0010
0000
0000
0000
,
0001
0000
0000
0000
,
0100
0000
0000
0000
,
1000
0000
0000
0000
,
0010
0000
0000
0001
0001
0000
0100
0100
,
0000
0000
0001
1000
,
0010
0000
0000
0001
0001
0000
0100
0100
,
0000
0000
0001
1000
,
0010
0000
0000
1000
1000
0000
0100
0100
,
0000
0000
1000
0001
,
0010
0000
0000
1000
1000
0000
0100
0100
,
0000
0000
1000
0001
,
0010
0000
0000
0001
0001
0000
0100
0100
,
0000
0000
0001
1000
,
0010
1000
0100
0001
,
0010
0000
1000
0001
,
0010
0001
0100
1000
,
0010
1000
0100
0001
,
0010
0000
0100
0000
,
1000
0001
0010
0100
,
1000
0000
0001
0000
,
0010
0001
0100
1000
,
1000
0000
0001
0000
,
0010
0100
1000
0001
,
0100
0000
1000
0000
,
0010
0001
0100
1000
,
0010
0000
0100
0000
,
0001
0000
1000
0000
,
0100
0000
1000
0000
,
0001
0000
1000
0001
,
0110
0000
0000
0000
;

//---------------dance-single - ----------------
#NOTES:
     dance-single:
     :
     Medium:
     4:
     0.278,0.301,0.152,0.000,0.000:
0000
0000
0000
0000
,
0000
0000
0000
0000
,
0000
0000
0000
0000
,
0010
0000
1000
0100
,
0010
0000
0001
0100
,
1000
0000
0100
0001
,
0010
0000
0000
0000
0100
1000
0100
0000
,
0001
0000
1000
0000
,
0010
0000
0000
0000
0010
0001
0010
0000
,
0100
0000
1000
0000
,
1000
0000
0100
0010
,
0001
0000
0100
0000
,
0110
0000
0000
0000
1000
0001
1000
0000
,
0100
0000
0010
0000
0001
1000
0001
0000
,
0010
1000
0100
0110
,
0000
0000
0000
0000
0001
1000
0001
0000
,
0110
0000
0010
0001
,
0100
1000
0010
0001
,
0110
0000
0000
0000
1000
0001
1000
0000
,
0010
0000
0001
0000
0001
1000
0001
0000
,
0010
0001
0100
1000
,
0100
0001
0010
1000
,
0110
0000
0100
1000
,
0001
1000
0001
1000
,
0010
1000
0100
0001
,
0010
0001
0100
1000
,
0110
0000
0100
0001
,
0010
0001
0100
1000
,
0010
0001
0000
0001
0100
0000
0100
1000
,
0000
0000
1000
0001
,
0010
0001
0000
0001
0100
0000
0100
1000
,
0000
0000
1000
0001
,
0010
1000
0000
1000
0100
0000
0100
0001
,
0000
0000
0001
1000
,
0010
1000
0000
1000
0100
0000
0100
0001
,
0000
0000
0001
1000
,
0010
0001
0000
0001
0100
0000
0100
1000
,
0000
0000
1000
0001
,
0010
1000
0100
0001
,
0010
0000
1000
0001
,
0010
0001
0100
1000
,
0010
1000
0100
0001
,
0110
0000
1001
0000
,
0010
0001
0100
1000
,
1000
0000
0001
0000
,
0010
0001
0100
1000
,
0110
0000
1001
0000
,
0010
0001
0100
1000
,
0100
0000
1000
0000
,
0010
0001
0100
1000
,
0010
0000
0100
0000
,
0110
0000
1001
0000
,
0100
0000
1000
0000
,
0110
0000
0010
0110
,
1001
0000
0000
0000
;

//---------------dance-single - ----------------
#NOTES:
     dance-single:
     :
     Hard:
     5:
     0.374,0.437,0.223,0.000,0.000:
0000
0000
0000
0000
,
0000
0000
0000
0000
,
0000
0000
0000
0000
,
0010
1000
0001
0100
,
0010
0001
0100
1000
,
0010
1000
0100
0001
,
0010
0000
0010
0000
0010
0100
0010
0000
,
0001
1000
0001
1000
,
0010
0000
0001
0000
1000
0100
0001
0000
,
0010
1000
0100
0001
,
1000
0000
0000
0000
0010
0100
0010
0000
,
0001
0000
0100
0000
,
0010
1000
0010
0000
0100
0010
0100
0000
,
0100
0001
0100
0001
1000
0001
1000
0000
,
0010
0000
1000
0000
0100
0010
0100
0000
,
0001
0000
0000
0000
0001
1000
0001
0000
,
0110
0000
0010
0001
,
0100
0000
1000
0000
0010
0001
0010
0000
,
0110
0000
0000
0000
1000
0001
1000
0000
,
0010
0000
0001
0000
0001
1000
0001
0000
,
0010
1000
0010
0000
0100
0010
0100
0000
,
0100
0001
0100
0001
1000
0001
1000
0000
,
0010
1001
0110
1001
,
0010
1001
0100
1001
,
0010
1000
0100
0001
,
0010
0001
0100
1000
,
0010
1000
0010
1000
0100
0010
0100
0010
,
0100
0001
0100
0001
1000
0001
1000
0000
,
0010
0100
0000
1000
0001
0000
0010
0100
,
0000
0001
0010
0000
0100
0001
1000
0000
,
0100
0010
0000
1000
0001
0000
0100
0010
,
0000
1000
0010
0000
0100
1000
0001
0000
,
0010
0001
0100
1000
,
0010
1000
0100
0001
,
0010
0100
0000
1000
0001
0000
0010
0100
,
0000
1000
0010
0000
0100
0001
1000
0000
,
0100
0010
0000
1000
0001
0000
0100
0010
,
0000
1000
0010
0000
0100
1000
0001
0000
,
0001
1000
0010
0100
0001
1000
0010
0100
,
1000
0001
0100
0010
1000
0001
1000
0000
,
0010
1000
0100
0001
,
0010
0001
0100
1000
,
0100
0001
0010
1000
,
0100
1001
0110
1001
,
0010
1001
0100
1001
,
0010
0001
0100
1000
,
0110
0000
1001
0000
,
0010
1001
0110
1001
,
0010
1001
0100
1001
,
0010
0001
0100
1000
,
0010
1000
0100
0001
,
0110
0000
1001
0000
,
0010
0001
0100
1000
,
0010
0000
0100
0000
,
1001
0000
0000
0000
;

//---------------dance-double - ----------------
#NOTES:
     dance-double:
     :
     Easy:
     3:
     0.253,0.301,0.030,0.000,0.000: // measure 1
00000000
00000000
00000000
00000000
,  // measure 2
00000000
00000000
00000000
00000000
,  // measure 3
00000000
00000000
00000000
00000000
,  // measure 4
00000100
00000001
00001000
00100000
,  // measure 5
10000000
01000000
00010000
00000100
,  // measure 6
00000001
00000010
00001000
00000100
,  // measure 7
00100000
00000000
00010000
01000000
,  // measure 8
00100000
00000000
10000000
00000000
,  // measure 9
00010000
00000000
00000010
00000000
,  // measure 10
00000001
00000000
00000100
00000000
,  // measure 11
00001000
00000000
01000000
00100000
,  // measure 12
10000000
00000000
00010000
00000000
,  // measure 13
00000010
00000000
00000000
00000000
00000001
00001000
00000001
00000000
,  // measure 14
00000010
00001000
00010000
10000000
,  // measure 15
00100000
10000000
01000000
00010000
,  // measure 16
00000000
00000000
00000000
00000000
00000010
00000100
00000010
00000000
,  // measure 17
00000001
00000000
00000100
00001000
,  // measure 18
00100000
00010000
01000000
10000000
,  // measure 19
00001000
00000000
00000010
00000100
,  // measure 20
00001000
00000000
00010000
00000000
00100000
00010000
00100000
00000000
,  // measure 21
01000000
10000000
00100000
00010000
,  // measure 22
00001000
00000010
00000001
00000100
,  // measure 23
00010000
01000000
10000000
00100000
,  // measure 24
00010000
00001000
00000010
00010000
,  // measure 25
00100000
10000000
01000000
00010000
,  // measure 26
00001000
00000010
00000001
00000100
,  // measure 27
00010000
00001000
00000010
00001001
,  // measure 28
00000100
00010000
00100000
01100000
,  // measure 29
00010000
00000000
00000000
00001000
00000100
00000000
00001000
00000001
,  // measure 30
00000000
00000000
00000010
00001000
,  // measure 31
00010000
00000000
00000000
00100000
10000000
00000000
01000000
00010000
,  // measure 32
00000000
00000000
00100000
00001000
,  // measure 33
00000010
00000000
00000000
00000001
00001000
00000000
00000010
00000100
,  // measure 34
00000000
00000000
00001000
00010000
,  // measure 35
00100000
00000000
00000000
10000000
00010000
00000000
00100000
01000000
,  // measure 36
00000000
00000000
00010000
00000010
,  // measure 37
00000001
00000000
00000000
00000010
00000100
00000000
00001000
00010000
,  // measure 38
00000000
00000000
00100000
01000000
,  // measure 39
00100000
10000000
01000000
00010000
,  // measure 40
00000010
00000000
00000001
00001000
,  // measure 41
00100000
00010000
01000000
10000000
,  // measure 42
00100000
00010000
00000100
00000001
,  // measure 43
00000010
00000000
00000100
00000000
,  // measure 44
00001000
00100000
00010000
01000000
,  // measure 45
10000000
00000000
00010000
00000000
,  // measure 46
00000010
00000001
00000100
00001000
,  // measure 47
00010000
00000000
10000000
00000000
,  // measure 48
00100000
00010000
00001000
00000010
,  // measure 49
00000001
00000000
00000100
00000000
,  // measure 50
00010000
00100000
10000000
01000000
,  // measure 51
00010000
00000000
00000010
00000000
,  // measure 52
00000001
00000000
00000100
00000000
,  // measure 53
00001000
00000000
00100000
00000000
,  // measure 54
10000000
00000000
00010000
00001000
,  // measure 55
00101000
00000000
00000000
00000000
;

//---------------dance-double - ----------------
#NOTES:
     dance-double:
     :
     Medium:
     4:
     0.295,0.410,0.101,0.000,0.000: // measure 1
00000000
00000000
00000000
00000000
,  // measure 2
00000000
00000000
00000000
00000000
,  // measure 3
00000000
00000000
00000000
00000000
,  // measure 4
00000100
00001000
00100000
10000000
,  // measure 5
01000000
00010000
00000100
00001000
,  // measure 6
00000001
00000010
00001000
00010000
,  // measure 7
00100000
00000000
00000000
00000000
00010000
10000000
01000000
00000000
,  // measure 8
00100000
10000000
01000000
00010000
,  // measure 9
00001000
00000000
00000010
00000000
00000001
00001000
00000100
00000000
,  // measure 10
00001000
00000000
00100000
01000000
,  // measure 11
00010000
00000000
00000000
00000000
10000000
01000000
00100000
00000000
,  // measure 12
00010000
00000000
00001000
00000000
,  // measure 13
00000010
00000000
00000000
00000000
00000001
00001000
00000001
00000000
,  // measure 14
00000010
00000000
00001000
00000000
00010000
01000000
10000000
00000000
,  // measure 15
00100000
00000000
10000000
00000000
01000000
00100000
00010000
00000000
,  // measure 16
00000000
00000000
00000000
00000000
00000010
00000100
00000010
00000000
,  // measure 17
00000001
00000000
00000100
00001000
,  // measure 18
00100000
00000000
00010000
00000000
01000000
10000000
00010000
00000000
,  // measure 19
00001000
00000000
00000000
00000000
00000010
00000001
00000100
00000000
,  // measure 20
00001000
00000000
00010000
00000000
00100000
00010000
00100000
00000000
,  // measure 21
01000000
10000000
00100000
00010000
,  // measure 22
00001000
00000010
00000100
00010000
,  // measure 23
00100000
01100000
00010000
00001000
,  // measure 24
00000110
00001000
01000000
00010000
,  // measure 25
00100000
01100000
00010000
00001000
,  // measure 26
00000110
00001000
00010000
01000000
,  // measure 27
10000000
00010000
00001000
00000110
,  // measure 28
00000100
00001000
00010000
01100000
,  // measure 29
00010000
00000000
00000000
00001000
00000100
00000000
00001000
00000001
,  // measure 30
00000000
00000000
00000010
00001000
,  // measure 31
00010000
00000000
00000000
00100000
10000000
00000000
01000000
00010000
,  // measure 32
00000000
00000000
00100000
00001000
,  // measure 33
00000010
00000000
00000000
00000001
00001000
00000000
00000010
00000100
,  // measure 34
00000000
00000000
00001000
00010000
,  // measure 35
00100000
00000000
00000000
10000000
00010000
00000000
00100000
01000000
,  // measure 36
00000000
00000000
00010000
00000010
,  // measure 37
00000001
00000000
00000000
00000010
00000100
00000000
00001000
00010000
,  // measure 38
00000000
00000000
01000000
00100000
,  // measure 39
00100000
01000000
00010000
10000000
00100000
01000000
00010000
00000000
,  // measure 40
00001000
00010000
00001000
00010000
00001000
00000010
00000100
00000000
,  // measure 41
00001000
00010000
01000000
10000000
,  // measure 42
00100000
00000000
00010000
00000000
00001000
00000010
00000100
00000000
,  // measure 43
00000001
00000000
00000010
00000000
,  // measure 44
00001000
00000000
00100000
00000000
10000000
00010000
01000000
00000000
,  // measure 45
10000000
00000000
00010000
00000000
,  // measure 46
00000010
00000001
00000100
00001000
,  // measure 47
00010000
00000000
10000000
00000000
,  // measure 48
00100000
00000000
00010000
00000000
00001000
00000010
00000100
00000000
,  // measure 49
00000001
00000000
00000100
00000000
,  // measure 50
00010000
00100000
10010000
01000000
,  // measure 51
00010000
00000000
00001000
00000000
,  // measure 52
00000010
00000000
00001001
00000000
,  // measure 53
00001000
00000000
00100000
00000000
,  // measure 54
10010000
00000000
00010000
00001000
,  // measure 55
00101000
00000000
00000000
00000000
;

//---------------dance-double - ----------------
#NOTES:
     dance-double:
     :
     Hard:
     7:
     0.400,0.462,0.030,0.000,0.000: // measure 1
00000000
00000000
00000000
00000000
,  // measure 2
00000000
00000000
00000000
00000000
,  // measure 3
00000000
00000000
00000000
00000000
,  // measure 4
00000010
00001000
00000000
00010000
00001000
00000000
00100000
00010000
,  // measure 5
00000000
00100000
10000000
00000000
00010000
01000000
10000000
00000000
,  // measure 6
00100000
00010000
00000000
00001000
00010000
00000000
00000010
00001000
,  // measure 7
00000000
00000010
00000001
00000000
00001000
00000100
00000001
00000000
,  // measure 8
00000001
00000100
00000000
00000010
00001000
00000000
00010000
01000000
,  // measure 9
00000000
00100000
10000000
00000000
00010000
10000000
01000000
00000000
,  // measure 10
10000000
01000000
00000000
00100000
00010000
00000000
00001000
00000100
,  // measure 11
00000000
00000010
00000001
00000000
00001000
00000001
00000100
00000000
,  // measure 12
00000010
00010000
00001000
00010000
,  // measure 13
01000000
00000000
00000000
00000000
00100000
10000000
01000000
00000000
,  // measure 14
00100000
10000000
01000000
00010000
00000010
00001000
00000100
00000000
,  // measure 15
00000001
00000100
00001000
00010000
,  // measure 16
00100000
00000000
00100000
00000000
00100000
10000000
00010000
00000000
,  // measure 17
01000000
00000000
00000000
00000000
00100000
10000000
01000000
00000000
,  // measure 18
00100000
10000000
01000000
00010000
00001000
00000100
00000001
00000000
,  // measure 19
00001000
00000000
00000000
00000000
00000010
00001000
00000100
00000000
,  // measure 20
00000010
00000001
00000100
00001000
00010000
01000000
10000000
00000000
,  // measure 21
00100000
00000000
00000000
00000000
00010000
10000000
01000000
00000000
,  // measure 22
00010000
00000000
00000000
00000000
00000010
00001000
00000100
00000000
,  // measure 23
00000001
00000000
00000000
00000000
00000100
00001000
00010000
00000000
,  // measure 24
00100000
00000000
00100000
00000000
00100000
10000000
01000000
00000000
,  // measure 25
10000000
00000000
00010000
00000000
01000000
00001000
00010000
00000000
,  // measure 26
00000010
00000000
00001000
00000000
00000100
00010000
00001000
00000000
,  // measure 27
10000000
10000000
00010000
00010000
,  // measure 28
00001000
00000000
00001000
00000000
00000001
00000001
00000001
00000000
,  // measure 29
00000010
00000001
00000000
00000001
00000100
00000000
00000100
00001000
,  // measure 30
00000000
00001000
00010000
00000000
00010000
01000000
10000000
00000000
,  // measure 31
00100000
10000000
00000000
10000000
01000000
00000000
01000000
00010000
,  // measure 32
00000000
00010000
00001000
00000000
00001000
00000100
00000001
00000000
,  // measure 33
00000010
00000001
00000000
00000100
00000001
00000000
00001000
00000001
,  // measure 34
00000000
00000100
00000001
00000000
00001000
00010000
01000000
00000000
,  // measure 35
00100000
10000000
00000000
01000000
10000000
00000000
00010000
10000000
,  // measure 36
00000000
01000000
10000000
00000000
00010000
00001000
00000100
00000000
,  // measure 37
00000001
00000001
00001000
00001000
,  // measure 38
00010000
00000000
00010000
00000000
10000000
01000000
00100000
00000000
,  // measure 39
10000000
10000000
10000000
01000000
00010000
00010000
00010000
00001000
,  // measure 40
00000100
00000100
00000100
00000001
00000010
00000001
00000100
00000000
,  // measure 41
00001001
00000000
00000100
00000000
00001000
00010000
00000100
00000000
,  // measure 42
00100000
10000000
01000000
00010000
00001000
00010000
01000000
00000000
,  // measure 43
00010000
00001000
00000100
00000001
00000010
00000001
00000100
00000000
,  // measure 44
00000010
00001000
00000100
00000000
00010000
01000000
10000000
00000000
,  // measure 45
10010000
01000000
00010000
00010000
,  // measure 46
00011000
00000100
00000001
00000001
,  // measure 47
00000100
00000010
00000000
00000001
00001000
00000000
00000100
00000010
,  // measure 48
00000000
00000001
00000100
00001000
00010000
01000000
10000000
00000000
,  // measure 49
01000000
00100000
00000000
10000000
00010000
00000000
01000000
00100000
,  // measure 50
00000000
10000000
01000000
00010000
00001000
00000100
00000001
00000000
,  // measure 51
00000010
00001000
00000001
00001000
00000100
00000001
00000100
00001000
,  // measure 52
00010000
00100000
00010000
01000000
10000000
01000000
00010000
00000000
,  // measure 53
00001000
00010000
00001000
00000100
,  // measure 54
00000001
00000001
00000100
00001000
;

//---------------dance-couple - ----------------
#NOTES:
     dance-couple:
     :
     Challenge:
     5:
     0.439,0.847,0.911,0.000,0.000:
00000000
00000000
00000000
00000000
,
00000000
00000000
00000000
00000000
,
00000000
00000000
00000000
00000000
,
00100010
00000000
01000000
10000000
,
00100000
00000000
00000001
00000100
,
00001000
00000000
01000000
00010000
,
00100000
00000000
00001000
00000100
,
00000001
00000000
10000000
00000000
,
00000010
00000000
00010000
00000000
,
00000100
00000000
10000000
00000000
,
00000001
00000000
01000100
00100010
,
00010001
00000000
01000100
00000000
,
01100000
00000000
00000001
00000000
10000000
00010000
10000000
00000000
,
01000000
00000000
00100000
00000000
00010000
10000000
00010000
00000000
,
00100001
10000000
01000000
01100000
,
00000000
00000000
00000000
00000000
00010000
10000000
00010000
00000000
,
10000110
00000000
00000000
00000000
00001000
00000001
00001000
00000000
,
00000100
00000000
00000010
00000000
00000001
00001000
00000001
00000000
,
10000010
00001000
00000100
00000110
,
00000000
00000000
00000000
00000000
00000001
00001000
00000001
00000000
,
00100001
10000000
00100000
00000000
01000000
00100000
01000000
00000000
,
01000001
00010000
01000000
00010000
10000000
00010000
10000001
00000000
,
00100000
10010000
01100000
10010000
,
00100001
10010000
01000000
10010000
,
10000010
00001000
00000010
00000000
00000100
00000010
00000100
00000000
,
10000100
00000001
00000100
00000001
00001000
00000001
00001000
00000000
,
10000010
00001001
00000110
00001001
,
10000010
00001001
00000100
00001001
,
00100000
01000000
00000000
10000000
00010000
00000000
00100000
01000000
,
00000000
00010000
00100000
00000000
01000000
00010000
10000000
00000000
,
00000100
00000010
00000000
00001000
00000001
00000000
00000100
00000010
,
00000000
00001000
00000010
00000000
00000100
00001000
00000001
00000000
,
00100010
00010001
01000100
10001000
,
00100010
10001000
01000100
00010001
,
00100010
01000100
00000000
10001000
00010001
00000000
00100010
01000100
,
00000000
10001000
00100010
00000000
01000100
00010001
10001000
00000000
,
01000100
00100010
00000000
10001000
00010001
00000000
01000100
00100010
,
00000000
10001000
00100010
00000000
01000100
10001000
00010001
00000000
,
00010001
10001000
00100010
01000100
00010001
10001000
00100010
01000100
,
10001000
00010001
01000100
00100010
10001000
00010001
10001000
00000000
,
00100000
00010000
01000000
10000000
,
00000010
00001000
00000100
00000001
,
01100000
00000000
00001001
00000000
,
00100000
00010000
01000000
10000000
,
00001000
00000000
00010000
00000000
,
00000010
00000001
00000100
00001000
,
01100000
00000000
00001001
00000000
,
00100001
00010000
01000000
10000000
,
01000001
00000000
10000000
00000000
,
10000010
00000001
00000100
00001000
,
10000010
00000000
00000100
00000000
,
01100000
00000000
00001001
00000000
,
01000100
00000000
10001000
00000000
,
01100110
00000000
00100010
01100110
,
10011001
00000000
00000000
00000000
;

//---------------dance-solo - ----------------
#NOTES:
     dance-solo:
     :
     Easy:
     3:
     0.208,0.273,0.010,0.000,0.000:
000000
000000
000000
000000
,
000000
000000
000000
000000
,
000000
000000
000000
000000
,
000100
000000
001000
100000
,
000100
000000
000001
001000
,
100000
000000
001000
000001
,
000100
000000
100000
001000
,
000001
000000
100000
000000
,
000100
000000
000001
000000
,
001000
000000
100000
000000
,
100000
000000
001000
000100
,
000001
000000
000000
000000
,
000100
000000
010000
000010
,
100000
001000
000001
001000
,
100000
000100
000001
001000
,
000100
001000
100000
000001
,
000100
000000
000010
010000
,
100000
001000
000001
000100
,
100000
000000
010000
000010
,
000001
001000
100000
000001
,
000100
000000
000000
000000
,
100000
000000
000000
000000
,
001000
000000
000000
000000
,
000001
010000
000010
100000
,
000100
000000
000000
000000
,
000001
000000
000000
000000
,
001000
000000
000000
000000
,
100000
000000
000000
000000
,
000100
000000
000000
000010
000000
000000
010000
000000
,
000000
000000
000001
100000
,
000100
000000
000000
010000
000000
000000
000010
000000
,
000000
000000
100000
000001
,
000100
000000
000000
000010
000000
000000
010000
000000
,
000000
000000
000001
100000
,
000001
000000
000000
000100
000000
000000
001000
000000
,
000000
000000
000001
100000
,
000100
000000
000000
100000
000000
000000
000001
000000
,
000000
000000
010000
000010
,
000100
100000
001000
000001
,
000100
000000
100000
000001
,
000100
000001
001000
100000
,
000100
100000
001000
000001
,
000100
000000
001000
000000
,
100000
000001
000100
001000
,
100000
000000
000001
000000
,
000100
000001
001000
100000
,
100000
000000
000001
000000
,
000100
001000
100000
000001
,
010000
000000
000010
000000
,
000100
000001
001000
100000
,
000100
000100
001000
001000
,
000100
100000
001000
000001
,
001000
000100
100000
000001
,
001000
000001
000001
000001
,
001100
000000
000000
000000
;

//---------------dance-solo - ----------------
#NOTES:
     dance-solo:
     :
     Medium:
     4:
     0.299,0.328,0.132,0.000,0.000:
000000
000000
000000
000000
,
000000
000000
000000
000000
,
000000
000000
000000
000000
,
000100
000000
100000
001000
,
000100
000000
000001
001000
,
100000
000000
001000
000001
,
000100
000000
000000
000000
010000
000010
001000
000000
,
000001
000000
100000
000000
,
000100
000000
000000
000000
000010
010000
001000
000000
,
001000
000000
100000
000000
,
100000
000000
001000
000000
,
000001
000000
000000
000000
,
001100
000000
000000
000000
100000
000001
100000
000000
,
001000
000000
000100
000000
000001
100000
000001
000000
,
000100
100000
001000
001100
,
100000
000000
000001
000000
010000
000010
010000
000000
,
001100
000000
000000
000000
000100
000100
000001
000000
,
001000
100000
000100
000001
,
100001
000000
000000
000000
000100
100000
000001
000000
,
000100
000000
000001
000000
000100
001000
100000
000000
,
000100
000001
001000
100000
,
001000
000001
000100
100000
,
001100
000000
001000
100000
,
000001
100000
000001
100000
,
000100
100000
001000
000001
,
000100
000001
001000
100000
,
001100
000000
001000
000001
,
000100
000001
001000
100000
,
000100
000010
000000
000001
001000
000000
100000
001000
,
000000
000000
100000
000001
,
000100
000010
000000
000001
001000
000000
100000
001000
,
000000
000000
100000
000001
,
000100
010000
000000
100000
001000
000000
000001
001000
,
000000
000000
000001
100000
,
000100
010000
000000
100000
001000
000000
000001
001000
,
000000
000000
000001
100000
,
000100
000010
000000
000001
001000
000000
100000
001000
,
000000
000000
100000
000001
,
000100
100000
001000
000001
,
000100
100000
100000
000001
,
000100
000010
000001
001000
,
100000
010000
000100
000001
,
001100
100001
001100
100000
,
100000
000001
000100
000100
,
010000
010000
000010
000010
,
000100
000001
001000
100000
,
001000
001000
100001
001100
,
000100
001000
100000
000001
,
001000
001000
100000
100000
,
000100
000001
001000
100000
,
000100
000100
001000
001000
,
010010
100000
001000
000001
,
001000
000100
100000
000001
,
010000
000010
100000
000001
,
100001
000000
000000
000000
;

//---------------dance-solo - ----------------
#NOTES:
     dance-solo:
     :
     Hard:
     6:
     0.395,0.464,0.223,0.000,0.000:
000000
000000
000000
000000
,
000000
000000
000000
000000
,
000000
000000
000000
000000
,
010000
010000
000001
001000
,
000100
000001
001000
100000
,
000100
100000
001000
000001
,
000100
000000
000100
000000
000100
001000
000100
000000
,
000001
000000
100000
000000
000010
010000
000010
000000
,
000100
000000
100000
000000
000100
000001
100000
000000
,
001000
000000
001000
000000
000001
000100
000001
000000
,
010000
000000
000010
000000
100000
000001
100000
000000
,
100000
100000
100000
100000
,
010000
100000
010000
000000
000100
001000
000001
000000
,
100000
000100
001000
000001
010000
000010
100000
000000
,
000100
000000
100000
000000
001000
000100
001000
000000
,
000001
000000
100000
000000
000010
010000
000010
000000
,
001100
000000
000000
000000
000100
000001
100000
000000
,
001000
000000
100000
000000
000001
000100
000001
000000
,
001100
000000
000000
000000
100000
000001
100000
000000
,
000100
000000
000001
000000
001000
000100
100000
000000
,
010000
100000
010000
000000
000100
001000
000001
000000
,
100000
000100
001000
000001
010000
000010
100000
000000
,
000100
100001
001100
100001
,
000100
010010
001000
100001
,
000100
000001
001000
100000
,
000100
100000
001000
000001
,
000010
000001
000010
000000
000100
001000
100000
000000
,
000001
000100
001000
100000
000010
010000
000001
000000
,
000100
001000
000000
100000
000001
000000
000100
001000
,
000000
000001
000100
000000
001000
000001
100000
000000
,
001000
000100
000000
100000
000001
000000
001000
000100
,
000000
100000
000100
000000
001000
100000
000001
000000
,
000100
000001
001000
100000
,
000100
100000
001000
000001
,
000010
010000
000000
000001
010000
000000
001000
010000
,
000000
000001
010000
000000
000100
100000
000001
000000
,
010000
000010
000000
100000
000010
000000
001000
000010
,
000000
100000
000010
000000
000100
000001
100000
000000
,
000100
010000
000010
000100
000001
100000
000100
010000
,
100010
000100
000001
100000
000100
100000
000001
000000
,
000100
100000
001000
000001
,
000100
000001
001000
100000
,
001000
000001
000100
100000
,
001000
100001
001100
100001
,
000100
010010
001000
100001
,
000100
000001
001000
100000
,
001000
001000
100001
000100
,
000100
100001
001100
100001
,
000100
010010
001000
100001
,
000100
000001
001000
100000
,
000100
100000
001000
000001
,
000001
000001
001100
100001
,
000100
000001
001000
100000
,
100000
000100
001000
000001
010000
000010
100000
000000
,
010010
000000
000000
000000
;

//---------------dance-double - ----------------
#NOTES:
     dance-double:
     :
     Beginner:
     1:
     0.163,0.191,0.152,0.000,0.000: // measure 1
00000000
00000000
00000000
00000000
,  // measure 2
00000000
00000000
00000000
00000000
,  // measure 3
00000000
00000000
00000000
00000000
,  // measure 4
00000001
00000000
00000000
00000000
,  // measure 5
00001000
00000000
00000000
00000000
,  // measure 6
00010000
00000000
00000000
00000000
,  // measure 7
10000000
00000000
00000000
00000000
,  // measure 8
00100000
00000000
00000000
00000000
,  // measure 9
00010000
00000000
00001000
00000000
,  // measure 10
00000010
00000000
00000000
00000000
,  // measure 11
00001001
00000000
00000000
00000000
,  // measure 12
00000100
00000000
00001000
00000000
,  // measure 13
00010000
00010000
00010000
00000000
,  // measure 14
01000000
00000000
00010000
00000000
,  // measure 15
00001000
00001000
00001000
00000000
,  // measure 16
00000100
00000000
00000001
00000000
,  // measure 17
00000001
00000001
00000001
00000000
,  // measure 18
00000100
00000000
00001000
00000000
,  // measure 19
00010000
00010000
00010000
00000000
,  // measure 20
01000000
00000000
00100000
00000000
,  // measure 21
10010000
00000000
00000000
00000000
,  // measure 22
00010000
00000000
00010000
00000000
,  // measure 23
00011000
00000000
00000000
00000000
,  // measure 24
00001000
00000000
00001000
00000000
,  // measure 25
00001001
00000000
00000000
00000000
,  // measure 26
00001000
00000000
00001000
00000000
,  // measure 27
00011000
00000000
00000000
00000000
,  // measure 28
01000000
00000000
00100000
00000000
,  // measure 29
01000000
00000000
00000000
10010000
,  // measure 30
00000000
00000000
01000000
01000000
,  // measure 31
01000000
00000000
00000000
00011000
,  // measure 32
00000000
00000000
00000100
00000100
,  // measure 33
00000100
00000000
00000000
00000000
,  // measure 34
00001001
00000000
00000100
00000100
,  // measure 35
00000100
00000000
00000000
00011000
,  // measure 36
00000000
00000000
00010000
00010000
,  // measure 37
00010000
00000000
01000000
00000000
,  // measure 38
10000000
00000000
10000000
00000000
,  // measure 39
00010000
00010000
00010000
00010000
,  // measure 40
00010000
00000000
00000000
00000000
,  // measure 41
00011000
00000000
00001000
00000000
,  // measure 42
00000100
00000000
00000001
00000000
,  // measure 43
00001001
00000000
00000001
00000000
,  // measure 44
00000100
00000000
00001000
00001000
,  // measure 45
00001000
00000000
00010000
00000000
,  // measure 46
01000000
00000000
10010000
00000000
,  // measure 47
10000000
00000000
01000000
00000000
,  // measure 48
00010000
00000000
00001000
00001000
,  // measure 49
00001000
00000000
00000100
00000000
,  // measure 50
00000001
00000000
00001000
00000000
,  // measure 51
00001001
00000000
00000100
00000000
,  // measure 52
00001000
00000000
00001000
00001000
,  // measure 53
00001000
00000000
00000000
00000000
,  // measure 54
00011000
00000000
00000000
00000000
,  // measure 55
01100000
00000000
00000000
00000000
;

//---------------dance-double - Edit by silenttype01----------------
#NOTES:
     dance-double:
     Edit by silenttype01:
     Challenge:
     9:
     0.610,0.843,0.223,0.040,0.359: // measure 1
00000000
00000000
00000000
00000000
,  // measure 2
00000000
00000000
00000000
00000000
,  // measure 3
00000000
00000000
00000000
00000000
,  // measure 4
01000000
00010000
00000000
00001000
00010000
00000000
00000100
00001000
,  // measure 5
00000000
00000100
00000001
00000000
00001000
00000010
00000001
00000000
,  // measure 6
00000100
00001000
00000000
00010000
00001000
00000000
01000000
00010000
,  // measure 7
00000000
01000000
10000000
00000000
00010000
00100000
10000000
00000000
,  // measure 8
10000000
00100000
00000000
01000000
00010000
00000000
00001000
00000010
,  // measure 9
00000000
00000100
00000001
00000000
00001000
00000001
00000010
00000000
,  // measure 10
00000001
00000010
00000000
00000100
00001000
00000000
00010000
00100000
,  // measure 11
00000000
01000000
10000000
00000000
00010000
10000000
00200000
00000000
,  // measure 12
01000000
01000000
01000000
01300000
,  // measure 13
00000000
00000000
10000000
00100000
10000000
00000000
00100000
10000000
00100000
00000000
10000000
00100000
10000000
00000000
00100000
10000000
,  // measure 14
00100000
00000000
01000000
00010000
01000000
00000000
00100000
10000000
00100000
00000000
10000000
01000000
10000000
00000000
01000000
00010000
,  // measure 15
01000000
00000000
00010000
00001000
00010000
00000000
00001000
00100000
00001000
00000000
00010000
00000100
00010000
00000000
00001000
01000000
,  // measure 16
00001000
00000000
00010000
00000010
00010000
00000000
00001000
00000100
00001000
00000000
00000100
00000001
00000100
00000000
00000001
00000010
,  // measure 17
00000001
00000000
00000010
00001000
00000010
00000000
00001000
00010000
00001000
00000000
00010000
01000000
00010000
00000000
00001000
00010000
,  // measure 18
00001000
00000000
00000010
00000001
00000010
00000000
00000001
00000100
00000001
00000000
00000100
00001000
00000100
00000000
00001000
00010000
,  // measure 19
00001000
00000000
00010000
00000010
00010000
00000000
00001000
00100000
00001000
00000000
00010000
00000100
00010000
00000000
00001000
01000000
,  // measure 20
00001000
00000000
00011000
00000000
00011000
00000000
01000000
00010000
00000000
00010000
00000000
00010000
01000000
00000000
00100000
00000000
,  // measure 21
10000000
01000000
00100000
00010000
10000000
01000000
00100000
00010000
,  // measure 22
01000000
00001000
00010000
00001000
00100000
01000000
00010000
00001000
,  // measure 23
00010000
00000010
00001000
00000001
00000100
00000010
00001000
00000001
,  // measure 24
00000100
00000000
00000101
00000000
00000110
00000000
00000101
00000000
00000000
00000100
00000000
00000100
00000001
00000000
00000010
00000000
,  // measure 25
00001000
00000010
00000001
00000010
00001000
00000010
00000001
00000100
,  // measure 26
00001000
00000100
00000010
00000100
00010000
00000100
00000010
00000100
,  // measure 27
00001000
00000100
00000010
00010000
00000100
00001000
00000100
00000010
,  // measure 28
00000001
00000000
00000000
00001001
00000000
00000000
00001000
00000000
00010000
00000000
00000000
10010000
00000000
00000000
10000000
00000000
,  // measure 29
01000000
10000000
00000000
10000000
00100000
00000000
00100000
00010000
,  // measure 30
00000000
00010000
00001000
00000000
00001001
00000000
00000110
00000000
,  // measure 31
00002002
00000000
00003003
00000000
00000000
00000000
00000010
00001000
,  // measure 32
00000000
00000000
00001000
00000000
00010000
00000000
00000000
00000000
00010000
00000000
00010000
00100000
10000000
00000000
00000000
00000000
,  // measure 33
00020000
00000000
00030000
00000000
00000000
00000000
00100000
00010000
,  // measure 34
00000000
00000000
00010000
00000000
00001000
00000000
00000000
00000000
00001000
00000000
00001000
00000010
00000001
00000000
00000000
00000000
,  // measure 35
00001000
00000100
00001000
00000000
00000000
00000000
00000100
00001000
00000100
00000000
00000000
00000000
00000100
00000000
00000010
00000000
,  // measure 36
00000000
00000000
00000010
00000000
00000001
00000000
00000000
00000000
00000001
00000000
00000001
00001000
00000100
00000000
00000000
00000000
,  // measure 37
00000100
00000010
00000000
00000001
00000000
00001000
00000000
00000100
,  // measure 38
00000000
00000010
00000000
00000001
00000000
00001000
00000000
00000100
,  // measure 39
00000010
00000000
00000001
00000010
00000000
00000001
00000010
00000000
00000001
00000010
00000000
00000001
00000010
00000000
00000001
00000010
00000000
00000001
00000010
00000000
00000001
00000010
00000000
00000001
,  // measure 40
00001000
00000000
00000100
00000000
00000000
00000010
00000001
00000000
00000010
00000001
00000000
00000010
00000001
00000000
00000010
00000000
00000000
00000100
00001000
00000000
00000100
00001000
00000000
00000100
,  // measure 41
00001000
00000001
00000100
00000001
00001000
00000100
00001000
00000001
,  // measure 42
00000100
00001000
00010000
00000010
00001000
00000001
00000100
00001000
,  // measure 43
00010000
00001000
00100000
01000000
00010000
00001000
01000000
00010000
,  // measure 44
01010000
00000000
00000000
00110000
00000000
00000000
01100000
00000000
00000000
11000000
00000000
00000000
10010000
00000000
10100000
00000000
,  // measure 45
01000000
00100000
01000000
00001000
01000000
00010000
01000000
00001000
,  // measure 46
01000000
00100000
10000000
01000000
10000000
01000000
00010000
01000000
,  // measure 47
00010000
00001000
00010000
00000100
00001000
00000010
00010000
00000100
,  // measure 48
00001000
00000010
00000000
00001000
00000000
00000010
00000000
00001010
00000000
00000000
00000101
00000000
00000010
00001000
00000000
00001000
,  // measure 49
00000010
00000000
00000100
00000000
00001000
00000100
00000000
00000000
00000001
00000000
00000100
00000000
00001000
00000000
00000100
00000000
,  // measure 50
00000001
00000000
00000100
00000001
00000000
00000100
00000001
00000000
00000100
00000000
00000000
00000000
00001000
00000000
00000000
00000000
00000000
00000100
00000001
00000000
00000100
00000001
00000000
00000000
,  // measure 51
00000100
00001000
00010000
00100000
00010000
00001000
00000100
00001000
,  // measure 52
00010000
00100000
10000000
00010000
01000000
10010000
10010000
00100000
,  // measure 53
10000000
00000000
01000000
00000000
00100000
00000000
00000000
00001000
00010000
00000000
01000000
00000000
10000000
00000000
00100000
00000000
,  // measure 54
00010000
00000100
00001000
00000100
00010000
00001100
00001100
00000000
;

//---------------dance-single - Edit by silenttype01----------------
#NOTES:
     dance-single:
     Edit by silenttype01:
     Challenge:
     9:
     0.610,0.843,0.223,0.040,0.359:
0000
0000
0000
0000
,
0000
0000
0000
0000
,
0000
0000
0000
0000
,
0100
0001
0000
1000
0100
0000
0010
0001
,
0000
1000
0100
0000
0010
0001
0100
0000
,
0010
1000
0000
0001
0010
0000
0100
1000
,
0000
0001
0010
0000
0100
1000
0010
0000
,
1000
0100
0000
0001
0100
0000
1000
0010
,
0000
0001
0010
0000
1000
0001
1000
0000
,
0001
0010
0000
1000
0010
0000
0001
0100
,
0000
1000
0100
0000
0001
1000
0002
0000
,
1000
1000
1000
1003
,
0000
0000
0100
0001
0100
0000
0001
0100
0001
0000
0100
0001
0100
0000
0001
0100
,
0001
0000
1000
0010
1000
0000
0001
0100
0001
0000
1000
0010
1000
0000
0100
1000
,
0100
0000
0010
0001
0010
0000
0001
0100
0001
0000
0100
0010
0100
0000
0010
1000
,
0010
0000
1000
0001
1000
0000
0100
0010
0100
0000
0010
0001
0010
0000
0100
1000
,
0100
0000
0010
0001
0010
0000
0001
0100
0001
0000
0100
1000
0100
0000
0001
0100
,
0001
0000
1000
0001
1000
0000
0001
1000
0001
0000
0010
0001
0010
0000
0100
1000
,
0001
0000
0100
0001
1000
0000
0100
1000
0001
0000
0100
0001
1000
0000
0100
1000
,
0001
0000
1001
0000
1001
0000
1000
0100
0000
0100
0000
0100
0010
0000
0100
0000
,
1000
0100
0010
0100
0001
0100
0010
0100
,
1000
0100
0010
0100
0001
0100
0010
0100
,
1000
0100
0010
0100
0001
0100
0010
0100
,
1000
0000
1100
0000
0110
0000
1100
0000
0000
0100
0000
0100
1000
0000
0010
0000
,
0100
0001
0100
0010
0100
1000
0100
0010
,
0100
0001
0100
0010
0100
1000
0100
0010
,
0100
0001
0100
0010
0100
1000
0100
0010
,
0100
0000
0000
0101
0000
0000
0001
0000
1000
0000
0000
1100
0000
0000
0100
0000
,
0010
0100
0000
0100
1000
0000
1000
0010
,
0000
0010
0001
0000
1001
0000
0110
0000
,
2002
0000
3003
0000
0000
0000
0010
1000
,
0000
0000
1000
0000
0100
0000
0000
0000
0100
0000
0100
1000
0001
0000
0000
0000
,
0200
0000
0300
0000
0000
0000
0010
0001
,
0000
0000
0001
0000
0100
0000
0000
0000
0100
0000
0100
0001
1000
0000
0000
0000
,
0001
0100
0001
0000
0000
0000
0100
0001
0100
0000
0000
0000
0010
0000
0010
0000
,
0000
0000
1000
0000
1000
0000
0000
0000
0001
0000
0001
1000
0010
0000
0000
0000
,
0010
0100
0000
1000
0000
0001
0000
0010
,
0000
0100
0000
1000
0000
0100
0000
0001
,
1000
0000
0010
1000
0000
0010
1000
0000
0010
1000
0000
0010
1000
0000
0010
1000
0000
0010
1000
0000
0010
1000
0000
0010
,
0100
0000
0001
0000
0000
1000
0010
0000
1000
0010
0000
1000
0010
0000
1000
0000
0000
0001
0100
0000
0001
0100
0000
0001
,
0100
0010
1000
0100
0001
0100
1000
0010
,
0001
0010
0100
0001
0010
0100
0010
0001
,
1000
0100
0001
0100
1000
0001
0010
0100
,
1100
0000
0000
0101
0000
0000
1100
0000
0000
0101
0000
0000
1100
0000
0101
0000
,
1000
0100
0010
0001
0100
0010
0001
0010
,
1000
0001
0100
0010
1000
0100
0010
1000
,
0001
0100
1000
0001
0100
0010
0100
0001
,
1000
0010
0000
1000
0000
0010
0000
1010
0000
0000
0101
0000
0010
1000
0000
1000
,
0010
0000
0100
0000
1000
0100
0000
0000
0001
0000
0100
0000
1000
0000
0100
0000
,
0001
0000
0100
0001
0000
0100
0001
0000
0100
0000
0000
0000
1000
0000
0000
0000
0000
0100
0001
0000
0100
0001
0000
0000
,
1000
0100
0001
0100
1000
0001
0100
1000
,
0100
0001
1000
0010
0100
1001
1001
0010
,
0100
0000
0001
0000
0010
0000
0000
0100
1000
0000
0010
0000
0100
0000
0001
0000
,
1000
0010
0100
0001
0010
1100
1100
0000
;
