#TITLE:THAT'S THE WAY '98;
#SUBTITLE:;
#ARTIST:DJ BASS feat.MC DIXIE;
#TITLETRANSLIT:;
#SUBTITLETRANSLIT:;
#ARTISTTRANSLIT:;
#CREDIT:;
#BANNER:THAT'S THE WAY '98.png;
#BACKGROUND:THAT'S THE WAY '98-bg.png;
#LYRICSPATH:;
#CDTITLE:Dance Dance Revolution Solo.png;
#MUSIC:THAT'S THE WAY '98.ogg;
#OFFSET:0.000;
#SAMPLESTART:47.625;
#SAMPLELENGTH:15.000;
#SELECTABLE:YES;
#DISPLAYBPM:126.000;
#BPMS:0=125.946,68=126.067,100=126.324,132=126.003;
#STOPS:;
#BGCHANGES:;

//---------------dance-single - ----------------
#NOTES:
     dance-single:
     :
     Easy:
     3:
     :
0000
0000
0000
0000
,
0000
0000
0000
0000
,
0000
0000
0000
0000
,
0000
0000
0000
0000
,
0000
0000
0000
0000
,
0001
0001
0001
0001
,
1000
1000
1000
1000
,
0001
0001
0001
0001
,
1000
1000
0001
0001
,
0001
0100
1000
0100
,
0001
0100
1000
0100
,
0001
0100
1000
0100
,
0001
0100
1000
0100
,
0100
0110
1000
0010
,
0001
1000
0010
0001
,
0100
0110
1000
0010
,
0001
1000
0010
0001
,
0100
0100
1000
1001
,
0100
0100
0001
0110
,
0000
0100
0000
0100
,
0010
0001
0100
1001
,
0000
0100
0000
0100
,
1001
1001
1001
0110
,
0000
0001
0000
1000
,
0010
0100
1001
0001
,
0100
0110
1000
0010
,
0001
1000
0010
0100
,
0001
1001
0010
1000
,
0010
0001
0010
1000
,
0100
0110
1000
1000
,
0010
0001
0010
1000
,
0001
1001
0010
1000
,
0010
0001
0010
1000
,
0001
0100
1000
0100
,
0001
0100
1000
0100
,
0001
0000
1000
0000
,
0001
1000
0001
0000
,
0100
0010
1000
0100
,
1000
0010
0001
0100
,
0001
0100
1000
0010
,
0001
0100
1001
0100
,
1001
0000
0110
0000
,
1001
0000
0110
0000
,
0001
0100
1000
0100
,
0001
0100
1000
1001
;

//---------------dance-single - ----------------
#NOTES:
     dance-single:
     :
     Medium:
     5:
     :
0000
0000
0000
0000
,
0000
0000
0000
0000
,
0000
0000
0000
0000
,
0000
0000
0000
0000
,
0000
0000
0000
0000
,
0010
0000
0001
0000
0100
0000
0010
1000
,
0010
1000
0100
1000
,
0010
0000
1000
0000
0100
0000
1000
0001
,
1000
0001
0110
1001
,
0001
0100
1000
0100
,
0001
0100
1000
0100
,
0001
0100
1000
0000
1000
0100
0001
0000
,
0001
0100
1000
0000
1000
0100
0001
0000
,
1000
0001
0100
0000
1000
0000
0001
0010
,
0001
1000
0010
0100
,
0001
1000
0100
0000
0001
0000
1000
0010
,
1000
0001
1000
0001
,
0100
0100
1000
0000
1000
0100
0100
0000
,
0010
0010
0001
0000
0001
0010
0010
0000
,
0001
0100
1000
0000
0010
0001
0010
0000
,
0001
1000
0010
0000
1000
0100
0001
0000
,
0001
0100
0010
0000
0010
1000
0010
0000
,
0100
1000
0100
0000
0100
0010
0001
0000
,
0010
0001
0100
0000
0010
1000
0100
0000
,
0010
1000
0001
0000
1001
0000
0001
0000
,
0100
0000
0110
0000
1000
0000
0010
0001
,
0001
1000
0010
0100
,
0001
0000
1001
0000
0010
0000
1000
0010
,
0010
0100
0010
0001
,
1000
0001
0100
0000
0010
0000
1000
0000
,
0010
0001
0010
1000
,
0001
1000
0100
0000
0010
0000
1000
0010
,
0010
0100
0001
0010
,
0001
0100
1000
0100
,
0001
0100
1000
0100
,
0001
0100
1000
0000
0010
0100
0001
0000
,
0010
0100
1000
0000
0010
0100
0001
0000
,
0100
0010
1000
0100
,
1000
0010
0001
0100
,
0001
0100
1000
0010
,
0001
0100
1001
0100
,
1001
0000
0011
0000
,
1100
0000
0110
0000
,
0001
0100
1000
0000
1000
0100
0001
0000
,
0001
0100
1000
1001
;

//---------------dance-single - ----------------
#NOTES:
     dance-single:
     :
     Hard:
     7:
     :
0000
0000
0000
0000
,
0000
0000
0000
0000
,
0000
0000
0000
0000
,
0000
0000
0000
0000
,
0000
0000
0000
0000
,
1001
0000
0100
0000
0100
0000
0100
1000
,
0010
0100
0100
0100
,
1001
0000
0100
0000
0100
0000
0100
0001
,
0010
0000
0000
0000
0000
0000
0000
0000
0000
0000
0000
0000
0000
0000
0000
0000
0100
0000
0000
0000
0000
0000
0000
0000
0000
0000
0000
0000
0000
0000
0000
0000
1000
0000
0000
0000
0000
0100
0000
0000
0000
0000
0000
1000
0000
0000
0000
0000
0100
0000
0000
0000
0000
0000
0000
0000
0000
0000
0000
0000
0000
0000
0000
0000
,
1000
0100
0001
0100
,
1000
0010
0100
0001
0010
0100
0100
0000
,
0001
0100
1000
0100
,
0001
0010
0100
1000
0010
0000
1001
0000
,
0010
0000
0000
0001
0100
0000
0000
0000
0010
0000
0000
0000
1000
0000
0000
0000
,
0001
0000
0000
1000
0100
0000
0000
0000
0010
0000
0000
0000
0001
0000
0000
0000
,
1000
0000
0000
0001
0100
0000
0010
0000
1000
0000
0001
0000
0100
0000
0000
0000
,
0001
0000
0000
1000
0100
0000
0010
0000
0001
0000
1000
0000
0100
0000
0000
0000
,
1000
0100
0001
0100
1000
0100
0100
0000
,
1000
0100
0001
0100
1000
0100
0100
0000
,
0001
1000
0010
0000
1000
0001
0010
0000
,
0001
1000
0001
1000
0010
0100
0100
0000
,
0001
0010
0100
1000
0001
0100
0100
0000
,
1000
0100
0010
0001
0100
0010
0010
0000
,
1000
0010
1000
0000
0001
0010
0001
0000
,
1000
0100
0001
0100
1001
0000
0110
0000
,
1000
0000
0000
0001
0100
0000
0010
0000
0010
0000
1000
0000
0001
0000
0010
0000
,
0001
0000
0000
1000
0100
0000
0010
0000
0010
0000
0001
0000
1000
0000
0000
0000
,
1000
0000
0000
0010
0100
0000
0001
0000
0001
0000
1000
0000
0100
0000
0001
0000
,
0001
0000
0000
0100
0010
0000
1000
0000
1000
0000
0001
0000
0100
0000
0000
0000
,
1001
0000
0000
1000
0100
0000
0010
0000
0001
0000
0010
0000
0100
0000
0100
0000
,
1001
0000
0000
0001
0100
0000
0010
0000
1000
0000
0010
0000
0100
0000
0000
0000
,
1001
0000
0000
0001
1000
0000
0010
0000
1000
0000
0001
0000
0100
0000
0010
0000
,
0010
0000
0000
0100
0001
0000
1000
0000
0010
0000
0100
0000
0001
0000
0000
0000
,
1000
0100
1000
0100
,
1000
0000
0100
0000
0000
0010
1001
0100
,
0001
0100
0001
0100
,
0001
0000
0100
0000
0000
1000
0110
0001
,
0010
1000
0010
0001
,
0010
0000
1000
0000
0000
1001
1001
0100
,
0010
0000
0010
0000
1000
0001
0010
0000
,
0100
0000
0100
0000
0001
1000
0010
0000
,
1001
0000
0000
0100
0000
0000
0100
0000
0000
0000
1000
0000
0100
0000
0100
0000
,
0001
0000
0000
0100
0000
0000
0100
0000
0000
0000
0000
0000
0000
0000
0000
0000
,
1001
0000
0000
0100
0000
0000
0100
0000
0000
0000
1000
0000
0010
0000
0100
0000
,
0001
0000
0000
0100
0000
0000
0100
0000
0000
0000
0010
0000
1001
0000
0000
0000
;

//---------------dance-solo - ----------------
#NOTES:
     dance-solo:
     :
     Easy:
     4:
     :
000000
000000
000000
000000
,
000000
000000
000000
000000
,
000000
000000
000000
000000
,
000000
000000
000000
000000
,
000000
000000
000000
000000
,
000001
000000
000001
000000
000001
000000
000001
100000
,
100000
100000
100000
100000
,
000001
000000
000001
000000
000001
000000
000001
100000
,
100000
100000
000001
000001
,
000001
001000
100000
001000
,
000001
001000
100000
001000
,
000001
001000
100000
001000
,
000001
001000
100000
001000
,
001000
001100
010000
000010
,
000001
100000
010000
000010
,
001000
001100
010000
000010
,
000001
100000
010000
000010
,
001000
001000
100000
100001
,
001000
001000
000001
001100
,
000000
001000
000000
001000
,
000100
000001
001000
100001
,
000000
001000
000000
001000
,
100001
010010
100001
001100
,
000000
000001
000000
100000
,
000100
001000
100001
000001
,
001000
001100
010000
000010
,
000001
100000
010000
000010
,
000001
100001
010000
100000
,
000010
000001
010000
100000
,
001000
001100
010000
100000
,
000010
000001
010000
100000
,
000001
100001
010000
100000
,
000010
000001
010000
100000
,
000001
001000
100000
001000
,
000001
001000
100000
001000
,
000011
000000
110000
000000
,
000010
100000
000001
000000
,
000010
000100
010000
001000
,
100000
000100
000001
001000
,
000001
001000
100000
000100
,
000001
001000
100001
001000
,
100010
000000
010001
000000
,
100001
000000
001100
000000
,
000001
001000
100000
001000
,
000001
001000
100000
100010
;

//---------------dance-solo - ----------------
#NOTES:
     dance-solo:
     :
     Medium:
     6:
     :
000000
000000
000000
000000
,
000000
000000
000000
000000
,
000000
000000
000000
000000
,
000000
000000
000000
000000
,
000000
000000
000000
000000
,
000001
000000
000001
000000
000001
000000
000001
100000
,
100000
100000
100000
100000
,
000001
000000
000001
000000
000001
000000
000001
100000
,
000001
000001
001100
100001
,
000001
001000
100000
001000
,
000001
001000
100000
001000
,
000001
001000
100000
000000
100000
001000
000001
000000
,
000001
001000
100000
000000
100000
001000
000001
000000
,
100000
000001
001000
000000
010000
000000
000010
000100
,
000001
100000
010000
000010
,
000001
100000
001000
000000
000010
000000
010000
000100
,
100000
000001
010000
000010
,
001000
001000
100000
000000
100000
001000
001000
000000
,
000100
000100
000001
000000
000001
000100
000100
000000
,
000001
001000
100000
000000
010000
000010
000010
000000
,
000010
010000
010000
000000
100000
001000
000001
000000
,
100001
001000
000100
000000
000100
010000
000100
000000
,
010000
100000
001000
000000
001001
000010
010000
000000
,
010000
000010
001000
000000
001000
100000
000100
000000
,
000100
100000
000001
000000
100001
000000
000001
000000
,
001000
000000
001100
000000
010000
000000
000010
000001
,
000001
100000
010000
000010
,
000001
000000
100001
000000
010000
000000
100000
000100
,
000100
001000
000010
000001
,
100000
000001
001000
000000
010000
000000
100000
000000
,
000010
000001
010000
100000
,
000001
100000
001000
000000
010000
000000
100000
000100
,
000100
001000
000001
000010
,
000001
001000
100000
001000
,
000001
001000
100000
001000
,
000010
001000
010000
000000
010000
001000
000010
000000
,
000010
001000
010000
000000
010000
001000
000010
000000
,
000010
000100
010000
001000
,
010000
000100
000010
001000
,
000001
001000
100000
000100
,
000001
001000
100001
001000
,
010010
000000
010001
000000
,
011000
000000
001100
000000
,
000001
001000
100000
000000
100000
001000
000001
000000
,
000001
001000
100000
100010
;

//---------------dance-solo - ----------------
#NOTES:
     dance-solo:
     :
     Hard:
     8:
     :
000000
000000
000000
000000
,
000000
000000
000000
000000
,
000000
000000
000000
000000
,
000000
000000
000000
000000
,
000000
000000
000000
000000
,
100001
000000
001000
000000
001000
000000
001000
100000
,
010000
001000
001000
001000
,
100001
000000
001000
000000
001000
000000
001000
000001
,
000010
000000
000000
000000
000000
000000
000000
000000
000000
000000
000000
000000
000000
000000
000000
000000
001000
000000
000000
000000
000000
000000
000000
000000
000000
000000
000000
000000
000000
000000
000000
000000
000001
000000
000000
000000
000000
001000
000000
000000
000000
000000
000000
000001
000000
000000
000000
000000
001000
000000
000000
000000
000000
000000
000000
000000
000000
000000
000000
000000
000000
000000
000000
000000
,
100000
001000
000001
001000
,
100000
010000
000001
000010
000100
001000
001000
000000
,
000001
001000
100000
001000
,
000001
000010
100000
010000
000100
000000
010010
000000
,
010000
000000
000000
000001
001000
000000
000000
000000
000100
000000
000000
000000
100000
000000
000000
000000
,
000010
000000
000000
100000
001000
000000
000000
000000
000100
000000
000000
000000
000001
000000
000000
000000
,
100000
000000
000000
000001
001000
000000
000010
000000
000001
000000
100000
000000
001000
000000
000000
000000
,
000001
000000
000000
100000
001000
000000
010000
000000
100000
000000
000001
000000
001000
000000
000000
000000
,
010000
001000
000010
001000
010000
001000
001000
000000
,
100000
001000
000001
001000
100000
001000
001000
000000
,
000001
100000
010000
000000
100000
000001
000010
000000
,
010000
000010
100000
000001
000100
001000
001000
000000
,
000001
000100
001000
100000
000010
001000
001000
000000
,
100000
001000
000100
000010
000001
001000
001000
000000
,
100000
010000
010000
000000
000001
000010
000010
000000
,
010000
000100
000010
000100
100001
000000
001100
000000
,
010000
000000
000000
000001
001000
000000
000100
000000
000100
000000
100000
000000
000001
000000
000010
000000
,
000010
000000
000000
100000
001000
000000
000100
000000
000100
000000
000001
000000
100000
000000
000000
000000
,
100000
000000
000000
000100
001000
000000
000001
000000
000001
000000
100000
000000
001000
000000
000001
000000
,
000001
000000
000000
001000
000100
000000
100000
000000
100000
000000
000001
000000
001000
000000
000000
000000
,
100001
000000
000000
100000
001000
000000
000100
000000
000001
000000
000100
000000
100000
000000
100000
000000
,
100001
000000
000000
000001
001000
000000
000100
000000
100000
000000
000100
000000
000001
000000
000000
000000
,
010010
000000
000000
000001
100000
000000
000100
000000
100000
000000
000001
000000
001000
000000
000100
000000
,
000100
000000
000000
001000
000001
000000
100000
000000
000100
000000
001000
000000
000001
000000
000000
000000
,
100000
001000
100000
001000
,
100000
000000
001000
000000
000000
000100
100001
001000
,
000001
001000
000001
001000
,
000001
000000
001000
000000
000000
100000
001100
000001
,
000100
100000
000100
000001
,
000100
000000
100000
000000
000000
010010
100001
001000
,
000100
000000
000100
000000
010000
000010
000100
000000
,
001000
000000
001000
000000
000010
010000
000100
000000
,
100010
000000
000000
001000
000000
000000
001000
000000
000000
000000
100000
000000
001000
000000
001000
000000
,
000001
000000
000000
001000
000000
000000
001000
000000
000000
000000
000000
000000
000000
000000
000000
000000
,
010001
000000
000000
001000
000000
000000
001000
000000
000000
000000
100000
000000
000100
000000
000001
000000
,
001000
000000
000000
001000
000000
000000
001000
000000
000000
000000
000100
000000
110011
000000
000000
000000
;

//---------------dance-double - Edit by silenttype01----------------
#NOTES:
     dance-double:
     Edit by silenttype01:
     Easy:
     4:
     0.277,0.281,0.160,0.091,0.000:
00000000
00000000
00000000
00000000
,
00000000
00000000
00000000
00000000
,
00000000
00000000
00000000
00000000
,
00000000
00000000
00000000
00000000
,
00000000
00000000
00000000
00000000
,
00001000
00001000
00001000
00001000
,
00000001
00000001
00000001
00000001
,
00000010
00000010
00000010
00000010
,
00000100
00000100
00000100
00000100
,
00010000
00001000
00000010
00000001
,
00000100
00001000
00010000
00000010
,
00001000
00000100
00010000
00001000
,
00000010
00000001
00000100
00001000
,
01000000
10010000
00010000
00100000
,
10000000
00100000
00010000
00100000
,
10000000
01100000
01000000
00100000
,
00001000
00010000
00000010
00000100
,
00000010
00000010
00000100
00000100
,
00000001
00000001
00001000
00000110
,
00000001
00000001
00000100
00000100
,
00001000
00001000
00010000
00001001
,
00000010
00000010
00001000
00001000
,
00010000
00010000
01000000
10010000
,
00100000
00100000
10000000
10000000
,
00010000
00010000
00001000
00000110
,
00000010
00001001
00001000
00000100
,
00000001
00000100
00001000
00000100
,
00000001
00000110
00000010
00000100
,
00010000
00001000
01000000
00100000
,
10000000
01010000
00100000
00010000
,
00000100
00001000
01000000
00010000
,
00001000
00000011
00000100
00010000
,
00001000
00000010
00000001
00000100
,
00010000
00000010
00000001
00000100
,
00001000
00010000
00100000
10000000
,
01000000
00001000
00100000
10000000
,
01000000
00010000
00001000
00000010
,
00000100
00000100
00000100
00000100
,
00000010
00000010
00000010
00000010
,
00000001
00000001
00000001
00000001
,
00001000
00001000
00001000
00001000
,
00000220
00000000
00000330
00000000
,
00022000
00000000
00033000
00000000
,
02200000
00000000
03300000
00000000
,
20020000
00000000
00000000
30030000
;

//---------------dance-double - Edit by silenttype01----------------
#NOTES:
     dance-double:
     Edit by silenttype01:
     Medium:
     6:
     0.367,0.409,0.069,0.377,0.011:
00000000
00000000
00000000
00000000
,
00000000
00000000
00000000
00000000
,
00000000
00000000
00000000
00000000
,
00000000
00000000
00000000
00000000
,
00000000
00000000
00000000
00000000
,
00000100
00000000
00001000
00000000
00000010
00000000
00000100
00000001
,
00000100
00000000
00000001
00000000
00000010
00000000
00000100
00001000
,
00000100
00000000
00001000
00000000
00000010
00000000
00000100
00000001
,
00000100
00000001
00000011
00001100
,
00002000
00003020
00020030
00032000
,
02003000
03020000
20030000
30100000
,
00200000
20300000
30020000
02030000
,
03002000
00023000
00030020
00001030
,
00000001
00000100
00000010
00000000
00010000
00000000
00001000
00000010
,
00000100
00010000
00001000
00100000
,
00010000
00100000
01000000
00000000
00010000
00000000
00001000
00010000
,
00100000
00010000
00001000
00000100
,
00000010
00000010
00001000
00000000
00001000
00000001
00000001
00000000
,
00000010
00000010
00001000
00000000
00001000
00010000
00010000
00000000
,
01000000
10000000
01000000
00000000
00100000
00010000
00100000
00000000
,
00001000
01000000
00001000
00000000
10000000
00100000
10000000
00000000
,
00100000
00100000
00010000
00000000
00010000
00001000
00001000
00000000
,
00000010
00000010
00000001
00000000
00000001
00000100
00000100
00000000
,
00000010
00001000
00000010
00000000
00000100
00000001
00000100
00000000
,
00000010
00001000
00000010
00000000
00000100
00000001
00000100
00000000
,
00000010
00000000
00001010
00000000
00000001
00000000
00001000
00010000
,
00010000
10000000
01000000
00100000
,
10000000
00000000
00110000
00000000
10000000
00000000
00010000
00001000
,
00001000
00010000
00100000
01000000
,
10000000
00100000
01000000
00000000
00001000
00000000
00010000
01000000
,
00100000
00001000
00010000
00000100
,
00001000
00000100
00000010
00000000
00001000
00000000
00010000
00001000
,
00000100
00001000
00010000
00100000
,
10000000
00100000
00010000
00100000
,
00001000
00010000
00001000
00000010
,
00000100
00000010
00001000
00000000
00000001
00000010
00000100
00000000
,
00010000
00001000
00010000
00000000
00100000
01000000
00010000
00000000
,
00020000
02030000
03002000
00023000
,
00030020
00002030
00003002
00000103
,
00000200
00000302
00002003
00003020
,
00020030
00032000
02003000
03010000
,
20020000
00000000
00000000
00000000
30030000
00000000
00000000
00010000
,
00020000
00000000
00030000
00000000
,
00022000
00000000
00000000
00000000
00033000
00000000
00000000
00000001
,
00000001
00000000
00000000
00000000
00000000
00000000
00000000
00001000
00000100
00001000
00000000
00000000
;

//---------------dance-double - Edit by silenttype01----------------
#NOTES:
     dance-double:
     Edit by silenttype01:
     Hard:
     7:
     0.455,0.460,0.183,0.365,0.108:
00000000
00000000
00000000
00000000
,
00000000
00000000
00000000
00000000
,
00000000
00000000
00000000
00000000
,
00000000
00000000
00000000
00000000
,
00000000
00000000
00000000
00000000
,
00001001
00000000
00000010
00000000
00000010
00000000
00000010
00000001
,
00000100
00001000
00001000
00001000
,
00011000
00000000
00010000
00000000
00010000
00000000
00010000
00100000
,
01000000
00000000
00000000
00100000
00000000
00000000
10000000
01000000
10000000
01000000
00000000
00000000
,
20000000
30200000
00320000
00230000
,
10300000
01000000
00100000
00010000
01000000
00100000
00100000
00000000
,
00020000
00230000
20300000
30200000
,
00310000
00000100
00000010
00000001
00001000
00000000
00001001
00000000
,
00000100
00000000
00000000
00001000
00000010
00000000
00000000
00000000
00000100
00000000
00000000
00000000
00000001
00000000
00000000
00000000
,
00001000
00000000
00000000
00000001
00000010
00000000
00000000
00000000
00000100
00000000
00000000
00000000
00010000
00000000
00000000
00000000
,
00001000
00000000
00000000
00000010
00000001
00000000
00000100
00000000
00000001
00000000
00001000
00000000
00000010
00000000
00000000
00000000
,
00001000
00000000
00000000
00000001
00000010
00000000
00000100
00000000
00001000
00000000
00000001
00000000
00000010
00000000
00000000
00000000
,
00000001
00000010
00001000
01000000
00010000
00100000
00100000
00000000
,
01000000
10000000
00100000
10000000
00010000
00100000
00100000
00000000
,
01000000
10000000
00100000
00000000
10000000
00100000
00010000
00000000
,
00001000
00000100
00001000
00000100
00000010
00001000
00001000
00000000
,
00000001
00000010
00000001
00000010
00000100
00001000
00001000
00000000
,
00000001
00000010
00001000
01000000
00010000
00100000
00100000
00000000
,
01000000
10000000
01000000
00000000
00100000
00010000
00100000
00000000
,
00001000
00010000
00100000
01000000
10010000
00000000
01100000
00000000
,
00010000
00000000
00000000
10000000
00100000
00000000
01000000
00000000
01000000
00000000
00010000
00000000
10000000
00000000
01000000
00000000
,
10000000
00000000
00000000
00010000
00100000
00000000
01000000
00000000
01000000
00000000
10000000
00000000
00010000
00000000
00000000
00000000
,
00001000
00000000
00000000
00000001
00001000
00000000
00000010
00000000
00000010
00000000
00000100
00000000
00000010
00000000
00001000
00000000
,
00001000
00000000
00000000
00000100
00010000
00000000
00001000
00000000
00001000
00000000
00000010
00000000
00000001
00000000
00000000
00000000
,
00001001
00000000
00000000
00000001
00000010
00000000
00000100
00000000
00001000
00000000
00010000
00000000
00100000
00000000
00100000
00000000
,
10010000
00000000
00000000
10000000
01000000
00000000
00100000
00000000
00010000
00000000
00001000
00000000
00000100
00000000
00000000
00000000
,
00001001
00000000
00000000
00001000
00000001
00000000
00000010
00000000
00001000
00000000
00000010
00000000
00000001
00000000
00000010
00000000
,
00000010
00000000
00000000
00001000
00010000
00000000
00100000
00000000
10000000
00000000
00100000
00000000
00010000
00000000
00000000
00000000
,
00200000
20300000
30200000
00320000
,
00032000
00000000
00003100
00000000
00000000
00000100
00001001
00000010
,
00002000
00003002
00000203
00002300
,
00203000
00000000
02300000
00000000
03000000
00010000
01100000
10000000
,
02000000
03020000
00030200
00002300
,
00003002
00000000
00000023
00000000
00000030
00001001
00001001
00000010
,
00000200
00000000
00002300
00000000
01003000
00100000
02000000
00000000
,
03100000
00010000
00200000
00000000
01300000
10000000
01000000
00000000
,
00210000
00000000
00000000
00010000
00000000
00000000
00310000
00000000
00000000
00000000
00000000
00000000
00000000
00000000
00001000
00000000
,
00000210
00000000
00000000
00000010
00000000
00000000
00000310
00000000
00000000
00000000
00000000
00000000
00000000
00000000
00000000
00000000
,
00000201
00000000
00000000
00000001
00000000
00000000
00000301
00000000
00000000
00000000
00000000
00000000
00000000
00000000
00001000
00000000
,
00011000
00000000
00000000
00000000
00000000
00000000
00000000
00100000
01000000
00100000
00000000
00000000
;

//---------------dance-double - Edit by silenttype01----------------
#NOTES:
     dance-double:
     Edit by silenttype01:
     Challenge:
     8:
     0.493,0.511,0.080,0.206,0.263:
00000000
00000000
00000000
00000000
,
00000000
00000000
00000000
00000000
,
00000000
00000000
00000000
00000000
,
00000000
00000000
00000000
00000000
,
00000000
00000000
00000000
00000000
,
00000001
00000100
00000000
00000100
00000000
00000100
00000000
00000100
,
00001000
01000000
00000000
01000000
00000000
01000000
00000000
01000000
,
00100000
00001000
00000000
00001000
00000000
00001000
00000000
00001000
,
00010000
00000000
00000000
10000000
00000000
00000000
00000000
00000000
00000000
10000000
00000000
00000000
00010000
00000000
10000000
00000000
00010000
00000000
10000000
00000000
00000000
00000000
00000000
00000000
,
00020000
00000000
00000000
20030000
00000000
00000000
30200000
00000000
00000000
02300000
00000000
00000000
03010000
00000000
10000000
00000000
,
00200000
00000000
00000000
20300000
00000000
00000000
30200000
00000000
00000000
00000000
00000000
00000000
00300000
00000000
00000000
00000000
,
00010000
00000000
00000000
00020000
00000000
00000000
00031000
00000000
00000000
00002000
00000000
00000000
00003100
00000000
00000001
00000000
,
00001000
00000000
00000000
00000000
00000000
00000000
00000000
00000000
00000000
00002000
00000000
00000000
00000000
00000000
00000000
00000000
00000000
00000000
00003001
00000000
00000000
00000000
00000000
00000000
00001000
00000000
00000000
00000000
00001000
00000000
00000000
00000000
00000010
00000000
00000000
00000000
00000010
00000000
00000000
00000000
00000000
00000000
00000000
00000000
00000000
00000000
00000000
00000000
,
00000100
00000000
00000000
00000001
00001000
00000000
00000100
00000000
00010000
00000000
00000010
00000000
00001000
00000000
00000001
00000000
,
00000010
00000000
00000000
00000000
00000100
00001000
00000100
00000000
00010000
00001000
00010000
00000000
01100000
00000000
00000000
00000000
,
01000000
00000000
00000000
10000000
00010000
00000000
01000000
00000000
00001000
00000000
00100000
00000000
00010000
00000000
10000000
00000000
,
00100000
00000000
00000000
01000000
00000000
00000000
00100000
00000000
00000000
10000000
00000000
00000000
00100000
00000000
00100000
00000000
10000000
00000000
10000000
00000000
00000000
00000000
00000000
00000000
,
00100000
00010000
00100000
00010000
00001000
00000100
00001000
00000000
,
00000100
00000000
00000001
00000000
00000100
00000000
00000001
00000000
00001000
00000000
00000010
00000000
00001000
00000001
00000000
00000000
,
00001000
00000010
00000011
00000000
00001000
00000010
00000011
00000000
,
00000010
00001000
00000010
00001000
00010000
01000000
00010000
10000000
,
00100000
00000000
00000000
00010000
00000000
00000000
10000000
00000000
00000000
00100000
00000000
00000000
00010000
00000000
00000000
00001000
00000000
00000000
00010000
00000000
00000000
00000000
00001000
00000000
,
00010000
00000000
00000000
00000000
00001000
00000000
00000000
00000000
00000100
00000000
00000000
00000000
00000010
00000000
00000000
00000000
00001000
00000000
00000000
00000000
00000000
00000001
00000000
00000000
00000010
00000000
00000000
00000001
00000000
00000000
00000010
00000000
00000000
00000000
00000000
00000000
00000110
00000000
00000000
00000000
00000000
00000000
00000000
00000000
00000000
00000000
00000000
00000000
,
00000100
00000000
00000001
00000000
00001000
00000000
00000010
00000000
00000001
00000000
00000000
00001000
00000000
00000000
00000100
00000000
,
00010000
00000000
00000000
00100000
00000000
00000000
10000000
00000000
00010000
00000000
01000000
10000000
00000000
00000000
00000000
00000000
,
00010000
00000000
00000000
00001000
00010000
00000000
00100000
00000000
10000000
00000000
00100000
00000000
00010000
00000000
00001000
00000000
,
00010000
00000000
00100000
00000000
10000000
00100000
10000000
00000000
00100000
00010000
00100000
00000000
00010000
00000000
00000000
00000000
,
00001000
00000000
00000000
00010000
00001000
00000000
00000010
00000000
00000001
00000000
00000010
00000000
00001000
00000000
00010000
00000000
,
00001000
00000000
00000010
00000000
00000001
00000010
00000001
00000000
00000010
00001000
00000010
00000000
00001000
00000000
00010000
00000000
,
01000000
00000000
00000000
10000000
00010000
00000000
01000000
00000000
00001000
00000000
00100000
00000000
00010000
00000000
10000000
00000000
,
00100000
00000000
00000000
00000000
01000000
00010000
01000000
00000000
00001000
00010000
00001000
00000000
00000110
00000000
00000010
00000000
,
00000100
00000000
00000000
00000001
00001000
00000000
00000100
00000000
00010000
00000000
00000010
00000000
00001000
00000000
00000001
00000000
,
00000010
00000000
00000000
00000100
00000000
00000000
00000010
00000000
00000000
00000001
00000000
00000000
00000010
00000000
00000010
00000000
00000001
00000000
00000001
00000000
00000000
00000000
00000000
00000000
,
00000000
00000010
00000001
00000100
00000000
00000010
00001000
00000100
,
00000000
00100000
00010000
01000000
00000000
00100000
10000000
01000000
,
00000000
00100000
10000000
01000000
00000000
00100000
00010000
01000000
,
00000000
00000010
00001000
00000100
00000000
00000010
00000001
00000100
,
00001000
00000010
00001000
00000010
00000100
00000001
00000100
00000001
,
00000010
00001000
00000010
00001000
00010000
01000000
00010000
01000000
,
10000000
00100000
10000000
00100000
01000000
00010000
01000000
00010000
,
00100000
00000000
00000000
01000000
00000000
00000000
10000000
00000000
00000000
00010000
00000000
00000000
10000000
00000000
10000000
00000000
00100000
00000000
00100000
00000000
00000000
00000000
00000000
00000000
,
20000000
00000000
00000000
30200000
00000000
00000000
02300000
00000000
00000000
03020000
00000000
00000000
00130000
00000000
00001000
00000000
,
00011000
00000000
00000000
00000000
,
00000002
00000000
00000000
00000023
00000000
00000000
00000230
00000000
00000000
00002300
00000000
00000000
00003010
00000000
00010000
00000000
,
00011000
00000000
00000000
00000000
00000000
00000000
00000000
00010000
00100000
10000000
00000000
00000000
;

//---------------dance-single - Edit by silenttype01----------------
#NOTES:
     dance-single:
     Edit by silenttype01:
     Challenge:
     8:
     0.499,0.511,0.103,0.240,0.263: // measure 1
0000
0000
0000
0000
,  // measure 2
0000
0000
0000
0000
,  // measure 3
0000
0000
0000
0000
,  // measure 4
0000
0000
0000
0000
,  // measure 5
0000
0000
0000
0000
,  // measure 6
0001
0100
0000
0100
0000
0100
0000
0100
,  // measure 7
1000
0100
0000
0100
0000
0100
0000
0100
,  // measure 8
0001
0100
0000
0100
0000
0100
0000
0100
,  // measure 9
1000
0000
0000
0100
0000
0000
0000
0000
0000
0100
0000
0000
0001
0000
1000
0000
0001
0000
1000
0000
0000
0000
0000
0000
,  // measure 10
0002
0000
0000
2003
0000
0000
3020
0000
0000
0230
0000
0000
0301
0000
1000
0000
,  // measure 11
0020
0000
0000
2030
0000
0000
3020
0000
0000
0000
0000
0000
0030
0000
0000
0000
,  // measure 12
2000
0000
0000
3002
0000
0000
0023
0000
0000
0230
0000
0000
1300
0000
0001
0000
,  // measure 13
0020
0000
0000
0000
0000
0000
0000
0000
0000
0032
0000
0000
0000
0000
0000
0000
0000
0000
0013
0000
0000
0000
0000
0000
0001
0000
0000
0000
0001
0000
0000
0000
1000
0000
0000
0000
1000
0000
0000
0000
0000
0000
0000
0000
0000
0000
0000
0000
,  // measure 14
0100
0000
0000
1000
0001
0000
0100
0000
0001
0000
1000
0000
0010
0000
0100
0000
,  // measure 15
0001
0000
0000
0000
1000
0010
1000
0000
0001
0100
0001
0000
1001
0000
0000
0000
,  // measure 16
0100
0000
0000
0001
1000
0000
0100
0000
1000
0000
0001
0000
0010
0000
0100
0000
,  // measure 17
1000
0000
0000
0010
0000
0000
0100
0000
0000
0001
0000
0000
1000
0000
1000
0000
0001
0000
0001
0000
0000
0000
0000
0000
,  // measure 18
1000
0100
1000
0100
0010
0001
0100
0000
,  // measure 19
0001
0000
0100
0000
0001
0000
0100
0000
0010
0000
1000
0000
0100
1000
0000
0000
,  // measure 20
0001
0100
1100
0000
0001
0100
1100
0000
,  // measure 21
0010
0100
0010
0100
0001
1000
0001
0100
,  // measure 22
0010
0000
0000
1000
0000
0000
0100
0000
0000
0001
0000
0000
0100
0000
0000
0010
0000
0000
0001
0000
0000
0000
1000
0000
,  // measure 23
0001
0000
0000
0000
1000
0000
0000
0000
0100
0000
0000
0000
0010
0000
0000
0000
0001
0000
0000
0000
0000
1000
0000
0000
0010
0000
0000
1000
0000
0000
0010
0000
0000
0000
0000
0000
0110
0000
0000
0000
0000
0000
0000
0000
0000
0000
0000
0000
,  // measure 24
0100
0000
0001
0000
1000
0000
0010
0000
0100
0000
0000
0100
0000
0000
0001
0000
,  // measure 25
0001
0000
0000
0010
0000
0000
0010
0000
0100
0000
0100
1000
0000
0000
0000
0000
,  // measure 26
0010
0000
0000
1000
0010
0000
0100
0000
0001
0000
0100
0000
0010
0000
1000
0000
,  // measure 27
0001
0000
0100
0000
0010
1000
0010
0000
0100
0001
0100
0000
1001
0000
0000
0000
,  // measure 28
0010
0000
0000
0001
0010
0000
0100
0000
1000
0000
0100
0000
0010
0000
0001
0000
,  // measure 29
1000
0000
0100
0000
0010
0001
0010
0000
0100
1000
0100
0000
1001
0000
0000
0000
,  // measure 30
1000
0000
0000
0100
0001
0000
0100
0000
1000
0000
0100
0000
0001
0000
0100
0000
,  // measure 31
1000
0000
0000
0000
0001
0010
0100
0000
1000
0100
0010
0000
0110
0000
0010
0000
,  // measure 32
0001
0000
0000
0100
1000
0000
0100
0000
0001
0000
0100
0000
1000
0000
0100
0000
,  // measure 33
0001
0000
0000
1000
0000
0000
0010
0000
0000
0100
0000
0000
0001
0000
0100
0000
0010
0000
0100
0000
0000
0000
0000
0000
,  // measure 34
0000
0010
1000
0100
0000
0010
0001
0100
,  // measure 35
0000
0010
1000
0100
0000
0010
0001
0100
,  // measure 36
0000
0010
0001
0100
0000
0010
1000
0100
,  // measure 37
0000
0010
0001
0100
0000
0010
1000
0100
,  // measure 38
0001
0100
0001
0100
0010
1000
0010
1000
,  // measure 39
0100
1000
0100
1000
0001
0010
0001
0010
,  // measure 40
0100
1000
0100
1000
0001
0010
0001
0010
,  // measure 41
0100
0000
0000
1000
0000
0000
0001
0000
0000
1000
0000
0000
0010
0000
0010
0000
0100
0000
0100
0000
0000
0000
0000
0000
,  // measure 42
0002
0000
0000
0203
0000
0000
2300
0000
0000
3020
0000
0000
0031
0000
0100
0000
,  // measure 43
0110
0000
0000
0000
,  // measure 44
0002
0000
0000
0203
0000
0000
2300
0000
0000
3020
0000
0000
0031
0000
0100
0000
,  // measure 45
0110
0000
0000
0000
0000
0000
0000
0001
0010
1000
0000
0000
;
