#TITLE:Take On Me;
#SUBTITLE:;
#ARTIST:A-ha;
#TITLETRANSLIT:Take On Me;
#SUBTITLETRANSLIT:;
#ARTISTTRANSLIT:;
#CREDIT:;
#BANNER:Take On Me.png;
#BACKGROUND:Take On Me-bg.png;
#LYRICSPATH:;
#CDTITLE:./CDTITLES/Dancing Stage SuperNOVA.png;
#MUSIC:Take On Me.mp3;
#OFFSET:-0.077;
#SAMPLESTART:34.123;
#SAMPLELENGTH:15.000;
#SELECTABLE:YES;
#BPMS:0.000=168.960;
#STOPS:;
#BGCHANGES:0.000=Take On Me.avi=1.000=1=0=0,
99999=-nosongbg-=1.000=0=0=0 // don't automatically add -songbackground-
;

//---------------dance-single - ----------------
#NOTES:
     dance-single:
     :
     Beginner:
     1:
     0.191,0.237,0.130,0.080,0.000:
0000
0000
0000
0000
,
0000
0000
0000
0000
,
0000
0000
0000
0000
,
0000
0000
0000
0000
,
0001
0000
1000
0000
,
0100
0000
0000
0000
,
0010
0000
0001
0000
,
0010
0000
0000
0000
,
1000
0000
0010
0000
,
0100
0000
0000
0000
,
0001
0000
1000
0000
,
1001
0000
0000
0000
,
0010
0000
0100
0000
,
0010
0000
1000
0000
,
0001
0000
1000
0000
,
0010
0010
0010
0010
,
0010
0000
0100
0000
,
0001
0000
1000
0000
,
0100
0000
0010
0000
,
0100
0000
1000
1000
,
1000
0000
0001
0000
,
0100
0000
0010
0000
,
0100
0000
0100
0000
,
0100
0100
0100
0000
,
1001
0000
0000
0000
,
1001
0000
0000
0000
,
0220
0000
0000
0330
,
0000
0000
0000
0000
,
0110
0000
0000
0000
,
0110
0000
0000
0000
,
2002
0000
0000
3003
,
0000
0000
0000
0000
,
1000
0000
1000
0000
,
0001
0000
0001
0000
,
0010
0000
0010
0000
,
0100
0000
0000
0000
,
0100
0000
0010
0000
,
1000
0000
0001
0000
,
0010
0000
0100
0000
,
1000
0000
0010
0000
,
0010
0000
0100
0000
,
0010
0000
1000
0000
,
0001
0000
1000
0000
,
0100
0100
0100
0100
,
0100
0000
0010
0000
,
1000
0000
0001
0000
,
0010
0000
0100
0000
,
0010
0000
0001
0001
,
0001
0000
1000
0000
,
0010
0000
0100
0000
,
0010
0000
0010
0000
,
0010
0010
0010
0000
,
0110
0000
0000
0000
,
0110
0000
0000
0000
,
2002
0000
0000
3003
,
0000
0000
0000
0000
,
1001
0000
0000
0000
,
1001
0000
0000
0000
,
0220
0000
0000
0330
,
0000
0000
0000
0000
,
0010
0000
0010
0000
,
1000
0000
1000
0000
,
0010
0000
0010
0000
,
0001
0000
0001
0000
,
1000
0000
1000
0000
,
0001
0000
0001
0000
,
0100
0000
0100
0000
,
0010
0010
0010
0010
;

//---------------dance-single - ----------------
#NOTES:
     dance-single:
     :
     Easy:
     4:
     0.247,0.304,0.000,0.100,0.000:
0000
0000
0000
0000
,
0000
0000
0000
0000
,
0000
0000
0000
0000
,
0000
0000
0000
0000
,
0010
1000
0000
0001
,
0000
0010
0000
0100
,
1000
0010
0000
0100
,
0000
0001
0010
0100
,
1000
0001
0000
0100
,
0000
0010
0001
0100
,
1000
0001
0000
0100
,
0000
0010
0100
0010
,
0100
0001
0000
1000
,
0000
0001
0000
0100
,
0000
0010
0000
0100
,
0000
1000
0001
1000
,
0001
0100
0000
0010
,
0000
0100
0000
0010
,
0000
1000
0000
0001
,
0100
0010
0100
0010
,
0100
1000
0000
0001
,
0000
0100
0000
0010
,
0000
1000
0100
0010
,
0001
1000
0100
0010
,
0002
0000
0000
0000
,
0103
0100
0100
0100
,
0020
0000
0000
0030
,
1000
0000
0001
0000
,
2000
0000
0000
0000
,
3100
0100
0100
0100
,
0020
0000
0000
0000
,
0031
0000
1000
0000
,
0010
0000
0100
0000
,
0010
1000
0100
0000
,
0010
0000
0001
0000
,
1000
0001
1000
0001
,
0100
0020
0000
0000
,
0000
0030
0000
0000
,
0100
0100
0100
0100
,
0001
0001
1000
0100
,
0010
1000
0000
0001
,
0000
1000
0000
0010
,
0000
0100
0000
0010
,
0000
0001
1000
0001
,
1000
0010
0000
0100
,
0000
0010
0000
0100
,
0000
0001
0000
1000
,
0010
0100
0010
0100
,
0010
0001
0000
1000
,
0000
0010
0000
0100
,
0000
0001
0010
0100
,
1000
0001
0010
0100
,
2000
0000
0000
0000
,
3010
0010
0010
0010
,
0200
0000
0000
0300
,
0001
0000
1000
0000
,
0002
0000
0000
0000
,
0013
0010
0010
0010
,
0200
0000
0000
0000
,
1300
0000
0001
0000
,
0100
0000
0010
0000
,
0100
0001
0010
0000
,
0100
0000
1000
0000
,
0001
1000
0001
1000
,
0010
0200
0000
0000
,
0000
0300
0000
0000
,
0010
0010
0010
0010
,
1000
1000
0001
0010
;

//---------------dance-single - ----------------
#NOTES:
     dance-single:
     :
     Medium:
     5:
     0.365,0.372,0.150,0.030,0.000:
0000
0000
0000
0000
,
0000
0000
0000
0000
,
0000
0000
0000
0000
,
0000
0000
0000
0000
,
0001
0100
1000
0001
,
1000
0100
0000
0110
,
1000
0010
0100
0001
,
0010
0000
0001
0000
0100
0001
0010
0000
,
0100
1000
0010
0001
,
0100
1000
0000
1001
,
0100
0010
1000
0001
,
0100
0000
0010
0000
1000
0001
1000
0000
,
0010
1000
0100
0010
,
0001
0010
0001
0000
0011
0000
0000
0000
,
0100
1000
0010
0100
,
0002
0000
1003
0000
,
0010
0100
1000
0001
,
1000
0100
1000
0000
1100
0000
0000
0000
,
0010
0100
0001
0010
,
0001
1000
1001
0000
,
0000
0010
1000
0100
,
0010
0001
0010
0000
1010
0000
0000
0000
,
0100
0100
0001
0001
,
1000
0001
1000
0000
0100
0000
0000
0000
,
0010
0000
0010
0000
0010
0000
0010
1000
,
0100
0000
0100
0000
0100
0000
0100
0010
,
0001
0001
0001
0001
,
1000
0000
0000
0001
0000
0000
1000
0000
,
0010
0000
0010
0000
0010
0000
0010
0100
,
0001
0000
0001
0000
0001
0000
0001
0010
,
0100
0100
0100
0100
,
1000
0000
0000
0001
0000
0000
1000
0000
,
0010
1000
0010
0000
0110
0000
0000
0000
,
0010
0001
0010
0000
0110
0000
0000
0000
,
1000
0001
1000
0000
1001
0000
0000
0000
,
0010
0010
0100
0100
,
0001
0020
0000
1000
,
0000
0100
0000
0001
,
0000
0100
0000
1030
,
0000
0100
0001
1000
,
0010
1000
0100
0010
,
0001
1000
0001
0000
1001
0000
0000
0000
,
0010
0010
0100
0000
,
0001
1000
0100
0000
,
0010
0010
0100
0001
,
1000
0001
1000
0000
1001
0000
0000
0000
,
0010
0100
0001
0010
,
0100
1000
0100
0000
1000
0000
0000
0000
,
0010
0100
0001
0010
,
0100
1000
0100
0000
0101
0000
0000
0000
,
0000
0010
0100
0001
,
0010
0000
0000
0100
0000
0000
0000
0000
,
1000
0000
1000
0000
1000
0000
1000
0001
,
0010
0000
0010
0000
0010
0000
0010
0100
,
1000
1000
1000
1000
,
0010
0000
0000
0100
0000
0000
0001
0000
,
1000
0000
1000
0000
1000
0000
1000
0001
,
0100
0000
0100
0000
0100
0000
0100
0010
,
1000
1000
1000
1000
,
0010
0000
0000
0100
0000
0000
0001
0000
,
0010
0001
0010
0000
0011
0000
0000
0000
,
1000
0100
1000
0000
1100
0000
0000
0000
,
0010
0100
0010
0000
0110
0000
0000
0000
,
0100
1000
0010
0100
,
0001
0020
0000
1000
,
0000
0100
0000
0001
,
0000
0100
0000
1000
,
0000
0100
0000
0031
;

//---------------dance-single - ----------------
#NOTES:
     dance-single:
     :
     Hard:
     7:
     0.519,0.574,0.299,0.000,0.000:
0000
0000
0000
0000
,
0000
0000
0000
0000
,
0000
0000
0000
0000
,
0000
0000
0000
0000
,
1000
0001
0100
0010
0000
1000
0000
0001
,
0000
0010
0000
0001
0100
0010
1000
0100
,
1000
0010
0100
0001
0000
0010
0000
1000
,
0000
0010
0000
0001
0010
0100
1000
0010
,
0100
0001
1000
0100
0000
0010
0000
0100
,
0000
1000
0000
0010
0100
0001
0010
0100
,
1000
0010
0100
0001
0000
1000
0000
0001
,
0000
0100
0000
0010
1000
0100
0010
0000
,
0001
0000
0000
1000
0000
0100
0010
0000
,
0001
0000
0010
0000
0100
1000
0010
0000
,
0100
0001
0000
0010
0000
0100
0000
0000
,
0000
1000
0000
0010
0100
0001
0010
0000
,
0100
0000
1000
0000
0010
0100
0000
0001
,
0000
0010
0000
0100
1000
0000
0100
0000
,
0010
0000
0001
0010
0000
0100
0000
1000
,
0000
0010
0000
0100
0001
0000
0010
0000
,
1000
0000
0100
0000
1000
0010
0000
0100
,
0000
0001
0010
0100
,
1000
0000
0100
1000
0100
0000
0010
0000
,
0001
0010
0000
0000
0100
0000
0000
0000
,
1000
0001
1000
0001
1000
0001
1000
0001
,
0100
0010
0100
0010
0100
0010
0100
0010
,
1000
0010
1000
0010
1000
0010
1000
0000
,
1001
0000
0000
1100
0000
0000
0101
0000
,
0001
1000
0001
1000
0001
1000
0001
1000
,
0010
0100
0010
0100
0010
0100
0010
0100
,
0001
0100
0001
0100
0001
0100
0001
0000
,
1001
0000
0000
1010
0000
0000
0011
0000
,
1000
0000
1000
0000
0010
0001
0000
1000
,
0001
0000
0001
0000
0100
0010
0000
0001
,
0100
0000
0100
0000
0010
1000
0000
0100
,
0010
0000
0001
1000
0000
1000
0010
0000
,
0000
0000
0110
0000
0001
0010
0100
0000
,
0011
0000
1001
0000
1000
0010
0100
0000
,
1001
0000
0110
0000
0001
1000
0010
0000
,
1010
0011
1010
0011
,
1000
0000
0000
0100
0000
0010
0001
0000
,
0010
0000
0100
0000
1000
0010
0100
0000
,
0001
0000
0100
0010
0000
0000
0000
0000
,
0000
1000
0100
0000
0010
0000
0001
0000
,
0100
0000
1000
0000
0010
0100
0000
0001
,
0000
0010
0000
0001
0010
0000
0100
0000
,
1000
0000
0010
0100
0000
0001
0010
0100
,
0000
1000
0010
0000
0100
0000
0001
0000
,
1000
0000
0000
0010
0000
1000
0001
0000
,
1000
0000
0001
0000
0010
0100
1000
0000
,
0100
0000
0010
0001
0010
0100
1000
0001
,
0100
0000
0001
1000
0000
0010
0000
0000
,
0100
0001
0100
0001
0100
0001
0100
0001
,
0100
0010
0100
0010
0100
0010
0100
0010
,
1000
0001
1000
0001
1000
0001
1000
0000
,
1001
0000
0000
1010
0000
0000
0011
0000
,
0100
1000
0100
1000
0100
1000
0100
1000
,
0100
0010
0100
0010
0100
0010
0100
0010
,
0001
1000
0001
1000
0001
1000
0001
0000
,
1001
0000
0000
1100
0000
0000
0101
0000
,
0100
0000
0100
0000
0010
0100
0000
0001
,
0010
0000
0010
0000
0100
1000
0000
0010
,
0100
0000
0100
0000
0001
1000
0000
1000
,
0010
0000
0010
0100
0000
0001
0010
0000
,
0000
0000
0110
0000
1000
0100
0010
0000
,
1100
0000
1001
0000
0001
0100
0010
0000
,
1001
0000
0110
0000
1000
0001
0100
0000
,
0101
1100
0101
1100
;

//---------------dance-double - ----------------
#NOTES:
     dance-double:
     :
     Easy:
     4:
     0.247,0.304,0.000,0.100,0.000:
00000000
00000000
00000000
00000000
,
00000000
00000000
00000000
00000000
,
00000000
00000000
00000000
00000000
,
00000000
00000000
00000000
00000000
,
00100000
00010000
00000000
10000000
,
00000000
01000000
00000000
10000000
,
00100000
01000000
00000000
00010000
,
00000000
00100000
00001000
00010000
,
00001000
00000100
00000000
00000010
,
00000000
00000100
00000001
00000010
,
00000100
00001000
00000000
00000010
,
00000000
00001000
00000001
00001000
,
00000001
00000100
00000000
00000010
,
00000000
00010000
00000000
00001000
,
00000000
00100000
00000000
00010000
,
00000000
01000000
00100000
01000000
,
00100000
10000000
00000000
00010000
,
00000000
01000000
00000000
10000000
,
00000000
00010000
00000000
00100000
,
00001000
00010000
00001000
00010000
,
00000100
00000010
00000000
00001000
,
00000000
00000001
00000000
00000100
,
00000000
00000010
00000100
00000001
,
00000010
00000100
00001000
00000100
,
00020000
00000000
00000000
00000000
,
00031000
00001000
00001000
00001000
,
00200000
00000000
00000000
00300000
,
00010000
00000000
01000000
00000000
,
00200000
00000000
00000000
00000000
,
10300000
10000000
10000000
10000000
,
00020000
00000000
00000000
00000000
,
01030000
00000000
00001000
00000000
,
00010000
00000000
00000100
00000000
,
00001000
00000001
00000010
00000000
,
00000100
00000000
00001000
00000000
,
00000010
00000100
00000010
00000100
,
00000001
00002000
00000000
00000000
,
00000000
00000000
00003000
00000000
,
00000100
00000100
00000100
00000100
,
00010000
00010000
00001000
00100000
,
00010000
00100000
00000000
10000000
,
00000000
00010000
00000000
01000000
,
00000000
00100000
00000000
10000000
,
00000000
00010000
00100000
00010000
,
00100000
00001000
00000000
00010000
,
00000000
00001000
00000000
00010000
,
00000000
00000100
00000000
00000010
,
00000001
00001000
00000001
00001000
,
00000001
00000100
00000000
00000010
,
00000000
00001000
00000000
00000100
,
00000000
00010000
00001000
00100000
,
00010000
10000000
00100000
01000000
,
00020000
00000000
00000000
00000000
,
00130000
00100000
00100000
00100000
,
00002000
00000000
00000000
00000000
,
00013000
00000000
00001000
00000000
,
00020000
00000000
00000000
00000000
,
00030100
00000100
00000100
00000100
,
00002000
00000000
00000000
00000000
,
00003001
00000000
00000100
00000000
,
00000010
00000000
00001000
00000000
,
00000100
00000010
00000001
00000000
,
00001000
00000000
00000010
00000000
,
00010000
00001000
00010000
00001000
,
00100000
00020000
00000000
00000000
,
00000000
00030000
00000000
00000000
,
10000000
10000000
10000000
10000000
,
00100000
00100000
01000000
00010000
;

//---------------dance-double - ----------------
#NOTES:
     dance-double:
     :
     Medium:
     5:
     0.382,0.372,0.289,0.010,0.000:
00000000
00000000
00000000
00000000
,
00000000
00000000
00000000
00000000
,
00000000
00000000
00000000
00000000
,
00000000
00000000
00000000
00000000
,
00100000
01000000
00010000
01000000
,
10000000
00010000
00000000
10010000
,
10000000
01000000
00010000
00001000
,
00000010
00000000
00000001
00000000
00001000
00000010
00000100
00000000
,
00000010
00001000
00000001
00000100
,
00000010
00000001
00000000
00000110
,
00000010
00010000
00001000
00010000
,
01000000
00000000
10000000
00000000
00100000
01000000
00100000
00000000
,
01000000
00010000
00100000
01000000
,
10000000
01000000
10000000
00000000
11000000
00000000
00000000
00000000
,
00100000
00010000
01000000
00001000
,
00020000
00000000
00031000
00000000
,
00010000
00000100
00000010
00000001
,
00000100
00001000
00000100
00000000
00001100
00000000
00000000
00000000
,
00000010
00000100
00000001
00000100
,
00000010
00001000
00001010
00000000
,
00000000
00010000
00001000
00010000
,
01000000
00100000
01000000
00000000
01100000
00000000
00000000
00000000
,
10000000
10000000
00010000
00010000
,
01000000
00010000
01000000
00000000
00100000
00000000
00000000
00000000
,
01000000
00000000
01000000
00000000
01000000
00000000
01000000
00010000
,
00100000
00000000
00100000
00000000
00100000
00000000
00100000
00001000
,
00010000
00010000
00010000
00010000
,
00000100
00000000
00000000
00000010
00000000
00000000
00001000
00000000
,
00000010
00000000
00000010
00000000
00000010
00000000
00000010
00000100
,
00000001
00000000
00000001
00000000
00000001
00000000
00000001
00001000
,
00000100
00000100
00000100
00000100
,
00001000
00000000
00000000
00000010
00000000
00000000
00010000
00000000
,
00001000
00010000
00001000
00000000
00011000
00000000
00000000
00000000
,
00010000
01000000
00100000
00000000
01100000
00000000
00000000
00000000
,
10000000
00100000
01000000
00000000
01100000
00000000
00000000
00000000
,
10000000
10000000
00010000
00010000
,
00100000
00110000
00000000
00011000
,
00000000
00001100
00000000
00001010
,
00000000
00000110
00000000
00001001
,
00000000
00000001
00000100
00001000
,
00000001
00000100
00010000
01000000
,
00100000
10000000
00100000
00000000
10100000
00000000
00000000
00000000
,
01000000
01000000
00010000
00000000
,
00100000
10000000
00010000
00000000
,
00100000
00100000
00001000
00010000
,
00001000
00010000
00001000
00000000
00011000
00000000
00000000
00000000
,
00000100
00000010
00001000
00000100
,
00000010
00000001
00000010
00000000
00001000
00000000
00000000
00000000
,
00000010
00000100
00000001
00001000
,
00000100
00000010
00000100
00000000
00001100
00000000
00000000
00000000
,
00000000
00001000
00000100
00010000
,
00001000
00000000
00000000
00100000
00000000
00000000
00000000
00000000
,
00010000
00000000
00010000
00000000
00010000
00000000
00010000
10000000
,
00100000
00000000
00100000
00000000
00100000
00000000
00100000
01000000
,
00010000
00010000
00010000
00010000
,
00100000
00000000
00000000
01000000
00000000
00000000
10000000
00000000
,
01000000
00000000
01000000
00000000
01000000
00000000
01000000
00100000
,
00001000
00000000
00001000
00000000
00001000
00000000
00001000
00010000
,
00000100
00000100
00000100
00000100
,
00001000
00000000
00000000
00000010
00000000
00000000
00000100
00000000
,
00000001
00001000
00000001
00000000
00001001
00000000
00000000
00000000
,
00000100
00000010
00000100
00000000
00000110
00000000
00000000
00000000
,
00001000
00000100
00001000
00000000
00001100
00000000
00000000
00000000
,
00010000
00001000
01000000
00100000
,
01000000
01100000
00000000
10010000
,
00000000
11000000
00000000
01010000
,
00000000
00011000
00000000
00011000
,
00000000
00001100
00000000
00001001
;

//---------------dance-double - ----------------
#NOTES:
     dance-double:
     :
     Hard:
     7:
     0.490,0.507,0.239,0.040,0.000:
00000000
00000000
00000000
00000000
,
00000000
00000000
00000000
00000000
,
00000000
00000000
00000000
00000000
,
00000000
00000000
00000000
00000000
,
00000100
00001000
00000100
00000010
00000000
00000001
00000000
00000100
,
00000000
00000010
00000000
00001000
00000010
00001000
00000001
00000100
,
00001000
00000100
00000010
00001000
00000000
00000001
00000000
00000100
,
00000000
00001000
00000000
00010000
00001000
00010000
00001000
00010000
,
00001000
00100000
00010000
01000000
00000000
00100000
00000000
10000000
,
00000000
00100000
00000000
01000000
00010000
01000000
00100000
10000000
,
01000000
10000000
00010000
01000000
00000000
00100000
00000000
10000000
,
00000000
01000000
00000000
00010000
00001000
00010000
00001000
00000000
,
00011000
00000000
00000000
00010010
00000000
00000010
00001000
00000100
,
00000000
00000100
00000000
00000100
00000010
00000001
00001000
00000000
,
00000001
00001000
00000000
00000100
00000000
00010000
00000000
00000000
,
00000000
00011000
00000000
00001000
00100000
00000000
00010000
00000000
,
02000000
00000000
00000000
00000000
00100000
03100000
00000000
10000000
,
00000000
00010000
00000000
10000000
00100000
10000000
00010000
10000000
,
01000000
00000000
01000000
00010000
00000000
00001000
00000000
00010000
,
00000000
00000010
00000000
00001000
00000010
00000000
00000100
00000000
,
00000001
00000000
00001000
00000000
00000001
00000000
00000100
00001000
,
00000000
00010000
00000000
01000000
10000000
00000000
00000000
00000000
,
10010000
00000000
00100000
01000000
00100000
01000000
00100000
01000000
,
10000000
00010000
00000000
00000000
01100000
00000000
00000000
00000000
,
00100000
10000000
01000000
00000000
00010000
00000000
00001000
00000000
,
00010000
00001000
00000100
00000000
00000001
00000000
00001000
00000000
,
00000010
00001000
00000001
00000000
00000100
00000000
00001000
00000000
,
00010000
00000000
00001000
00100000
00000000
00100000
00010000
00000000
,
10000000
00010000
01000000
00000000
00100000
00000000
10000000
00000000
,
01000000
00010000
00001000
00000000
00010000
00000000
00000100
00000000
,
00000010
00000001
00000100
00000000
00001000
00000000
00010000
00000000
,
00001000
00100000
00010000
01000000
00000000
00100000
10000000
00000000
,
10000000
01000000
00010000
00000000
01100000
00000000
00000000
01000000
,
00010000
00001000
00010000
00000000
00011000
00000000
00000000
00000000
,
00001000
00000100
00000001
00000000
00000100
00000010
00001000
00000010
,
00000000
00000010
00001000
00000100
00001000
00000010
00001000
00000001
,
00000100
00001000
00010000
00000000
00100000
00000000
10010000
00000000
,
01000000
10010000
01000000
10010000
,
10000000
01000000
00010000
00000000
00001000
00000100
00000001
00000000
,
00001000
00000100
00000010
00000000
00000001
00000100
00000010
00000000
,
00001000
00000000
00001000
00000001
00000000
00000001
00000100
00001000
,
00000000
00010000
00000000
00010000
00001000
00100000
00010000
00000000
,
01000000
00000000
01000000
00100000
00000000
00100000
00000000
00000000
,
00000000
10000000
01000000
00000000
10000000
00000000
01000000
00000000
,
00020000
00000000
00030000
00001000
00010000
01000000
00000000
10000000
,
00000000
01000000
00000000
00010000
00001000
00010000
00001000
00000000
,
00000100
00000000
00000100
00000010
00000000
00000010
00000000
00001000
,
00000000
00001000
00000001
00000000
00000001
00000000
00000100
00000000
,
00001000
00000000
00000000
00010000
00000000
00020000
00002000
00000000
,
00000000
00000000
00000000
00033000
,
00011000
00000000
00010000
00001000
00010000
00001000
00010000
00001000
,
00010000
00000010
00000000
00000010
00000000
00001000
00000000
00000000
,
00000010
00000001
00000100
00000000
00001000
00000000
00010000
00000000
,
00001000
00010000
01000000
00000000
10000000
00000000
00010000
00000000
,
00100000
00010000
10000000
00000000
01000000
00000000
00010000
00000000
,
00011000
00000000
00000000
00010100
00000000
00000000
00001100
00000000
,
00000001
00001000
00000100
00000000
00001000
00000000
00000001
00000000
,
00000100
00001000
00010000
00000000
00001000
00000000
00100000
00000000
,
00010000
10000000
01000000
00000000
00010000
00000000
00001000
00000000
,
00011000
00000000
00000000
00101000
00000000
00000000
00110000
00000000
,
10000000
00100000
00010000
00000000
01100000
00000000
00000000
00100000
,
00010000
00001000
00010000
00000000
00011000
00000000
00000000
00000000
,
00001000
00000010
00000001
00000000
00000110
00000000
00000000
00000000
,
00000001
00000100
00001000
00000000
00010000
00001000
00010000
00001000
,
00100000
10010000
00100000
10010000
,
01000000
10010000
01000000
10010000
,
10000000
01000000
00010000
00000000
00001000
00000100
00000001
00000000
,
00001000
00000100
00000010
00000000
00000001
00000100
00000010
00000000
;

//---------------dance-single - ----------------
#NOTES:
     dance-single:
     :
     Challenge:
     7:
     0.494,0.577,0.429,0.040,0.000: // measure 1
0000
0000
0000
0000
,  // measure 2
0000
0000
0000
0000
,  // measure 3
0000
0000
0000
0000
,  // measure 4
0000
0000
0000
0000
,  // measure 5
0000
0000
0000
0000
,  // measure 6
0000
0000
0000
0000
0000
0001
0000
1000
,  // measure 7
0100
0010
0000
0110
0000
0000
0000
0000
,  // measure 8
0000
0000
0000
0000
,  // measure 9
0200
0000
0000
0300
,  // measure 10
0002
0000
0000
0003
,  // measure 11
2000
0000
0000
3000
,  // measure 12
0020
0000
0000
0030
,  // measure 13
0100
0001
1000
0100
0000
0010
0001
0100
,  // measure 14
0000
0010
0000
1000
0001
0000
0000
0000
,  // measure 15
0010
1000
0001
0010
0000
0100
0000
0000
,  // measure 16
0000
0010
0000
1000
0001
0000
0010
0001
,  // measure 17
0100
0100
0100
0000
0010
1000
0000
0101
,  // measure 18
0000
0101
0000
1000
0001
0000
0000
0010
,  // measure 19
0001
0100
0100
0010
0000
1000
0100
0001
,  // measure 20
0000
0110
0000
1000
0100
0000
0010
0001
,  // measure 21
1000
1000
1000
0000
0001
0000
0100
0010
,  // measure 22
0000
1010
0000
0001
1000
0000
0000
0000
,  // measure 23
0100
1000
0010
0001
0100
0000
0010
0000
,  // measure 24
0100
1000
0000
0000
0001
0100
0001
0100
,  // measure 25
0001
0010
0100
0000
1000
0000
1100
0000
,  // measure 26
0010
0011
0001
0101
,  // measure 27
0010
1010
0100
0110
,  // measure 28
0001
0000
0000
1000
0000
0000
0001
0000
,  // measure 29
1000
0010
1000
0000
0001
0000
0101
0000
,  // measure 30
1000
1100
0010
0011
,  // measure 31
0001
1010
0100
1001
,  // measure 32
1000
0000
0000
0001
0000
0000
1000
0000
,  // measure 33
0001
0100
0001
0000
1001
0000
0000
0010
,  // measure 34
0100
0001
1000
0000
1001
0000
0000
0000
,  // measure 35
0010
0001
0010
0000
1000
0010
0100
0001
,  // measure 36
0000
0010
0100
0000
1000
0010
0100
0001
,  // measure 37
0010
0100
0010
0000
0001
0000
0101
0000
,  // measure 38
0100
0110
0010
1010
,  // measure 39
1000
0100
0001
0100
1000
0100
0001
0100
,  // measure 40
1000
0010
0001
0010
1000
0010
0001
0010
,  // measure 41
0100
0100
0100
0001
0000
1000
0010
0100
,  // measure 42
0000
1001
0000
0100
0010
0000
0000
0001
,  // measure 43
0100
1000
0100
0010
0000
0000
0000
0110
,  // measure 44
0000
1000
0100
0001
0001
0000
0101
0100
,  // measure 45
0010
0001
0100
0010
1000
0001
0000
0101
,  // measure 46
0000
0011
0000
1000
0001
0000
0000
0001
,  // measure 47
0100
0100
0010
1000
0000
0001
0100
0001
,  // measure 48
0000
1000
0010
0000
0110
0000
0000
1000
,  // measure 49
0100
0010
0010
0001
0000
1000
0010
1000
,  // measure 50
0000
0101
0000
0001
1000
0000
0000
0001
,  // measure 51
0010
0010
0010
0100
1000
0000
0001
0100
,  // measure 52
1000
0000
0100
0001
1000
0100
1000
0100
,  // measure 53
1000
0001
0010
0000
0001
0000
0101
0000
,  // measure 54
0010
1010
1000
1100
,  // measure 55
0010
0011
0100
1001
,  // measure 56
0001
0000
0000
1000
0000
0000
0001
0000
,  // measure 57
1000
0010
0100
0000
0001
0000
0101
0000
,  // measure 58
1000
1100
0010
0011
,  // measure 59
1000
1010
0001
0101
,  // measure 60
1000
0000
0000
0001
0000
0000
1000
0000
,  // measure 61
0010
0100
0001
0000
1001
0000
0000
0010
,  // measure 62
1000
0100
0001
0000
1001
0000
0000
0000
,  // measure 63
0001
0100
1000
0000
1001
0000
0000
1000
,  // measure 64
0010
0100
0001
0010
0100
1000
0100
1000
,  // measure 65
0010
0010
0100
0000
0001
0000
1100
0000
,  // measure 66
0010
1001
0100
0011
,  // measure 67
0001
0100
0010
0100
1000
1000
0100
0010
,  // measure 68
1000
0100
0010
0100
0001
0001
0010
1000
,  // measure 69
0001
0000
0000
0000
;
