#TITLE:TRIP MACHINE CLIMAX;
#SUBTITLE:;
#ARTIST:DE-SIRE;
#TITLETRANSLIT:;
#SUBTITLETRANSLIT:;
#ARTISTTRANSLIT:;
#CREDIT:;
#BANNER:TRIP MACHINE CLIMAX.png;
#BACKGROUND:TRIP MACHINE CLIMAX-bg.png;
#LYRICSPATH:;
#CDTITLE:Dance Dance Revolution 4th Mix.png;
#MUSIC:TRIP MACHINE CLIMAX.ogg;
#OFFSET:0.000;
#SAMPLESTART:56.667;
#SAMPLELENGTH:15.000;
#SELECTABLE:YES;
#DISPLAYBPM:180.000;
#BPMS:0.000=180.000,24.000=180.000;
#STOPS:;
#BGCHANGES:;

//---------------dance-single - ----------------
#NOTES:
     dance-single:
     :
     Beginner:
     2:
     0.182,0.285,0.054,0.000,0.000:
0000
0000
0000
0000
,
0000
0000
0000
0000
,
0000
0000
0000
0000
,
0000
0000
0000
0000
,
0000
0000
0000
0000
,
0000
0000
0000
0000
,
0000
0000
0000
0000
,
0000
0000
0000
0000
,
1000
0000
0001
0000
,
0010
0000
0100
0100
,
0100
0000
1000
0000
,
0010
0000
1000
0000
,
0001
0000
0001
0000
,
0010
0000
0001
0000
,
0010
0000
0100
0000
,
0001
0000
0010
0000
,
0001
0000
1000
0000
,
0010
0010
0010
0000
,
1001
0000
0100
0000
,
0010
0000
0100
0000
,
1001
0000
0100
0000
,
0010
0000
0100
0000
,
1000
0000
0100
0000
,
0100
0000
0001
0000
,
1000
0000
0001
0000
,
0010
0010
0010
0010
,
0000
0000
0001
0000
,
1000
0000
0010
0000
,
1000
1000
1000
0000
,
0100
0000
1000
0000
,
0001
0000
0001
0000
,
0100
0000
0010
0000
,
0001
0000
1000
0000
,
0100
0000
0001
0000
,
1000
0000
1000
0000
,
0000
0000
0001
0000
,
0000
0000
0001
0000
,
0000
0000
1000
0000
,
0000
0000
1000
0000
,
0000
0000
0010
0000
,
0000
0000
0010
0000
,
0000
0000
0100
0000
,
0100
0000
0001
0001
,
0001
0000
0010
0000
,
0100
0000
0001
0000
,
0100
0000
0100
0000
,
0001
0001
0001
0000
,
0100
0000
0010
0000
,
0010
0000
1000
0000
,
0100
0000
0100
0000
,
0010
0000
0100
0000
,
0100
0000
0100
0000
,
1001
1001
0000
0010
,
0000
0010
0000
0010
,
0010
0010
0000
1000
,
0000
0001
0000
1001
,
0000
1000
0000
0001
,
0000
0100
0000
0001
,
0001
0001
0000
0000
,
1000
0000
0000
0000
,
0001
0000
0000
0000
,
1000
0000
0000
0000
,
0001
0000
0000
0000
,
0010
0000
0000
0000
,
0010
0000
0000
0000
,
0010
0000
0010
0000
,
0010
0010
0010
0000
;

//---------------dance-single - ----------------
#NOTES:
     dance-single:
     :
     Easy:
     5:
     0.312,0.428,0.096,0.000,0.000:
0000
0000
0000
0000
,
0000
0000
0000
0000
,
0000
0000
0000
0000
,
0000
0000
0000
0000
,
0000
0000
0000
0000
,
0000
0000
0000
0000
,
0000
0000
0000
0000
,
0000
0000
0000
0000
,
1000
0000
0001
0000
,
0010
0010
0100
0100
,
1000
0000
1000
0100
,
0010
0001
1000
1000
,
0001
0000
0001
0100
,
0010
1000
0001
0001
,
0010
1000
0100
0100
,
0001
0001
0010
1000
,
0001
1001
1000
1001
,
0010
0010
0010
0010
,
1001
0010
0100
0001
,
0010
1000
0100
0100
,
1001
0010
0100
1000
,
0010
0001
0100
0100
,
1000
0010
0100
0010
,
0100
0010
0001
0001
,
1000
0000
0001
0000
,
0010
0010
0100
0100
,
0000
0000
0001
0000
,
1000
0000
0010
0100
,
1000
0001
0010
0000
,
0100
0000
0000
0000
1000
0001
0000
0100
,
0000
0001
0000
1000
0001
0000
0000
0000
,
0100
0000
0010
1000
,
0001
0010
1000
0000
,
0100
0000
0001
0100
,
1000
0000
0100
0000
1000
0001
0000
0000
,
0000
0000
0100
1000
,
0001
0000
0000
1000
0001
0000
0000
0000
,
0000
0000
0010
0001
,
0100
0000
0000
0000
1000
0001
0000
0000
,
0000
0000
0000
0000
0000
1001
0000
0000
,
0000
0010
0000
1000
0001
0000
0000
0000
,
0000
0000
0100
0000
,
0010
0000
0010
0000
,
0001
0000
0010
1000
,
0100
0000
0010
0001
,
0010
0100
1000
0100
,
0001
1001
0001
0000
,
0100
0000
0010
1000
,
0010
0000
1000
0010
,
0100
0010
0100
0001
,
0010
0000
1001
0000
0100
0010
0000
0010
,
0000
0010
0000
0010
0010
0000
1001
0000
,
0100
0001
0100
1000
,
0010
0001
0010
0001
,
0010
0000
0001
0000
0100
0010
0000
0010
,
0000
0010
0000
0010
0010
0000
1001
0000
,
0100
1000
0100
1000
,
0100
1000
0010
0001
,
0010
0000
0001
0000
1000
0001
0000
0000
,
0000
0000
1000
0100
,
0001
0000
0100
0000
1000
0001
0000
0000
,
0000
0000
0010
1000
,
0010
0000
0001
0000
1000
0001
1000
0000
,
0000
0000
0010
0010
,
0100
0000
0010
0000
1000
0001
0000
0000
,
0000
0000
0010
1000
,
0100
0000
0001
0000
0000
0100
0000
0000
;

//---------------dance-single - ----------------
#NOTES:
     dance-single:
     :
     Medium:
     7:
     0.459,0.500,0.268,0.000,0.021:
0000
0000
0000
0000
,
0000
0000
0000
0000
,
0000
0000
0000
0000
,
0000
0000
0000
0000
,
0000
0000
0000
0000
,
0000
0000
0000
0000
,
0000
0000
0000
0000
,
0000
0000
0000
0000
,
0110
1001
0100
0010
,
0001
0100
1000
0100
,
0010
0100
0010
0001
,
1100
0001
0010
1000
,
0100
0011
1000
0010
,
0001
0101
1000
1000
,
0010
0000
0100
0000
0010
0001
0100
0000
,
0010
0000
0100
0000
0010
1000
0100
0000
,
0001
1000
0101
1100
,
0010
0010
0010
0010
,
1000
0000
0010
0000
0001
0100
1000
0000
,
1000
0100
0001
0000
0001
0100
1000
0000
,
0100
0101
1000
0100
,
0010
1100
0001
0010
,
1000
0000
0010
0000
0100
0001
0010
0000
,
0010
0001
0100
0000
0100
0001
0010
0000
,
1000
1100
0001
0101
,
0110
1001
0100
1000
,
0000
0000
0010
0001
,
0100
1000
0010
0001
,
0100
1000
0010
0000
1000
0000
0001
0000
,
0100
0000
0010
0000
0100
0001
0100
0001
,
0100
0001
0010
0001
0010
0001
0010
0000
,
1000
0100
0001
0010
,
1000
0100
0001
0000
1000
0000
0001
0000
,
0100
0000
0010
0000
0100
0001
1000
0000
,
0100
0000
0100
0000
1000
0001
0000
0010
,
0100
0000
0000
0000
1000
0100
0001
0000
,
0001
0100
1000
0010
0100
0000
0001
1000
,
0000
0000
1100
0101
,
1001
0000
0000
0000
1000
0010
0000
0100
,
0001
0000
0000
0000
0000
1001
0000
0000
,
0000
0010
0000
1000
0001
0000
0010
0100
,
0000
0000
0000
0000
0000
0000
0001
0000
0100
0000
0001
0000
,
1000
0000
0100
0000
1000
0000
0010
0000
0000
0010
0000
0000
,
0001
0010
0100
1000
,
0100
0000
0100
0000
0010
1000
0001
0000
,
0010
0001
1000
0000
0100
1000
0001
0000
,
0100
1001
0010
0010
,
1000
0010
0100
0001
,
0100
0000
0100
0000
0010
0001
1000
0000
,
0010
1000
0001
0000
0100
0001
1000
0000
,
0100
0000
1001
0000
0010
1000
0010
1000
,
0010
1000
0100
0001
0100
0000
1000
0000
,
0010
0001
0010
0100
,
1000
0000
0100
0000
0001
0100
0001
0000
,
1000
0100
1000
0000
0010
0001
0010
0001
,
0010
0001
0100
1000
0100
0000
0001
0000
,
0010
1000
1001
1100
,
0001
0000
0001
0000
0001
1000
0100
0000
,
1000
0001
0100
0000
0010
1000
0000
0001
,
0010
0000
0000
0000
1000
0100
0001
0000
,
1000
0000
1100
0000
0001
0100
0000
1000
,
0100
0000
0000
0000
1000
0010
1000
0000
,
0001
0010
0001
0000
0010
0100
1000
0000
,
0001
0000
0101
0000
0010
1000
0100
0000
,
0011
0000
0101
0000
1000
0100
0000
0001
,
0010
0000
0000
0000
1000
0100
0001
0000
,
0100
1000
0100
0000
0000
0010
0000
0000
;

//---------------dance-single - ----------------
#NOTES:
     dance-single:
     :
     Hard:
     9:
     0.589,0.642,0.461,0.000,0.021:
0000
0000
0000
0000
,
0000
0000
0000
0000
,
0000
0000
0000
0000
,
0000
0000
0000
0000
,
0000
0000
0000
0000
,
0000
0000
0000
0000
,
0000
0000
0000
0000
,
0000
0000
0000
0000
,
0010
0001
1000
0000
0010
1000
0001
0000
,
0010
0000
0100
0000
0001
0100
1000
0000
,
0010
0000
1010
0000
1000
0010
0001
0000
,
0010
0000
0011
0000
0001
0010
1000
0000
,
0010
1000
0100
0000
1000
0001
0100
0000
,
0010
0000
1100
0000
0011
0001
0100
0000
,
0010
0000
1000
0000
0001
0100
0010
0000
,
1000
0100
0010
0000
0001
0100
0010
0000
,
1000
1000
1000
0100
0001
0001
0001
0100
,
0010
0010
0010
0010
0010
0010
0010
0000
,
0011
0000
0001
0000
1000
0100
0001
0000
,
0010
0100
0110
0000
1000
0001
1001
0000
,
0100
0010
0001
0000
1100
0100
0001
0000
,
0100
0010
0100
0010
1000
0010
0001
0000
,
1100
0000
0011
0000
1000
0010
0001
0000
,
0010
0100
0001
0000
0010
0100
1000
0000
,
1000
0001
0101
0000
0001
1000
1100
0000
,
0001
0100
0010
0100
1000
0100
0100
0000
,
0000
0000
0000
0000
0010
1000
0010
0000
,
0010
0100
0010
0000
0010
0001
0010
0000
,
0110
0000
1010
0000
0010
1000
0001
0000
,
0100
0001
1000
0000
0010
1000
0001
0010
,
0100
1000
0001
0100
1000
0100
0001
0000
,
1100
0000
0101
0000
0010
1000
0100
0000
,
0011
1100
0001
0100
,
0010
1000
0001
0000
1000
0010
0001
0000
,
0010
0001
1000
0000
0100
0001
0000
0100
,
1000
0000
1001
0000
0010
1000
1000
0100
,
0100
1000
0010
0100
0001
0000
0100
1000
,
0000
0000
0000
0000
0010
1000
0100
0010
,
1001
0000
0000
0000
0100
0001
0000
0100
,
1000
0000
1001
0000
0000
0110
0000
0000
,
0000
0100
1000
0010
0100
0000
0001
0100
,
0000
0000
0000
0000
0000
0000
0001
0000
0100
0000
0101
0000
,
1000
0000
0100
0000
1100
0000
0010
0000
0000
0100
0000
0000
,
0001
0100
1000
0000
0001
0100
0010
0000
,
1000
0100
0010
0000
0010
0001
1000
1001
,
0100
1000
0001
1001
1000
0100
0001
0100
,
1000
1001
0010
0100
,
1000
0010
0001
0000
0010
1000
0100
0000
,
0010
0001
0100
0000
1000
0001
0100
0101
,
0001
1000
0100
1100
0001
0010
0100
1000
,
0010
0000
1001
0000
1000
0100
0001
0100
,
1000
0100
0001
0100
1000
0000
0101
0000
,
0010
1000
0100
0000
0010
0001
1000
0001
,
1000
0100
1000
0000
0010
0010
0010
0100
,
0100
0001
1000
0000
1000
0010
0001
0010
,
1000
0010
0001
0010
1000
0000
0101
0000
,
1000
0001
0100
0010
1000
0001
0100
0000
,
0010
1000
0001
0000
0010
0001
1000
0000
,
0010
1000
0001
0000
0110
0001
0000
0110
,
1000
0000
0000
0000
0010
1000
1010
0100
,
0001
0101
1000
0000
0010
0100
0000
0100
,
0010
0000
1100
0000
0010
0001
0101
0000
,
0010
1000
1100
0000
0001
0010
1000
0000
,
0110
0000
1001
0000
0100
1000
0010
0010
,
0100
0100
0001
0000
1010
0100
0010
0000
,
0011
0100
0010
0000
1000
0100
0001
0100
,
1000
0100
0001
0000
0000
1000
0000
0000
;

//---------------dance-double - ----------------
#NOTES:
     dance-double:
     :
     Easy:
     5:
     0.367,0.464,0.311,0.000,0.000:
00000000
00000000
00000000
00000000
,
00000000
00000000
00000000
00000000
,
00000000
00000000
00000000
00000000
,
00000000
00000000
00000000
00000000
,
00000000
00000000
00000000
00000000
,
00000000
00000000
00000000
00000000
,
00000000
00000000
00000000
00000000
,
00000000
00000000
00000000
00000000
,
10000000
00100000
00100000
01000000
,
00010000
00001000
00000100
00000001
,
00000001
00000000
00001000
00000000
,
00000010
00001000
00010000
00010000
,
00100000
00000000
00001000
00000000
,
00100000
10000000
01000000
01000000
,
00010000
01100000
10000000
01100000
,
00010000
00001000
00000100
00000001
,
00001000
00000100
00001000
00010000
,
01000000
01000000
01000000
01000000
,
10010000
00100000
00010000
00001000
,
01000000
10000000
00100000
00100000
,
01000000
01000000
00100000
00010000
,
00001000
00000010
00000001
00000100
,
00001001
00000100
00000001
00000100
,
00001000
00001000
00010000
01000000
,
10000000
00100000
00100000
01000000
,
00010000
00001000
00000100
00000001
,
00000000
00000000
00001000
00001000
,
00000001
00000001
00000010
00000100
,
00001000
00010000
01000000
01000000
,
10000000
00000000
00100000
00000000
00100000
00010000
00000000
00001000
,
00000000
00010000
00000000
01000000
10000000
00000000
10000000
00000000
,
00010000
00010000
01100000
00010000
,
10010000
01000000
01100000
10000000
,
00010000
01000000
00010000
00001000
,
00000100
00000000
00010000
00000000
00010000
01000000
00000000
00000000
,
00000000
00000000
01100000
00010000
,
00001000
00000000
00000000
00001000
00000100
00000000
00000000
00000000
,
00000000
00000000
00001001
00000100
,
00000001
00000000
00000000
00000000
00000010
00000001
00000000
00000000
,
00000000
00000000
00000000
00000000
00000000
00000110
00000000
00000000
,
00000000
00001000
00000000
00000100
00000010
00000000
00000000
00000000
,
00000000
00000000
00001000
00000000
,
00010000
00000000
00010100
00011000
,
00010100
00011000
00001000
00000100
,
00001000
00010000
01000000
10000000
,
00010000
01000000
10000000
10000000
,
01000000
10010000
01100000
10000000
,
00010000
01000000
00100000
00010000
,
00001000
00000100
00000010
00000001
,
00000010
00000001
00000100
00001000
,
00000010
00000000
00010010
00000000
00000010
00001000
00000000
00000001
,
00000000
00000001
00000000
00000001
00000100
00000000
00000110
00000000
,
00000001
00000100
00001000
00011000
,
01000000
10000000
01100000
10000000
,
00100000
00000000
10000000
00000000
00100000
00010000
00000000
01000000
,
00000000
01000000
00000000
01000000
10000000
00000000
01100000
00000000
,
00010000
00100000
01000000
10010000
,
01000000
00010000
00011000
00010100
,
00011000
00000000
00000100
00000000
00000010
00001000
00000000
00000000
,
00000000
00000000
00000110
00000001
,
00000010
00000000
00000010
00000000
00001000
00000100
00000000
00000000
,
00000000
00000000
00000100
00001001
,
00000100
00000000
00000010
00000000
00000010
00001000
00010000
00000000
,
00000000
00000000
00100000
00100000
,
00010000
00000000
10010000
00000000
00100000
01000000
00000000
00000000
,
00000000
00000000
01001000
00010000
,
01000000
00000000
10000000
00000000
00000000
00100000
00000000
00000000
;

//---------------dance-double - ----------------
#NOTES:
     dance-double:
     :
     Medium:
     7:
     0.468,0.535,0.354,0.000,0.021:
00000000
00000000
00000000
00000000
,
00000000
00000000
00000000
00000000
,
00000000
00000000
00000000
00000000
,
00000000
00000000
00000000
00000000
,
00000000
00000000
00000000
00000000
,
00000000
00000000
00000000
00000000
,
00000000
00000000
00000000
00000000
,
00000000
00000000
00000000
00000000
,
00010100
00011000
00010100
00011000
,
00010000
01000000
10000000
00000000
00010000
00000000
00010000
00000000
,
10000000
00100000
01000000
00100000
,
01000000
00010000
00100000
00010000
,
00101000
00011000
00010010
00001010
,
00000001
00000100
00001000
00000000
00000100
00000000
00000010
00000000
,
00000101
00001000
00000100
00000011
,
00001000
00000100
00000001
00000000
00000100
00001000
00000010
00000000
,
00000100
00000001
00001000
00000100
,
00000001
00000100
00001000
00000000
00010000
01000000
10000000
00000000
,
00100000
01000000
00100000
00010000
,
00001000
00010000
01000000
10000000
,
00110000
00101000
00010000
01000000
,
00010000
00001000
00000010
00000000
00000001
00000000
00000100
00000000
,
00001010
00000001
00000100
00001000
,
00010000
00000100
00010000
01000000
,
10000000
00110000
10000000
01010000
,
10000000
01000000
00010000
00000000
00001000
00000000
00000100
00000000
,
00000000
00000000
00000001
00000010
,
00001000
00000000
00000010
00000000
00000001
00000010
00001000
00000000
,
00000101
00000000
00001010
00000000
00000010
00010000
00001000
00000000
,
00010000
00001000
00000100
00000000
00000010
00001000
00000000
00000100
,
00000000
00000100
00000000
00000100
00000010
00001000
00010000
00000000
,
01000000
00000000
01100000
00000000
00100000
00010000
01000000
00000000
,
01001000
01010000
00100000
01000000
,
10000000
01000000
00100000
01000000
,
00010000
00000000
01000000
00000000
00100000
01000000
00000000
01000000
,
00010000
00000000
01000000
00000000
00100000
00010000
00001000
00000000
,
00010010
00000000
00001000
00000100
00000001
00000000
00000001
00000100
,
00000000
00001000
00000010
00000100
,
00000011
00000000
00001000
00000000
00000001
00000100
00000000
00000100
,
00001000
00000000
00000100
00000000
00000000
00000011
00000000
00000000
,
00000000
00001000
00000000
00000100
00000001
00000000
00000001
00000100
,
00000000
00000000
00000000
00000000
00000000
00000000
00000010
00000000
00001000
00000000
00010000
00000000
,
00100000
00000000
00010000
00000000
00001000
00000000
00010000
00000000
00000000
01000000
00000000
00000000
,
00010000
00010000
00001000
00000100
,
00001000
00000000
00001000
00000000
00010000
01000000
00010000
00000000
,
00001000
00000100
00001000
00000000
00010000
01000000
10000000
00000000
,
00100000
10010000
00100000
10000000
,
01000000
00010000
00001000
00000100
,
00000001
00000000
00000010
00000000
00000010
00000001
00000100
00000000
,
00000010
00001000
00000100
00000000
00000001
00000100
00001000
00000000
,
00010000
00000000
01100000
00000000
00100000
00010000
00000000
10000000
,
00000000
00010000
00000000
01000000
00010000
00000000
10000000
00000000
,
01000000
00010000
00001000
00000000
00010000
00000000
01000000
00000000
,
10000000
00000000
01000000
00000000
00010000
00001000
00010000
00000000
,
00001000
00000100
00000010
00000000
00000001
00000010
00000000
00000110
,
00000000
00001000
00000000
00000010
00000100
00000000
00000001
00000000
,
00000001
00000010
00001000
00000000
00010000
00000000
00010010
00000000
,
00001010
00000101
00000010
00000100
,
00001000
00000000
00010000
00000000
00000010
00001000
00000000
00001000
,
00010000
01000000
00010000
00001000
,
00000100
00001000
00000100
00000000
00000001
00000100
00000000
00000100
,
00001000
00000000
00001000
00000000
00010000
01000000
10000000
00000000
,
10000000
01000000
00010000
00000000
00010000
01000000
00100000
00000000
,
00110000
00101000
00010000
00010010
,
00000010
00001000
00000100
00000000
00000010
00000001
00000000
00000001
,
00000100
00000000
00001000
00000000
00010000
01000000
10000000
00000000
,
00010000
00100000
10000000
00000000
00000000
01100000
00000000
00000000
;

//---------------dance-double - ----------------
#NOTES:
     dance-double:
     :
     Hard:
     9:
     0.565,0.571,0.332,0.000,0.021:
00000000
00000000
00000000
00000000
,
00000000
00000000
00000000
00000000
,
00000000
00000000
00000000
00000000
,
00000000
00000000
00000000
00000000
,
00000000
00000000
00000000
00000000
,
00000000
00000000
00000000
00000000
,
00000000
00000000
00000000
00000000
,
00000000
00000000
00000000
00000000
,
00000100
00001000
00010000
00000000
01000000
00010000
00001000
00000000
,
00001000
00000100
00000001
00000000
00000011
00000000
00000100
00000000
,
00001010
00000000
00010010
00000000
00001000
00000010
00000001
00000000
,
00000110
00000000
00001000
00000000
00010000
01000000
00100000
00000000
,
10000000
00000000
00010000
00000000
01100000
00010000
10000000
00000000
,
00100000
00010000
01000000
00000000
00001000
01000000
00100000
00000000
,
10000000
00000000
01000000
00000000
00010000
01000000
10000000
00000000
,
00110000
00000000
00101000
00000000
00100000
00010000
01000000
00000000
,
00001000
01000000
00010000
00000000
00100000
00001000
00010000
00000000
,
00001000
00000100
00000001
00000010
00001000
00000010
00000001
00000000
,
00001100
00000000
00000011
00000000
00001000
00000001
00000100
00000000
,
00000010
00001000
00010000
00000000
00001000
00010000
01000000
00000000
,
10000000
00100000
01000000
00001000
00010000
00001000
00000100
00000000
,
00000110
00000001
00000010
00000100
,
00000011
00000000
00001000
00000000
00000010
00000100
00001000
00000000
,
00010000
01000000
00100000
00000000
00001000
00010000
01000000
00000000
,
00100000
01000000
10000000
00000000
00100000
01000000
00010000
00000000
,
10000000
00100000
00010000
00001000
00000010
00001000
00010000
00000000
,
00000000
00000000
00010010
00001010
,
00000100
00001000
00000010
00000000
00010000
00000010
00001000
00000000
,
00000100
00010000
00001000
00000000
00101000
00000000
00110000
00000000
,
01000000
00010000
00100000
00000000
00001000
01000000
00010000
01000000
,
00001000
00010000
00001000
01000000
00010000
01000000
00010000
00000000
,
00100000
00010000
01000000
00000000
00100000
00001000
00010000
00000000
,
01001000
00000000
01010000
00000000
00100000
00010000
01000000
00000000
,
00100000
00001000
00010000
00000000
00010100
00000000
00001100
00000000
,
00000010
00001000
00000001
00000000
00000010
00000001
00000000
00000100
,
00000001
00000000
00000010
00000000
00001000
00010000
01000000
00000000
,
00100000
01000000
10000000
00010000
01000000
00000000
10000000
00100000
,
00000000
00000000
01100000
00000000
00010000
00100000
00010000
00001000
,
00000100
00000010
00000100
00000000
00001000
00000010
00000000
00001000
,
00000100
00000000
00000011
00000000
00000000
00001001
00000000
00000000
,
00000000
00000010
00000100
00001000
00010000
00000000
01000000
00010000
,
00000000
00000000
00000000
00000000
00000000
00000000
00100000
00000000
01000000
00000000
00010000
00000000
,
00001000
00000000
00000100
00000000
00000010
00000000
00000100
00000000
00000000
00000110
00000000
00000000
,
00000010
00001000
00000100
00000000
00000001
00000100
00001000
00000000
,
00000001
00000010
00001000
00000000
00001000
00000010
00000001
00000100
,
00001000
00000100
00001000
00010000
01000000
00010000
01000000
10000000
,
00100000
10010000
01000000
01100000
,
00100000
00010000
01000000
00000000
10000000
01000000
00010000
00000000
,
10000000
00100000
00010000
00000000
00010000
00100000
10000000
01000000
,
00010000
01000000
00010000
00001000
00000100
00001000
00000100
00000001
,
00000010
00000000
00001001
00000000
00000010
00010000
00000010
00001000
,
00000010
00000100
00000010
00000001
00000010
00000100
00000001
00000000
,
00000110
00000000
00001000
00000000
00010000
00100000
01000000
00100000
,
10000000
00100000
00010000
00000000
10000000
01000000
00010000
00000000
,
00001000
00000100
00001000
00000000
00000100
00010000
00000100
00001000
,
00000100
00000010
00000100
00000001
00000100
00000010
00000001
00000000
,
00000010
00000100
00001000
00010000
01000000
00100000
10000000
00000000
,
00110000
11000000
00010000
01010000
,
00110000
00000000
01000000
00000000
00001000
01000000
00000000
00100000
,
00010000
00000000
01000000
00000000
10000000
01000000
00100000
00010000
,
00001000
00000100
00000010
00000000
00000010
00000100
00000000
00000100
,
00000001
00000000
00001000
00000000
00000100
00001000
00010000
00001000
,
00010000
01000000
10000000
00000000
00010000
01000000
10000000
00000000
,
10000000
00100000
00010000
00000000
01000000
00001000
00010000
01000000
,
10000000
00100000
00010000
00000000
10000000
00010000
00000000
01000000
,
00100000
00000000
01000000
00000000
00010000
01000000
00001000
00010000
,
00000100
00001000
00000010
00000000
00000000
00000100
00000000
00000000
;

//---------------dance-couple - ----------------
#NOTES:
     dance-couple:
     :
     Medium:
     9:
     0.722,1.000,1.000,0.000,0.021:
00000000
00000000
00000000
00000000
,
00000000
00000000
00000000
00000000
,
00000000
00000000
00000000
00000000
,
00000000
00000000
00000000
00000000
,
00000000
00000000
00000000
00000000
,
00000000
00000000
00000000
00000000
,
00000000
00000000
00000000
00000000
,
00000000
00000000
00000000
00000000
,
00100000
00000010
01000000
00000100
,
11001100
00110011
01000100
01000100
,
00100001
10000000
00100000
01000000
00010000
01000000
00010000
00000000
,
10100001
10000000
01000000
00000000
00110000
00010000
01000000
00000000
,
10000001
00010000
00100000
01100000
,
10000001
00100000
00010000
01000000
10000000
01000000
00010000
00000000
,
00010010
00001000
00000010
00000100
00000001
00000100
00000001
00000000
,
00011010
00001000
00000100
00000000
00000011
00000001
00000100
00000000
,
00011000
00000001
00000010
00000110
,
00011000
00000010
00000001
00000100
00001000
00000100
00000001
00000000
,
00101000
00010000
01000000
00100000
10000000
10000000
00010000
00000000
,
00101000
10000000
01000000
10000000
00010000
01000000
00100000
00000000
,
10001000
00010000
01000000
00000000
01100000
00010000
10000000
00000000
,
00101000
00010000
01000000
10000000
,
10000010
00000001
00000100
00000010
00001000
00001000
00000001
00000000
,
10000010
00001000
00000100
00001000
00000001
00000100
00000010
00000000
,
10001000
00000001
00000100
00000000
00000110
00000001
00001000
00000000
,
10000010
00000001
00000100
00001000
,
00000000
00000000
10000000
00010000
,
00001000
00000000
00000001
00000000
00100010
10001000
01000100
00000000
,
00110011
11001100
00100000
00100000
,
00000010
00000000
00000010
00000000
00010001
10001000
00000000
01100110
,
00000000
00010001
00000000
10001000
00100010
01000100
00010001
00000000
,
10001000
10001000
01000000
00010000
,
00000100
00000001
00100000
01000000
,
00000010
00000100
00010001
00100010
,
10001000
00000000
01000100
00000000
00010001
01000100
00000000
10001000
,
01000100
00000000
00000000
00000000
00010001
01000100
00010001
00000000
,
10001000
01000100
00100010
00010001
01000100
00000000
10001000
00010001
,
00000000
00000000
00110011
11001100
,
10011001
00000000
00000000
00000000
00010001
00100010
00000000
10001000
,
00100010
00000000
00000000
00000000
00000000
01000100
00000000
00000000
,
00000000
00010001
00000000
10001000
00100010
00000000
00010001
01000100
,
00000000
00000000
00000000
00000000
00000000
00000000
00000000
00000000
00000000
00000000
00000000
00000000
00000000
00000000
00000000
00000000
00000000
00000000
00000000
00000000
00000000
00000000
00000000
00000000
00000000
00000000
00000000
00000000
00000000
00000000
00000000
00000000
10001000
00000000
00000000
00000000
00000000
00000000
00000000
00000000
00000000
00000000
00000000
01000100
00000000
00000000
00000000
00000000
00000000
00000000
00000000
00000000
00000000
00000000
00010001
00000000
00000000
00000000
00000000
00000000
00000000
00000000
00000000
00000000
,
10001000
00000000
00000000
00000000
00000000
00000000
00000000
00000000
00000000
00000000
00000000
00100010
00000000
00000000
00000000
00000000
00000000
00000000
00000000
00000000
00000000
00000000
00010001
00000000
00000000
00000000
00000000
00000000
00000000
00000000
00000000
00000000
01001100
00000000
00000000
00000000
00000000
00000000
00000000
00000000
00000000
00000000
00000000
00000000
00000000
00000000
00000000
00000000
00000011
00000000
00000000
00000000
00000000
00000000
00000000
00000000
00000000
00000000
00000000
00000000
00000000
00000000
00000000
00000000
,
00001000
00000010
00000001
00000000
01000010
00000100
00000001
00000000
,
00000010
00000100
00001000
00000000
01000010
00001000
00000001
00000010
,
00000100
00001000
00000010
00000001
01000010
00000100
00000001
00001000
,
00000100
00001001
11000100
00110000
,
10000000
00100000
00010000
00000000
00100100
01000000
00010000
00000000
,
00100000
01000000
10000000
00000000
00100100
10000000
00010000
00100000
,
01000000
10000000
00100000
00010000
00100100
01000000
00010000
10000000
,
01000000
00000000
10010000
00000000
00100100
00000001
00000100
00001000
,
00000100
00000010
00000100
00000100
00100010
00000010
00000010
00000000
,
00001000
00000001
00101000
00000010
,
00000001
00000000
00000100
00000000
00101000
00000100
00000001
00000010
,
00001000
00000001
00000100
00000000
01000010
00010000
01000000
10000000
,
01000000
00100000
01000000
01000000
00100010
00100000
00100000
00000000
,
10000000
00010000
10000010
00100000
,
00010000
00000000
01000000
00000000
10000010
01000000
00010000
00100000
,
10000000
00010000
01000000
00000000
10000010
01000000
00000000
00010000
,
01000000
00000000
10010000
00000000
00010010
00100000
01000000
10000000
,
00100000
01000000
10010000
00000000
00101000
00000100
00000000
00000001
,
00000100
00000000
00001001
00000000
00100001
00000010
00000100
00001000
,
00000010
00000100
00001001
00000000
00100010
01000100
00010001
00000000
,
10001000
00000000
10001000
00000000
00100010
10001000
01000100
00000000
,
00110011
00000000
11001100
00000000
00100010
00010001
00000000
01000100
,
00010001
00000000
10101010
00000000
10001000
00100010
01000100
00010001
,
00100010
01000100
10001000
00000000
00000000
00010001
00000000
00000000
;

//---------------dance-solo - ----------------
#NOTES:
     dance-solo:
     :
     Easy:
     5:
     0.351,0.393,0.118,0.000,0.000:
000000
000000
000000
000000
,
000000
000000
000000
000000
,
000000
000000
000000
000000
,
000000
000000
000000
000000
,
000000
000000
000000
000000
,
000000
000000
000000
000000
,
000000
000000
000000
000000
,
000000
000000
000000
000000
,
010000
000000
000010
000000
,
000100
100001
001000
001000
,
100000
000010
000001
100000
,
001000
100000
000100
100000
,
000001
000001
001000
100000
,
000010
000001
000001
000100
,
100000
001000
000001
000001
,
010000
000001
000010
100000
,
000100
000000
001000
000000
,
100000
000100
000001
000010
,
010000
110000
000100
000001
,
001000
001000
100000
001000
,
000100
000001
000010
000100
,
100000
010000
000100
000001
,
100001
000100
000001
000010
,
100000
100000
000100
001000
,
000010
000000
010000
000000
,
000100
100001
001000
001000
,
000000
000000
000100
000010
,
010000
100000
000001
001000
,
100000
100001
000100
000010
,
010000
000000
100000
000000
000100
001000
000000
100000
,
000000
000001
000000
001000
000100
000000
001000
000000
,
000001
010000
100000
000100
,
000001
100001
000100
001000
,
000001
010000
100000
000001
,
001000
000000
100000
000000
010000
000001
000000
000000
,
000000
000000
100000
100000
,
000001
000000
000000
000010
100000
000000
000000
000000
,
000000
000000
000001
100000
,
000100
000000
000000
000000
000010
000001
000000
000000
,
000000
000000
000000
000000
000000
000100
000000
000000
,
000000
100001
000000
010000
100000
000000
000000
000000
,
000000
000000
000100
000000
,
001000
000000
000100
000010
,
000001
000001
000100
010000
,
100000
100000
000100
000001
,
100000
010000
000001
000100
,
001000
100001
000100
010000
,
100000
100000
000100
000010
,
000001
000001
100000
010000
,
001000
000001
100000
000100
,
000001
000000
100001
000000
000001
001000
000000
100000
,
000000
000010
000000
100000
001000
000000
000001
000000
,
100000
100000
000010
000100
,
010000
000100
100000
001000
,
000100
000000
001000
000000
000001
001000
000000
100000
,
000000
000010
000000
100000
001000
000000
000001
000000
,
100000
100000
000010
001000
,
100000
001000
000001
010000
,
001100
000000
100000
000000
000010
000001
000000
010000
,
001000
000000
100000
000100
,
000100
000000
000001
000000
010000
100000
000000
000010
,
001000
000000
000001
000100
,
000100
000000
100000
000000
000100
100000
001000
000000
,
000100
001000
000010
000001
,
001100
000000
000001
000000
100000
001000
000000
001000
,
000001
000001
000010
100000
,
000100
000000
001000
000000
000000
000001
000000
000000
;

//---------------dance-solo - ----------------
#NOTES:
     dance-solo:
     :
     Medium:
     7:
     0.487,0.535,0.364,0.000,0.021:
000000
000000
000000
000000
,
000000
000000
000000
000000
,
000000
000000
000000
000000
,
000000
000000
000000
000000
,
000000
000000
000000
000000
,
000000
000000
000000
000000
,
000000
000000
000000
000000
,
000000
000000
000000
000000
,
010000
100000
000010
000001
,
010000
000100
000010
010010
,
000010
000100
000001
001000
,
000010
001000
000001
000100
,
100000
000100
100000
000000
000010
000100
000010
000000
,
010000
000001
001000
000000
000010
001000
000001
000000
,
010000
000100
100000
001000
,
010000
001000
100000
000100
,
000010
001000
000001
000000
010000
001000
100000
000000
,
000010
010000
000100
010000
000010
000000
010010
000000
,
000100
010000
100000
000100
,
000010
000000
000001
000000
000100
100000
000100
000001
,
000100
100000
001000
000001
,
010010
100001
000100
001000
,
000100
000010
000001
000100
,
010000
000000
100000
000000
000100
000001
000100
100000
,
000100
001100
100000
100010
,
000001
001000
100000
001000
,
000000
000000
000100
000010
,
000001
000000
001000
000000
000100
100000
001000
000000
,
000101
010001
000100
010000
,
100000
000000
001000
000000
000010
100000
000000
010100
,
000000
000001
000000
000010
001000
000000
100000
000000
,
100001
000000
000100
000000
000010
010000
000100
000000
,
100001
001001
000100
010010
,
010001
000000
001000
000000
000100
010000
100000
000000
,
000100
000010
000001
000000
010000
100000
000000
000100
,
001000
000000
000011
000000
010000
001000
100000
000000
,
000010
001000
000001
000100
001000
000000
010000
000010
,
000000
000000
100001
000000
000010
100000
001000
000001
,
001000
000000
000000
000000
010000
000010
000000
000010
,
010000
000000
100001
000000
000000
010010
000000
000000
,
000000
100000
000000
000001
001000
000000
000001
000010
,
000000
000000
000000
000000
000000
000000
000000
000000
000000
000000
000000
000000
000000
000000
000000
000000
000000
000000
000000
000000
000000
000000
000000
000000
000000
000000
000000
000000
000000
000000
000000
000000
100000
000000
000000
000000
000000
000000
000000
000000
000000
000000
000000
010000
000000
000000
000000
000000
000000
000000
000000
000000
000000
000000
000100
000000
000000
000000
000000
000000
000000
000000
000000
000000
,
001000
000000
000000
000000
000000
000000
000000
000000
000000
000000
000000
000001
000000
000000
000000
000000
000000
000000
000000
000000
000000
000000
100000
000000
000000
000000
000000
000000
000000
000000
000000
000000
000100
000000
000000
000000
000000
000000
000000
000000
000000
000000
000000
000000
000000
000000
000000
000000
001000
000000
000000
000000
000000
000000
000000
000000
000000
000000
000000
000000
000000
000000
000000
000000
,
000010
100000
000001
000000
010000
000001
100000
000000
,
000010
100000
000001
000000
010010
000000
100001
000000
,
000100
100000
001000
000000
000100
000001
001000
000000
,
000100
010001
000100
001000
,
010000
000001
100000
000000
000010
100000
000001
000000
,
010000
000001
100000
000000
010010
000000
100001
000000
,
000100
000001
001000
000000
000100
100000
001000
000000
,
000100
000000
100010
000000
000010
010000
001000
010000
,
000010
001000
000010
010000
001000
000000
000100
000000
,
100001
001000
000010
000001
,
001000
000100
010000
100000
,
001000
000000
000100
000000
100000
000001
001000
000001
,
100000
001000
100000
000001
001000
000000
000100
000000
,
010010
001000
010000
100000
,
001000
000100
000010
000001
,
001000
000000
001100
000000
010000
000001
000000
001000
,
100000
000000
000001
000000
000010
001000
000001
000000
,
100010
000000
010001
000000
000100
000010
000000
000001
,
100000
000000
000100
000000
010000
000001
000100
000000
,
000010
100000
000100
000000
100000
001000
000001
000000
,
001100
000000
100001
000000
100000
000100
000001
000000
,
001010
000000
001001
000000
100000
001000
000000
000001
,
001000
000000
100001
000000
000100
010000
100000
000000
,
000100
000010
000001
000000
000000
010000
000000
000000
;

//---------------dance-solo - ----------------
#NOTES:
     dance-solo:
     :
     Hard:
     9:
     0.536,0.571,0.193,0.000,0.021:
000000
000000
000000
000000
,
000000
000000
000000
000000
,
000000
000000
000000
000000
,
000000
000000
000000
000000
,
000000
000000
000000
000000
,
000000
000000
000000
000000
,
000000
000000
000000
000000
,
000000
000000
000000
000000
,
000100
000010
100000
000000
000100
010000
000001
000000
,
100001
000000
000010
001000
010000
001000
000100
000000
,
001001
000000
100000
000000
000010
010000
001000
000000
,
100000
000000
000100
000000
000001
010000
000010
000000
,
000100
000001
000010
000000
000100
100000
010000
000000
,
000010
000001
001000
000000
010000
100000
001000
000000
,
000010
000000
001000
000000
000001
000100
100000
000000
,
010000
000000
001000
000000
100000
001000
000001
000000
,
100000
100000
000010
000010
010000
010000
000001
000001
,
000100
000100
000100
000100
000100
000100
000100
000000
,
000100
000000
100000
000000
001000
010000
100000
000000
,
000100
000000
000001
000000
001000
000010
000001
000000
,
100000
000000
000001
000000
100000
000001
000100
000000
,
010001
100010
000100
001000
,
000100
000000
000010
000000
010000
000100
001000
000000
,
000100
000000
010000
000000
000010
000100
001000
000000
,
100000
000010
000001
000000
000100
001000
000001
000000
,
000010
100000
000001
010000
000100
001000
001000
000000
,
000000
000000
000000
000000
000010
000001
000100
100000
,
000100
000001
000010
000001
000100
100000
001000
000000
,
010010
000000
100001
000000
000010
100000
000100
001000
,
000100
100000
000010
010000
000001
000100
000000
101000
,
000000
000001
000000
010010
000000
100000
001000
000000
,
000010
000000
000011
000000
000100
010000
001000
000000
,
100000
000100
000010
000001
,
010000
000000
100000
000000
000010
010000
000100
001000
,
000001
100000
000100
001000
000010
000001
000000
000010
,
100000
000000
001000
000000
100000
000100
010000
000010
,
000100
000001
000010
001000
100000
000000
000001
001000
,
000000
000000
100000
000000
010000
100000
000100
100000
,
000010
000000
000000
000000
001000
000001
000000
000100
,
100000
000000
100000
000000
000000
010010
000000
000000
,
000000
000100
000000
100000
000001
000000
001000
000100
,
000000
000000
000000
000000
000000
000000
000000
000000
000000
000000
000000
000000
000000
000000
000000
000000
000000
000000
000000
000000
000000
000000
000000
000000
000000
000000
000000
000000
000000
000000
000000
000000
000110
000000
000000
000000
000000
000000
000000
000000
000000
000000
000000
010000
000000
000000
000000
000000
000000
000000
000000
000000
000000
000000
000100
000000
000000
000000
000000
000000
000000
000000
000000
000000
,
010100
000000
000000
000000
000000
000000
000000
000000
000000
000000
000000
000010
000000
000000
000000
000000
000000
000000
000000
000000
000000
000000
000100
000000
000000
000000
000000
000000
000000
000000
000000
000000
100000
000000
000000
000000
000000
000000
000000
000000
000000
000000
000000
000000
000000
000000
000000
000000
000001
000000
000000
000000
000000
000000
000000
000000
000000
000000
000000
000000
000000
000000
000000
000000
,
000100
100000
001000
000000
000010
000000
010000
000000
,
000100
001000
000001
000000
010000
000001
001000
000000
,
000010
100000
001000
000000
000010
100000
000001
010000
,
000100
001100
000001
000010
,
001000
000100
100000
000000
010000
000000
000100
000000
,
001000
000001
000010
000000
010000
000100
000001
000000
,
000010
000100
100000
000000
000010
010000
000001
100000
,
001000
000000
001100
000000
010000
000100
000001
000010
,
100000
000100
001000
000001
000100
000000
100000
000000
,
000001
000000
010001
000000
001000
000100
000001
010000
,
000010
100000
000100
000000
010000
000001
100000
000010
,
001000
000100
000001
000000
010000
100000
000010
000001
,
000100
001000
000001
100000
001100
000000
100001
000000
,
010000
000001
100000
000010
001000
000100
000001
000000
,
000100
100000
001000
000000
000100
000001
000100
000000
,
010000
000010
001000
000000
000010
000001
000000
000010
,
000100
000000
001100
000000
000100
100000
000001
010000
,
001000
000100
000001
000000
010000
000001
000000
000010
,
001000
000000
000001
000000
000100
001000
000100
000000
,
010000
001000
100000
000000
000001
001000
100000
000000
,
000001
000100
100000
000000
000010
100000
000010
001000
,
000001
000100
100000
000000
000001
000100
000000
100000
,
000001
000000
100000
000000
000010
010000
000100
001000
,
000001
100000
001000
000000
000000
000100
000000
000000
;

//---------------dance-single - ----------------
#NOTES:
     dance-single:
     :
     Challenge:
     10:
     0.820,0.887,0.429,0.086,0.257:
0000
0000
0000
0000
,
0000
0000
0000
0000
,
0001
0100
1000
0100
0001
0100
1000
0100
,
0001
0100
1000
0100
0001
0000
1000
1000
,
1000
0100
0001
0100
1000
0100
0001
0100
,
1000
0100
0001
0100
1000
0000
0020
0000
,
1030
0100
0001
0100
1000
0100
0001
0100
,
1000
0100
0001
0100
1000
0100
0001
0100
,
1000
0100
0001
0100
1000
0100
0001
0100
,
1000
0100
0001
0100
1000
0000
1001
0000
,
0001
0100
1000
0100
0001
0100
1000
0100
,
0001
0100
1000
0100
0001
0100
1000
0100
,
0001
0100
1000
0100
0001
0100
1000
0100
,
0002
1000
1000
1000
1000
1000
1000
1003
,
0010
0100
0001
1000
0100
0010
0001
0100
,
0010
0100
0001
1000
0100
0001
0100
1000
,
0010
0100
0100
0001
1000
0100
0100
0010
,
0001
0100
1000
0100
0001
0010
1001
0000
,
1000
0100
0010
0001
0010
0100
1000
0010
,
0001
0010
1000
0001
0010
0100
1000
0100
,
0001
0100
1000
0001
0100
0001
1000
0010
,
0200
0010
0001
0310
,
1000
0100
0010
0001
1000
0001
0100
0010
,
1000
0001
0100
1000
0100
0001
0010
0100
,
1000
0010
0100
0001
1000
0100
0001
0100
,
1000
0010
1000
0001
1000
0100
1000
0010
,
0000
0000
0200
0000
0000
0000
0300
0000
0001
0000
0010
0000
0100
0000
1000
0100
,
1000
0100
1000
0000
0001
0000
0100
0000
1000
0000
0100
0000
0001
0000
1000
0001
,
0010
0000
0000
0000
0110
0000
0000
0000
1000
0000
0100
0000
0010
0000
0001
0010
,
0001
0010
0001
0000
0100
0000
1000
0000
0000
0000
0010
0000
0001
0000
0100
0000
,
0000
0000
1000
0000
0000
0000
0010
0000
0000
0000
0001
0000
0100
0000
0010
1000
,
0010
1000
0010
0000
0100
0000
0001
0000
0010
0000
0100
0000
1000
0000
0010
0100
,
0001
0000
0000
0000
0110
0000
0000
0000
0100
0000
1000
0000
0001
0000
1000
0100
,
0010
0001
1000
0000
0010
0000
0100
0000
1000
0000
0010
0000
1000
0000
0100
0000
,
0001
0000
0010
0000
1000
0000
0010
0000
0001
1000
0001
0000
0000
0000
1000
0000
,
0001
0100
0001
0100
0001
1000
0100
0000
0110
0000
0011
0000
1001
0000
0000
1000
,
0100
1000
0000
0001
0100
0001
0000
1000
0010
0000
0100
0000
1000
0000
0100
0000
,
0000
0001
0000
0001
1000
0000
0010
0000
1010
0000
1000
0000
1001
0000
0001
0010
,
0100
0000
0000
0000
0000
0000
0000
0000
1000
0100
1000
0000
0001
0000
0001
0010
,
0000
0010
0000
0100
1000
0001
0100
0000
0000
0000
1001
0000
0000
0000
1000
0100
,
0010
0001
1000
0000
0000
0000
0010
0000
0010
0000
0100
0001
1000
0100
0010
0001
,
0000
0000
0000
1000
0000
0000
1000
0000
0000
0000
0000
0000
0100
0000
0001
0000
0100
0000
0010
0000
0100
0000
1000
0000
,
0100
0010
0100
0001
0100
1000
0001
0000
0000
0101
0000
0000
,
0000
0100
0101
0001
0000
1000
1100
0100
,
0000
0100
0110
0010
0000
0001
1100
1000
,
0000
1000
0101
0001
1100
0000
1001
0000
,
0101
0000
0110
0000
0000
0010
0011
0001
,
1000
0010
0000
0000
0001
0100
0000
0000
,
0001
1000
1100
1000
0000
0001
1001
0010
,
0100
1000
1001
0100
1001
0010
1001
0100
,
0110
0000
0100
0000
0001
0100
1000
0100
,
0001
1000
0100
0001
0100
1000
0001
0100
,
1000
0000
0100
0100
0100
0001
0010
1000
,
0010
0001
1000
0010
0001
0010
1000
0001
,
0020
0000
0100
0100
0130
1000
0010
0001
,
0010
1000
0100
0001
0010
1000
0100
0001
,
0100
1000
0010
0100
0001
0010
1000
0100
,
0001
1000
0100
0010
0001
0100
0010
1000
,
0001
0000
0000
1000
0001
0000
0010
0000
0100
0000
1000
0000
0001
0000
0100
0000
,
1000
0000
0010
0000
0001
0100
0010
1000
,
0001
0000
0020
0000
0000
0000
0000
0000
0031
0000
1000
0000
0110
0000
0000
0100
,
0001
0000
1000
0000
0100
0001
0000
0100
1000
0000
0001
0000
1000
0100
0000
1000
,
0010
0000
0100
0000
0001
0010
0000
0010
0100
0000
1000
0000
0001
0000
0000
0000
,
1000
0000
0010
0100
1000
0010
0001
0100
,
1000
0200
0000
0301
1100
0110
0011
0000
,
0101
0110
1010
0000
1100
0110
0011
0000
,
0011
0110
1010
0001
0000
2000
0000
0000
,
0000
0000
0000
0000
,
0000
0000
0000
0000
,
3000
0000
0000
0000
;

//---------------dance-double - ----------------
#NOTES:
     dance-double:
     :
     Challenge:
     10:
     0.784,0.772,0.182,0.150,0.300: // measure 1
00000000
00000000
00000000
00000000
,  // measure 2
00000000
00000000
00000000
00000000
,  // measure 3
10000000
01000000
00010000
00001000
00010000
01000000
10000000
01000000
,  // measure 4
00010000
00001000
00010000
01000000
10000000
00000000
00010000
00010000
,  // measure 5
10000000
00100000
00010000
00001000
00010000
00100000
10000000
00100000
,  // measure 6
00010000
00001000
00010000
00100000
10000000
00000000
02000000
00000000
,  // measure 7
03010000
00001000
00000010
00000001
00000010
00001000
00010000
00001000
,  // measure 8
00000010
00000001
00000010
00001000
00010000
00001000
00000100
00000001
,  // measure 9
00000100
00001000
00010000
00001000
00000100
00000001
00000100
00001000
,  // measure 10
00010000
00001000
00000100
00000001
00001000
00000000
00000110
00000000
,  // measure 11
00000001
00000010
00000100
00001000
00000001
00000100
00001000
00010000
,  // measure 12
00100000
10000000
00010000
01000000
00100000
10000000
01000000
00010000
,  // measure 13
00001000
00000010
00000100
00001000
00000001
00000010
00001000
00010000
,  // measure 14
00200000
00320000
02030000
03002000
,  // measure 15
01003000
10000000
00010000
01000000
00100000
00010000
00001000
00000010
,  // measure 16
00000001
00001000
00000100
00000010
00001000
00010000
01000000
10000000
,  // measure 17
00100000
01000000
00010000
10000000
00100000
00010000
00001000
00000100
,  // measure 18
00000001
00001000
00000100
00000010
00000001
00001000
00001001
00000000
,  // measure 19
00000001
00000100
00001000
00010000
00001000
00000010
00000001
00000100
,  // measure 20
00001000
00010000
00100000
10000000
00100000
00010000
00001000
00010000
,  // measure 21
01000000
10000000
00100000
01000000
00001000
00010000
00100000
01000000
,  // measure 22
20000000
01000000
01000000
31000000
,  // measure 23
00001000
00010000
00001000
00000100
00000010
00001000
00000100
00010000
,  // measure 24
00000100
00000010
00000001
00000010
00001000
00010000
00000010
00000100
,  // measure 25
00001000
00100000
00010000
01000000
00001000
00100000
01000000
00010000
,  // measure 26
01000000
10000000
00100000
01000000
00010000
10000000
01000000
00100000
,  // measure 27
00000000
00000000
20020000
00000000
00000000
00000000
30030000
00000000
01000000
00000000
01000000
00000000
00100000
00000000
00001000
00010000
,  // measure 28
00001000
00010000
00001000
00000000
00010000
00000000
00000010
00000000
00000100
00000000
00000100
00000000
00000010
00000000
00010000
00001000
,  // measure 29
00010000
00000000
00000000
00000000
00011000
00000000
00000000
00000000
00010000
00000000
00010000
00000000
00000010
00000000
00010000
00001000
,  // measure 30
00010000
00001000
00010000
00000000
00001000
00000000
00100000
00000000
00000000
00000000
01000000
00000000
01000000
00000000
10000000
00000000
,  // measure 31
00000000
00000000
00010000
00000000
00000000
00000000
00001000
00000000
00000000
00000000
00000001
00000000
00000100
00000000
00001000
00010000
,  // measure 32
00001000
00010000
00001000
00000000
00010000
00000000
00100000
00000000
01000000
00000000
01000000
00000000
00010000
00000000
10000000
01000000
,  // measure 33
10000000
00000000
00000000
00000000
11000000
00000000
00000000
00000000
00100000
00000000
10000000
00000000
01000000
00000000
00010000
00001000
,  // measure 34
00010000
00001000
00010000
00000000
00001000
00000000
00000010
00000000
00000100
00000000
00000100
00000000
00000010
00000000
00000001
00000000
,  // measure 35
00000100
00000000
00001000
00000000
00010000
00000000
00001000
00000000
00010000
00001000
00010000
00001000
00000000
00000000
00010000
00000000
,  // measure 36
00001000
00100000
00001000
00100000
00001000
00100000
00001000
00000000
00100000
00000000
00010000
00000000
01000000
00000000
00000000
00100000
,  // measure 37
10000000
00100000
00000000
00000000
10000000
00010000
00000000
10000000
00100000
00000000
01000000
00000000
00001000
00000000
00010000
00000000
,  // measure 38
00000000
00010000
00000000
00010000
00001000
00000000
00000100
00000000
00000010
00000000
00001000
00000000
00000001
00000000
00001000
00000100
,  // measure 39
00001000
00000000
00000000
00000000
00000000
00000000
00000000
00000000
00000001
00000100
00000001
00000000
00000100
00000000
00001000
00010000
,  // measure 40
00001000
00010000
00001000
00000000
00010000
00001000
00020000
00000000
00031000
00000000
00011000
00000000
00000000
00000000
00100000
00010000
,  // measure 41
00100000
00010000
00000000
00000000
00000000
00000000
00101000
00000000
00100000
00000000
01000000
00000000
10000000
00010000
10000000
00010000
,  // measure 42
00000000
00000000
00000000
10010000
00000000
00000000
10010000
00000000
00000000
00000000
00000000
00000000
10000000
00000000
00100000
00000000
01000000
00000000
00010000
00000000
00001000
00000000
00000010
00000000
,  // measure 43
00000100
00000001
00001000
00000001
00000100
00000010
00001000
00000000
00000000
00001001
00000000
00000000
,  // measure 44
00000000
00000001
00000100
00001000
00000000
00010000
01000000
10000000
,  // measure 45
00000000
10000000
00100000
00010000
00000000
00001000
00000010
00000001
,  // measure 46
00000000
00000001
00000100
00001000
00100000
00001000
00010000
00000100
,  // measure 47
00010000
00000000
00011000
00000000
00000000
00010000
00100000
10000000
,  // measure 48
01000000
10000000
00000000
00000000
01000000
01000000
00000000
00000000
,  // measure 49
00010000
00001000
00010000
00001000
00000000
00010000
00001000
00000100
,  // measure 50
00001000
00000100
00000000
00001010
00000000
00010100
00000000
00001000
,  // measure 51
00010000
00000000
10010000
00000000
10000000
01000000
00010000
00001000
,  // measure 52
00000010
00000001
00000010
00001000
00010000
01000000
10000000
00010000
,  // measure 53
00010000
00000000
10000000
10000000
10000000
00100000
00010000
00001000
,  // measure 54
00000100
00000001
00000100
00001000
00010000
00100000
10000000
00010000
,  // measure 55
00020000
00000000
10030000
10000000
00010000
01000000
00100000
00010000
,  // measure 56
00001000
00000100
00000010
00001000
00000001
00000010
00001000
00010000
,  // measure 57
01000000
00100000
00010000
10000000
00100000
00010000
00001000
00000100
,  // measure 58
00000010
00001000
00000001
00000010
00001000
00010000
01000000
10000000
,  // measure 59
00010000
00000000
00000000
10000000
00010000
00000000
00100000
00000000
01000000
00000000
20000000
00000000
00000000
00000000
00000000
00000000
,  // measure 60
00000000
30010000
00000000
00000000
,  // measure 61
00000000
00000000
00010000
01000000
00010000
00000000
00000000
00000000
01000000
00000000
00100000
00000000
10000000
00010000
00000000
00010000
,  // measure 62
10000000
00000000
01000000
00000000
00100000
00010000
00000000
00010000
01000000
00000000
00100000
00000000
10000000
01000000
00000000
01000000
,  // measure 63
00100000
00000000
00001000
00000000
00010000
00001000
00000000
00001000
00010000
00000000
00001000
00000000
00000200
00000000
00000000
00000000
,  // measure 64
00000000
00000000
00000000
00000000
00000310
00000100
00000110
00000000
,  // measure 65
00001000
00000000
00000001
00000000
00001001
00000000
00000000
00000000
00000010
00000000
00000100
00000000
00000001
00001000
00000000
00001000
,  // measure 66
00000001
00000000
00000010
00000000
00000100
00001000
00000000
00001000
00000010
00000000
00000100
00000000
00000001
00000010
00000000
00000010
,  // measure 67
00000100
00000000
00010000
00000000
00001000
00010000
00000000
00010000
00000000
00000000
00022000
00000000
00000000
00000000
00000000
00000000
,  // measure 68
00000000
00000000
00000000
00000000
,  // measure 69
00000000
00000000
00000000
00000000
00000000
00033000
00000000
00000000
;
