#TITLE:SUPER STAR;
#SUBTITLE:;
#ARTIST:D.J.RICH feat. TAILBROS.;
#TITLETRANSLIT:;
#SUBTITLETRANSLIT:;
#ARTISTTRANSLIT:;
#CREDIT:;
#BANNER:SUPER STAR.png;
#BACKGROUND:SUPER STAR-bg.png;
#LYRICSPATH:;
#CDTITLE:Dance Dance Revolution Solo.png;
#MUSIC:SUPER STAR.ogg;
#OFFSET:0.000;
#SAMPLESTART:8.905;
#SAMPLELENGTH:15.000;
#SELECTABLE:YES;
#DISPLAYBPM:128.000;
#BPMS:0.000=128.114,12.000=128.021;
#STOPS:;
#BGCHANGES:;

//---------------dance-single - ----------------
#NOTES:
     dance-single:
     :
     Beginner:
     1:
     0.139,0.157,0.000,0.000,0.000:
0000
0000
0000
0000
,
0000
0000
0000
0000
,
0000
0000
0000
0000
,
0000
0000
0000
0000
,
0000
0000
0000
0000
,
0000
1000
0000
1000
,
0000
0001
0000
0001
,
0000
0100
0000
0100
,
0000
0010
0000
0010
,
0010
0000
0000
0100
,
0100
0000
0000
0001
,
0001
0000
0000
1000
,
1000
0000
0000
0100
,
0100
0000
0010
0000
,
1000
0000
0100
0000
,
0001
0000
0010
0000
,
0010
0000
0001
0001
,
0001
0000
0000
0000
,
1000
0000
0000
0000
,
0100
0000
0000
0000
,
0010
0000
0000
0000
,
0000
1000
0000
0010
,
0000
0100
0000
0001
,
0000
1000
0000
0100
,
0000
0001
0000
0010
,
0010
0000
0001
0000
,
1000
0000
0100
0000
,
0100
0000
0010
0000
,
1000
0000
0001
0000
,
1000
1000
0000
0000
,
0010
0010
0000
0000
,
0100
0100
0000
0000
,
0001
0001
0000
0000
,
0000
0100
0100
0100
,
0000
0001
0001
0001
,
0000
1000
1000
1000
,
0000
0010
0010
0010
,
0010
0000
1000
0000
,
0010
0000
1000
0000
,
0010
0000
1000
0000
,
0010
0000
0010
0000
,
0000
1000
0000
0100
,
0000
1000
0000
0100
,
0000
1000
0000
0100
,
0100
0100
0100
0100
,
0100
0000
0000
0000
;

//---------------dance-single - ----------------
#NOTES:
     dance-single:
     :
     Easy:
     5:
     0.343,0.365,0.139,0.000,0.000:
0000
0000
0000
0000
,
0000
0000
0000
0000
,
0000
0000
0000
0000
,
0000
0000
0000
0000
,
0000
0000
0000
0000
,
0010
0100
0010
1000
,
0100
0010
0010
0001
,
0010
0100
1000
0010
,
1001
0000
0110
0000
,
0010
0000
0100
0000
0001
0010
0001
0000
,
0010
0000
0100
0000
1000
0010
1000
0000
,
0010
0000
0100
0000
0001
0010
0001
0000
,
0010
0000
0100
0000
1000
0010
1000
0000
,
0010
0100
0010
1000
,
0100
0010
0010
0001
,
0100
0010
0010
1000
,
0010
0000
0100
0000
0001
0010
0001
0000
,
0010
0001
0010
0001
0010
0001
0000
0000
,
1000
0100
1000
0100
1000
0100
0000
0000
,
0010
0001
0010
0001
0010
0001
0000
0000
,
1000
0100
1000
0100
1000
0100
0010
0000
,
0010
0100
0010
0001
,
0100
0010
0010
1000
,
0010
0100
0001
0010
,
1001
0000
0110
0000
,
0010
0000
0100
0000
0001
0010
0001
0000
,
0010
0000
0100
0000
1000
0010
1000
0000
,
0010
0000
0100
0000
0001
0010
0001
0000
,
0010
0000
0100
0000
1000
0010
1000
0000
,
0010
0100
0010
1000
,
0100
0010
0010
0001
,
0100
0010
0010
1000
,
0010
0000
0100
0000
0001
0010
0001
0000
,
0100
0001
0100
0001
0100
0001
0100
0000
,
0000
0001
0000
0010
0001
0010
0001
0000
,
0010
0001
0010
0001
0010
0001
0100
0000
,
0010
0000
0010
0000
0010
1000
0001
1000
,
0010
0000
1000
0001
1000
0000
1001
0000
,
0010
0000
1000
0001
1000
0000
1001
0000
,
0010
0000
1000
0001
1000
0000
1001
0000
,
0010
0000
1000
0001
0010
0001
1000
0000
,
1001
0000
0010
1000
0001
0000
1001
0000
,
0010
0000
1000
0001
1000
0000
1001
0000
,
0010
0000
0001
1000
0001
0000
1001
0000
,
1000
0000
1000
0001
0000
0001
0001
0001
,
1001
0000
0000
0000
;

//---------------dance-single - ----------------
#NOTES:
     dance-single:
     :
     Medium:
     6:
     0.403,0.391,0.162,0.000,0.000:
0000
0000
0000
0000
,
0000
0000
0000
0000
,
0000
0000
0000
0000
,
0000
0000
0000
0000
,
0000
0000
0000
0000
,
0010
1000
0100
0000
0000
0010
0001
0000
,
0010
0001
0100
0000
0000
0010
1000
0000
,
0000
0010
0100
0000
0001
0010
0100
0000
,
1001
0000
0000
0110
0000
0000
0000
0000
,
0010
0001
0100
0000
0001
0010
0001
0000
,
0010
0001
0100
0000
0001
0010
0001
0000
,
0010
0001
0100
0000
0001
0010
0001
0000
,
0010
0001
0100
0000
0001
0010
0001
0000
,
0010
0100
1100
0000
0000
0010
1000
0000
,
0010
1000
1100
0000
0000
0010
1000
0000
,
0010
1000
1100
0000
0000
0010
1000
0000
,
0010
1000
0100
0010
0001
0010
0001
0000
,
1000
0010
1000
0010
1000
0100
0000
0000
,
0010
0001
0010
0001
0010
0100
0000
0000
,
1000
0010
1000
0010
1000
0100
0000
0000
,
0010
0001
0010
0001
0010
0001
0100
0000
,
0010
1000
0100
0000
0000
0010
0001
0000
,
0010
0001
0100
0000
0000
0010
1000
0000
,
0010
1000
0100
0000
0010
0001
0010
0000
,
1001
0000
0000
0110
0000
0000
0000
0000
,
0010
1000
0100
0000
1000
0010
1000
0000
,
0010
1000
0100
0000
1000
0010
1000
0000
,
0010
1000
0100
0000
1000
0010
1000
0000
,
0010
1000
0100
0000
1000
0010
1000
0000
,
0010
1000
1100
0000
0000
0010
1000
0000
,
0010
1000
1100
0000
0000
0010
1000
0000
,
0010
1000
1100
0000
0000
0010
1000
0000
,
0010
1000
0100
0010
0001
0010
0001
0000
,
1000
0100
1000
0100
1000
0100
0010
0000
,
0000
0001
0000
0010
0001
0010
0100
0000
,
0010
0001
0010
0001
0010
0001
0100
0000
,
0010
0000
0010
0000
0010
1000
0001
1000
,
0010
0000
1000
0001
1000
0000
1001
0000
,
0010
0100
0001
1000
0001
0000
1001
0000
,
0010
0100
0001
1000
0001
0000
1001
0000
,
0010
0100
0001
1000
0010
1000
0001
1000
,
1000
0000
0010
1000
0001
1000
1000
0000
,
0010
0100
0001
1000
0001
1000
1000
0000
,
0010
0100
0001
1000
0001
1000
1000
0000
,
1000
0000
1000
0001
0000
0001
1000
0100
,
1001
0000
0000
0000
;

//---------------dance-single - ----------------
#NOTES:
     dance-single:
     :
     Hard:
     8:
     0.505,0.600,0.186,0.000,0.087:
0000
0000
0000
0000
,
0000
0000
0000
0000
,
0000
0000
0000
0000
,
0000
0000
0000
0000
,
0000
0000
0000
0000
,
0010
1000
0100
0000
1000
0010
1000
0000
,
0010
1000
0100
0000
0010
0001
0010
0000
,
0000
0010
0100
0000
1000
0010
0100
0000
,
1001
0100
0010
0001
0100
0010
1001
0000
,
0010
0001
0101
0000
0001
0100
0110
0000
,
0010
1000
1100
0000
0001
0100
0110
0000
,
1000
0100
0110
0000
0001
0100
0110
0000
,
0010
0100
0101
0000
0010
0100
1100
0000
,
0010
1000
1100
0000
0100
0010
0001
0000
,
0100
0010
1010
0000
0100
0010
0001
0000
,
0010
0001
0010
0001
0100
0010
1000
0100
,
0110
0000
0000
0010
0001
0010
0110
0000
,
0010
0001
0010
0001
0010
0100
0000
0000
,
0100
1000
0100
1000
0100
0010
0000
0000
,
0010
0001
0010
0001
0010
0100
0000
0000
,
0100
1000
0100
1000
0100
1000
0010
0000
,
0010
1000
0100
0000
1000
0010
1000
0000
,
0010
0100
0001
0000
0001
0010
0001
0000
,
1000
0010
1000
0010
1000
0010
0100
0000
,
1001
0100
0010
0001
0100
0010
1000
0100
,
0010
0001
0100
0010
1000
0010
1000
0100
,
0010
0001
0100
0010
1000
0010
1000
0100
,
0010
0001
0100
0010
1000
0010
1000
0100
,
0010
0001
0100
0010
1000
0010
1000
0100
,
0010
0001
0100
0001
0100
0010
1000
0100
,
0010
0001
0100
0001
0100
0010
1000
0100
,
0010
0001
0100
0001
0100
0010
1000
0100
,
0010
0001
0100
0010
1000
0010
1000
0100
,
0010
0001
0010
0001
0010
0001
0100
0000
,
0000
0001
0000
0010
0001
0010
0100
0000
,
0010
0001
0010
0001
0010
0001
0100
0000
,
0010
1000
0010
1000
0010
1000
0010
1000
0010
1000
0010
1000
0010
1000
0010
1000
,
0010
1000
0000
0000
0000
0000
0000
0000
1000
0000
0001
0000
0001
0000
0100
0000
,
0010
0100
0001
1000
0001
0100
0001
1000
,
0010
0100
0001
1000
0001
0100
0010
1000
,
0100
0010
0000
0000
0000
0001
0100
0010
,
1001
0100
0001
1000
0001
1000
1000
0100
,
0010
0100
1000
0001
1000
0001
0001
0100
,
0010
0100
0001
1000
0001
1000
1000
0000
,
1000
0010
1000
0010
1000
0000
0010
1000
0010
1000
0010
0000
1000
0001
1000
0001
,
1000
0000
0000
0000
;

//---------------dance-double - ----------------
#NOTES:
     dance-double:
     :
     Easy:
     4:
     0.273,0.287,0.093,0.000,0.000: // measure 1
00000000
00000000
00000000
00000000
,  // measure 2
00000000
00000000
00000000
00000000
,  // measure 3
00000000
00000000
00000000
00000000
,  // measure 4
00000000
00000000
00000000
00000000
,  // measure 5
00000000
00000000
00000000
00000000
,  // measure 6
10000000
00010000
01000000
01000000
,  // measure 7
00001000
00010000
00000010
00000100
,  // measure 8
00000001
00001000
00000100
00000100
,  // measure 9
00010000
00001000
00100000
01000000
,  // measure 10
10000000
00010000
10000000
01000000
,  // measure 11
00001000
01000000
00001000
00010000
,  // measure 12
00000100
00010000
00000100
00001000
,  // measure 13
00000001
00001000
00000001
00000100
,  // measure 14
00000010
00000100
00000010
00001000
,  // measure 15
00010000
00000100
00010000
00001000
,  // measure 16
00100000
01000000
00100000
00010000
,  // measure 17
10000000
00010000
10000000
01000000
,  // measure 18
00100000
10000000
01000000
00000000
,  // measure 19
00010000
01000000
00001000
00000000
,  // measure 20
00010000
00000100
00000010
00000000
,  // measure 21
00000001
00000100
00001000
00000000
,  // measure 22
00011000
00100000
10000000
01000000
,  // measure 23
10000000
01000000
00010000
00001000
,  // measure 24
00000001
00000100
00001000
00010000
,  // measure 25
10000000
01000000
00010000
00001000
,  // measure 26
00011000
00000010
00000001
00000100
,  // measure 27
00000001
00000100
00001000
00010000
,  // measure 28
10000000
01000000
00010000
00001000
,  // measure 29
00000001
00001000
00000001
00001000
,  // measure 30
00001001
00000010
00001000
00000100
,  // measure 31
00010000
00001000
00100000
01000000
,  // measure 32
00001000
00010000
00000010
00000100
,  // measure 33
00010000
01000000
00001000
00000100
,  // measure 34
00001001
00001000
00000001
00000100
,  // measure 35
00000110
00001000
00000100
00010000
,  // measure 36
00011000
00100000
01000000
10000000
,  // measure 37
00010000
10000000
00010000
11000000
,  // measure 38
00100000
10000000
01000000
00010000
,  // measure 39
00001000
00000100
00000001
00000010
,  // measure 40
00000010
00000001
00000100
00001000
,  // measure 41
00010000
01000000
10000000
00100000
,  // measure 42
10010000
01000000
00010000
01000000
,  // measure 43
00001000
00010000
00001000
00000100
,  // measure 44
00000001
00001000
00000001
00000100
,  // measure 45
00001000
00010000
01000000
10000000
,  // measure 46
00010000
00000000
00000000
00000000
;

//---------------dance-double - ----------------
#NOTES:
     dance-double:
     :
     Medium:
     6:
     0.348,0.339,0.174,0.000,0.000: // measure 1
00000000
00000000
00000000
00000000
,  // measure 2
00000000
00000000
00000000
00000000
,  // measure 3
00000000
00000000
00000000
00000000
,  // measure 4
00000000
00000000
00000000
00000000
,  // measure 5
00000000
00000000
00000000
00000000
,  // measure 6
10000000
00000000
00010000
00000000
00000000
10000000
01000000
00000000
,  // measure 7
00001000
00000000
00010000
00000000
00000000
00000010
00000100
00000000
,  // measure 8
00000000
00000001
00001000
00000000
00000100
00000000
00000100
00000000
,  // measure 9
00011000
00000000
00000000
01100000
00000000
00000000
00000000
00000000
,  // measure 10
10000000
00000000
00010000
00000000
10000000
00010000
01000000
00000000
,  // measure 11
00001000
00000000
01000000
00000000
00001000
00010000
00000100
00000000
,  // measure 12
00000100
00000000
00010000
00000000
00000100
00001000
00000001
00000000
,  // measure 13
00000001
00000000
00001000
00000000
00000001
00001000
00000100
00000000
,  // measure 14
00000010
00000000
00000100
00000000
00000000
00000100
00001100
00000000
,  // measure 15
00010000
00000000
00000100
00000000
00000000
00001000
00010100
00000000
,  // measure 16
00100000
00000000
01000000
00000000
00000000
00010000
01010000
00000000
,  // measure 17
10000000
00000000
00010000
00000000
10000000
00010000
01000000
00000000
,  // measure 18
00100000
10000000
01000000
10000000
00100000
10000000
00000000
00000000
,  // measure 19
00010000
01000000
00010000
01000000
00001000
00010000
00000000
00000000
,  // measure 20
00000010
00001000
00000100
00001000
00000010
00001000
00000000
00000000
,  // measure 21
00000001
00000100
00000001
00000100
00001000
00000100
00001000
00000000
,  // measure 22
00010000
00000000
00100000
00000000
00000000
10000000
01000000
00000000
,  // measure 23
10000000
00000000
01000000
00000000
00000000
00010000
01000000
00000000
,  // measure 24
00001000
00000000
00010000
00000000
00000000
00000100
00001000
00000000
,  // measure 25
00001001
00000000
00000000
00000101
00000000
00000000
00000000
00000000
,  // measure 26
00011000
00000000
01000000
00000000
00001000
00000100
00000001
00000000
,  // measure 27
00000001
00000000
00000100
00000000
00010000
00001000
01000000
00000000
,  // measure 28
10000000
00000000
01000000
00000000
00001000
00010000
00000100
00000000
,  // measure 29
00000001
00000000
00001000
00000000
00000001
00001000
00000100
00000000
,  // measure 30
00001001
00000000
00000010
00000000
00000000
00001000
00010100
00000000
,  // measure 31
00010000
00000000
00001000
00000000
00000000
00010000
01001000
00000000
,  // measure 32
00001000
00000000
00010000
00000000
00000000
00001000
00010010
00000000
,  // measure 33
00010000
00000000
00001000
00000000
00000000
00010000
00101000
00000000
,  // measure 34
00100000
10000000
01000000
10000000
00100000
10000000
00000000
00000000
,  // measure 35
00000000
01000000
00000000
01000000
00001000
00010000
00000100
00000000
,  // measure 36
00000010
00001000
00000100
00001000
00000010
00001000
00000100
00000000
,  // measure 37
00000001
00000000
00000001
00000000
00000001
00001000
00000100
00010000
,  // measure 38
00001000
00100000
01000000
10000000
00000000
00010000
01000000
00000000
,  // measure 39
00001000
00010000
00000100
00000000
00000000
00000001
00000100
00000000
,  // measure 40
00000010
00000001
00000100
00000000
00000000
00001000
00000100
00000000
,  // measure 41
00010000
00001000
01000000
00000000
00010000
10000000
01000000
00000000
,  // measure 42
10010000
00000000
01000000
00000000
00001000
00010000
00001000
00000000
,  // measure 43
00000010
00010000
00001000
00000000
00000100
00001000
00000010
00000000
,  // measure 44
00000001
00001000
00000100
00000000
00010000
00001000
01000000
00000000
,  // measure 45
00001000
00000000
00010000
00000000
00100000
10000000
01000000
00000000
,  // measure 46
01010000
00000000
00000000
00000000
;

//---------------dance-double - ----------------
#NOTES:
     dance-double:
     :
     Hard:
     8:
     0.451,0.444,0.116,0.000,0.157: // measure 1
00000000
00000000
00000000
00000000
,  // measure 2
00000000
00000000
00000000
00000000
,  // measure 3
00000000
00000000
00000000
00000000
,  // measure 4
00000000
00000000
00000000
00000000
,  // measure 5
00000000
00000000
00000000
00000000
,  // measure 6
10010000
00000000
01000000
00000000
00010000
10000000
01000000
00000000
,  // measure 7
00001000
00010000
00000100
00000000
00001000
00000001
00000100
00000000
,  // measure 8
00000001
00000000
00000100
00000000
00001000
00000001
00000100
00000000
,  // measure 9
00010000
00001000
01000000
00000000
00010000
10000000
01000000
00000000
,  // measure 10
10010000
00000000
00000000
00000000
00100000
00000000
00000000
00000000
10000000
01000000
10000000
00000000
01000000
00000000
00000000
00000000
,  // measure 11
00010000
00000000
01000000
00000000
00001000
00000000
00000000
00000000
00001000
00010000
00001000
00000000
00010000
00000000
00000000
00000000
,  // measure 12
00000100
00000000
00001000
00000000
00000001
00000000
00000000
00000000
00000100
00000001
00000100
00000000
00000001
00000000
00000000
00000000
,  // measure 13
00001000
00000010
00010000
00001000
00100000
00010000
00000100
00000000
,  // measure 14
00001001
00000000
00000000
00000000
00000010
00000000
00000000
00000000
00000001
00000100
00000001
00000000
00000100
00000000
00000000
00000000
,  // measure 15
00001000
00000000
00000100
00000000
00010000
00000000
00000000
00000000
00010000
00001000
00010000
00000000
00001000
00000000
00000000
00000000
,  // measure 16
01000000
00000000
00010000
00000000
10000000
00000000
00000000
00000000
01000000
10000000
01000000
00000000
10000000
00000000
00000000
00000000
,  // measure 17
00010000
00100000
00001000
00010000
00000010
00001000
01000000
00000000
,  // measure 18
00100000
10000000
01000000
00010000
00100000
00010000
00000000
00000000
,  // measure 19
00001000
00010000
00000100
00010000
00001000
00000100
00000000
00000000
,  // measure 20
00000001
00001000
00000100
00001000
00000010
00000100
00000000
00000000
,  // measure 21
00000001
00000100
00000001
00001000
00000100
00010000
00001000
00000000
,  // measure 22
10010000
00000000
00000000
00000000
00100000
00000000
00000000
00000000
10000000
01000000
10000000
00000000
01000000
00000000
00000000
00000000
,  // measure 23
00010000
00000000
01000000
00000000
00001000
00000000
00000000
00000000
00001000
00010000
00001000
00000000
00010000
00000000
00000000
00000000
,  // measure 24
00000100
00000000
00001000
00000000
00000001
00000000
00000000
00000000
00000100
00000001
00000100
00000000
00000001
00000000
00000000
00000000
,  // measure 25
00001000
00000010
00010000
00001000
00100000
00010000
00000100
00000000
,  // measure 26
00001001
00000000
00000000
00000000
00000010
00000000
00000000
00000000
00000001
00000100
00000001
00000000
00000100
00000000
00000000
00000000
,  // measure 27
00001000
00000000
00000100
00000000
00010000
00000000
00000000
00000000
00010000
00001000
00010000
00000000
00001000
00000000
00000000
00000000
,  // measure 28
01000000
00000000
00010000
00000000
10000000
00000000
00000000
00000000
01000000
10000000
01000000
00000000
10000000
00000000
00000000
00000000
,  // measure 29
00010000
00100000
00001000
00010000
00000010
00001000
01000000
00000000
,  // measure 30
10010000
00000000
00000000
00000000
00100000
00000000
00000000
00000000
10000000
01000000
10000000
00000000
01000000
00000000
00000000
00000000
,  // measure 31
00010000
00000000
01000000
00000000
00001000
00000000
00000000
00000000
00001000
00010000
00001000
00000000
00010000
00000000
00000000
00000000
,  // measure 32
00000100
00000000
00001000
00000000
00000001
00000000
00000000
00000000
00000100
00000001
00000100
00000000
00000001
00000000
00000000
00000000
,  // measure 33
00001000
00000010
00010000
00001000
00100000
00010000
00001000
00000000
,  // measure 34
00010000
00001000
00010000
00001000
00000100
00000001
00000000
00000000
,  // measure 35
00000000
00001000
00000000
00000100
00001000
00010000
00001000
00000000
,  // measure 36
00100000
00010000
10000000
01000000
10000000
00010000
01000000
00000000
,  // measure 37
00010000
00000000
00000000
00000000
,  // measure 38
00001001
00000000
00000000
00000000
00000010
00000000
00000000
00000000
00000001
00000100
00000001
00000100
00000001
00000000
00000000
00000000
,  // measure 39
00001000
00000000
00000100
00000000
00010000
00000000
00000000
00000000
00010000
00001000
00010000
00001000
00010000
00000000
00000000
00000000
,  // measure 40
01000000
00000000
00010000
00000000
10000000
00000000
00000000
00000000
01000000
10000000
01000000
10000000
01000000
00000000
00000000
00000000
,  // measure 41
00010000
00100000
00001000
00010000
00000010
00001000
01000000
00000000
,  // measure 42
10010000
00000000
00000000
00000000
00100000
00000000
00000000
00000000
10000000
01000000
10000000
01000000
10000000
00000000
00000000
00000000
,  // measure 43
00010000
00000000
01000000
00000000
00001000
00000000
00000000
00000000
00001000
00010000
00001000
00010000
00001000
00000000
00000000
00000000
,  // measure 44
00000100
00000000
00001000
00000000
00000001
00000000
00000000
00000000
00000100
00000001
00000100
00000001
00000100
00000000
00000000
00000000
,  // measure 45
00001000
00010000
00000100
00001000
00010000
00101000
01000000
00000000
,  // measure 46
10010000
00000000
00000000
00000000
;

//---------------dance-couple - ----------------
#NOTES:
     dance-couple:
     :
     Challenge:
     6:
     0.571,0.887,1.000,0.000,0.035:
00000000
00000000
00000000
00000000
,
00000000
00000000
00000000
00000000
,
00000000
00000000
00000000
00000000
,
00000000
00000000
00000000
00000000
,
00000000
00000000
00000000
00000000
,
00100000
01000000
00100000
10000000
,
00000100
00000010
00000010
00000001
,
00100010
01000100
10001000
00100010
,
10010000
00000000
00001001
00000000
,
00100000
00000000
01000000
00000000
00010000
00100000
00010000
00000000
,
00000100
00000000
00000010
00000000
00001000
00000100
00001000
00000000
,
00100000
00000000
01000000
00000000
10000000
00100000
10000000
00000000
,
00000100
00000000
00000010
00000000
00000001
00000100
00000001
00000000
,
00100000
00000100
10000000
00000001
,
01000000
00100000
00100000
00010000
,
00000010
00000100
00000100
00001000
,
00100010
00000000
01000100
00000000
00010001
00100010
00010001
00000000
,
00100000
10000000
00100000
10000000
00100000
01000000
00000000
00000000
,
00000100
00001000
00000100
00001000
00000100
00000010
00000000
00000000
,
00010000
00100000
00010000
00100000
00010000
01000000
00000000
00000000
,
00000001
00000100
00000001
00000100
00000001
00000100
00100010
00000000
,
00100000
10000000
01000000
00000000
00000000
00100000
00010000
00000000
,
00000010
00001000
00000100
00000000
00000000
00000010
00000001
00000000
,
00100000
10000000
01000000
00000000
00000010
00001000
00000100
00000000
,
10010000
00000000
00000000
00001001
00000000
00000000
00000000
00000000
,
00100001
10000000
01000000
00000000
10000001
00100000
10000000
00000000
,
00100001
10000000
01000000
00000000
10000001
00100000
10000000
00000000
,
01000010
00001000
00000100
00000000
01001000
00000010
00001000
00000000
,
01000010
00001000
00000100
00000000
01001000
00000010
00001000
00000000
,
00100000
00010000
01010000
00000000
00000000
00100000
00010000
00000000
,
00001010
00001000
00001100
00000000
00000000
00000010
00001000
00000000
,
00100010
00011000
01011100
00000000
00000000
00100010
00011000
00000000
,
00100010
00011000
01000100
00100010
10000001
00100010
10000001
00000000
,
01000000
10000000
01000000
10000000
01000000
10000000
00100000
00000000
,
00000000
00010001
00000000
01000010
00010001
01000010
00100100
00000000
,
00000010
00000001
00000010
00000001
00000010
00000001
00000100
00000000
,
00100010
00000000
00100010
00000000
00100010
10001000
00010001
10001000
,
00100010
00000000
00000000
00000000
10001000
00010001
00010001
01000100
,
00100010
01000100
00010001
10001000
00010001
01000100
00010001
10001000
,
00100010
01000100
00010001
10001000
00010001
01000100
00100010
10001000
,
01000100
00100010
00000000
00000000
00000000
00010001
01000100
00100010
,
10011001
01000100
00010001
10001000
00010001
10001000
10001000
01000100
,
00100010
01000100
10001000
00010001
10001000
00010001
00010001
01000100
,
00100010
01000100
00010001
10001000
00010001
10001000
10001000
00000000
,
10001000
00100010
10001000
00100010
10001000
00000000
00100010
10001000
00100010
10001000
00100010
00000000
10001000
00010001
10001000
00010001
,
10001000
00000000
00000000
00000000
;

//---------------dance-solo - ----------------
#NOTES:
     dance-solo:
     :
     Easy:
     6:
     0.353,0.365,0.209,0.000,0.000:
000000
000000
000000
000000
,
000000
000000
000000
000000
,
000000
000000
000000
000000
,
000000
000000
000000
000000
,
000000
000000
000000
000000
,
000100
000000
001000
000000
000000
000100
010000
000000
,
000100
000000
001000
000000
000000
000100
000010
000000
,
000000
000100
001000
000000
010000
000000
000010
000000
,
100001
000000
000000
001100
000000
000000
000000
000000
,
000100
000000
001000
000000
000001
000010
000001
000000
,
000100
000000
001000
000000
000001
000010
000001
000000
,
000100
000000
001000
000000
000001
000010
000001
000000
,
000100
000000
001000
000000
000001
000010
000001
000000
,
000100
000000
001000
000000
000000
010000
110000
000000
,
000100
000000
001000
000000
000000
010000
110000
000000
,
000100
000000
001000
000000
000000
010000
110000
000000
,
000100
000000
001000
000000
100000
010000
100000
000000
,
010000
100000
010000
100000
010000
100000
000000
000000
,
000010
000001
000010
000001
000010
000001
000000
000000
,
010000
100000
010000
100000
010000
100000
000000
000000
,
000010
000001
000010
000001
000010
000001
000010
000000
,
000100
000000
001000
000000
000000
000100
010000
000000
,
000100
000000
001000
000000
000000
000100
000010
000000
,
000100
000000
001000
000000
000000
010000
000010
000000
,
100001
000000
000000
001100
000000
000000
000000
000000
,
000100
000000
001000
000000
000001
000010
000001
000000
,
000100
000000
001000
000000
000001
000010
000001
000000
,
000100
000000
001000
000000
000001
000010
000001
000000
,
000100
000000
001000
000000
000001
000010
000001
000000
,
000100
000000
001000
000000
000000
010000
110000
000000
,
000100
000000
001000
000000
000000
010000
110000
000000
,
000100
000000
001000
000000
000000
010000
110000
000000
,
000100
000000
001000
000000
100000
010000
100000
000000
,
010000
100000
010000
100000
010000
100000
010000
000000
,
000000
000010
000000
000010
000001
000010
000001
000000
,
010000
100000
010000
100000
010000
100000
010000
000000
,
000100
000000
000100
000000
000100
100000
000001
100000
,
000100
000000
000010
010000
000001
000000
100001
000000
,
000100
000000
010000
000010
100000
000000
100001
000000
,
000100
000000
000010
010000
000001
000000
100001
000000
,
000100
000000
010000
000010
000100
100000
000001
000000
,
100001
000000
000010
010000
000001
000000
100001
000000
,
000100
000000
010000
000010
100000
000000
100001
000000
,
000100
000000
000010
010000
000001
000000
100001
000000
,
100000
000000
100000
000001
000000
000001
000001
000001
,
100001
000000
000000
000000
;

//---------------dance-solo - ----------------
#NOTES:
     dance-solo:
     :
     Medium:
     7:
     0.419,0.444,0.278,0.000,0.000:
000000
000000
000000
000000
,
000000
000000
000000
000000
,
000000
000000
000000
000000
,
000000
000000
000000
000000
,
000000
000000
000000
000000
,
000100
100000
001000
000000
000000
000100
010000
000000
,
000100
000001
001000
000000
000000
000100
000010
000000
,
000000
000100
001000
000000
010000
000100
000010
000000
,
100001
000000
000000
001100
000000
000000
000000
000000
,
000100
000010
001000
000000
000001
000010
000001
000000
,
000100
000010
001000
000000
000001
000010
000001
000000
,
000100
000010
001000
000000
000001
000010
000001
000000
,
000100
000010
001000
000000
000001
000010
000001
000000
,
000100
100000
101000
000000
000000
010000
110000
000000
,
000100
100000
101000
000000
000000
010000
110000
000000
,
000100
100000
101000
000000
000000
010000
110000
000000
,
000100
100000
001000
000100
100000
010000
100000
000000
,
010000
100000
010000
100000
010000
001000
000000
000000
,
000010
000001
000010
000001
000010
001000
000000
000000
,
010000
100000
010000
100000
010000
001000
000000
000000
,
000010
000001
000010
000001
000010
000001
001000
000000
,
000100
000001
001000
000000
000000
000100
010000
000000
,
000100
100000
001000
000000
000000
000100
000010
000000
,
000100
000001
001000
000000
000100
010000
000010
000000
,
100001
000000
000000
001100
000000
000000
000000
000000
,
000100
000001
001000
000000
000001
000010
000001
000000
,
000100
000001
001000
000000
000001
000010
000001
000000
,
000100
000001
001000
000000
000001
000010
000001
000000
,
000100
000001
001000
000000
000001
000010
000001
000000
,
000100
100000
101000
000000
000000
010000
110000
000000
,
000100
100000
101000
000000
000000
010000
110000
000000
,
000100
100000
101000
000000
000000
010000
110000
000000
,
000100
100000
001000
000100
100000
010000
100000
000000
,
010000
100000
010000
100000
010000
100000
001000
000000
,
000000
000010
000000
000010
000001
000010
001000
000000
,
010000
100000
010000
100000
010000
100000
001000
000000
,
000100
000000
000100
000000
000100
100000
000001
100000
,
000100
000000
000010
010000
000001
000000
100001
000000
,
000100
001000
010000
000010
100000
000000
100001
000000
,
000100
001000
000010
010000
000001
000000
100001
000000
,
000100
001000
010000
000010
000100
100000
000001
100000
,
100001
000000
000010
010000
000001
100000
110000
000000
,
000100
001000
010000
000010
100000
000001
000011
000000
,
000100
001000
000010
010000
000001
100000
110000
000000
,
100000
000000
100000
000001
000000
000001
100000
001000
,
100001
000000
000000
000000
;

//---------------dance-solo - ----------------
#NOTES:
     dance-solo:
     :
     Hard:
     8:
     0.520,0.600,0.290,0.000,0.087:
000000
000000
000000
000000
,
000000
000000
000000
000000
,
000000
000000
000000
000000
,
000000
000000
000000
000000
,
000000
000000
000000
000000
,
000100
100000
001000
000000
100000
000100
010000
000000
,
000100
000001
001000
000000
000001
000100
000010
000000
,
000000
000100
001000
000000
010000
000100
000010
000000
,
100001
001000
000100
000010
001000
000100
100001
000000
,
000100
000010
001001
000000
000001
000010
000101
000000
,
000100
000010
001001
000000
000001
000010
000101
000000
,
000100
000010
001001
000000
000001
000010
000101
000000
,
000100
000010
001001
000000
000001
000010
000101
000000
,
000100
100000
101000
000000
001000
010000
110000
000000
,
000100
100000
101000
000000
001000
010000
110000
000000
,
000100
100000
010000
100000
001000
010000
110000
001000
,
100100
000000
000000
000100
100000
010000
101000
000000
,
010000
100000
010000
100000
010000
001000
000000
000000
,
000010
000001
000010
000001
000010
001000
000000
000000
,
010000
100000
010000
100000
010000
001000
000000
000000
,
000010
000001
000010
000001
000010
000001
001000
000000
,
000100
100000
001000
000000
100000
000100
010000
000000
,
000100
000001
001000
000000
000001
000100
000010
000000
,
000100
010000
000010
000100
010000
000100
000010
000000
,
100001
001000
000100
000010
001000
000100
000001
001000
,
000100
000010
001000
000100
000001
000010
000001
001000
,
000100
000010
001000
000100
000001
000010
000001
001000
,
000100
000010
001000
000100
000001
000010
000001
001000
,
000100
000010
001000
000100
000001
000010
000001
001000
,
000100
100000
001000
100000
001000
010000
110000
001000
,
000100
100000
001000
100000
001000
010000
110000
001000
,
000100
100000
001000
100000
001000
010000
110000
001000
,
000100
100000
001000
000100
100000
010000
100000
001000
,
010000
100000
010000
100000
010000
100000
001000
000000
,
000000
000010
000000
000010
000001
000010
001000
000000
,
010000
100000
010000
100000
010000
100000
001000
000000
,
000100
000001
000100
000001
000100
000001
000100
000001
000100
000001
000100
000001
000100
000001
000100
000001
,
000100
000001
000000
000000
000000
000000
000000
000000
000001
000000
001000
000000
100000
000000
000001
000000
,
000100
001000
010000
000010
100000
001000
000001
100000
,
000100
001000
000010
010000
000001
001000
100000
000001
,
000100
001000
000000
000000
000000
010000
000010
010000
,
100001
001000
000010
010000
000001
100000
110000
001000
,
000100
001000
010000
000010
100000
000001
000011
001000
,
000100
001000
000010
010000
000001
100000
110000
000000
,
100000
010000
100000
010000
100000
000000
000100
100000
000100
100000
000100
000000
100000
000001
100000
000001
,
100000
000000
000000
000000
;

//---------------dance-double - Edit by silenttype01----------------
#NOTES:
     dance-double:
     Edit by silenttype01:
     Challenge:
     9:
     0.603,0.651,0.209,0.081,0.435: // measure 1
00000000
00000000
00000000
00000000
,  // measure 2
00000000
00000000
00000000
00000000
,  // measure 3
00000000
00000000
00000000
00000000
,  // measure 4
00000000
00000000
00000000
00000000
,  // measure 5
00000000
00000000
00000000
00000000
,  // measure 6
00002001
00000000
00003010
00001000
00000001
00000010
00001000
00010000
,  // measure 7
00001000
00100000
00010000
10000000
00100000
10000000
00100000
01000000
,  // measure 8
00010000
10000000
00100000
00010000
00001000
00010000
00000010
00001000
,  // measure 9
00000001
00000010
00000000
00000010
00000100
00000000
00000100
00001000
00000000
00001000
00000001
00000000
00000000
00000000
00000000
00000000
,  // measure 10
00000021
00000000
00000130
00001000
00000010
00010000
00001000
00100000
,  // measure 11
00010000
10000000
00100000
10000000
00010000
01000000
00001000
00010000
,  // measure 12
00000100
00001000
00000010
00000100
00000001
00000010
00000100
00000010
,  // measure 13
00000001
00000100
00000000
00000100
00000010
00000000
00000010
00001000
00000000
00001000
00000001
00000000
00000000
00000000
00000000
00000000
,  // measure 14
00001002
00000000
00000013
00001000
00010000
00100000
10000000
01000000
,  // measure 15
10000000
00100000
00010000
00001000
00000010
00000001
00000100
00000001
,  // measure 16
00000010
00001000
00010000
01000000
10000000
00100000
00010000
00001000
,  // measure 17
01000000
00010000
00000000
00010000
10000000
00000000
10000000
01000000
00000000
01000000
00100000
00000000
00000000
00100000
00000000
00000000
,  // measure 18
01000000
10000000
01000000
10000000
00100000
10000000
01000000
10000000
01000000
10000000
00100000
00000000
00000000
00000000
10000000
01000000
,  // measure 19
00000000
00000000
01000000
10000000
01000000
10000000
01000000
10000000
01000000
10000000
00100000
00000000
00000000
00000000
01000000
10000000
,  // measure 20
00010000
00100000
00010000
00100000
01000000
00100000
00010000
00100000
00010000
00100000
01000000
00000000
00000000
00000000
10000000
00100000
,  // measure 21
10000000
00100000
10000000
00100000
10000000
00100000
10000000
00100000
10000000
00100000
10000000
00100000
00000000
00000000
00000000
00000000
,  // measure 22
10020000
00000000
01030000
00010000
10000000
01000000
00100000
00010000
,  // measure 23
10000000
00100000
00010000
00001000
00000100
00000001
00000100
00000010
,  // measure 24
00001000
00000001
00000100
00001000
01000000
00010000
00100000
00001000
,  // measure 25
00010000
00000100
00000000
00000100
00000010
00000000
00000010
00000001
00000000
00000001
00001000
00000000
00000100
00000010
00000000
00000010
,  // measure 26
00000200
00000000
00000310
00001000
00010000
01000000
00010000
00001000
,  // measure 27
00000010
00000001
00000100
00000010
00010000
00001000
01000000
00100000
,  // measure 28
00010000
00001000
00000100
00000010
00010000
00001000
00010000
01000000
,  // measure 29
10000000
00100000
00000000
00100000
01000000
00000000
01000000
00010000
00000000
00010000
10000000
00000000
00000000
00000000
00000000
00000000
,  // measure 30
20010000
00000000
31000000
00010000
00001000
00000010
00000001
00000010
,  // measure 31
00000100
00000010
00001000
00010000
01000000
00100000
01000000
10000000
,  // measure 32
00100000
00010000
00001000
00000100
00001000
01000000
00001000
00010000
,  // measure 33
00100000
10000000
00000000
10000000
01000000
00000000
01000000
00100000
00000000
00100000
00010000
00000000
00000000
00100000
00000000
00000000
,  // measure 34
10010000
00000000
10010000
00000000
00000000
00000000
00100000
01000000
00000000
10010000
00000000
00000000
00000000
00000000
00000000
00000000
,  // measure 35
00011000
00000000
00011000
00000000
00000000
00000000
00010000
00001000
00000000
00011000
00000000
00000000
00000000
00000000
00000000
00000000
,  // measure 36
00001001
00000000
00001001
00000000
00000000
00000000
00000010
00000100
00000000
00001001
00000000
00000000
00000000
00000000
00000000
00000000
,  // measure 37
00000010
00000001
00001000
00000010
00001000
00000001
00000100
00000010
00000100
00000001
00001000
00000010
00001000
00000001
00000100
00000010
,  // measure 38
00000100
00000000
00000001
00000100
00001000
00010000
00100000
10000000
,  // measure 39
01000000
00010000
00001000
00000010
00000001
00001000
00000001
00000010
,  // measure 40
00001000
00010000
01000000
10000000
00100000
00010000
00001000
00000100
,  // measure 41
00000001
00000100
00000000
00001000
00010000
00000000
00100000
10000000
00000000
00010000
01000000
00000000
00000000
00000000
00000000
00000000
,  // measure 42
10020000
00000000
10030000
00100000
00010000
01100000
00001000
00010000
,  // measure 43
00100000
00010000
00001000
00000100
00000010
00011000
00000100
00000010
,  // measure 44
00010000
01000000
00100000
00010000
01000000
00011000
00100000
01000000
,  // measure 45
00010000
00100000
00010000
00100000
01000000
00000000
00010000
00100000
00010000
00100000
01000000
00000000
00010000
00100000
00010000
00100000
;

//---------------dance-single - Edit by silenttype01----------------
#NOTES:
     dance-single:
     Edit by silenttype01:
     Challenge:
     9:
     0.603,0.651,0.209,0.081,0.435:
0000
0000
0000
0000
,
0000
0000
0000
0000
,
0000
0000
0000
0000
,
0000
0000
0000
0000
,
0000
0000
0000
0000
,
1002
0000
0013
0001
0100
0001
0010
0001
,
0100
0010
1000
0100
1000
0010
1000
0010
,
0100
0001
0010
0100
1000
0001
1000
0001
,
0010
0001
0000
0001
1000
0000
1000
0100
0000
0100
0010
0000
0000
0000
0000
0000
,
2001
0000
3001
0100
0010
1000
0100
0010
,
0001
0100
0010
1000
0100
0010
0100
1000
,
0010
0100
0001
0010
0100
1000
0010
0100
,
0001
0010
0000
0010
0100
0000
0100
1000
0000
1000
0010
0000
0000
0000
0000
0000
,
1002
0000
1003
0010
0100
0001
1000
0010
,
0100
0001
0100
1000
0100
0001
1000
0100
,
0001
0100
0010
0001
0010
0001
1000
0100
,
1000
0100
0000
0100
1000
0000
1000
0001
0000
0001
0100
0000
0000
0100
0000
0000
,
0001
0100
0001
0100
0010
0100
0001
0100
0001
0100
0010
0000
0000
0000
0010
0100
,
0000
0000
0001
0100
0001
0100
0001
0100
0001
0100
0010
0000
0000
0000
0100
0001
,
1000
0100
1000
0100
0010
0100
1000
0100
1000
0100
0010
0000
0000
0000
1000
0100
,
1000
0100
1000
0100
1000
0100
1000
0100
1000
0100
1000
0100
0000
0000
0000
0000
,
2001
0000
3001
0100
1000
0100
0001
0010
,
1000
0010
0001
0100
1000
0100
0001
0010
,
1000
0010
0001
0100
1000
0100
0001
0010
,
0100
1000
0000
1000
0100
0000
0100
0010
0000
0010
0001
0000
0001
1000
0000
1000
,
0200
0000
0310
0001
1000
0100
0001
1000
,
0010
0001
1000
0100
0001
1000
0010
0001
,
1000
0100
0001
1000
0010
0001
1000
0100
,
0010
0001
0000
0001
0100
0000
0100
1000
0000
1000
0100
0000
0000
0000
0000
0000
,
2001
0000
3001
0100
1000
0001
0010
1000
,
0001
0100
1000
0001
0010
1000
0001
0100
,
1000
0001
0010
1000
0001
0100
1000
0001
,
0010
1000
0000
1000
0100
0000
0100
0001
0000
0001
0100
0000
0000
0100
0000
0000
,
0011
0000
0011
0000
0000
0000
1000
0100
0000
1100
0000
0000
0000
0000
0000
0000
,
1010
0000
1010
0000
0000
0000
0100
0001
0000
0101
0000
0000
0000
0000
0000
0000
,
0110
0000
0110
0000
0000
0000
1000
0001
0000
0110
0000
0000
0000
0000
0000
0000
,
0010
0001
1000
0010
1000
0001
0100
0010
0100
0001
1000
0010
1000
0001
0100
0010
,
0100
0000
0001
0100
1000
0100
0010
0100
,
0001
0100
0010
0100
1000
0100
0010
0100
,
0001
0100
1000
0100
0010
0100
0001
0100
,
0010
1000
0000
0001
0100
0000
0010
0100
0000
0001
1000
0000
0000
0000
0000
0000
,
1002
0000
0013
0100
1000
0110
0001
0100
,
1000
0010
0100
0001
0010
1100
0001
0100
,
1000
0100
0001
0010
0100
1001
0010
0100
,
0001
0100
0001
0100
0010
0000
0001
0100
0001
0100
0010
0000
0001
0100
0001
0100
;
