#TITLE:STRUT YOUR FUNKY STUFF;
#SUBTITLE:;
#ARTIST:DIAMOND;
#TITLETRANSLIT:;
#SUBTITLETRANSLIT:;
#ARTISTTRANSLIT:;
#CREDIT:;
#BANNER:STRUT YOUR FUNKY STUFF.png;
#BACKGROUND:STRUT YOUR FUNKY STUFF-bg.png;
#LYRICSPATH:;
#CDTITLE:./CDTITLES/DANCEMANIA BASS#5.PNG;
#MUSIC:STRUT YOUR FUNKY STUFF.ogg;
#OFFSET:0.000;
#SAMPLESTART:17.637;
#SAMPLELENGTH:15.000;
#SELECTABLE:YES;
#DISPLAYBPM:136.000;
#BPMS:0.000=136.076;
#STOPS:;
#BGCHANGES:;

//---------------dance-single - ----------------
#NOTES:
     dance-single:
     :
     Easy:
     4:
     :
0000
0000
0000
0000
,
0000
0000
0000
0000
,
0000
0000
0000
0000
,
0000
0000
0000
0000
,
0000
0000
0000
0000
,
0000
0000
0000
0000
,
0001
0000
0010
0000
,
1000
0000
0010
0000
,
1000
0000
0010
0000
,
0001
0000
0010
0000
,
0100
0000
0010
0000
,
1000
0001
1000
0010
,
0100
0000
0010
0000
,
0001
1000
0001
0010
,
0100
0000
0010
0000
,
1000
0001
1000
0001
,
0001
0010
0000
0000
1000
0010
0000
0000
,
0000
0000
0000
0000
,
0110
0000
1001
0000
,
0110
0000
0010
0000
,
1000
0000
0010
0000
,
1000
0000
0000
0000
,
0110
0000
1001
0000
,
0110
0000
0000
1000
,
0100
1000
0001
0100
,
0001
0100
0010
0001
,
0010
0001
1000
0010
,
1000
0000
0000
0000
,
0100
0000
0010
0000
,
1000
0001
1000
0001
,
0001
0100
0000
0000
1000
0100
0000
0000
,
0000
0000
0000
0000
,
0110
0000
1001
0000
,
0110
0000
0010
0000
,
1000
0000
0010
0000
,
1000
0000
0000
0000
,
0110
0000
0001
1000
,
1001
0000
0000
1000
,
0100
1000
0001
0100
,
0001
0100
0010
0001
,
0010
0001
1000
0010
,
1000
0000
0001
0000
1000
0001
1000
0001
,
0100
0000
0010
0000
,
1000
0001
1000
0110
,
0100
0010
0000
0000
0010
0100
0000
0000
,
0001
1000
0001
0110
,
0100
0000
0010
0000
,
1000
0001
1000
0001
,
0001
0010
0000
0000
1000
0010
0000
0000
,
0100
0000
0010
0000
0001
0100
1000
0000
;

//---------------dance-single - ----------------
#NOTES:
     dance-single:
     :
     Medium:
     6:
     :
0000
0000
0000
0000
,
0000
0000
0000
0000
,
0000
0000
0000
0000
,
0000
0000
0000
0000
,
0000
0000
0000
0000
,
0000
0000
0000
0000
,
0010
0000
0001
0000
,
0001
0001
0100
0001
,
0010
0000
1000
0000
,
1000
0000
1000
0000
0100
1000
0100
0000
,
1000
0000
0001
0000
,
1000
0000
0001
0000
0100
0001
0100
0000
,
0001
0000
1000
0000
,
0001
0000
1000
0000
0100
1000
0100
0000
,
0010
0000
0100
0000
,
0010
0000
0100
0000
0001
1000
0001
0000
,
1100
0000
0101
0000
,
0000
0000
0000
0000
,
0010
0001
0100
1000
,
0011
0000
0101
0000
,
1100
0000
1010
0000
,
0110
0000
0000
0000
,
0010
1000
0100
0001
,
1010
0101
0000
0010
,
0100
0000
1000
0000
1000
0100
1000
0000
,
0010
0000
0001
0000
0001
0100
0001
0000
,
1000
0000
0001
0000
0100
0010
0100
0010
,
0100
0000
0000
0000
,
0010
0000
0100
0000
,
0010
0000
0100
0000
0001
1000
0001
0000
,
1100
0000
0101
0000
,
0000
0000
0000
0000
,
0010
0001
0100
1000
,
0011
0000
0101
0000
,
1100
0000
1010
0000
,
0110
0000
0000
0000
,
0010
0000
1000
0000
0100
0001
0010
1000
,
0100
0001
0010
0000
0000
0000
0000
0000
,
0010
0000
1000
0000
1000
0100
1000
0000
,
0010
0000
0001
0000
0001
0100
0001
0000
,
1000
0000
0001
0000
0100
0010
0100
0000
,
0100
0001
1000
0010
0100
0001
1000
0010
,
1000
0000
0001
0000
,
1000
0001
0100
0001
0100
0001
1000
0000
,
0001
0000
1000
0000
,
0001
1000
0100
1000
0100
1000
0001
0000
,
0100
0000
0010
0000
,
1000
0001
0100
0010
0100
0010
1000
0001
,
0100
0000
0010
0000
,
1000
0000
0001
0000
0100
0110
0010
0000
;

//---------------dance-single - ----------------
#NOTES:
     dance-single:
     :
     Hard:
     7:
     :
0000
0000
0000
0000
,
0000
0000
0000
0000
,
0000
0000
0000
0000
,
0000
0000
0000
0000
,
0000
0000
0000
0000
,
0000
0000
0000
0000
,
1000
0010
1000
0001
,
1000
0010
1000
0000
0001
0010
0001
0000
,
0001
0010
0001
1000
,
1000
0000
0010
0000
1000
0010
1000
0000
,
0101
0000
0100
0000
0001
0100
0010
0000
,
0001
0000
0010
0000
0001
0100
0001
0000
,
1100
0000
0100
0000
1000
0100
0010
0000
,
1000
0000
0010
0000
1000
0100
1000
0000
,
0101
0000
0100
0000
0001
0100
0010
0000
,
0001
0000
0010
0000
0001
0100
0001
0000
,
1001
0000
0110
0000
1000
0100
0001
0000
,
0000
0000
0000
0000
,
0010
1000
0010
1000
0100
1000
0100
1000
,
0010
1000
0010
0000
1000
0000
0010
0000
,
1000
0010
1000
0000
0010
1000
0010
1000
,
0001
0000
0000
0000
,
0010
0001
0010
0001
0100
0001
0100
0001
,
0010
0001
0010
0000
0001
0000
0010
0001
,
0010
1000
0010
1000
0010
1000
0010
0000
,
0010
0001
0010
0001
0010
0001
0010
0000
,
1000
0010
1000
0010
0001
0010
0001
0010
,
0100
0000
0000
0000
1000
0100
0010
0001
,
0010
0001
0010
0000
0100
0001
0100
0000
,
0010
0001
1000
0100
0010
0001
0100
0000
,
0010
1000
0010
0000
0100
1000
0100
0000
,
0000
0000
0000
0000
,
0010
1000
0010
1000
0100
1000
0100
1000
,
0010
1000
0010
0000
1000
0000
0010
0000
,
1000
0010
1000
0010
1000
0100
0010
1000
,
0001
0000
0000
0000
,
0010
0001
0010
0001
0100
0001
0100
0001
,
0010
0001
0010
0001
0010
0001
0010
0001
,
1000
0010
1000
0010
1000
0010
1000
0000
,
0100
0001
0100
0001
0100
0001
0100
0000
,
1000
0010
1000
0010
0100
0001
0100
0001
,
0010
1000
0001
0100
0010
1000
0001
0100
,
0010
0001
0010
0000
0100
0001
0100
0000
,
0010
0001
1000
0100
0010
0001
0100
0000
,
0010
1000
0010
0000
0100
1000
0100
0000
,
0010
1000
0001
0100
0010
1000
0100
0000
,
0100
0010
0100
0000
0001
0100
0001
0000
,
0010
0001
0010
0100
0010
0001
1000
0000
,
0001
0010
0001
0000
1000
0010
1000
0000
,
1001
0000
0100
0000
1001
0010
0110
0000
;

//---------------dance-solo - ----------------
#NOTES:
     dance-solo:
     :
     Easy:
     4:
     :
000000
000000
000000
000000
,
000000
000000
000000
000000
,
000000
000000
000000
000000
,
000000
000000
000000
000000
,
000000
000000
000000
000000
,
000000
000000
000000
000000
,
000010
000000
000100
000000
,
010000
000000
000100
000000
,
010000
000000
000100
000000
,
000010
000000
000100
000000
,
001000
000000
000100
000000
,
100000
000001
100000
000100
,
001000
000000
000100
000000
,
000001
100000
000001
000100
,
001000
000000
000100
000000
,
100000
000001
010000
000010
,
000001
000100
000000
000000
100000
000100
000000
000000
,
000000
000000
000000
000000
,
001100
000000
100001
000000
,
101000
000000
010000
000000
,
100000
000000
010000
000000
,
100000
000000
000000
000000
,
001100
000000
100001
000000
,
010010
000000
000000
100000
,
001000
100000
000001
001000
,
000001
001000
000100
000001
,
000100
000001
100000
000100
,
100000
000000
000000
000000
,
001000
000000
000100
000000
,
100000
000001
010000
000010
,
000001
001000
000000
000000
100000
001000
000000
000000
,
000000
000000
000000
000000
,
001100
000000
100001
000000
,
101000
000000
010000
000000
,
100000
000000
010000
000000
,
100000
000000
000000
000000
,
001100
000000
000001
100000
,
010010
000000
000000
100000
,
001000
100000
000001
001000
,
000001
001000
000100
000001
,
000100
000001
100000
000100
,
100000
000000
000001
000000
100000
000001
100000
000001
,
001000
000000
000100
000000
,
100000
000010
100000
000101
,
001000
000100
000000
000000
000100
001000
000000
000000
,
000001
010000
000001
100100
,
001000
000000
000100
000000
,
010000
000010
010000
000010
,
000001
000010
000000
000000
100000
010000
000000
000000
,
001000
000000
000100
000000
000001
001000
100000
000000
;

//---------------dance-solo - ----------------
#NOTES:
     dance-solo:
     :
     Medium:
     6:
     :
000000
000000
000000
000000
,
000000
000000
000000
000000
,
000000
000000
000000
000000
,
000000
000000
000000
000000
,
000000
000000
000000
000000
,
000000
000000
000000
000000
,
000100
000000
000010
000000
,
000001
000001
001000
000001
,
000100
000000
010000
000000
,
100000
000000
100000
000000
001000
100000
001000
000000
,
100000
000000
000001
000000
,
010000
000000
000001
000000
001000
000001
001000
000000
,
000001
000000
100000
000000
,
000010
000000
100000
000000
001000
100000
001000
000000
,
000100
000000
001000
000000
,
000100
000000
001000
000000
000010
010000
000010
000000
,
101000
000000
001001
000000
,
000000
000000
000000
000000
,
000100
000001
001000
100000
,
000101
000000
001001
000000
,
101000
000000
100100
000000
,
001100
000000
000000
000000
,
000100
100000
001000
000001
,
100100
001001
000000
000010
,
010000
000000
100000
000000
100000
001000
100000
000000
,
000010
000000
000001
000000
000001
001000
000001
000000
,
010000
000000
000010
000000
001000
000100
001000
000100
,
001000
000000
000000
000000
,
000100
000000
001000
000000
,
000100
000000
001000
000000
000010
010000
000010
000000
,
101000
000000
001001
000000
,
000000
000000
000000
000000
,
000100
000001
001000
100000
,
000101
000000
001001
000000
,
101000
000000
100100
000000
,
001100
000000
000000
000000
,
000100
000000
100000
000000
001000
000001
000100
100000
,
001000
000001
000100
000000
000000
000000
000000
000000
,
010000
000000
100000
000000
100000
001000
100000
000000
,
000010
000000
000001
000000
000001
001000
000001
000000
,
010000
000000
000010
000000
001000
000100
001000
000000
,
001000
000001
100000
000100
001000
000001
100000
000100
,
100000
000000
000001
000000
,
010000
000001
001000
000001
001000
000001
010000
000000
,
000001
000000
100000
000000
,
000010
100000
001000
100000
001000
100000
000010
000000
,
001000
000000
000100
000000
,
100000
000010
100000
000010
010000
000001
010000
000001
,
001000
000000
000100
000000
,
010000
000000
000010
000000
001000
001100
000100
000000
;

//---------------dance-solo - ----------------
#NOTES:
     dance-solo:
     :
     Hard:
     7:
     :
000000
000000
000000
000000
,
000000
000000
000000
000000
,
000000
000000
000000
000000
,
000000
000000
000000
000000
,
000000
000000
000000
000000
,
000000
000000
000000
000000
,
100000
010000
100000
000001
,
100000
010000
100000
000000
000001
000010
000001
000000
,
000001
000010
000001
100000
,
100000
000000
010000
000000
100000
010000
100000
000000
,
001001
000000
001000
000000
000010
001000
000010
000000
,
000001
000000
000010
000000
000001
001000
000001
000000
,
101000
000000
001000
000000
010000
001000
010000
000000
,
100000
000000
010000
000000
100000
001000
100000
000000
,
001001
000000
001000
000000
000010
001000
000010
000000
,
000001
000000
000010
000000
000001
001000
000001
000000
,
100001
000000
001100
000000
100000
001000
000001
000000
,
000000
000000
000000
000000
,
010000
100000
010000
100000
001000
100000
001000
100000
,
000100
010000
000100
000000
100000
000000
000100
000000
,
100000
010000
100000
000000
010000
100000
000100
100000
,
000001
000000
000000
000000
,
000010
000001
000010
000001
001000
000001
001000
000001
,
000100
000010
000100
000000
000001
000000
000100
000001
,
000100
100000
000100
100000
000100
100000
000100
000000
,
000100
000001
000100
000001
000100
000001
000100
000000
,
100000
000100
100000
000100
000001
000100
000001
000100
,
001000
000000
000000
000000
100000
001000
000100
000001
,
000010
000001
000010
000000
001000
000001
001000
000000
,
000010
000001
100000
001000
000010
000001
001000
000000
,
010000
100000
010000
000000
001000
100000
001000
000000
,
000000
000000
000000
000000
,
010000
100000
010000
100000
001000
100000
001000
100000
,
000100
010000
000100
000000
100000
000000
000100
000000
,
100000
010000
100000
010000
100000
010000
000100
100000
,
000001
000000
000000
000000
,
000010
000001
000010
000001
001000
000001
001000
000001
,
000100
000010
000100
000001
000100
000001
000100
000001
,
100000
000100
100000
000100
100000
000100
100000
000000
,
001000
000001
001000
000001
001000
000001
001000
000000
,
100000
000100
100000
000100
001000
000001
001000
000001
,
000100
100000
000001
001000
000100
100000
000001
001000
,
000010
000001
000010
000000
001000
000001
001000
000000
,
000010
000001
100000
001000
000010
000001
001000
000000
,
010000
100000
010000
000000
001000
100000
001000
000000
,
010000
100000
000001
001000
010000
100000
001000
000000
,
001000
000100
001000
000000
000010
001000
000010
000000
,
000010
000001
000010
001000
000100
000001
100000
000000
,
000001
000010
000001
000000
100000
010000
100000
000000
,
100001
000000
001000
000000
100001
000100
001100
000000
;

//---------------dance-double - Edit by silenttype01----------------
#NOTES:
     dance-double:
     Edit by silenttype01:
     Easy:
     4:
     0.218,0.277,0.278,0.022,0.000:
00000000
00000000
00000000
00000000
,
00000000
00000000
00000000
00000000
,
00000000
00000000
00000000
00000000
,
00000000
00000000
00000000
00000000
,
00000000
00000000
00000000
00000000
,
00000000
00000000
00000000
00000000
,
00001000
00000000
00000010
00000000
,
00001000
00000000
00000001
00000000
,
00000010
00000000
00000001
00000000
,
00002002
00000000
00003003
00000000
,
00000001
00000000
00000100
00000000
,
00000010
00000010
00010000
00010000
,
00001000
00000000
00010000
00000000
,
00001000
00001000
00000010
00000010
,
00000001
00000000
00000100
00000000
,
00001000
00001000
00010000
00010000
,
00100000
00000000
00100000
00000000
,
00000000
00000000
00000000
00000000
,
10100000
00000000
00110000
00000000
,
00011000
00000000
01010000
00000000
,
01100000
00000000
00101000
00000000
,
00011000
00000000
00010010
00000000
,
00000110
00000000
00001100
00000000
,
00011000
00000000
00001010
00000000
,
00000010
00000010
00000010
00000010
,
00000001
00000001
00000001
00000001
,
00000100
00001000
00000010
00000001
,
00000100
00000000
00000000
00000000
,
00000010
00000000
00000001
00000000
,
00000010
00000010
00000001
00000001
,
00001000
00000000
00000010
00000000
,
00000000
00000000
00000000
00000000
,
00000101
00000000
00001100
00000000
,
00011000
00000000
00001010
00000000
,
00000110
00000000
00010100
00000000
,
00011000
00000000
01001000
00000000
,
01100000
00000000
00110000
00000000
,
00011000
00000000
01010000
00000000
,
01000000
01000000
01000000
01000000
,
10000000
10000000
10000000
10000000
,
00100000
00010000
01000000
10000000
,
00100000
00000000
00000000
00000000
,
10000000
00000000
00100000
00000000
,
00010000
00010000
00001000
00001000
,
00000100
00000000
00001000
00000000
,
00010000
00010000
00001000
00001000
,
00000100
00000000
00000001
00000000
,
00000100
00000100
00000001
00000001
,
00000010
00000000
00001000
00000000
,
00010000
00000000
00010000
00000000
00001000
00001000
00001000
00000000
;

//---------------dance-double - Edit by silenttype01----------------
#NOTES:
     dance-double:
     Edit by silenttype01:
     Medium:
     6:
     0.334,0.387,0.178,0.156,0.000:
00000000
00000000
00000000
00000000
,
00000000
00000000
00000000
00000000
,
00000000
00000000
00000000
00000000
,
00000000
00000000
00000000
00000000
,
00000000
00000000
00000000
00000000
,
00000000
00000000
00000000
00000000
,
00000100
00000000
00000001
00000000
,
00000100
00000100
00000001
00000001
,
00000010
00000000
00001000
00000000
,
00010000
00000000
00010000
00000000
00001000
00001000
00001000
00000000
,
00020000
00100000
00032000
00000010
,
00013000
00000000
00001000
00000000
00010000
00010000
00010000
00000000
,
00002000
00000010
00023000
00100000
,
00031000
00000000
00010000
00000000
00001000
00001000
00001000
00000000
,
00020000
01000000
00032000
00000100
,
00013000
00000000
00001000
00000000
00010000
00010000
00010000
00000000
,
00002000
00000100
00023000
01030000
,
00000000
00000000
00000000
00000000
,
01000000
10000000
00100000
00010000
,
00110000
00010000
00011000
00000000
,
00001000
00000010
00000001
00000100
,
00001100
00001000
00011000
00000000
,
00001000
00000100
00000001
00000010
,
00000011
00000010
00001010
00000000
,
00100000
00000000
00010000
00000000
00010000
00100000
00010000
00000000
,
01000000
00000000
10000000
00000000
00010000
10000000
00010000
00000000
,
10000000
00000000
00100000
00000000
00010000
00000000
01000000
00010000
,
02000000
00000000
00000000
03000000
,
00020000
00130000
20000000
30100000
,
00020000
00000000
00130000
00000000
01000000
01000000
01000000
00000000
,
20000000
30100000
00020000
00031000
,
00000000
00000000
00000000
00000000
,
00000010
00000001
00000100
00001000
,
00001100
00011000
00011000
00001000
,
00010000
01000000
10000000
00100000
,
00110000
00110000
00011000
00001000
,
00010000
00100000
10000000
01000000
,
11000000
01010000
01010000
00010000
,
00000100
00000000
00001000
00000000
00001000
00000100
00001000
00000000
,
00000010
00000000
00000001
00000000
00001000
00000001
00001000
00000000
,
00000001
00000000
00000100
00000000
00001000
00000000
00000010
00001000
,
00000010
00001000
00000001
00000100
00000010
00001000
00000001
00000100
,
00000001
00000000
00000000
00000001
00001000
00000000
00000000
00000000
,
00000010
00010000
00000010
00010000
00000010
00010000
00001000
00000000
,
00010000
00000000
00000000
00010000
00100000
00000000
00000000
00000000
,
01000000
00001000
01000000
00001000
01000000
00001000
00100000
00000000
,
01000000
00000000
00000000
01000000
10000000
00000000
00000000
00000000
,
10000000
00100000
00010000
00100000
10000000
00100000
00010000
00001000
,
00010000
00000000
00000000
00010000
00001000
00000000
00000000
00000000
,
00001000
00000000
00010000
00000000
00001000
00010000
00011000
00000000
;

//---------------dance-double - Edit by silenttype01----------------
#NOTES:
     dance-double:
     Edit by silenttype01:
     Hard:
     7:
     0.497,0.581,0.245,0.200,0.056:
00000000
00000000
00000000
00000000
,
00000000
00000000
00000000
00000000
,
00000000
00000000
00000000
00000000
,
00000000
00000000
00000000
00000000
,
00000000
00000000
00000000
00000000
,
00000000
00000000
00000000
00000000
,
01000000
00000000
00000000
01000000
10000000
00000000
00000000
00000000
,
10000000
00100000
00010000
00100000
10000000
00100000
00010000
00001000
,
00010000
00000000
00000000
00010000
00001000
00000000
00000000
00000000
,
00001000
00000000
00010000
00000000
00001000
00010000
00011000
00000000
,
00001010
00000000
00000010
00000000
00001000
00000010
00000100
00000000
,
00001000
00000000
00000100
00000000
00001000
00000010
00001000
00000000
,
00000011
00000000
00000010
00000000
00000001
00000010
00000100
00000000
,
00010000
00000000
00000100
00000000
00001000
00000010
00001000
00000000
,
00001010
00000000
00000010
00000000
00001000
00000010
00000100
00000000
,
00001000
00000000
00010000
00000000
00001000
01000000
00001000
00000000
,
00011000
00000000
01100000
00000000
00010000
00100000
10000000
00000000
,
00000000
00000000
00000000
00000000
,
01000000
10000000
01000000
10000000
00100000
10000000
00100000
10000000
,
02000000
13000000
00200000
10300000
02000000
13000000
00200000
10300000
,
01000000
10000000
01000000
10000000
00100000
10000000
00100000
10000000
,
02000000
13000000
00200000
10300000
02000000
13000000
00200000
10300000
,
00010000
01000000
00010000
01000000
00010000
00100000
00010000
00100000
,
00010000
01000000
00010000
00100000
00010000
01000000
00010000
00100000
,
01000000
10000000
00100000
01000000
00100000
00010000
00100000
01000000
,
00100000
00010000
00001000
01000000
00010000
10000000
00100000
00010000
,
00001000
00100000
00010000
10000000
00100000
00010000
00001000
00100000
,
00020000
00000000
00030000
00000000
,
10000000
00000000
00000000
00100000
10000000
00000000
00000000
00000000
00010000
00000000
00000000
00100000
00010000
00000000
00000000
00000000
,
10000000
00000000
00100000
00000000
01000000
00000000
00000000
01000000
00010000
00000000
00000000
00000000
00110000
00000000
00000000
00000000
,
00010000
00000000
00000000
00100000
00010000
00000000
00000000
00000000
00100000
00000000
00000000
00010000
00100000
00000000
00000000
00000000
,
00101000
00000000
00011000
00000000
00010010
00010000
00000010
00000000
,
00000100
00000001
00000100
00000001
00000010
00000001
00000010
00000001
,
00000200
00000301
00000020
00000031
00000200
00000301
00000020
00000031
,
00000100
00000001
00000100
00000001
00000010
00000001
00000010
00000001
,
00000200
00000301
00000020
00000031
00000200
00000301
00000020
00000031
,
00001000
00000100
00001000
00000100
00001000
00000010
00001000
00000010
,
00001000
00000100
00001000
00000010
00001000
00000100
00001000
00000010
,
00000100
00000001
00000100
00000010
00000100
00001000
00000100
00000010
,
00000100
00001000
00010000
00000010
00001000
00000001
00000100
00001000
,
00010000
00000100
00001000
00000001
00000100
00001000
00010000
00000100
,
00002000
00000001
00000001
00000001
00003001
00000001
00000001
00000001
,
00000001
00000000
00000010
00001000
00010000
00000000
00001000
00000010
,
00000000
00000000
00001000
00000000
00000000
00010000
00000000
00000000
00011000
00000000
00000000
00000000
00011000
00000000
00000000
00000000
,
00011000
00000000
00001000
00010000
00100000
00000000
00010000
00100000
,
00000000
00000000
10000000
00000000
00000000
00100000
00000000
00000000
10100000
00000000
00000000
00000000
10100000
00000000
00000000
00000000
,
10010000
00000000
10000000
01000000
00100000
00000000
00001000
00010000
,
00000000
00000000
00100000
00000000
00000000
10000000
00000000
00000000
10100000
00000000
00000000
00000000
11000000
00000000
00000000
00000000
,
01010000
00000000
00000000
00000000
01000000
00000000
00010000
00000000
00001000
00000000
00000000
00000000
00010000
00001000
00010000
00001000
,
00010000
00000000
00011000
00000000
00011000
00001000
00011000
00000000
;

//---------------dance-double - Edit by silenttype01----------------
#NOTES:
     dance-double:
     Edit by silenttype01:
     Challenge:
     8:
     0.530,0.553,0.356,0.267,0.111:
00000000
00000000
00000000
00000000
,
00000000
00000000
00000000
00000000
,
00000000
00000000
00000000
00000000
,
00000000
00000000
00000000
00000000
,
00000000
00000000
00000000
00000000
,
00000000
00000000
00000000
00000000
,
10010000
00000000
10000000
01000000
00100000
00000000
00001000
00010000
,
00000000
00000000
00100000
00000000
00000000
10000000
00000000
00000000
10100000
00000000
00000000
00000000
11000000
00000000
00000000
00000000
,
01010000
00000000
01000000
00010000
00001000
00000000
00000010
00001000
,
00010000
00000000
00011000
00000000
00011000
00001000
00011000
00000000
,
00010000
00000000
00000000
00100000
00000000
00000000
00010000
00000000
00001000
00000000
00000000
00000010
00000000
00000000
00001000
00000000
,
00010000
00100000
00010000
00001000
00010000
00100000
10000000
00000000
,
01000000
00000000
00000000
10000000
00000000
00000000
00100000
00000000
10000000
00000000
00000000
00010000
00000000
00000000
10000000
00000000
,
00100000
00010000
00001000
00010000
00100000
00010000
00001000
00000000
,
00010000
00000000
00000000
00100000
00000000
00000000
00010000
00000000
00001000
00000000
00000000
00000010
00000000
00000000
00001000
00000000
,
00010000
00001000
00000010
00001000
00010000
00001000
00000010
00000000
,
00000001
00000000
00000000
00000000
00001000
00000000
00000010
00000000
00000100
00000000
00000000
00000000
00000001
00000010
00000001
00000010
,
00000001
00000000
00000000
00000000
00000010
00000000
00000001
00000010
00000001
00000010
00000001
00000000
00000011
00000000
00000001
00000010
,
00000001
00000010
00001000
00010000
00000010
00001000
00000001
00000100
,
00000010
00000110
00000101
00001001
,
00001000
00000010
00000100
00000010
00010000
00100000
00010000
00100000
,
01000000
01100000
01010000
10010000
,
10000000
00100000
00010000
00001000
00100000
00010000
10000000
01000000
,
00100000
01100000
11000000
10010000
,
00010000
00100000
01000000
00100000
00001000
00000010
00001000
00100000
,
00010000
00000010
00000100
00000010
00001000
00100000
10000000
00100000
,
01000000
00010000
00000100
00001000
00000001
00000010
00000100
00010000
,
00001000
00000000
00000100
00000000
00000100
00000000
00000001
00000000
00000010
00000000
00000001
00000010
00000001
00000000
00000010
00000000
,
00001000
00000000
00010000
00001000
00000010
00000000
00001000
00010000
,
00000000
00000000
00010000
00000000
00100000
00010000
00000000
00000000
00110000
00000000
00000000
00000000
10100000
00000000
00000000
00000000
,
10010000
00000000
00000000
00000000
00010000
00000000
00100000
00000000
01000000
00000000
00000000
00000000
10000000
00100000
10000000
00100000
,
10000000
00000000
00000000
00000000
00100000
00000000
00000000
00000000
00100000
00000000
00100000
00000000
10100000
00000000
10000000
00100000
,
10000000
00100000
00010000
00001000
00100000
00010000
10000000
01000000
,
00100000
01100000
11000000
10010000
,
00010000
00100000
01000000
00100000
00001000
00000010
00001000
00000010
,
00000100
00000110
00001100
00001001
,
00000001
00000010
00001000
00010000
00000010
00001000
00000001
00000100
,
00000010
00000110
00000101
00001001
,
00001000
00000010
00000100
00000010
00010000
00100000
00010000
00000010
,
00001000
00100000
01000000
00100000
00010000
00000010
00000001
00000010
,
00000100
00001000
01000000
00010000
10000000
00100000
01000000
00001000
,
00010000
00000000
01000000
00000000
01000000
00000000
10000000
00000000
00100000
00000000
10000000
00100000
10000000
00000000
00100000
00000000
,
20000000
32000000
03020000
02030000
,
23000000
30200000
00010000
00320000
,
00032000
00003200
00000302
00000203
,
00002300
00023000
00001000
00032000
,
00003200
00000302
00000023
00002030
,
00003200
00000302
00000010
00000023
,
00002030
00000000
00000000
00000000
00023000
00000000
00000000
00000000
02030000
00000000
00000000
00000000
13000000
00100000
10000000
00100000
,
10000000
00000000
10100000
00000000
00100000
00100000
10010000
00000000
;

//---------------dance-single - Edit by silenttype01----------------
#NOTES:
     dance-single:
     Edit by silenttype01:
     Challenge:
     8:
     0.502,0.525,0.378,0.289,0.133: // measure 1
0000
0000
0000
0000
,  // measure 2
0000
0000
0000
0000
,  // measure 3
0000
0000
0000
0000
,  // measure 4
0000
0000
0000
0000
,  // measure 5
0000
0000
0000
0000
,  // measure 6
0000
0000
0000
0000
,  // measure 7
0100
0000
0000
0001
0001
0000
0000
1000
,  // measure 8
0000
0000
0100
0000
0000
1000
0000
0000
1001
0000
0000
0000
1001
0000
0000
0000
,  // measure 9
0100
0000
0000
1000
1000
0000
0000
0000
,  // measure 10
1001
0000
0110
0000
1001
0100
0010
0000
,  // measure 11
1001
0000
0000
0001
0000
0000
0100
0000
0010
0000
0000
1000
0000
0000
0100
0000
,  // measure 12
0001
0100
1000
0100
0001
0100
1000
0000
,  // measure 13
1000
0000
0000
1000
0000
0000
0100
0000
0010
0000
0000
0001
0000
0000
0100
0000
,  // measure 14
1000
0100
0001
0100
1000
0100
0001
0000
,  // measure 15
1000
0000
0000
0100
0000
0000
0010
0000
0100
0000
0000
1000
0000
0000
0100
0000
,  // measure 16
0010
0001
0100
0001
0010
0001
0100
0000
,  // measure 17
0001
0000
0000
0000
1000
0000
0001
0000
0100
0000
0000
0000
0001
1000
0001
1000
,  // measure 18
0100
0000
0000
0000
0100
0000
1000
0001
1000
0001
0100
0000
0010
0000
1000
0001
,  // measure 19
1000
0001
0100
0000
0001
1000
0100
0000
,  // measure 20
0011
0101
1010
1100
,  // measure 21
0001
1000
0100
0000
1000
0001
0100
0000
,  // measure 22
1010
1100
0011
0101
,  // measure 23
1000
0001
0100
0000
0001
1000
0100
0000
,  // measure 24
0011
0101
1010
1100
,  // measure 25
1000
0100
0010
0001
0100
0010
1000
0001
,  // measure 26
0100
1000
0100
0001
1000
0010
0001
0010
,  // measure 27
1000
0010
0000
0010
1000
0000
1000
0010
0000
0010
1000
0000
1000
0000
1000
0020
,  // measure 28
0000
0000
0000
0030
,  // measure 29
1000
0000
0000
1000
0000
0000
0100
0000
0010
0000
0000
0010
0000
0000
0001
0000
,  // measure 30
0100
1000
0100
0001
0100
1000
0100
0000
,  // measure 31
0001
0000
0000
0000
1000
0000
0001
0000
0100
0000
0000
0000
0001
1000
0001
1000
,  // measure 32
0100
0000
0000
0000
0110
0000
0000
0000
0110
0000
0100
0000
0100
0000
1000
0001
,  // measure 33
0100
0001
0010
0000
0100
0001
0010
0000
,  // measure 34
1010
1100
0011
0101
,  // measure 35
0100
1000
0010
0000
0100
1000
0010
0000
,  // measure 36
0011
0101
1010
1100
,  // measure 37
0001
1000
0010
0000
0001
1000
0010
0000
,  // measure 38
1010
1100
0011
0101
,  // measure 39
1000
0001
1000
0001
0100
0010
0100
0010
,  // measure 40
0001
1000
0001
1000
0010
0100
0010
0100
,  // measure 41
1000
0001
0100
0010
0001
1000
0010
0100
,  // measure 42
0020
0001
0001
0001
0001
0001
0001
0001
,  // measure 43
0032
0203
2300
3002
,  // measure 44
0023
2030
0100
3200
,  // measure 45
2300
3200
0302
2003
,  // measure 46
3020
0032
0100
0203
,  // measure 47
0302
0023
2030
3200
,  // measure 48
0302
0023
1000
2030
,  // measure 49
3002
0000
0000
0000
0203
0000
0000
0000
2300
0000
0000
0000
3001
1000
0001
1000
,  // measure 50
0100
0000
1100
0000
0100
0100
1001
0000
;
