#TITLE:Slip Out;
#SUBTITLE:;
#ARTIST:Harmony Machine;
#TITLETRANSLIT:;
#SUBTITLETRANSLIT:;
#ARTISTTRANSLIT:;
#CREDIT:;
#BANNER:Slip Out.png;
#BACKGROUND:Slip Out-bg.png;
#LYRICSPATH:;
#CDTITLE:DanceDanceRevolutionX.png;
#MUSIC:Slip Out.ogg;
#OFFSET:0.000;
#SAMPLESTART:53.054;
#SAMPLELENGTH:14.980;
#SELECTABLE:YES;
#BPMS:0.000=95.238,4.000=95.000;
#STOPS:;
#BGCHANGES:;

//---------------dance-single - ----------------
#NOTES:
     dance-single:
     :
     Beginner:
     1:
     0.089,0.116,0.011,0.000,0.000:
0000
0000
0000
0000
,
0000
0000
0000
0000
,
0000
0000
0000
0000
,
0001
0000
0000
0000
,
1000
0000
0000
0000
,
0100
0000
0100
0000
,
0100
0000
0000
0000
,
1000
0000
1000
0000
,
0001
0000
0000
0000
,
1000
0000
1000
0000
,
0001
0000
0001
0000
,
1000
0000
1000
0000
,
0100
0000
0000
0000
,
0001
0001
0000
0000
,
0100
0100
0000
0000
,
1000
1000
0000
0000
,
0000
0000
0000
0000
,
0001
0001
0000
0000
,
1000
1000
0000
0000
,
0100
0100
0000
0000
,
0000
0000
0000
0000
,
0001
0000
1000
0000
,
1000
0000
0001
0000
,
0001
0000
0100
0000
,
0100
0000
0000
0000
,
1000
0000
0100
0000
,
0001
0000
0100
0000
,
1000
0000
0100
0000
,
0000
0000
0000
0000
,
0001
0000
1000
0000
,
0001
0001
0001
0000
,
1000
0000
0001
0000
,
1000
1000
1000
0000
,
0010
0000
0010
0000
,
0100
0000
0100
0000
,
0001
0000
1000
0000
,
1001
0000
0000
0000
,
0000
0000
0000
0000
;

//---------------dance-single - ----------------
#NOTES:
     dance-single:
     :
     Easy:
     3:
     0.136,0.174,0.054,0.064,0.000:
0000
0000
0000
0000
,
0000
0000
0000
0000
,
0000
0000
0000
0000
,
0100
0000
1000
0000
,
0001
0000
0000
0000
,
1000
0000
0001
0001
,
1000
0000
0100
0000
,
1000
0000
0001
0001
,
1001
0000
0000
0000
,
1000
1000
0001
0000
,
0001
0001
0100
0000
,
1000
1000
0001
0000
,
1001
0000
0000
0000
,
0001
0000
0001
0001
,
1000
0000
1000
1000
,
0100
0000
0010
0000
,
0100
0000
0000
0000
,
0001
0100
0001
0000
,
1000
0100
1000
0000
,
0001
1000
0001
0000
,
1001
0000
0000
0000
,
0010
0000
1000
0000
,
0001
0100
0001
0000
,
0010
0000
1000
0000
,
0001
1000
1001
0000
,
2000
0000
0000
3000
0000
0000
0000
0000
2000
0000
0000
3000
0000
0000
0000
0000
,
0002
0000
0000
0003
0000
0000
0000
0000
0002
0000
0000
0003
0000
0000
0000
0000
,
0200
0000
0000
0300
0000
0000
0000
0000
0020
0000
0000
0030
0000
0000
0000
0000
,
0000
0000
0000
0000
,
0001
0001
1000
0000
,
0100
0010
0100
0000
,
1000
1000
0001
0000
,
1001
0000
0000
0000
,
1000
0000
0001
0001
,
1000
0000
0001
0001
,
0100
0000
0010
0010
,
0100
0100
0000
0000
0000
0000
0000
0000
;

//---------------dance-single - ----------------
#NOTES:
     dance-single:
     :
     Medium:
     7:
     0.292,0.309,0.300,0.171,0.000:
0000
0000
0000
0000
,
0000
0000
0000
0000
,
0000
0000
0000
0000
,
0010
0100
0010
0010
,
0100
0100
0100
0000
2002
0000
3003
0000
,
0100
0000
0010
0000
0100
0000
0001
0001
,
0001
1000
1001
0000
,
0100
0000
1000
0000
0010
0000
1000
1000
,
0100
0100
0000
0000
0000
0000
0000
0000
,
0010
0000
0010
0000
0110
0000
0001
0001
,
0001
0000
0110
0000
1000
1000
1000
1000
,
1000
0000
0010
0000
0110
0000
0001
0001
,
0100
0100
0000
0000
0000
0000
0000
0000
,
1000
0000
0110
0000
0001
0000
1000
1000
,
1000
0000
0110
0000
0001
0000
1000
1000
,
1000
0000
1001
0000
0010
0000
0100
0100
,
0100
0000
0000
0000
,
2000
0000
3100
0000
0010
0010
0010
0000
,
0020
0000
0031
0000
0100
0100
0100
0000
,
2000
3001
0110
1001
,
0010
0010
0010
0010
0100
0100
0100
0000
,
1000
1000
0000
0001
0000
0010
0000
0100
,
1000
1000
0000
0000
0101
0000
0110
0000
,
1000
1000
0000
0010
0000
0100
0000
0001
,
1000
1000
0000
0000
0020
0000
0030
0000
,
1001
1001
0000
0000
0110
0110
0000
0000
,
0101
0101
0000
0000
1100
1100
0000
0000
,
0010
0110
0000
0000
0100
0110
0000
0000
,
0001
0000
1000
0000
0110
0110
0000
0000
,
0200
0000
0301
0000
0020
0000
0130
0100
,
2000
3001
1001
0000
,
0002
0000
1003
0000
0200
0000
0310
0010
,
0001
0001
0000
0000
0100
0000
1001
0000
,
2000
0000
3100
0100
0200
0000
0310
0010
,
0020
0000
0031
0001
0001
0001
0001
0000
,
2000
0000
3010
0010
0020
0000
0130
0000
,
1001
1001
0000
0000
0000
0000
0000
0000
;

//---------------dance-single - ----------------
#NOTES:
     dance-single:
     :
     Hard:
     9:
     0.375,0.387,0.407,0.150,0.070:
0000
0000
0000
0000
,
0000
0000
0000
0000
,
0000
0000
0000
0000
,
0010
0000
0110
0000
1000
0100
0010
1000
,
0001
1001
0220
0030
,
0301
0000
1000
1000
0100
0100
0010
0010
,
0001
0000
0100
0100
0000
0000
0000
0000
,
1000
0000
0001
0001
0010
0010
0100
0100
,
1001
1001
0000
0000
0000
0000
0000
0000
,
2000
0000
0001
0001
0001
0000
0010
0010
,
3020
0000
0100
0100
0130
0001
0010
0100
,
2000
0000
0001
0001
0001
0000
0010
3010
,
1001
1001
0000
0000
0000
0000
0000
0000
,
0100
0000
1001
0000
0010
1000
1000
0100
,
0010
0000
1001
0000
0100
0001
0001
0100
,
0110
0000
1001
0000
1000
1000
0101
0101
,
0010
0000
0000
0000
,
2000
0000
0010
0000
3001
0101
0010
0010
,
0200
0000
1000
0000
0310
0011
1000
1000
,
0120
0000
1000
0000
0130
0101
0010
0010
,
1001
0000
0001
0000
0010
0000
0100
1000
0100
0000
0010
0000
0100
0000
0110
0000
,
0001
1001
0000
0010
0000
0001
0010
0100
,
1000
1001
0000
0000
0010
0000
0100
0010
,
0011
0011
0000
1000
0000
0001
0100
0010
,
1100
1100
0000
0000
0110
0000
0000
0000
,
0001
0100
0001
0100
0000
0000
0000
0000
1000
0100
1000
0100
0000
0000
0000
0000
,
0001
0010
0001
0010
0000
0000
0000
0000
1000
0010
1000
0010
0000
0000
0000
0000
,
0001
0010
0100
1000
0000
0000
0000
0000
1000
0010
0100
0001
0000
0000
0000
0000
,
1000
0001
0100
0010
1100
0101
0000
0000
,
2001
0000
0010
0001
3010
0100
0010
1000
,
1002
0000
0100
0100
0103
0000
0100
0000
,
0120
0000
1000
0100
1030
0001
0100
0100
,
1001
1001
0000
0000
1000
0010
0001
0100
,
1002
0000
0010
1000
0013
0100
0010
0001
,
2001
0000
0100
0100
3001
0010
0100
0100
,
0120
0000
0001
0100
0031
1000
0100
0010
,
0110
1001
0000
0000
0000
0000
0000
0000
;

//---------------dance-double - ----------------
#NOTES:
     dance-double:
     :
     Easy:
     5:
     0.182,0.193,0.161,0.043,0.000:
00000000
00000000
00000000
00000000
,
00000000
00000000
00000000
00000000
,
00000000
00000000
00000000
00000000
,
10000000
00000000
10000000
00000000
,
00010000
00000000
00022000
00033000
,
00001000
00000000
00000010
00000001
,
00000010
00000000
00000110
00000000
,
00010000
00000000
00010000
00100000
,
02200000
03300000
00000000
00000000
,
10000000
01000000
00000000
00010000
,
00001000
00010000
00000000
00001000
,
00000001
00000100
00000100
00001000
,
00010000
00000000
00000000
00000000
,
00100000
01100000
00000000
01000000
,
00010000
00011000
00000000
00000100
,
00000010
00000110
00000000
00000100
,
00001001
00000000
00000000
00000000
,
00000110
00000000
00001000
00010000
,
00100000
00000000
10000000
01000000
,
00100000
00000000
00010000
00001000
,
00010000
00010000
00011000
00000000
,
00001000
00000000
00000010
00000001
,
00001000
00000000
00010000
00001000
,
00011000
00000000
00100000
01000000
,
10010000
00000000
00000000
00000000
,
00100000
00100000
00000000
00000000
00010000
00010000
00000000
00000000
,
00001000
00001000
00000000
00000000
00010000
00010000
00000000
00000000
,
00001000
00001000
00000000
00000000
00000100
00000100
00000000
00000000
,
00000010
00000100
00001001
00000000
,
00000001
00000100
00001000
00000100
,
00001000
00010000
00100000
01000000
,
10000000
00100000
00010000
00001000
,
00011000
00000000
00000010
00000010
,
00000001
00000100
00001000
00010000
,
00001000
00010000
01000000
10000000
,
01000000
00010000
00001000
00010000
,
00011000
00011000
00000000
00000000
00000000
00000000
00000000
00000000
;

//---------------dance-double - ----------------
#NOTES:
     dance-double:
     :
     Medium:
     6:
     0.260,0.309,0.171,0.225,0.000:
00000000
00000000
00000000
00000000
,
00000000
00000000
00000000
00000000
,
00000000
00000000
00000000
00000000
,
00000001
00001000
00000010
00001000
,
00010000
00010000
00010000
00000000
00022000
00000000
00030000
00000000
,
02003000
00100000
00000000
03100000
,
02000000
03002000
00013000
00000000
,
00000020
00001000
00000000
00001030
,
00000001
00000001
00000000
00000000
00000000
00000000
00000000
00000000
,
00000200
00010300
00001000
00100000
,
00020000
00000000
10030000
00000000
01000000
01000000
00100000
00000000
,
02000000
03001000
00010000
00001000
,
00000010
00000010
00000000
00000000
00000000
00000000
00000000
00000000
,
00000002
00000000
00000103
00000000
00000000
00000010
00000000
00000010
,
00000020
00000000
00010030
00000000
00000000
00001000
00000000
00001000
,
00002000
00000000
00103000
00000000
00000000
00010000
00000000
00010000
,
01010000
00000000
00000000
00000000
,
20000000
00000000
31000000
00000000
00000000
00100000
00100000
00100000
,
00200000
00000000
00301000
00000000
00000000
00010000
00010000
00010000
,
00020000
00000000
00030100
00000000
00000000
00001000
00001000
00001000
,
00000001
00001000
00010000
00100000
,
01000000
01000000
00000000
10000000
00000000
01000000
00000000
00010000
,
00001000
00001000
00000000
00000000
00000100
00000000
00000110
00000000
,
00000001
00000001
00000000
00000100
00000000
00001000
00000000
00010000
,
00100000
00100000
00000000
00000000
00000000
00000000
00000000
00000000
,
10000000
10100000
00000000
00000000
00010000
01010000
00000000
00000000
,
00001000
00011000
00000000
00000000
00001000
00001010
00000000
00000000
,
00000001
00000101
00000000
00000000
00000010
00010010
00000000
00000000
,
00001000
00000000
00011000
00000000
00100000
00100000
00000000
00000000
,
20000000
00000000
30010000
00000000
01000000
00000000
00010000
00001000
,
00002000
00003010
00001001
00000000
,
00000002
00000000
00001003
00000000
00000100
00000000
00001000
00010000
,
00100000
00100000
00000000
00000000
01100000
00000000
10010000
00000000
,
20000000
00000000
30010000
00000000
01000000
00000000
00010000
00001000
,
00002000
00000000
00003010
00000000
00001001
00000001
00000001
00000001
,
00000002
00000000
00001003
00000000
00000100
00000000
00001000
00010000
,
00011000
00011000
00000000
00000000
00000000
00000000
00000000
00000000
;

//---------------dance-double - ----------------
#NOTES:
     dance-double:
     :
     Hard:
     9:
     0.355,0.387,0.321,0.139,0.107:
00000000
00000000
00000000
00000000
,
00000000
00000000
00000000
00000000
,
00000000
00000000
00000000
00000000
,
00000001
00000000
00000010
00000000
00001000
00001000
00010000
00100000
,
10000000
10000000
00000000
00000000
00202000
00000000
00300000
00000000
,
01003000
00000000
00100000
10000000
01000000
00100000
00010000
00000000
,
00000010
00000000
00001001
00001001
00000000
00000000
00000000
00000000
,
00000100
00000000
00000010
00000001
00000100
00000010
00001000
00000000
,
00100000
01100000
00000000
00000000
00000000
00000000
00000000
00000000
,
20000000
00000000
31000000
01000000
00200000
00000000
00301000
00001000
,
00020000
00000000
00030010
00000010
00000200
00000001
00000301
00000001
,
00002000
00000000
00003010
00000010
00020000
00000100
00030100
00000100
,
00011000
00011000
00000000
00000000
00000000
00000000
00000000
00000000
,
01000000
00000000
10100000
00000000
01000000
00010000
00001000
00000010
,
00000001
00000000
00001010
00000000
00000100
00001000
00010000
00100000
,
10000000
00000000
10010000
00000000
00100000
00010000
00001000
00000010
,
00000002
00001000
00000000
00001003
,
00000110
00000000
00001100
00000000
00001000
00010000
00100000
01000000
,
01100000
00000000
11000000
00000000
00100000
00010000
00001000
00000010
,
00000110
00000000
00000101
00000000
00000010
00001000
00010000
00100000
,
01000000
10000000
00100000
00010000
00001000
00000010
00000001
00000000
,
00000110
00000110
00000000
00001000
00000000
00010000
00000000
10010000
,
01100000
01100000
00000000
00000000
01000000
00010000
00001000
00000000
,
00001001
00001001
00000000
00000110
00000000
00011000
00000000
01100000
,
10010000
10010000
00000000
00000000
00000000
00000000
00000000
00000000
,
10000000
00100000
10000000
00100000
00000000
00000000
00000000
00000000
01000000
00010000
01000000
00010000
00000000
00000000
00000000
00000000
,
00001000
00000010
00001000
00000010
00000000
00000000
00000000
00000000
00000100
00000001
00000100
00000001
00000000
00000000
00000000
00000000
,
00000001
00000010
00000100
00001000
00000000
00000000
00000000
00000000
00010000
00100000
01000000
10000000
00000000
00000000
00000000
00000000
,
10000000
10000000
10000000
10000000
00010000
00001000
00000000
00000000
,
01000000
00000000
00100000
10000000
01000000
00100000
00010000
00001000
,
00000020
00000000
00000100
00000100
00000030
00000000
00000000
00000000
,
00000100
00000000
00000010
00000001
00000100
00000010
00001000
00010000
,
00100000
00000000
01100000
00000000
00000000
00000000
00000000
00000000
10000000
01000000
00000000
00100000
00000000
00001000
00020000
00000000
,
00030100
00000000
00000010
00000001
00000100
00000010
00001000
00010000
,
00200000
00000000
00000000
00000000
01300000
10000000
00000000
01000000
00000000
01000000
00000000
00100000
00000000
00002000
00000000
00000000
,
01003000
00100000
10000000
01000000
00100000
00010000
00001000
00000100
,
00010100
00001001
00000000
00000000
00000000
00000000
00000000
00000000
;

//---------------dance-single - ----------------
#NOTES:
     dance-single:
     :
     Challenge:
     12:
     0.430,0.638,0.118,0.193,0.524: // measure 1
0000
0000
0000
0000
,  // measure 2
0000
0000
0000
0000
,  // measure 3
0000
0000
0000
0000
,  // measure 4
0200
0302
0000
2003
,  // measure 5
3002
0000
0023
0000
,  // measure 6
0130
0000
0000
0000
0000
1000
1000
0000
0000
0001
0000
0001
0000
0000
1000
0000
0000
0100
0100
0000
0000
0010
0000
0000
,  // measure 7
0001
0000
0000
0000
0000
0100
0100
0000
0000
0010
0000
1000
0000
0000
0000
0000
0000
0000
0000
0000
0000
0000
0000
0000
,  // measure 8
0100
0000
0000
0000
0000
1000
1000
0000
0000
0001
0000
0001
0000
0000
1000
0000
0000
0100
0100
0000
0000
0010
0000
0000
,  // measure 9
1001
1001
0000
0000
0000
0000
0000
0000
,  // measure 10
1000
0000
0000
0000
0000
0100
0100
0000
0000
1000
0000
0000
0001
0000
0000
0000
0000
0010
0010
0000
0000
0001
0000
0000
,  // measure 11
1000
0000
0000
0000
0000
0001
0001
0000
0000
0100
0000
0010
0000
0000
0010
0000
0000
0010
1000
0000
0000
0001
0000
0000
,  // measure 12
0100
0000
0000
0000
0000
0001
0001
0000
0000
1000
0000
0010
0000
0000
0010
0000
0000
0010
1000
0000
0000
0001
0000
0000
,  // measure 13
0101
0101
0000
0000
0000
0000
0000
0000
,  // measure 14
0002
0000
0023
0000
0000
0001
0031
0001
,  // measure 15
2000
0000
3020
0000
0000
1000
1030
1000
,  // measure 16
0002
0000
0023
0000
0000
0001
0031
0001
,  // measure 17
0200
0000
0000
0000
0000
0000
0010
0000
0000
0000
0000
0000
0000
0000
0010
0000
0000
0000
0010
0000
0000
0001
0000
0000
,  // measure 18
0302
0000
0023
0000
0000
1000
1030
1000
,  // measure 19
0200
0000
0320
0000
0000
0001
0031
0001
,  // measure 20
0200
0000
0000
0000
0000
0000
0320
0000
0000
0000
0000
0000
0000
0000
0000
1000
0000
0000
1030
0000
0000
1000
0000
0100
,  // measure 21
0001
0000
0000
1000
0000
0000
1100
0000
0000
0010
0000
0001
0100
0000
0010
0000
0000
1000
1000
0000
0000
0001
0000
0001
,  // measure 22
0010
0000
0000
0000
0000
0000
0000
0000
0000
0000
0000
0000
0000
0000
0000
0100
0000
0000
0000
0000
0000
0000
0000
0000
0010
0000
0000
0000
0000
0000
0000
0000
0000
0000
0000
0000
0000
0000
0000
0000
0100
0000
0000
0000
0000
0000
0000
0000
0000
0000
0000
0000
0000
0000
0000
0000
0000
0000
0000
0000
0000
0000
0000
0000
0000
0000
0000
0000
0000
0000
0000
0000
1000
0000
0000
0000
0000
0000
0000
0000
0000
0000
0000
0000
0000
0000
0000
1000
0000
0000
0000
0000
0000
0000
0000
0000
0000
0000
0000
0000
0000
0000
0000
0000
0000
0000
0000
0000
0000
0000
0000
0000
0000
0000
0000
0000
0000
0000
0000
0000
0001
0000
0000
0000
0000
0000
0000
0000
0000
0000
0000
0000
0000
0000
0000
0001
0000
0000
0000
0000
0000
0000
0000
0000
0000
0000
0000
0000
0000
0000
0000
0000
0000
0000
0000
0000
0000
0000
0000
0000
0100
0000
0000
0000
0000
0000
0000
0000
0100
0000
0000
0000
0000
0000
0000
0000
0000
0000
0000
0000
0000
0000
0000
0000
0000
0000
0000
0000
0000
0000
0000
0000
,  // measure 23
0010
0000
0000
0000
0000
0000
0000
0000
0000
0000
0000
0000
0000
0000
0000
0100
0000
0000
0000
0000
0000
0000
0000
0000
0010
0000
0000
0000
0000
0000
0000
0000
0000
0000
0000
0000
0000
0000
0000
0000
0100
0000
0000
0000
0000
0000
0000
0000
0000
0000
0000
0000
0000
0000
0000
0000
0000
0000
0000
0000
0000
0000
0000
0000
0000
0000
0000
0000
0000
0000
0000
0000
0000
0000
0000
0000
0000
0000
0000
0000
0000
0000
0000
0000
0000
0000
0000
0000
0000
0000
0000
0000
0000
0000
0000
0000
0001
0000
0000
0000
0000
0000
0000
0000
0000
0000
0000
0000
0000
0000
0000
0000
1000
0000
0000
0000
0000
0000
0000
0000
0000
0000
0000
0000
0000
0000
0000
0000
0000
0000
0000
0000
0000
0000
0000
0000
0010
0000
0000
0000
0000
0000
0000
0000
0000
0000
0000
0000
0000
0000
0000
0000
0000
0000
0000
0000
0000
0000
0000
0000
1000
0000
0000
0000
0000
0000
0000
0000
0000
0000
0000
0000
0000
0000
0000
0000
0000
0000
0000
0000
0000
0000
0000
0000
0000
0000
0000
0000
0000
0000
0000
0000
,  // measure 24
0001
0000
0000
0000
0000
0000
0000
0000
0000
0000
0000
0000
0000
0000
0000
0100
0000
0000
0000
0000
0000
0000
0000
0000
0001
0000
0000
0000
0000
0000
0000
0000
0000
0000
0000
0000
0000
0000
0000
0000
0100
0000
0000
0000
0000
0000
0000
0000
0000
0000
0000
0000
0000
0000
0000
0000
0000
0000
0000
0000
0000
0000
0000
0000
0000
0000
0000
0000
0000
0000
0000
0000
1000
0000
0000
0000
0000
0000
0000
0000
0000
0000
0000
0000
0000
0000
0000
1000
0000
0000
0000
0000
0000
0000
0000
0000
0000
0000
0000
0000
0000
0000
0000
0000
0000
0000
0000
0000
0000
0000
0000
0000
0000
0000
0000
0000
0000
0000
0000
0000
0100
0000
0000
0000
0000
0000
0000
0000
0000
0000
0000
0000
0000
0000
0000
0100
0000
0000
0000
0000
0000
0000
0000
0000
0000
0000
0000
0000
0000
0000
0000
0000
0000
0000
0000
0000
0000
0000
0000
0000
0010
0000
0000
0000
0000
0000
0000
0000
0010
0000
0000
0000
0000
0000
0000
0000
0000
0000
0000
0000
0000
0000
0000
0000
0000
0000
0000
0000
0000
0000
0000
0000
,  // measure 25
1000
0000
0000
0000
0000
0000
0000
0000
0000
0000
0000
0000
0000
0000
0000
0100
0000
0000
0000
0000
0000
0000
0000
0000
1000
0000
0000
0000
0000
0000
0000
0000
0000
0000
0000
0000
0000
0000
0000
0000
0100
0000
0000
0000
0000
0000
0000
0000
0000
0000
0000
0000
0000
0000
0000
0000
0000
0000
0000
0000
0000
0000
0000
0000
0000
0000
0000
0000
0000
0000
0000
0000
0000
0000
0000
0000
0000
0000
0000
0000
0000
0000
0000
0000
0000
0000
0000
0000
0000
0000
0000
0000
0000
0000
0000
0000
0010
0000
0000
0000
0000
0000
0000
0000
0000
0000
0000
0000
0000
0000
0000
0000
0001
0000
0000
0000
0000
0000
0000
0000
0000
0000
0000
0000
0000
0000
0000
0000
0000
0000
0000
0000
0000
0000
0000
0000
1000
0000
0000
0000
0000
0000
0000
0000
0000
0000
0000
0000
0000
0000
0000
0000
0000
0000
0000
0000
0000
0000
0000
0000
0010
0000
0000
0000
0000
0000
0000
0000
0000
0000
0000
0000
0000
0000
0000
0000
0000
0000
0000
0000
0000
0000
0000
0000
0000
0000
0000
0000
0000
0000
0000
0000
,  // measure 26
0100
0001
0100
0001
0100
0001
0100
0001
0010
0100
0010
0100
0010
0100
0010
0100
,  // measure 27
1000
0010
1000
0010
1000
0010
1000
0010
0100
0001
0100
0001
0100
0001
0100
0001
,  // measure 28
1000
0010
1000
0010
1000
0010
1000
0010
0001
0010
0001
0010
0001
0010
0001
0010
,  // measure 29
1000
0000
1000
0100
0000
0100
0010
0000
0000
0001
0000
0100
1000
0000
0100
0001
0000
1000
0000
0000
0000
0000
0000
0000
,  // measure 30
0100
0000
0000
0000
0000
0000
0010
0000
0000
0001
0000
1000
0000
0000
1000
0000
0000
1000
0010
0000
0000
0100
0000
0000
,  // measure 31
0001
0000
0000
0000
0000
0000
0010
0000
0100
0000
0000
1001
0000
0000
0000
0000
0000
0000
0000
0000
0000
0000
0000
0000
,  // measure 32
0100
0000
0000
0000
0000
0000
0010
0000
0000
1000
0000
0001
0000
0000
0001
0000
0000
0001
0010
0000
0000
0100
0000
0000
,  // measure 33
1001
0000
0000
1001
0000
0000
0000
0000
0000
0000
0000
0000
0100
0000
0010
0000
0000
1000
0000
0000
0001
0010
0000
0000
,  // measure 34
0100
0000
0000
0000
0000
0000
0001
0000
0000
0100
0000
0010
0000
0000
0010
0000
0000
0010
0001
0000
0000
1000
0000
0000
,  // measure 35
0010
0000
0000
0000
0000
0000
0100
0000
0001
0000
0000
0001
0000
0000
0001
0000
0000
1000
0000
0000
0010
0000
0000
0000
,  // measure 36
0011
0000
0000
0000
0000
0000
0100
0000
1000
0000
0000
0001
0000
0000
0100
0000
0000
0010
1000
0000
0000
0001
0000
0000
,  // measure 37
0110
0110
0000
0000
0000
0000
0000
0000
;

//---------------dance-double - Copied from----------------
#NOTES:
     dance-double:
     Copied from:
     Edit:
     11:
     0.468,0.503,0.096,0.011,0.760:
00000000
00000000
00000000
00000000
,
00000000
00000000
00000000
00000000
,
00000000
00000000
00000000
00000000
,
00000001
00000000
00000000
00000000
00000000
00001000
00000001
00000000
00000000
00000000
00000000
00000010
00000001
00000000
00000000
00000000
00000000
00000100
00000001
00000000
00000100
00000000
00000000
00000010
,
00001000
00000000
00000000
00000000
00000000
00000100
00010000
00000000
00000000
00000000
00000000
00001000
00200000
00000000
00000000
00000000
00000000
00000000
00000000
00000000
00000000
00000000
00000000
00000000
,
01300000
00000000
00000000
00000000
00000000
10000000
00010000
00000000
00000000
00010000
00000000
00100000
00000000
00000000
00100000
00000000
00000000
00100000
10000000
00000000
00000000
00010000
00000000
00000000
,
01000000
00000000
00000000
00000000
00000000
10000000
01000000
00000000
00000000
00100000
00000000
00001000
00000000
00000000
00000000
00000000
00000000
00010000
00001000
00000000
00100000
00000000
00000000
00001000
,
01000000
00000000
00000000
00000000
00000000
00001000
00010000
00000000
00000000
00001000
00000000
00000010
00000000
00000000
00000010
00000000
00000000
00000010
00000001
00000000
00000000
00000100
00000000
00000000
,
00001001
00000000
00000000
00001001
00000000
00000000
00000010
00000000
00000000
00000000
00000000
00000100
00001000
00000000
00000001
00000000
00000000
00000100
00000010
00000000
00000000
00001000
00000000
00000000
,
00000100
00000000
00000000
00000000
00000000
00001000
00000001
00000000
00000000
00000100
00000000
00000000
00000010
00000000
00000000
00000000
00000000
00001000
00000100
00000000
00000000
00000010
00000000
00000000
,
00000100
00000000
00000000
00000000
00000000
00010000
00001000
00000000
00000000
00100000
00000000
00010000
00000000
00000000
00010000
00000000
00000000
00010000
10000000
00000000
00000000
00100000
00000000
00000000
,
01000000
00000000
00000000
00000000
00000000
00010000
10000000
00000000
00000000
00010000
00000000
00100000
00000000
00000000
00100000
00000000
00000000
00100000
00001000
00000000
00000000
00010000
00000000
00000000
,
00001100
00000000
00000000
00001100
00000000
00000000
00000010
00000000
00000001
00000000
00000000
00001000
00000010
00000000
00000100
00000000
00000000
00000010
00001000
00000000
00000100
00010000
00000000
00001000
,
01000000
00000000
00000000
00000000
00000000
00000000
00010000
00000000
00000000
00010000
00000000
00100000
00000000
00000000
00100000
01000000
00000000
00000000
00000000
00000000
10000000
00000000
00000000
10000000
,
00100000
00000000
00000000
00000000
00000000
00000000
00010000
00000000
00000000
00001000
00000000
00100000
00000000
00000000
00100000
00001000
00000000
00000000
00000000
00000000
00000010
00000000
00000000
00000010
,
00000100
00000000
00000000
00000000
00000000
00000000
00001000
00000000
00000000
00000001
00000000
00000010
00000000
00000000
00000010
00001000
00000000
00000000
00000000
00000000
00100000
00000000
00000000
00100000
,
01000000
00000000
00000000
00000000
00000000
00000000
10000000
00000000
00000000
00000000
00000000
01000000
10000000
00000000
00100000
00000000
00000000
00010000
00001000
00000000
00000000
00000100
00000000
00000000
,
00000010
00000000
00000000
00000000
00000000
00000000
00001000
00000000
00000000
00001000
00000000
00000100
00000000
00000000
00000100
00000010
00000000
00000000
00000000
00000000
00000001
00000000
00000000
00000001
,
00000100
00000000
00000000
00000000
00000000
00000000
00001000
00000000
00000000
00010000
00000000
00000100
00000000
00000000
00000100
00010000
00000000
00000000
00000000
00000000
01000000
00000000
00000000
01000000
,
00100000
00000000
00000000
00000000
00000000
00000000
00010000
00000000
00000000
10000000
00000000
01000000
00000000
00000000
01000000
00010000
00000000
00000000
00000000
00000000
00000100
00000000
00000000
00000100
,
00000010
00000000
00000000
00000001
00000000
00000000
00001000
00000000
00000000
00000010
00000000
00000100
00000001
00000000
00001000
00000000
00000000
00000010
00010000
00000000
00000000
00001000
00000000
00001000
,
00100000
00000000
00010000
00100000
00000000
00000000
00000000
00000000
00000000
01000000
00000000
10000000
00000000
00000000
00000000
01000000
00000000
00010000
00000000
00000000
00010000
00001000
00000000
00000000
,
00000010
00000000
00000001
00000010
00000000
00000000
00000000
00000000
00000000
00000000
00000000
00000000
00000001
00000000
00001000
00000000
00000000
00100000
00000000
00000000
10000000
00000000
00000000
00000000
,
00100000
00000000
10000000
00100000
00000000
00000000
00000000
00000000
00000000
01000000
00000000
00010000
00000000
00000000
00000000
01000000
00000000
10000000
00000000
00000000
10000000
01000000
00000000
00000000
,
00100000
00000000
00010000
00100000
00000000
00000000
00000000
00000000
00000000
00000000
00000000
00000000
01000000
00000000
00001000
00000000
00000000
00010000
00000000
00000000
00000010
00000000
00000000
00000000
,
00000100
00000000
00000001
00000100
00000000
00000001
00000000
00000000
00001000
00000100
00000000
00000010
00000001
00000000
00000100
00000001
00000000
00000100
00000000
00000000
00000010
00010000
00000000
00001000
,
00100000
00000000
00010000
00100000
00000000
00010000
00000000
00000000
10000000
01000000
00000000
00100000
00010000
00000000
01000000
00010000
00000000
01000000
00000000
00000000
10000000
01000000
00000000
00010000
,
10000000
00000000
00100000
10000000
00000000
00100000
00000000
00000000
10000000
00010000
00000000
00100000
01000000
00000000
00010000
01000000
00000000
00010000
00000000
00000000
00000000
00000000
00000000
00000000
,
00000010
00000000
00001000
00000010
00000000
00001000
00000010
00000000
00000000
00001000
00000000
00000001
00000010
00000000
00000100
00001000
00000000
00000001
00000000
00000000
00000000
00000000
00000000
00000000
,
00000100
00000000
00000000
00000000
00000000
00000000
00000001
00000000
00000000
00001000
00000000
00000010
00000000
00000000
00000010
00000000
00000000
00000010
00010000
00000000
00000000
00001000
00000000
00000000
,
01000000
00000000
00000000
00000000
00000000
00000000
00010000
00000000
10000000
00000000
00000000
01010000
00000000
00000000
00000000
00000000
00000000
00010000
00100000
00000000
01000000
00000000
00000000
10000000
,
01000000
00000000
00000000
00000000
00000000
00000000
10000000
00000000
00000000
00010000
00000000
00100000
00000000
00000000
00100000
00000000
00000000
00100000
00001000
00000000
00000000
00010000
00000000
00000000
,
00000110
00000000
00000000
00000101
00000000
00000000
00000000
00000000
00000000
00000000
00000000
00000000
00000100
00000000
00000001
00000000
00000000
00000010
00000000
00000000
00000001
00001000
00000000
00000000
,
00000100
00000000
00000000
00000000
00000000
00000000
00001000
00000000
00000000
00000001
00000000
00000010
00000000
00000000
00000010
00000000
00000000
00000010
00001000
00000000
00000000
00010000
00000000
00000000
,
00100000
00000000
00000000
00000000
00000000
00000000
10000000
00000000
00010000
00000000
00000000
01000000
00000000
00000000
00010000
00000000
00000000
00100000
00000000
00000000
00001000
00000000
00000000
00000000
,
00011000
00000000
00000000
00000000
00000000
00000000
00000100
00000000
00001000
00000000
00000000
00000001
00000000
00000000
00000100
00000000
00000000
00000010
00001000
00000000
00001000
00000001
00000100
00001000
,
00010000
00011000
00000000
00000000
00000000
00000000
00000000
00000000
;

//---------------dance-double - ----------------
#NOTES:
     dance-double:
     :
     Challenge:
     12:
     0.465,0.445,0.118,0.011,0.771:
00000000
00000000
00000000
00000000
,
00000000
00000000
00000000
00000000
,
00000000
00000000
00000000
00000000
,
00000010
00000000
00000000
00000000
00000000
00001000
00000001
00000000
00000000
00000000
00000000
00000010
00000001
00000000
00000000
00000000
00000000
00000100
00000001
00000000
00000100
00000000
00000000
00001000
,
00010000
00000000
00000000
00000000
00000000
00010000
10000000
00000000
00000000
00000000
00000000
10000000
00200000
00000000
00000000
00000000
00000000
00000000
00000000
00000000
00000000
00000000
00000000
00000000
,
01300000
00000000
00000000
00000000
00000000
10000000
00010000
00000000
00000000
00010000
00000000
00100000
00000000
00000000
00100000
00000000
00000000
00100000
10000000
00000000
00000000
00010000
00000000
00000000
,
01000000
00000000
00000000
00000000
00000000
00010000
00001000
00000000
00000000
00000100
00000000
00000001
00000000
00000000
00000000
00000000
00000000
00001000
00000001
00000000
00000010
00000000
00000000
00000100
,
00000010
00000000
00000000
00000000
00000000
00000001
00001000
00000000
00000000
00001000
00000000
00000100
00000000
00000000
00000100
00000000
00000000
00000100
00000001
00000000
00000000
00000100
00000000
00000000
,
00001001
00000000
00000000
00001001
00000000
00000000
00000000
00000000
00000000
00000000
00000000
00000001
00000100
00000000
00001000
00000000
00000000
00000100
00000001
00000000
00000000
00000010
00000000
00000000
,
00000001
00000000
00000000
00000000
00000000
00000001
00000100
00000000
00000000
00000100
00000000
00000000
00001000
00000000
00000000
00000000
00000000
00001000
00010000
00000000
00000000
00010000
00000000
00000000
,
00100000
00000000
00000000
00000000
00000000
00100000
10000000
00000000
00000000
10000000
00000000
00100000
00000000
00000000
00010000
00000000
00000000
00001000
00000100
00000000
00000000
00000001
00000000
00000000
,
00000010
00000000
00000000
00000000
00000000
00000010
00001000
00000000
00000000
00001000
00000000
00010000
00000000
00000000
01000000
00000000
00000000
10000000
00100000
00000000
00000000
00100000
00000000
00000000
,
10010000
00000000
00000000
10010000
00000000
00000000
10000000
00000000
00010000
00000000
00000000
10000000
00010000
00000000
10000000
00000000
00000000
00010000
10000000
00000000
00010000
10000000
00000000
00010000
,
10000000
00000000
00000000
00000000
00000000
00000000
00100000
00000000
00000000
00100000
00000000
00010000
00000000
00000000
00010000
00000010
00000000
00000000
00000000
00000000
00001000
00000000
00000000
00001000
,
00100000
00000000
00000000
00000000
00000000
00000000
00010000
00000000
00000000
00010000
00000000
00000010
00000000
00000000
00000010
00001000
00000000
00000000
00000000
00000000
00100000
00000000
00000000
00100000
,
00010000
00000000
00000000
00000000
00000000
00000000
00000010
00000000
00000000
00000010
00000000
00001000
00000000
00000000
00001000
00100000
00000000
00000000
00000000
00000000
00010000
00000000
00000000
00010000
,
00001000
00000000
00000000
00000000
00000000
00000000
00000100
00000000
00000000
00000000
00000000
00000100
00000001
00000000
00000010
00000000
00000000
00001000
00010000
00000000
00000000
01000000
00000000
00000000
,
00010000
00000000
00000000
00000000
00000000
00000000
00001000
00000000
00000000
00001000
00000000
00000100
00000000
00000000
00000100
00001000
00000000
00000000
00000000
00000000
00010000
00000000
00000000
00010000
,
01000000
00000000
00000000
00000000
00000000
00000000
00010000
00000000
00000000
00010000
00000000
00001000
00000000
00000000
00001000
00000100
00000000
00000000
00000000
00000000
00001000
00000000
00000000
00010000
,
01000000
00000000
00000000
00000000
00000000
00000000
00010000
00000000
00000000
00010000
00000000
00001000
00000000
00000000
00001000
00000100
00000000
00000000
00000000
00000000
00001000
00000000
00000000
00010000
,
01000000
00000000
00000000
10000000
00000000
00000000
00100000
00000000
00000000
00010000
00000000
00001000
00000100
00000000
00000001
00000000
00000000
00000010
00001000
00000000
00000000
00010000
00000000
00010000
,
01000000
00000000
00000000
00000000
00000000
00000000
00000000
00000000
00000000
00000000
00000000
00000000
00000000
00000000
00000000
10000000
00000000
00000000
00000000
00000000
00000000
00000000
00000000
00000000
01000000
00000000
00000000
00000000
00000000
00000000
00000000
00000000
00000000
00000000
00000000
00000000
00000000
00000000
00000000
10000000
00000000
00000000
00000000
00000000
00000000
00000000
00000000
00000000
00000000
00000000
00000000
00000000
00000000
00000000
00000000
00000000
00000000
00000000
00000000
00000000
00000000
00000000
00000000
00000000
00000000
00000000
00000000
00000000
00000000
00000000
00000000
00000000
10000000
00000000
00000000
00000000
00000000
00000000
00000000
00000000
00000000
00000000
00000000
00000000
00000000
00000000
00000000
10000000
00000000
00000000
00000000
00000000
00000000
00000000
00000000
00000000
00000000
00000000
00000000
00000000
00000000
00000000
00000000
00000000
00000000
00000000
00000000
00000000
00000000
00000000
00000000
00000000
00000000
00000000
00000000
00000000
00000000
00000000
00000000
00000000
00010000
00000000
00000000
00000000
00000000
00000000
00000000
00000000
00000000
00000000
00000000
00000000
00000000
00000000
00000000
00010000
00000000
00000000
00000000
00000000
00000000
00000000
00000000
00000000
00000000
00000000
00000000
00000000
00000000
00000000
00000000
00000000
00000000
00000000
00000000
00000000
00000000
00000000
00000000
00000000
00001000
00000000
00000000
00000000
00000000
00000000
00000000
00000000
00001000
00000000
00000000
00000000
00000000
00000000
00000000
00000000
00000000
00000000
00000000
00000000
00000000
00000000
00000000
00000000
00000000
00000000
00000000
00000000
00000000
00000000
00000000
00000000
,
00000001
00000000
00000000
00000000
00000000
00000000
00000000
00000000
00000000
00000000
00000000
00000000
00000000
00000000
00000000
00000100
00000000
00000000
00000000
00000000
00000000
00000000
00000000
00000000
00000001
00000000
00000000
00000000
00000000
00000000
00000000
00000000
00000000
00000000
00000000
00000000
00000000
00000000
00000000
00000100
00000000
00000000
00000000
00000000
00000000
00000000
00000000
00000000
00000000
00000000
00000000
00000000
00000000
00000000
00000000
00000000
00000000
00000000
00000000
00000000
00000000
00000000
00000000
00000000
00000000
00000000
00000000
00000000
00000000
00000000
00000000
00000000
00000000
00000000
00000000
00000000
00000000
00000000
00000000
00000000
00000000
00000000
00000000
00000000
00000000
00000000
00000000
00000000
00000000
00000000
00000000
00000000
00000000
00000000
00000000
00000000
00001000
00000000
00000000
00000000
00000000
00000000
00000000
00000000
00000000
00000000
00000000
00000000
00000000
00000000
00000000
00000000
00010000
00000000
00000000
00000000
00000000
00000000
00000000
00000000
00000000
00000000
00000000
00000000
00000000
00000000
00000000
00000000
00000000
00000000
00000000
00000000
00000000
00000000
00000000
00000000
00100000
00000000
00000000
00000000
00000000
00000000
00000000
00000000
00000000
00000000
00000000
00000000
00000000
00000000
00000000
00000000
00000000
00000000
00000000
00000000
00000000
00000000
00000000
00000000
10000000
00000000
00000000
00000000
00000000
00000000
00000000
00000000
00000000
00000000
00000000
00000000
00000000
00000000
00000000
00000000
00000000
00000000
00000000
00000000
00000000
00000000
00000000
00000000
00000000
00000000
00000000
00000000
00000000
00000000
00000000
00000000
,
01000000
00000000
00000000
00000000
00000000
00000000
00000000
00000000
00000000
00000000
00000000
00000000
00000000
00000000
00000000
10000000
00000000
00000000
00000000
00000000
00000000
00000000
00000000
00000000
01000000
00000000
00000000
00000000
00000000
00000000
00000000
00000000
00000000
00000000
00000000
00000000
00000000
00000000
00000000
10000000
00000000
00000000
00000000
00000000
00000000
00000000
00000000
00000000
00000000
00000000
00000000
00000000
00000000
00000000
00000000
00000000
00000000
00000000
00000000
00000000
00000000
00000000
00000000
00000000
00000000
00000000
00000000
00000000
00000000
00000000
00000000
00000000
00010000
00000000
00000000
00000000
00000000
00000000
00000000
00000000
00000000
00000000
00000000
00000000
00000000
00000000
00000000
00010000
00000000
00000000
00000000
00000000
00000000
00000000
00000000
00000000
00000000
00000000
00000000
00000000
00000000
00000000
00000000
00000000
00000000
00000000
00000000
00000000
00000000
00000000
00000000
00000000
00000000
00000000
00000000
00000000
00000000
00000000
00000000
00000000
00001000
00000000
00000000
00000000
00000000
00000000
00000000
00000000
00000000
00000000
00000000
00000000
00000000
00000000
00000000
00001000
00000000
00000000
00000000
00000000
00000000
00000000
00000000
00000000
00000000
00000000
00000000
00000000
00000000
00000000
00000000
00000000
00000000
00000000
00000000
00000000
00000000
00000000
00000000
00000000
00000001
00000000
00000000
00000000
00000000
00000000
00000000
00000000
00000001
00000000
00000000
00000000
00000000
00000000
00000000
00000000
00000000
00000000
00000000
00000000
00000000
00000000
00000000
00000000
00000000
00000000
00000000
00000000
00000000
00000000
00000000
00000000
,
00001000
00000000
00000000
00000000
00000000
00000000
00000000
00000000
00000000
00000000
00000000
00000000
00000000
00000000
00000000
00000100
00000000
00000000
00000000
00000000
00000000
00000000
00000000
00000000
00001000
00000000
00000000
00000000
00000000
00000000
00000000
00000000
00000000
00000000
00000000
00000000
00000000
00000000
00000000
00000100
00000000
00000000
00000000
00000000
00000000
00000000
00000000
00000000
00000000
00000000
00000000
00000000
00000000
00000000
00000000
00000000
00000000
00000000
00000000
00000000
00000000
00000000
00000000
00000000
00000000
00000000
00000000
00000000
00000000
00000000
00000000
00000000
00000000
00000000
00000000
00000000
00000000
00000000
00000000
00000000
00000000
00000000
00000000
00000000
00000000
00000000
00000000
00000000
00000000
00000000
00000000
00000000
00000000
00000000
00000000
00000000
00001000
00000000
00000000
00000000
00000000
00000000
00000000
00000000
00000000
00000000
00000000
00000000
00000000
00000000
00000000
00000000
01000000
00000000
00000000
00000000
00000000
00000000
00000000
00000000
00000000
00000000
00000000
00000000
00000000
00000000
00000000
00000000
00000000
00000000
00000000
00000000
00000000
00000000
00000000
00000000
00100000
00000000
00000000
00000000
00000000
00000000
00000000
00000000
00000000
00000000
00000000
00000000
00000000
00000000
00000000
00000000
00000000
00000000
00000000
00000000
00000000
00000000
00000000
00000000
00010000
00000000
00000000
00000000
00000000
00000000
00000000
00000000
00000000
00000000
00000000
00000000
00000000
00000000
00000000
00000000
00000000
00000000
00000000
00000000
00000000
00000000
00000000
00000000
00000000
00000000
00000000
00000000
00000000
00000000
00000000
00000000
,
10000000
00000000
00000000
00000000
00000000
01000000
00000000
00000000
00010000
00000000
00000000
00000000
01000000
00000000
00000000
00000000
00000000
00000000
00000000
00000000
00000000
00000000
00000000
00000000
00000000
00000000
00000000
00000000
00000000
01000000
00000000
00000000
00010000
00000000
00000000
00000000
00000000
00001000
00000000
00000000
00000100
00000000
00000000
00000000
00001000
00000000
00000000
00000000
00000000
00000000
00000000
00000000
00000000
00000000
00000000
00000000
00000000
00000000
00000000
00000000
00000000
00001000
00000000
00000000
,
00000100
00000000
00000000
00000000
00000000
00000001
00000000
00000000
00000010
00000000
00000000
00000000
00000001
00000000
00000000
00000000
00000000
00000000
00000000
00000000
00000000
00000000
00000000
00000000
00000000
00000000
00000000
00000000
00000000
00000001
00000000
00000000
00000010
00000000
00000000
00000000
00000000
00001000
00000000
00000000
00010000
00000000
00000000
00000000
00001000
00000000
00000000
00000000
00000000
00000000
00000000
00000000
00000000
00000000
00000000
00000000
00000000
00000000
00000000
00000000
00000000
00001000
00000000
00000000
,
00010000
00000000
00000000
00000000
00000000
00100000
00000000
00000000
10000000
00000000
00000000
00000000
00100000
00000000
00000000
00000000
00000000
00000000
00000000
00000000
00000000
00000000
00000000
00000000
00000000
00000000
00000000
00000000
00000000
00100000
00000000
00000000
10000000
00000000
00000000
00000000
00000000
01000000
00000000
00000000
00010000
00000000
00000000
00000000
01000000
00000000
00000000
00000000
00000000
00000000
00000000
00000000
00000000
00000000
00000000
00000000
00000000
00000000
00000000
00000000
00000000
00000000
00000000
00000000
,
00100000
00000000
00001000
01000000
00000000
00010000
10000000
00000000
00000000
01000000
00000000
00100000
00001000
00000000
00010000
01000000
00000000
10000000
00000000
00000000
00000000
00000000
00000000
00000000
,
10010000
00000000
00000000
00000000
00000000
10000000
01000000
00000000
00000000
00010000
00000000
00001000
00000000
00000000
00001000
00000000
00000000
00001000
00010000
00000000
00000000
00001000
00000000
00000000
,
00000100
00000000
00000000
00000000
00000000
00000000
00000001
00000000
00001000
00000000
00000000
00001001
00000000
00000000
00000000
00000000
00000000
00000100
00000010
00000000
00000100
00000000
00000000
00000001
,
00001000
00000000
00000000
00000000
00000000
00000001
00000100
00000000
00000000
00001000
00000000
00010000
00000000
00000000
00010000
00000000
00000000
00010000
00001000
00000000
00000000
00010000
00000000
00000000
,
01010000
00000000
00000000
01100000
00000000
00000000
00000000
00000000
00000000
00000000
00000000
00000000
00100000
00000000
00001000
00000000
00000000
00010000
00000000
00000000
01000000
10000000
00000000
00000000
,
10010000
00000000
00000000
00000000
00000000
10000000
00100000
00000000
00000000
00010000
00000000
00001000
00000000
00000000
00001000
00000000
00000000
00001000
00010000
00000000
00000000
00001000
00000000
00000000
,
00000010
00000000
00000000
00000000
00000000
00000000
00000001
00000000
00000100
00000000
00000000
00001000
00000000
00000000
00010000
00000000
00000000
00000100
00000000
00000000
00010000
00000000
00000000
00000000
,
00011000
00000000
00000000
00000000
00000000
00000000
00000100
00000000
00001000
00000000
00000000
00000001
00000000
00000000
00000100
00000000
00000000
00000010
00001000
00000000
00001000
00000001
00000100
00001000
,
00010000
00011000
00000000
00000000
00000000
00000000
00000000
00000000
;
