#TITLE:SAMBA DE JANEIRO;
#SUBTITLE:;
#ARTIST:BASS FIST! feat. BOOGIE GIRL;
#TITLETRANSLIT:;
#SUBTITLETRANSLIT:;
#ARTISTTRANSLIT:;
#CREDIT:;
#BANNER:SAMBA DE JANEIRO.png;
#BACKGROUND:SAMBA DE JANEIRO-bg.png;
#LYRICSPATH:;
#CDTITLE:Dance Dance Revolution Solo.png;
#MUSIC:SAMBA DE JANEIRO.ogg;
#OFFSET:0.000;
#SAMPLESTART:18.014;
#SAMPLELENGTH:14.980;
#SELECTABLE:YES;
#DISPLAYBPM:160.000;
#BPMS:0.000=160.242,16.000=159.432,20.000=160.102,28.000=160.002,48.000=162.570,52.000=160.050,120.000=160.101,132.000=163.864,136.000=160.088,152.000=153.945,156.000=160.036,188.000=157.504,192.000=160.015;
#STOPS:;
#BGCHANGES:;

//---------------dance-single - ----------------
#NOTES:
     dance-single:
     :
     Easy:
     3:
     0.310,0.323,0.091,0.000,0.000:
0000
0000
0000
0000
,
0000
0000
0000
0000
,
0000
0000
0000
0000
,
0000
0000
0000
0000
,
0000
0000
0000
0000
,
1001
0000
0000
0000
,
0010
0000
0000
0000
,
0010
0000
1000
0000
,
0100
0000
0001
0000
,
0010
0100
0001
1000
,
0001
0010
1000
0010
,
0001
0010
1000
0010
,
1001
0010
0010
0000
,
1000
0001
0010
1000
,
0100
0010
0001
0010
,
0001
1000
0001
0100
,
0100
0010
1000
0010
,
1000
0001
1000
0100
,
0100
0010
1000
0100
,
0001
0010
1000
0100
,
1000
1000
0001
0001
,
1001
0010
0010
0000
,
1000
0010
0001
0010
,
1000
0001
0010
1000
,
1000
0010
0001
1000
,
0100
1000
0010
0001
,
0001
0010
1000
0001
,
0100
0010
0010
1000
,
0001
1000
0001
1000
,
0001
0000
0000
0010
,
0010
0000
0001
0000
,
1000
0001
1000
0100
,
0100
0000
1000
0000
,
0001
1000
0001
0010
,
0010
0000
1000
0000
,
0001
1000
0001
0100
,
0100
0000
0001
0000
,
1000
0001
1000
1001
,
0000
0010
0010
0000
,
0010
1000
0010
0001
,
0100
0010
0100
0001
,
0001
1000
0001
0100
,
0100
0010
0100
1000
,
1000
0001
1000
0100
,
0100
0010
1000
0100
,
0001
1000
0001
0100
,
1000
1000
0001
0001
,
1001
0010
0010
0000
,
1000
0010
0001
0010
,
1000
0001
0001
0100
,
0100
0001
1000
0001
,
0100
1000
1000
0010
,
0010
1000
0001
1000
,
0100
0010
0100
0001
,
1000
0010
0001
1000
,
0001
1000
0100
0100
,
1001
0010
0110
0100
,
1001
0000
0000
0000
;

//---------------dance-single - ----------------
#NOTES:
     dance-single:
     :
     Medium:
     5:
     0.399,0.484,0.373,0.000,0.000:
0000
0000
0000
0000
,
0000
0000
0000
0000
,
0000
0000
0000
0000
,
0000
0000
0000
0000
,
0000
0000
0000
0000
,
1001
0000
0000
0000
0000
0000
0000
0001
,
1000
0000
0000
0000
0000
0000
0000
0010
,
0100
0000
0010
1000
,
0100
0001
0010
1000
,
0100
0001
0010
1000
,
0100
0001
0010
1000
,
0100
1001
0110
1001
,
1001
0000
0010
0000
0100
0000
0000
0001
,
1000
0010
1000
0001
,
0010
0010
0001
1000
,
0100
0000
0010
0100
1000
0000
0001
0000
,
0100
0010
1000
0001
,
0100
0000
0010
0100
0001
0000
1000
0000
,
0100
0010
0001
0100
,
0010
1000
0001
0100
,
0001
1000
0110
1001
,
1001
0000
0010
0000
0100
0000
0000
0001
,
1000
0001
0010
0100
,
1000
0010
0010
1000
,
0001
0000
0010
0001
0100
0000
0100
0000
,
0010
1000
1000
0001
,
1000
0000
0010
1000
0100
0000
0100
0000
,
0010
0001
1000
0001
,
0100
0000
0001
1000
0001
0000
1000
0001
,
1000
0000
1001
0000
0000
0000
0100
1000
,
0001
0000
1001
0000
,
1100
0000
0101
0000
1001
0000
0010
1000
,
0010
0000
1001
0000
,
1010
0000
0101
0000
1001
0000
0100
1000
,
0001
0000
1001
0000
,
1100
0000
0101
0000
1001
0000
0010
1000
,
0010
0000
1001
0000
,
0110
1001
1001
0110
,
0000
0000
0010
0000
0100
0000
0000
0001
,
1000
0010
1000
0001
,
0100
0010
1000
0001
,
0100
0000
0010
1000
0001
0000
1000
0000
,
0100
0010
0001
1000
,
0100
0000
0010
0001
1000
0000
0001
0000
,
0100
0010
1000
0100
,
0010
0001
1000
0100
,
0001
1000
0110
1001
,
1001
0000
0010
0000
0100
0000
0000
0001
,
1000
0001
0010
0100
,
1000
0000
0010
0100
0001
0000
1000
0000
,
0001
0000
0010
0100
1000
0000
1000
0000
,
0001
0000
0010
0001
0100
0000
0100
0000
,
0001
0000
0010
0001
0100
0000
0100
0000
,
0010
1000
1000
0001
,
0100
0000
0001
1000
0001
0000
1000
0001
,
1000
1001
0110
1001
,
1001
0000
0100
0010
0001
1000
0000
1000
,
0100
0000
0000
0000
;

//---------------dance-single - ----------------
#NOTES:
     dance-single:
     :
     Hard:
     7:
     0.540,0.581,0.826,0.000,0.006:
0000
0000
0000
0000
,
0000
0000
0000
0000
,
0000
0000
0000
0000
,
0000
0000
0000
0000
,
0010
0001
1000
0100
1000
0001
0100
0000
,
1001
0000
0000
0000
0000
0000
0000
0010
,
0100
0000
0000
0000
0000
0000
0000
1000
,
0100
0000
0011
0001
,
0110
1000
1100
0101
,
0010
1000
0100
0001
,
0010
1000
0100
0001
,
0010
0001
1000
0001
0100
0001
0010
0001
,
1001
0000
1100
0000
0101
0000
0000
0010
,
0100
0000
0010
0100
1000
0000
0101
0000
,
1100
0010
0101
1000
,
0100
0000
0010
0100
1000
0000
0101
0000
,
1100
0010
0101
1000
,
0100
0000
0010
0100
1000
0000
0101
0000
,
1100
0010
1001
0100
,
0100
0000
0010
0100
0001
0000
1100
0000
,
0101
0000
1001
0000
0010
0001
0100
0010
,
1001
0000
1100
0000
0101
0000
0000
0010
,
0100
0000
0010
1000
0100
0000
0011
0000
,
1100
0010
1001
1000
,
0001
0000
0010
0001
0100
0000
1010
0000
,
0101
0010
1001
0001
,
0100
0000
0010
1000
0100
0000
0011
0000
,
1010
0100
1001
0100
,
0100
0000
1000
0100
1100
0000
0001
0100
,
0101
0000
0000
0000
0000
0000
0010
1000
,
0010
1000
0010
1000
0001
1000
0001
1000
,
0001
0010
0100
1000
0001
0000
0010
0100
,
0010
0100
0010
0100
0010
0001
0010
0001
,
0010
0001
1000
0001
0100
0000
0010
1000
,
0010
1000
0010
1000
0001
1000
0001
1000
,
0001
0010
0100
1000
0001
0000
0010
0001
,
0010
0001
0010
0001
1000
0010
1000
0010
,
1000
0010
0100
0001
0010
0000
1001
0000
,
0000
0000
0110
0000
0101
0000
0000
0010
,
0100
0000
0010
0100
1000
0000
0101
0000
,
1100
0010
1100
0001
,
0100
0000
0010
0100
0001
0000
1010
0000
,
1100
0010
0101
1000
,
0100
0000
0010
0100
1000
0000
0011
0000
,
0101
0010
1001
0110
,
0100
0000
0010
0100
0001
0000
1100
0000
,
0110
1001
0110
0110
,
0001
0000
1100
0000
0101
0000
0000
0010
,
0100
0000
0010
1000
0100
0000
0011
0000
,
1100
0001
0101
1000
,
0001
0000
0010
0001
0100
0000
1010
0000
,
0101
0010
1001
0001
,
0100
0000
0010
1000
0100
0000
0011
0000
,
1100
0010
1001
0110
,
1001
0000
0010
0100
1001
0000
0010
0100
,
1001
1010
0101
0011
,
1100
0000
0000
0000
0000
0000
0100
0000
0001
0000
0000
0010
0000
0000
1001
0000
,
0110
0000
0000
0000
;

//---------------dance-solo - ----------------
#NOTES:
     dance-solo:
     :
     Easy:
     4:
     0.327,0.323,0.091,0.000,0.000:
000000
000000
000000
000000
,
000000
000000
000000
000000
,
000000
000000
000000
000000
,
000000
000000
000000
000000
,
000000
000000
000000
000000
,
100001
000000
000000
000000
000000
000000
000000
100000
,
010000
000000
000000
000000
000000
000000
000000
000001
,
000010
000000
100000
000000
,
001000
000000
000001
000000
,
000100
001000
000001
100000
,
000010
000100
010000
000100
,
000010
000100
010000
000010
,
100001
000000
000100
000000
000100
000000
000000
000010
,
010000
000001
000100
100000
,
001000
000100
000001
000010
,
000010
100000
000001
001000
,
001000
000100
100000
010000
,
010000
000001
100000
001000
,
001000
000100
100000
001000
,
000001
000010
010000
001000
,
100000
100000
000001
000001
,
010010
000000
000100
000000
000100
000000
000000
000010
,
010000
000100
000001
000100
,
100000
000010
000010
100000
,
100000
010000
000001
100000
,
001000
010000
010000
000001
,
000001
000010
100000
000001
,
001000
000100
000100
010000
,
000010
100000
000001
010000
,
000010
000000
000000
000000
000000
000000
000100
100000
,
000100
000000
000001
000000
,
100000
000000
000001
000000
100000
000000
001000
000001
,
001000
000000
100000
000000
,
000010
000000
010000
000000
000010
000000
000100
000001
,
000100
000000
100000
000000
,
000001
000000
100000
000000
000001
000000
001000
100000
,
001000
000000
000001
000000
,
010000
000010
010000
010010
,
000000
000000
000100
000000
000100
000000
000000
000010
,
010000
100000
000100
000001
,
001000
000100
000010
000001
,
000001
010000
000001
001000
,
001000
000100
010000
100000
,
100000
000010
100000
001000
,
001000
000100
100000
001000
,
000001
010000
000010
001000
,
100000
100000
000001
000001
,
010010
000000
000100
000000
000100
000000
000000
000010
,
010000
000010
000001
010000
,
100000
000001
000001
001000
,
001000
000010
100000
000001
,
001000
100000
100000
000100
,
000100
010000
000001
100000
,
001000
000100
001000
000001
,
100000
000100
000001
010000
,
000010
010000
001000
001000
,
010010
000100
001100
001000
,
100001
000000
000000
000000
;

//---------------dance-solo - ----------------
#NOTES:
     dance-solo:
     :
     Medium:
     6:
     0.401,0.484,0.385,0.000,0.000:
000000
000000
000000
000000
,
000000
000000
000000
000000
,
000000
000000
000000
000000
,
000000
000000
000000
000000
,
000000
000000
000000
000000
,
010010
000000
000000
000000
000000
000000
000000
000001
,
100000
000000
000000
000000
000000
000000
000000
000100
,
001000
000000
000010
000001
,
010000
100000
000100
100000
,
001000
000001
000100
100000
,
001000
000001
000100
100000
,
000001
010010
010100
000110
,
010010
000000
000100
000000
001000
000000
000000
000001
,
100000
000010
000001
010000
,
100000
000100
000010
100000
,
001000
000000
000100
000010
000001
000000
000001
000000
,
001000
000100
010000
000001
,
001000
000000
000100
010000
100000
000000
100000
000000
,
001000
000100
100000
001000
,
000001
000100
100000
001000
,
000001
100000
010100
000110
,
010010
000000
000100
000000
001000
000000
000000
000001
,
100000
000001
000010
100000
,
010000
000100
000100
010000
,
000010
000000
000100
000010
001000
000000
001000
000000
,
100000
000100
000100
000010
,
010000
000000
000100
010000
001000
000000
001000
000000
,
000001
001000
010000
000010
,
001000
000000
010000
000001
100000
000000
000010
100000
,
000001
000000
100001
000000
000000
000000
001000
100000
,
000001
000000
100001
000000
,
101000
000000
001001
000000
010010
000000
000100
000010
,
010000
000000
100001
000000
,
100100
000000
000101
000000
100001
000000
001000
100000
,
000001
000000
100001
000000
,
101000
000000
001001
000000
010010
000000
000100
010000
,
000010
000000
100001
000000
,
100100
000101
100001
001100
,
000000
000000
000100
000000
001000
000000
000000
000001
,
100000
000010
000001
010000
,
100000
000100
000010
100000
,
001000
000000
000100
000010
100000
000000
100000
000000
,
001000
000100
010000
000001
,
001000
000000
000100
010000
000001
000000
000001
000000
,
001000
000100
100000
001000
,
000001
000100
100000
001000
,
000001
100000
010100
000110
,
010010
000000
000100
000000
001000
000000
000000
000001
,
100000
000001
000010
100000
,
010000
000000
000100
010000
100000
000000
100000
000000
,
000001
000000
000100
000010
000001
000000
000001
000000
,
100000
000000
000100
010000
001000
000000
001000
000000
,
000010
000000
000100
000010
001000
000000
001000
000000
,
010000
001000
010000
000010
,
001000
000000
010000
000001
100000
000000
000010
100000
,
000001
100001
010100
000110
,
010010
000000
100001
000010
010000
000001
000000
100000
,
001000
000000
000000
000000
;

//---------------dance-solo - ----------------
#NOTES:
     dance-solo:
     :
     Hard:
     8:
     0.545,0.581,0.826,0.000,0.000:
000000
000000
000000
000000
,
000000
000000
000000
000000
,
000000
000000
000000
000000
,
000000
000000
000000
000000
,
000100
000001
100000
001000
010000
000010
001000
000000
,
010010
000000
000000
000000
000000
000000
000000
000010
,
001000
000000
000000
000000
000000
000000
000000
010000
,
001000
000000
000110
000001
,
010100
100000
101000
001001
,
000100
100000
001000
000001
,
000100
100000
001000
000001
,
010000
100000
000010
000001
000100
100000
000100
000001
,
100001
000000
101000
000000
001001
000000
000000
000100
,
001000
000000
000100
010000
100000
000000
001001
000000
,
101000
000010
010001
100000
,
001000
000000
000100
000010
000001
000000
101000
000000
,
001001
010000
100010
000001
,
001000
000000
000100
010000
100000
000000
001001
000000
,
101000
000100
010010
001000
,
001000
000000
000100
000010
000001
000000
101000
000000
,
001001
000000
100001
000000
010000
000010
001000
000100
,
100001
000000
101000
000000
001001
000000
000000
000100
,
001000
000000
010000
100000
001000
000000
000101
000000
,
100100
001000
010010
100000
,
000010
000000
000010
000001
001000
000000
100100
000000
,
000101
001000
010010
000001
,
001000
000000
010000
100000
001000
000000
000101
000000
,
100100
001000
010010
001000
,
001000
000000
010000
001000
101000
000000
000010
001000
,
001001
000000
000000
000000
000000
000000
000100
100000
,
000100
100000
000100
100000
000010
010000
000010
010000
,
000001
000100
001000
100000
000001
000000
010000
100000
,
010000
100000
010000
100000
000010
000001
000010
000001
,
000100
000001
100000
000001
001000
000000
000100
000001
,
000100
000001
000100
000001
010000
000010
010000
000010
,
100000
000100
001000
000001
100000
000000
000010
000001
,
000010
000001
000010
000001
010000
100000
010000
100000
,
000100
100000
000001
100000
001000
000000
010010
000000
,
000000
000000
011000
000000
001010
000000
000000
000100
,
001000
000000
000100
010000
100000
000000
001010
000000
,
011000
010000
100010
000001
,
001000
000000
000100
000010
000001
000000
100100
000000
,
011000
000010
010001
100000
,
001000
000000
000100
010000
100000
000000
000101
000000
,
001010
000100
010010
001100
,
001000
000000
000100
000010
000001
000000
011000
000000
,
001010
000000
100001
000000
010100
000010
000110
010000
,
000010
000000
011000
000000
001010
000000
000000
000100
,
001000
000000
010000
100000
001000
000000
000101
000000
,
100100
001000
010010
100000
,
000010
000000
000010
000001
001000
000000
010100
000000
,
000101
001000
010010
000001
,
001000
000000
010000
100000
001000
000000
000110
000000
,
100100
001000
010010
001100
,
100001
000000
010000
001000
100001
000000
000010
001000
,
100001
100100
000101
001010
,
011000
000000
000100
001000
000010
010000
000000
100001
,
001100
000000
000000
000000
;

//---------------dance-double - Edit by silenttype01----------------
#NOTES:
     dance-double:
     Edit by silenttype01:
     Easy:
     5:
     0.265,0.323,0.091,0.000,0.000:
00000000
00000000
00000000
00000000
,
00000000
00000000
00000000
00000000
,
00000000
00000000
00000000
00000000
,
00000000
00000000
00000000
00000000
,
00000000
00000000
00000000
00000000
,
00001001
00000000
00000000
00000000
,
00000100
00000000
00000000
00000000
,
00000100
00000000
00000100
00000000
,
00000100
00000000
00000100
00000000
,
00000100
00000010
00001000
00000001
,
00001000
00000100
00000010
00000100
,
00010000
00001000
00010000
00001000
,
00011000
00000000
00000000
00000000
,
00010000
00001000
00010000
01000000
,
10000000
00000000
00000000
00000000
,
10000000
00100000
00010000
00100000
,
10000000
00000000
00000000
00000000
,
00100000
00010000
00001000
00010000
,
00100000
00000000
00000000
00000000
,
00010000
00001000
00000010
00001000
,
00010000
00010000
00001000
00001000
,
00011000
00000000
00000000
00000000
,
00001000
00000100
00001000
00010000
,
00001000
00000000
00000100
00000000
,
00000001
00000010
00001000
00000010
,
00000001
00000000
00000010
00000000
,
00001000
00000010
00000001
00000010
,
00001000
00000000
00010000
00000000
,
00001000
00001000
00010000
00010000
,
00011000
00000000
00000000
00000000
,
00010000
00000010
00010000
00000000
,
00001000
00100000
00001000
00000000
,
01000000
00010000
00100000
00000000
,
01000000
10000000
00100000
00000000
,
00010000
00000100
00010000
00000000
,
00001000
01000000
00001000
00000000
,
00000100
00000001
00000010
00000000
,
00000100
00001000
00000010
00010000
,
00011000
00000000
00000000
00000000
,
00001000
00000010
00001000
00010000
,
00100000
00010000
00001000
00000000
,
00010000
00100000
00010000
00001000
,
00010000
00100000
00010000
00000000
,
00100000
10000000
01000000
10000000
,
00100000
10000000
01000000
00000000
,
10000000
01000000
00010000
01000000
,
00010000
00010000
00001000
00001000
,
00011000
00000000
00000000
00000000
,
00001000
00000100
00000001
00000100
,
00001000
00000100
00000100
00000001
,
00000010
00001000
00010000
00001000
,
00000010
00001000
00001000
00010000
,
01000000
00010000
01000000
10000000
,
00100000
10000000
10000000
00100000
,
00010000
00001000
00000100
00001000
,
00010000
00001000
00001000
00010000
,
00011000
00000000
00000000
00000000
,
00011000
00000000
00000000
00000000
;

//---------------dance-double - Edit by silenttype01----------------
#NOTES:
     dance-double:
     Edit by silenttype01:
     Medium:
     7:
     0.487,0.516,0.204,0.453,0.006:
00000000
00000000
00000000
00000000
,
00000000
00000000
00000000
00000000
,
00000000
00000000
00000000
00000000
,
00000000
00000000
00000000
00000000
,
00000000
00000000
00000000
00000000
,
00001001
00000000
00000000
00000000
00000000
00000000
00000000
00000001
,
00001000
00000000
00000000
00000000
00000000
00000000
00000000
00001000
,
00010000
00000000
00000000
00010000
10000000
00000000
00000000
10000000
,
00010000
00000000
00000000
00010000
00001000
00000000
00000000
00001000
,
00000001
00001000
00000100
00000001
,
00000010
00001000
00000100
00000001
,
00000010
00000110
00000110
00000110
,
00000110
00000000
00000200
00000000
00000320
00000000
00000030
00001000
,
00000001
00000100
00000001
00001000
,
00000100
00000200
00020300
00032000
,
00103000
00000000
01000000
00100000
00010000
00000000
10000000
00000000
,
00100000
02000000
03020000
20030000
,
30100000
00000000
01000000
00100000
10000000
00000000
00010000
00000000
,
00100000
00002000
00023000
00030020
,
00000130
00000001
00001000
00000010
,
00001000
00000001
00000110
00001001
,
00001001
00000000
00000200
00000000
00000320
00000000
00000030
00001000
,
00000001
00001000
00000100
00000010
,
00000001
00000100
00000200
00002300
,
00013000
00000000
00000100
00001000
00000010
00000000
00010000
00000000
,
00010000
00001000
00002000
02003000
,
03010000
00000000
01000000
00010000
00100000
00000000
00100000
00000000
,
01000000
20000000
30020000
20030000
,
30100000
00000000
01000000
00010000
01000000
00000000
00100000
10000000
,
00100000
00000000
00000000
00000000
00000000
00000000
01000000
10000000
,
01000000
10000000
01000000
10000000
00010000
10000000
00010000
10000000
,
00010000
01000000
00100000
00010000
00001000
00000000
00000100
00000001
,
00000100
00000001
00000100
00000001
00001000
00000001
00001000
00000001
,
00001000
00000100
00000010
00001000
00010000
00000000
01000000
00010000
,
01000000
00010000
01000000
00010000
00001000
00000010
00001000
00000010
,
00001000
00000010
00000001
00000100
00001000
00000000
00000100
00001000
,
00000100
00001000
00000100
00001000
00010000
00100000
00010000
00100000
,
00010000
00100000
10000000
01000000
00010000
00000000
01100000
00000000
,
00000000
00000000
02000000
00000000
03200000
00000000
00300000
00010000
,
10000000
01000000
10000000
00010000
,
01000000
02000000
03002000
00023000
,
00030010
00000000
00000100
00000010
00001000
00000000
00000001
00000000
,
00000010
00000200
00002300
00003002
,
00000013
00000000
00000100
00000010
00000001
00000000
00001000
00000000
,
00000010
00020000
00032000
00203000
,
01300000
10000000
00010000
00100000
,
00010000
10000000
01100000
10010000
,
10010000
00000000
02000000
00000000
03200000
00000000
00300000
00010000
,
10000000
00010000
01000000
00100000
,
10000000
01000000
02000000
03020000
,
00031000
00000000
01000000
00010000
00100000
00000000
00001000
00000000
,
00001000
00010000
00020000
00030200
,
00001300
00000000
00000100
00001000
00000010
00000000
00000010
00000000
,
00000100
00000002
00002003
00003002
,
00000013
00000000
00000100
00001000
00000100
00000000
00010000
00000100
,
00010000
00010100
01001000
00010100
,
01001000
00000000
00000000
00000000
00000000
00000000
00100000
00000000
00010000
00000000
00000000
01000000
00000000
00000000
10010000
00000000
,
01100000
00000000
00000000
00000000
;

//---------------dance-single - Edit by silenttype01----------------
#NOTES:
     dance-single:
     Edit by silenttype01:
     Challenge:
     9:
     0.715,0.839,0.441,0.283,0.453: // measure 1
0000
0000
0000
0000
,  // measure 2
0000
0000
0000
0000
,  // measure 3
0000
0000
0000
0000
,  // measure 4
0000
0000
0000
0000
,  // measure 5
0100
0010
0000
1000
0000
0001
0000
0100
0000
0001
0000
1000
0100
0000
0010
0000
,  // measure 6
1001
0000
0000
0000
0000
0000
0000
0100
,  // measure 7
0001
0000
0000
0000
0000
0000
0000
1000
,  // measure 8
0010
0000
0000
0100
0001
0000
0000
1000
,  // measure 9
0010
0000
0000
0100
0001
0000
0000
1000
,  // measure 10
0010
1010
1100
0101
,  // measure 11
0011
1010
1100
0101
,  // measure 12
0101
0101
0110
0110
1100
1100
1001
1001
,  // measure 13
0110
0000
0000
0000
,  // measure 14
1000
0100
0001
0100
2000
0000
3100
0000
,  // measure 15
0110
0000
0001
0010
0200
0000
2300
0000
,  // measure 16
3001
0100
1000
0100
0002
0000
0103
0000
,  // measure 17
0110
0000
1000
0010
0200
0000
0301
0000
,  // measure 18
1000
0100
0010
0100
2000
0000
3100
0000
,  // measure 19
0110
0000
0001
0010
0200
0000
2300
0000
,  // measure 20
3001
0100
1000
0100
0001
0010
0100
0000
,  // measure 21
1001
0000
0000
0000
0110
0000
0000
0000
1001
0000
0000
0110
0000
0000
1001
0000
,  // measure 22
0110
0000
0000
0000
,  // measure 23
0001
0010
0001
0000
0010
0000
0100
0000
1000
0000
1000
0000
0001
0100
0020
0000
,  // measure 24
0000
0000
0130
0000
0001
0000
1000
0000
0001
0000
0001
0000
1000
0100
0020
0000
,  // measure 25
0000
0000
0031
1000
0001
0000
0000
0000
1000
0000
0010
0000
0010
0100
0002
0000
,  // measure 26
0000
0000
0103
0000
0010
0000
1000
0000
0001
0000
0010
0000
0010
0100
2000
0000
,  // measure 27
0000
0001
3100
0001
0100
0000
0000
0000
0001
0000
0001
0000
0100
0010
0200
0000
,  // measure 28
0000
0000
0310
0000
1000
0000
0001
0000
1000
0000
1000
0000
0100
0010
0200
0000
,  // measure 29
0000
1000
0301
1000
0001
0000
1000
0000
0010
0000
0010
0000
0100
0010
0100
0000
,  // measure 30
2002
0000
3003
0000
,  // measure 31
1000
0100
1000
0000
1000
0000
1000
0000
0010
0000
0100
0000
0010
0000
0100
0000
,  // measure 32
0001
0100
0001
0000
0001
0000
0001
0000
0010
0000
0100
0000
0010
0000
0100
0000
,  // measure 33
1000
0100
1000
0000
1000
0000
1000
0000
0010
0000
0100
0000
0010
0000
0100
0000
,  // measure 34
0001
0100
0001
0000
0001
0000
0001
0000
0010
0000
0100
0000
0010
0000
0100
0000
,  // measure 35
1000
0200
0010
0000
0010
0300
0010
0000
0001
0000
1000
0000
0100
0000
0010
0000
,  // measure 36
0001
0200
0010
0000
0010
0300
0010
0000
1000
0000
0001
0000
0010
0000
0100
0000
,  // measure 37
1000
0200
0010
0000
0010
0300
0010
0000
0001
0000
0100
0000
1000
0000
0100
0000
,  // measure 38
0001
0100
0001
0000
1000
0010
1000
0000
0001
0100
0001
0000
1000
0001
1000
0001
,  // measure 39
1000
0000
0000
0000
,  // measure 40
1000
0100
0010
1000
0100
0010
1000
0000
,  // measure 41
1001
0000
0001
0100
0010
0100
0001
0000
,  // measure 42
0101
0000
0000
0000
0100
0000
0010
0000
2000
0000
0000
0000
0000
3001
0000
0000
,  // measure 43
0011
2000
3200
0320
,  // measure 44
0031
0100
0010
0001
0100
0010
0001
0000
,  // measure 45
1001
0000
1000
0100
0010
0100
1000
0100
,  // measure 46
0001
1000
0010
0001
1000
0100
0010
0001
,  // measure 47
0011
0000
0000
0000
1010
0000
0000
0000
0011
0000
0000
1000
0010
0000
1000
0000
,  // measure 48
0011
0000
0002
0000
2000
0003
0000
3001
,  // measure 49
1000
0000
0001
0010
0001
0010
0000
0010
0001
0000
1000
0010
1000
0010
0000
0010
,  // measure 50
0100
0000
0001
1000
0001
1000
0000
1000
0100
0000
1000
0001
1000
0001
0000
0001
,  // measure 51
0100
0000
0010
1000
0010
1000
0000
1000
0001
0000
0100
0001
0100
0001
0000
0001
,  // measure 52
0010
0000
0100
1000
0100
1000
0000
1000
0100
0000
0010
0001
0010
0001
0000
0001
,  // measure 53
1000
0000
0001
0010
0001
0010
0000
0010
0100
0000
0001
0100
0001
0100
0000
0100
,  // measure 54
1000
0000
0010
1000
0010
1000
0000
1000
0010
0000
0100
1000
0100
1000
0000
1000
,  // measure 55
0100
0000
0010
1000
0010
1000
0000
1000
0001
0000
0010
0001
0010
0001
0000
0000
,  // measure 56
1001
0000
1000
0100
1000
0000
0001
0100
0001
0000
1000
0100
1000
0000
0001
0100
,  // measure 57
0001
0000
0000
0000
0000
0000
0011
0000
1000
0000
0000
0011
0000
0000
1000
0000
,  // measure 58
0011
0000
0000
0000
;

//---------------dance-double - Edit by silenttype01----------------
#NOTES:
     dance-double:
     Edit by silenttype01:
     Hard:
     9:
     0.698,0.806,0.306,0.294,0.453:
00000000
00000000
00000000
00000000
,
00000000
00000000
00000000
00000000
,
00000000
00000000
00000000
00000000
,
00000000
00000000
00000000
00000000
,
00000100
00000010
00000000
00001000
00000000
00000001
00000000
00000100
00000000
00000001
00000000
00001000
00000100
00000000
00000010
00000000
,
00001001
00000000
00000000
00000000
00000000
00000000
00000000
00000100
,
00000001
00000000
00000000
00000000
00000000
00000000
00000000
00001000
,
00000010
00000000
00000000
00010000
00001000
00000000
00000000
01000000
,
00100000
00000000
00000000
10000000
00010000
00000000
00000000
10000000
,
00100000
11000000
01010000
00011000
,
00001100
00000101
00000011
00001010
,
00000010
00001000
00010000
01000000
10000000
00100000
00010000
00001000
,
00011000
00000000
00000000
00000000
,
10000000
01000000
00100000
01000000
20000000
00000000
31000000
00000000
,
01100000
00000000
00010000
00100000
02000000
00000000
13000000
00000000
,
10000000
00100000
00010000
00001000
00020000
00000000
00031000
00000000
,
00011000
00000000
00000100
00010000
00000020
00000000
00020030
00000000
,
00031000
00000100
00000010
00000100
00002000
00000000
00003100
00000000
,
00000110
00000000
00000001
00000010
00000100
00000000
00000011
00000000
,
00000001
00000010
00001000
00010000
00001000
00000010
00000001
00000000
,
00001001
00000000
00000000
00000000
00000110
00000000
00000000
00000000
00001001
00000000
00000000
00000010
00000100
00000000
00000010
00000000
,
00001001
00000000
00000000
00000000
,
00000001
00000010
00000001
00000000
00000010
00000000
00000100
00000000
00001000
00000000
00001000
00000000
00000001
00000100
00000020
00000000
,
00000000
00000000
00000130
00000000
00001000
00000000
00010000
00000000
00001000
00000000
00001000
00000000
00100000
00001000
00020000
00000000
,
00000000
00000000
00031000
00100000
00001000
00000000
00000000
00000000
00010000
00000000
00100000
00000000
00100000
01000000
00020000
00000000
,
00000000
00000000
10030000
00000000
01000000
00000000
00100000
00000000
00010000
00000000
00100000
00000000
00100000
01000000
20000000
00000000
,
00000000
00010000
31000000
00010000
01000000
00000000
00000000
00000000
00010000
00000000
00010000
00000000
10000000
00100000
20000000
00000000
,
00000000
00000000
31000000
00000000
00010000
00000000
00001000
00000000
00010000
00000000
00010000
00000000
00000010
00001000
00000020
00000000
,
00000000
00010000
00001030
00010000
00001000
00000000
01000000
00000000
00100000
00000000
00100000
00000000
01000000
00100000
01000000
00000000
,
20020000
00000000
30030000
00000000
,
10000000
01000000
10000000
00000000
10000000
00000000
10000000
00000000
00100000
00000000
01000000
00000000
00100000
00000000
00010000
00000000
,
00001000
00010000
00001000
00000000
00001000
00000000
00001000
00000000
00010000
00000000
00000010
00000000
00000100
00000000
00000010
00000000
,
00001000
00000100
00001000
00000000
00001000
00000000
00001000
00000000
00000001
00000000
00000010
00000000
00001000
00000000
00000010
00000000
,
00000100
00010000
00000100
00000000
00000100
00000000
00000100
00000000
00010000
00000000
00000010
00000000
00001000
00000000
00000100
00000000
,
00010000
00002000
01000000
00000000
01000000
00003000
01000000
00000000
00100000
00000000
10000000
00000000
00100000
00000000
00010000
00000000
,
00001000
02000000
00100000
00000000
00100000
03000000
00100000
00000000
00010000
00000000
00001000
00000000
00000100
00000000
00000010
00000000
,
00001000
00000200
00010000
00000000
00010000
00000300
00010000
00000000
00001000
00000000
00000010
00000000
00000001
00000000
00000100
00000000
,
00001000
00010000
00001000
00000000
01000000
00010000
01000000
00000000
00100000
10000000
00100000
00000000
10000000
00010000
10000000
00010000
,
10000000
00000000
00000000
00000000
,
00010000
00100000
01000000
00010000
00100000
01000000
00020000
00000000
,
00031000
00000000
00001000
00000010
00000001
00000010
00002000
00000000
,
00003010
00000000
00000000
00000000
00000010
00000000
00000100
00000000
00000002
00000000
00000000
00000000
00000000
00000103
00000000
00000000
,
00001100
00000002
00000023
00002030
,
00003010
00000100
00001000
00000010
00000100
00001000
00020000
00000000
,
00031000
00000000
00010000
00100000
10000000
00100000
00010000
00100000
,
10000000
01000000
00010000
00001000
00000010
00000001
00000100
00001000
,
00001100
00000000
00000000
00000000
00011000
00000000
00000000
00000000
00001100
00000000
00000000
00010000
00001000
00000000
00010000
00000000
,
00101000
00000000
00020000
00000000
00032000
00000000
00000000
00013000
,
00001000
00000000
01000000
00010000
01000000
00010000
00000000
00010000
00100000
00000000
00001000
00010000
00001000
00010000
00000000
00010000
,
00001000
00000000
00000100
00000010
00000100
00000010
00000000
00000010
00001000
00000000
00000100
00010000
00000100
00010000
00000000
00010000
,
00001000
00000000
00100000
00001000
00100000
00001000
00000000
00001000
00010000
00000000
01000000
00100000
01000000
00100000
00000000
00100000
,
01000000
00000000
10000000
01000000
10000000
01000000
00000000
01000000
00100000
00000000
00001000
00010000
00001000
00010000
00000000
00010000
,
00001000
00000000
00000010
00000100
00000010
00000100
00000000
00000100
00001000
00000000
00000001
00000010
00000001
00000010
00000000
00000010
,
00000001
00000000
00000100
00000001
00000100
00000001
00000000
00000001
00000100
00000000
00001000
00010000
00001000
00010000
00000000
00010000
,
00001000
00000000
00010000
00100000
00010000
00100000
00000000
00100000
10000000
00000000
01000000
00010000
01000000
00010000
00000000
00000000
,
01010000
00000000
01000000
00100000
01000000
00000000
00010000
00001000
00010000
00000000
01000000
00100000
01000000
00000000
10000000
00010000
,
10000000
00000000
00000000
00000000
00000000
00000000
10100000
00000000
00010000
00000000
00000000
00001100
00000000
00000000
00000010
00000000
,
00001001
00000000
00000000
00000000
;
