#TITLE:SYNCHRONIZED LOVE;
#SUBTITLE:(Red Monster Hyper Mix);
#ARTIST:JOE RINOIE;
#TITLETRANSLIT:;
#SUBTITLETRANSLIT:;
#ARTISTTRANSLIT:;
#CREDIT:;
#BANNER:SYNCHRONIZED LOVE (Red Monster Hyper Mix).png;
#BACKGROUND:SYNCHRONIZED LOVE (Red Monster Hyper Mix)-bg.png;
#LYRICSPATH:;
#CDTITLE:DanceDanceRevolution4thMixPLUS.png;
#MUSIC:SYNCHRONIZED LOVE (Red Monster Hyper Mix).mp3;
#OFFSET:-0.068;
#SAMPLESTART:48.040;
#SAMPLELENGTH:14.000;
#SELECTABLE:YES;
#DISPLAYBPM:150.000;
#BPMS:0.000=150.000;
#STOPS:;
#BGCHANGES:;

//---------------dance-single - ----------------
#NOTES:
     dance-single:
     :
     Beginner:
     1:
     0.198,0.244,0.106,0.000,0.000:
0000
0000
0000
0000
,
0000
0000
0000
0000
,
1000
0000
0000
0000
,
0000
0100
0000
0001
,
0001
0000
0000
0000
,
0000
0100
0000
1000
,
1000
0000
0000
0000
,
0001
0001
0001
0000
,
0100
0000
0000
0000
,
0010
0010
0010
0000
,
1000
0000
1000
0000
,
0001
0000
0001
0000
,
0100
0000
0100
0000
,
0001
0001
0001
0000
,
0100
0000
0100
0000
,
0100
0000
0100
0000
,
0001
0000
0001
0000
,
0001
0000
0001
0000
,
1000
0000
1000
0000
,
1000
0000
1000
0000
,
0010
0000
0010
0000
,
0010
0000
0010
0000
,
1001
1001
0000
0000
,
0100
0100
0000
0000
,
1001
1001
0000
0000
,
0010
0010
0000
0000
,
1000
0000
1000
0000
,
0001
0000
0001
0000
,
1000
0000
0001
0000
,
0000
0110
0110
0000
,
0010
0010
0010
0000
,
0100
0100
0100
0000
,
1001
0000
1001
0000
,
0010
0000
0100
0000
,
1000
1000
1000
0000
,
0001
0001
0001
0000
,
0110
0000
0110
0000
,
1000
0000
0001
0000
,
0100
0100
0000
0000
,
0010
0010
0000
0000
,
0100
0100
0000
0000
,
0010
0010
0010
0000
,
1000
0000
1000
0000
,
0100
0000
0100
0000
,
0010
0000
0010
0000
,
0001
0000
0001
0000
,
0100
0100
0100
0000
,
1000
1000
1000
0000
,
0010
0010
0010
0000
,
0001
0001
0001
0000
,
0100
0000
0010
0000
,
0100
0000
0010
0000
,
0001
0000
1000
0000
,
0001
0000
1000
0000
,
1000
1000
0000
0000
,
0001
0001
0000
0000
,
1000
1000
0000
0000
,
0001
0001
0000
0100
;

//---------------dance-single - ----------------
#NOTES:
     dance-single:
     :
     Easy:
     4:
     0.316,0.336,0.138,0.000,0.000: // measure 1
0000
0000
0000
0000
,  // measure 2
0000
0000
0000
0000
,  // measure 3
1000
0100
0010
0010
,  // measure 4
0010
0001
0000
0001
,  // measure 5
1000
0100
0010
0010
,  // measure 6
0001
0000
1000
0100
,  // measure 7
0010
0000
0001
0100
,  // measure 8
0010
0000
1000
1000
,  // measure 9
0001
0000
0010
0100
,  // measure 10
1000
0000
0001
0001
,  // measure 11
1000
0100
0001
0100
,  // measure 12
0010
1000
0001
0100
,  // measure 13
0010
0010
0010
0010
,  // measure 14
1001
0000
0100
0010
,  // measure 15
0001
0001
1000
1000
,  // measure 16
0100
0001
0100
0001
,  // measure 17
1000
1000
0100
0100
,  // measure 18
0010
0001
0010
0001
,  // measure 19
1000
0000
0001
0000
,  // measure 20
1000
0100
0010
0000
,  // measure 21
0001
0000
1000
0000
,  // measure 22
0100
0000
0010
0001
,  // measure 23
1000
0100
0000
0100
,  // measure 24
0000
0010
0000
0010
,  // measure 25
0001
0100
0000
0100
,  // measure 26
0000
0010
0000
0010
,  // measure 27
1000
0001
0100
0010
,  // measure 28
1000
0100
0010
0000
,  // measure 29
0001
0100
0010
1000
,  // measure 30
0001
0001
0001
0000
,  // measure 31
0010
0100
1001
0000
,  // measure 32
0100
0010
1001
0000
,  // measure 33
0010
0001
1000
0100
,  // measure 34
0010
0001
0000
1001
,  // measure 35
0010
0100
1001
0000
,  // measure 36
0100
0010
1001
0000
,  // measure 37
0010
0100
1000
0010
,  // measure 38
0100
0001
0000
1001
,  // measure 39
0100
0100
0100
0010
,  // measure 40
0100
0100
0010
0010
,  // measure 41
0100
0100
0100
0010
,  // measure 42
0100
0100
0010
0010
,  // measure 43
1000
0100
0010
1001
,  // measure 44
0100
0100
0010
1001
,  // measure 45
0100
0010
0001
0010
,  // measure 46
0100
0100
0000
1001
,  // measure 47
0100
0100
0001
1001
,  // measure 48
0100
0100
0010
1001
,  // measure 49
0100
0010
1000
0100
,  // measure 50
0010
0001
1000
1000
,  // measure 51
0100
0001
0100
1000
,  // measure 52
0100
0010
0010
0010
,  // measure 53
0001
0100
1000
0100
,  // measure 54
0010
0001
0001
0001
,  // measure 55
1000
1000
0100
0100
,  // measure 56
0010
0001
0100
0010
,  // measure 57
1000
1000
0001
0001
,  // measure 58
0100
0010
1000
1001
;

//---------------dance-single - ----------------
#NOTES:
     dance-single:
     :
     Medium:
     5:
     0.387,0.367,0.116,0.000,0.000:
0000
0000
0000
0000
,
0000
0000
0000
0000
,
1000
0100
0001
0000
0100
0000
0100
0000
,
1000
1000
0001
0001
,
1000
0010
0001
0000
0010
0000
0010
0000
,
1000
0100
0010
1001
,
0010
0000
0100
1000
0010
0000
0100
0000
,
0001
0010
1000
0001
,
1000
0000
0010
0100
0001
0000
0010
0000
,
1000
0001
1000
0010
,
0100
0001
0010
0000
0100
1000
0010
0000
,
0100
0001
0010
0100
,
1000
0001
0100
0000
1000
0001
0100
0000
,
1001
0000
0000
0100
0000
0010
0100
0000
,
1000
0000
0001
0000
0100
0010
1000
0000
,
0001
0000
0010
0100
0000
0010
0100
0000
,
1000
0001
0100
1000
,
0100
0000
0010
0001
0000
0010
0001
0000
,
1000
0100
0010
0000
0001
0000
0001
0000
,
1000
0100
0010
0000
0001
0000
0001
0000
,
1000
0010
0100
0000
0001
0010
0100
0000
,
1000
0001
0100
1000
,
0100
0100
0100
0000
0010
0000
0010
0000
,
0001
0001
0001
0000
0100
0000
0100
0000
,
0010
0010
0010
0000
1000
0000
1000
0000
,
0100
0100
0100
0000
0010
0000
0010
0000
,
0001
1000
0100
0010
,
0001
1000
0100
0000
,
0001
0100
0010
1000
,
1001
0110
1001
0000
,
0100
0000
0010
0001
0100
0000
0000
0000
,
0010
1000
0001
0000
0001
0000
0000
0000
,
0100
1000
0100
0010
,
0001
1000
0100
0000
0000
0000
1001
0000
,
0100
0000
0010
1000
0100
0000
0000
0000
,
0010
0001
1000
0000
0100
0000
0000
0000
,
0010
0001
0100
0000
0010
1000
0010
1000
,
0001
0001
0000
1001
,
0100
0000
0010
0000
,
1000
0000
0100
0000
0010
0001
1000
0000
,
0100
0000
0010
0000
,
0001
0000
0001
0000
1000
0100
1000
0100
,
0010
0000
0010
0001
0100
0000
0000
0000
,
0010
1000
0100
0000
0100
0000
0000
0000
,
0010
0000
0001
1000
0100
0000
0010
0001
,
0100
0100
0000
1001
,
0100
0000
0010
0001
1000
0000
0000
0000
,
0100
0010
0001
0000
0001
0000
0000
0000
,
1000
0000
0100
0010
0001
0000
0100
0010
,
1000
1000
0000
1001
,
0100
0000
0010
0000
,
0001
0000
1000
0100
1000
0000
0001
0000
,
0100
0000
0010
0000
,
1000
0000
0001
0000
0100
0010
1000
0000
,
0100
0000
0100
0000
0010
0001
0100
0000
,
0010
1001
0100
1001
,
0100
0000
0010
0000
1000
0100
0010
0000
,
0001
0000
1000
0000
0100
0010
0100
0000
;

//---------------dance-single - ----------------
#NOTES:
     dance-single:
     :
     Hard:
     8:
     0.610,0.550,0.074,0.000,0.233:
0000
0000
0000
0000
,
0000
0000
0000
0000
,
1000
0000
0100
0000
0010
0000
0001
0000
1000
0100
0000
0000
0010
0000
0000
0000
,
0001
0000
0100
0000
0010
0000
1000
0000
0001
0100
0000
0000
0010
0000
0000
0000
,
1000
0000
0001
0000
0010
0000
0100
0000
1000
0010
0000
0000
0100
0000
0000
0000
,
0001
0000
1000
0000
0010
0000
0100
0000
0001
0010
0000
0000
0001
0100
0000
0000
,
0010
0000
1000
0000
0001
0010
0000
0000
0100
0000
1000
0000
0001
0000
0000
0000
,
0100
0000
0010
0000
1000
0100
0000
0000
0010
0000
0001
0000
1000
0000
0100
0000
,
0010
0000
0001
0000
0100
0010
0000
0000
1000
0000
0001
0000
0010
0000
0000
0000
,
0100
0000
0001
0000
0100
1000
0000
0000
0001
0000
0100
0000
0010
0000
1000
0000
,
0001
0000
0010
0000
0100
1000
0000
0000
0001
0000
0010
0000
0100
1000
0000
0000
,
0010
0000
0100
0000
0001
1000
0000
0000
0010
0000
0100
0000
0001
1000
0000
0000
,
0100
0010
0001
1000
0010
0100
0001
0000
,
1000
0100
0000
0000
0010
0000
0001
0100
0000
0000
0010
0000
1000
0000
0000
0000
,
0001
0000
0010
0000
0100
1000
0000
0000
0001
0000
0100
0000
0010
0000
0000
0000
,
1000
0000
0001
0000
0010
0100
0000
0000
1000
0000
0001
0000
0100
0000
0010
0000
,
1000
0000
0100
0000
0010
0001
0000
0000
1000
0000
0100
0000
0010
0000
0000
0000
,
0001
0000
1000
0000
0010
0100
0000
0000
0001
0000
1000
0000
0100
0000
0010
0000
,
0001
0000
1000
0000
0010
0100
0000
0000
0001
0000
1000
0000
0100
0010
0000
0000
,
0001
0000
0100
0000
0010
1000
0000
0000
0100
0000
0010
0000
0001
0100
0000
0000
,
0010
1000
0100
0001
0100
1000
0010
0100
,
0001
1000
0100
0010
0001
1000
0010
0000
,
0100
0001
0000
0000
1000
0000
0000
0000
0100
1000
0000
0000
0001
0000
0000
0000
,
0010
0001
0000
0000
1000
0000
0000
0000
0010
1000
0000
0000
0001
0000
0000
0000
,
0100
0010
0000
1000
0100
0000
0000
0000
0010
0001
0000
0100
0010
0000
0000
0000
,
1000
0100
0000
0010
0001
0000
0000
0000
0100
0010
0000
1000
0001
0000
0000
0000
,
0010
0100
1000
0001
0000
0001
0001
0000
,
0100
0010
1000
0001
0000
0000
0000
0000
,
0010
0100
0010
0100
0000
0000
1001
0000
,
0010
0100
0000
0000
1000
0001
0000
0000
0100
0010
0000
0000
1001
0000
0000
0000
,
0100
0010
0001
1000
0010
0100
0001
1000
,
0100
0001
0100
1000
0010
0100
0001
1000
,
0100
0010
0001
1000
0010
0100
0001
1000
,
0100
0010
0001
0000
0000
0000
1100
0000
,
0001
0100
0010
1000
0001
0010
0100
1000
,
0010
0001
0010
1000
0001
0010
0100
1000
,
0001
0100
0010
1000
0001
0010
0100
1000
,
0001
0100
0100
0000
0000
0000
1100
0000
,
0010
0001
0001
0000
1000
0010
0010
0010
,
0000
0100
0001
1000
0100
0010
0001
1000
,
0010
0100
0100
0000
0001
1000
1000
1000
,
0000
0100
0010
0001
0100
0010
1000
0100
,
0010
0001
1000
0010
0100
0001
1000
0100
,
0010
0001
1000
0010
0100
0001
1000
0100
,
0010
0001
1000
0100
0010
0001
0100
1000
,
0100
0001
1000
0000
0000
0000
0110
0000
,
0001
1000
0010
0100
0001
1000
0100
0010
,
0001
0100
0010
1000
0001
0010
1000
0010
,
0001
1000
0010
0100
0001
1000
0100
0001
,
0100
1000
0001
0000
0000
0000
0110
0000
,
0001
0100
0100
0000
0010
1000
0100
0010
,
0000
0010
0001
1000
0100
0010
0001
1000
,
0010
0100
0100
0000
0010
1000
0001
0010
,
0000
0100
1000
0001
0100
0010
1000
0001
,
0010
0100
0000
0000
1000
0000
0000
0000
0001
0000
0100
0000
0010
0000
1000
0000
,
0001
0100
0000
0001
0100
0000
0001
0100
0000
0001
0100
0000
0010
0000
1000
0000
,
0100
0010
0001
0000
1000
0100
0010
0001
,
1000
0000
0000
0010
0000
0000
0100
0000
0000
0000
0001
0000
1001
0000
0000
0000
;

//---------------dance-double - ----------------
#NOTES:
     dance-double:
     :
     Easy:
     4:
     0.322,0.336,0.063,0.000,0.000:
00000000
00000000
00000000
00000000
,
00000000
00000000
00000000
00000000
,
10000000
00010000
01000000
00001000
,
00010000
00000010
00001000
01000000
,
00010000
10000000
01000000
00100000
,
00001000
00010000
00000100
00001000
,
00010000
00010000
00010000
00010000
,
01000000
01000000
00001000
00001000
,
00000100
00000100
00000100
00000100
,
00001000
00001000
00010000
00010000
,
01000000
10000000
00010000
01000000
,
00001000
00010000
01000000
10000000
,
00010000
00100000
01000000
10000000
,
10010000
01000000
00001000
00010000
,
00000010
00000010
00000010
00000010
,
00001000
00001000
00010000
00010000
,
01000000
01000000
01000000
01000000
,
00001000
00001000
00000100
00000100
,
00000001
00000010
00001000
00000010
,
00010000
00001000
00100000
00010000
,
00001000
00000100
00000001
00001000
,
00000100
00000100
00000100
00000100
,
00010000
00001000
00000100
00000000
,
00000001
00000010
00001000
00000000
,
00010000
00100000
00000000
00000000
,
00100000
00010000
00001000
00000000
,
00000010
00000001
00000100
00001000
,
00010000
01000000
10000000
00000000
,
00001000
00000100
00010000
01000000
,
10010000
10010000
10010000
00000000
,
00001000
00000100
00000001
00000000
,
00000010
00001000
00010000
00000000
,
00000001
00000100
00010000
01000000
,
10000000
00100000
00000000
10010000
,
00100000
00001000
00000010
00000000
,
00001000
00010000
00100000
00000000
,
10000000
01000000
00010000
00001000
,
00000100
00000001
00001000
00000100
,
00010000
00001000
00100000
00010000
,
10000000
01000000
01000000
01000000
,
00010000
00001000
00000100
00000001
,
00001000
00000100
00000100
00000100
,
00010000
00001000
00000010
00000000
,
00001000
00010000
00100000
00000000
,
10000000
01000000
00010000
01000000
,
00001000
00010000
00000000
00001001
,
00000100
00000010
00001000
00000000
,
00010000
00100000
10000000
00000000
,
00010000
01000000
00001000
00000100
,
00000010
00000001
00001000
00001000
,
00000100
00010000
00100000
10000000
,
00010000
01000000
00001000
00000010
,
00001000
00010000
00100000
00010000
,
00001000
00000010
00000001
00001000
,
00000100
00000100
00010000
01000000
,
00001000
00000100
00000001
00000001
,
00001000
00000100
00010000
00100000
,
00001000
00000100
00000001
00001000
;

//---------------dance-double - ----------------
#NOTES:
     dance-double:
     :
     Medium:
     6:
     0.384,0.336,0.042,0.000,0.000:
00000000
00000000
00000000
00000000
,
00000000
00000000
00000000
00000000
,
00010000
00001000
00100000
00000000
00010000
00000000
00010000
00000000
,
01000000
00000000
00100000
00000000
01000000
00000000
00001000
00010000
,
00100000
10000000
00010000
01000000
,
00001000
00000000
00001000
00010000
00000010
00000000
00000001
00000000
,
00001000
00000000
00000100
00010000
00001000
00000000
00000010
00000000
,
00000001
00001000
00000010
00000100
,
00001000
00000000
00010000
00001000
00000010
00000000
00000001
00000000
,
00001000
00000100
00010000
00001000
,
00100000
00000000
10000000
00100000
00010000
00000000
01000000
00000000
,
00001000
00000000
00010000
00001000
00100000
00000000
10000000
00000000
,
00010000
01000000
00100000
10000000
,
00010000
00100000
01000000
00000000
00010000
00000000
00001000
00000000
,
00000100
00000000
00000001
00000010
00000100
00000000
00001000
00000000
,
00000001
00000100
00001000
00000100
,
00010000
00000000
00001000
00000100
00000001
00000000
00000010
00000000
,
00001000
00010000
00000010
00000100
,
00000001
00001000
00000100
00000000
00010000
00000000
00000000
00000000
,
00000010
00000100
00001000
00000000
00010000
00000000
01000000
00000000
,
10000000
00010000
01000000
00100000
,
10000000
00010000
00010000
00010000
,
00100000
00000000
00001000
00010000
00000000
00000000
00000100
00000000
,
00000010
00000000
00001000
00010000
00000000
00000000
00000000
00000000
,
00100000
00000000
10000000
01000000
00000000
00000000
00100000
00000000
,
00001000
00000000
00010000
00000100
00000000
00000000
00000000
00000000
,
00000010
00000010
00000010
00000010
,
00000001
00000000
00001000
00000100
00000000
00000000
00000000
00000000
,
00010000
00001000
00100000
01000000
,
10010000
10010000
01100000
00000000
,
00010000
00000000
01000000
00100000
01000000
00000000
00010000
00000000
,
00100000
00001000
00010000
00000000
00000100
00000000
00000000
00000000
,
00000010
00000001
00000100
00000000
00000010
00000000
00001000
00000000
,
00000100
00000001
00000100
00000000
00001000
00000000
00000010
00000000
,
00010000
00000000
00001000
00000010
00001000
00000000
00010000
00000000
,
00100000
00010000
00100000
00000000
10000000
00000000
00000000
00000000
,
00010000
01000000
00010000
00000000
00100000
00000000
00001000
00000000
,
00000010
00000001
00001000
00000000
00000000
00000000
00000110
00000000
,
00010000
00000000
00001000
00000000
00100000
00000000
00010000
10000000
,
00000000
00010000
00000000
00010000
00000000
00010000
01000000
00000000
,
00001000
00000000
00010000
00000000
00000010
00000000
00000100
00000001
,
00000000
00000001
00000000
00000001
00000000
00000001
00001000
00000000
,
00000100
00000000
00010000
00001000
00100000
00000000
00001000
00000000
,
00010000
00001000
01000000
00000000
10000000
00000000
00000000
00000000
,
01000000
00010000
00100000
00000000
00001000
00000000
00010000
00000000
,
00000010
00000001
00000010
00000000
00001000
00000000
00000100
00000000
,
00000010
00000000
00001000
00010000
00001000
00000000
01000000
00000000
,
00010000
10000000
01000000
00000000
00100000
00000000
00010000
00000000
,
01000000
00001000
00010000
00000000
00000010
00000000
00000001
00000000
,
00001000
00000100
00001000
00000000
00000001
00000000
00000001
00000000
,
00000100
00000010
00001000
00000100
,
00000010
00000000
00001000
00000000
00010000
00100000
00010000
00000000
,
00001000
00000010
00000001
00000100
,
00000010
00000000
00010000
00000000
00001000
01000000
00010000
00000000
,
00100000
00000000
00100000
00000000
01000000
10000000
00010000
00000000
,
01000000
00000000
00001000
00010000
00000000
00001000
00010000
00000000
,
00000010
00000000
00000001
00000000
00001000
00000100
00000010
00000000
,
00001000
00010000
00100000
10000000
;

//---------------dance-double - ----------------
#NOTES:
     dance-double:
     :
     Hard:
     8:
     0.609,0.519,0.190,0.000,0.085:
00000000
00000000
00000000
00000000
,
00000000
00000000
00000000
00000000
,
10000000
00000000
01000000
00000000
00010000
00000000
00000000
00000000
00010000
01000000
00000000
00000000
10000000
00000000
00000000
00000000
,
00010000
00000000
00000000
00000100
00000000
00000000
00000001
00000000
00000000
00000000
00000010
00000000
00000100
00000000
00000000
00000000
,
00001000
00000000
00000010
00000000
00010000
00000000
00000000
00000000
00001000
00000010
00000000
00000000
00000001
00000000
00000000
00000000
,
00000100
00000000
00000000
00001000
00000000
00000000
00010000
00000000
00000000
00000000
01000000
00000000
10000000
00000000
00000000
00000000
,
00010000
01000000
10000000
01000000
00010000
00100000
00001000
00010000
,
00000010
00000100
00000001
00000010
00000001
00000100
00000010
00001000
,
00000100
00010000
00001000
00000100
00000001
00000010
00000100
00001000
,
00000001
00000100
00001000
00010000
01000000
10000000
00010000
01000000
,
00100000
10000000
01000000
00100000
00010000
01000000
00001000
00010000
,
00100000
10000000
01000000
00010000
00001000
00000100
00000001
00000010
,
00000100
00010000
00001000
00000100
00000001
00000010
00001000
00010000
,
00100000
00000000
00000000
10010000
00000000
11000000
10010000
00000000
,
01000000
00001000
00010000
00000100
00000001
00000100
00001000
00000010
,
00000100
00001000
00010000
01000000
10000000
00010000
01000000
00100000
,
10000000
01000000
00100000
00010000
10000000
01000000
00100000
00001000
,
00010000
00100000
10000000
01000000
00010000
00001000
00000100
00000001
,
00000010
00000100
00001000
00000001
00000100
00001000
00010000
01000000
,
10000000
00010000
01000000
00001000
00010000
01000000
10000000
00100000
,
00010000
00001000
00000010
00000001
00001000
00000010
00000100
00001000
,
00010000
01000000
10000000
00010000
01000000
00100000
10000000
00010000
,
00100000
00100000
00100000
00000000
00011000
00000000
00000100
00000000
,
00000010
00000010
00000010
00000000
00001001
00000000
00000100
00000000
,
00010000
00010000
00010000
00000000
00011000
00000000
00100000
00000000
,
10000000
10000000
10000000
00000000
10010000
00000000
01000000
00000000
,
00001000
00010000
00000010
00001000
00000100
00000010
00000001
00000000
,
00001000
00000010
00000100
00001000
00010000
01000000
10000000
00000000
,
00010000
01000000
00100000
10000000
01000000
00010000
00001000
00000000
,
00001001
00010100
00101000
00000000
,
10000000
00100000
01000000
00001000
00000010
00001000
00010000
00100000
,
10000000
01000000
00100000
00001000
00000100
00000001
00000010
00000000
,
00000100
00010000
00001000
00100000
00010000
01000000
00001000
00010000
,
00000010
00001000
00000001
00000000
00000010
00000100
00000010
00000000
,
00000001
00000100
00001000
00010000
01000000
10000000
00010000
01000000
,
00100000
10000000
01000000
00100000
00010000
01000000
00001000
00000000
,
00010000
00000010
00000001
00000010
00001000
00000100
00000010
00000001
,
00001000
00000100
00010000
00000000
00001000
00100000
00001000
00000000
,
01000000
00100000
00000000
00000000
10010000
00000000
00000000
00000000
01000000
00100000
00000000
00000000
10010000
00000000
00000000
00000000
,
01000000
00001000
00010000
00000010
00001000
00000100
00010000
00000000
,
00001000
00100000
00000000
00000000
10010000
00000000
00000000
00000000
01000000
00001000
00000000
00000000
00010010
00000000
00000000
00000000
,
00001000
00000001
00000010
00000100
00010000
00001000
00000100
00000001
,
00000010
00000100
00001000
00000010
00000100
00001000
00010000
01000000
,
10000000
00010000
01000000
00100000
10000000
01000000
00100000
00000000
,
00010000
01000000
00001000
00010000
00000010
00000001
00000010
00001000
,
00000100
00000010
00000001
00000000
00001000
00000100
00010000
00000000
,
00001000
00000100
00000001
00000010
00000100
00010000
00001000
00100000
,
10000000
00100000
00010000
01000000
00100000
10000000
01000000
00000000
,
00100000
00010000
01000000
00100000
10000000
01000000
00010000
00001000
,
00000100
00000001
00000010
00000000
00000100
00001000
00000010
00000000
,
00000100
00000010
00000000
00000000
00001001
00000000
00000000
00000000
00000100
00000010
00000000
00000000
00001001
00000000
00000000
00000000
,
00000100
00000010
00001000
00000100
00010000
00001000
01000000
00100000
,
10000000
01000000
00000000
00000000
00110000
00000000
00000000
00000000
01000000
00001000
00000000
00000000
00010010
00000000
00000000
00000000
,
00001000
00000001
00000010
00000100
00001000
00000010
00000100
00001000
,
00010000
00000000
01000000
00000000
10000000
00000000
00100000
00000000
01000000
00010000
00000000
00000000
10000000
00000000
00000000
00000000
,
01000000
00000000
00000000
00010000
00000000
00000000
00001000
00000000
00000000
00000000
00000100
00000000
00000001
00000000
00000000
00000000
,
00000010
00000000
00000100
00000000
00001000
00000000
00000010
00000000
00000100
00001000
00000000
00000000
00000001
00000000
00000000
00000000
,
00000010
00000000
00000000
00001000
00000000
00000000
00010000
00000000
00000000
00000000
00100000
00000000
10000000
00000000
00000000
00000000
;

//---------------dance-couple - ----------------
#NOTES:
     dance-couple:
     :
     Medium:
     7:
     0.577,0.794,0.867,0.000,0.026:
00000000
00000000
00000000
00000000
,
00000000
00000000
00000000
00000000
,
10000001
01000100
00011000
00000000
01000100
00000000
01000100
00000000
,
10000000
10000000
00000001
00000001
,
00011000
00100010
10000001
00000000
00100010
00000000
00100010
00000000
,
00011000
01000100
00100010
10011001
,
00100000
00100000
10000000
10000000
,
01000000
00100000
01000000
00100000
,
00000010
00000010
00000001
00000001
,
00000100
00000010
00000100
00000010
,
10000000
00000000
00000001
00000000
,
00011000
01000100
00100010
00000000
,
00100000
00000100
00100000
00000100
,
10011001
00000000
01000010
00100100
,
10000001
00000000
00010000
00000000
01000000
00100000
10000000
00000000
,
00010001
00000000
00100000
01000000
00000000
00100000
01000000
00000000
,
10001000
00000000
00000001
00000000
00000100
00000010
00001000
00000000
,
10000001
00000000
00000010
00000100
00000000
00000010
00000100
00000000
,
10000000
01000000
00100000
00000000
00010000
00000000
00010000
00000000
,
00001000
00000100
00000010
00000000
00000001
00000000
00000001
00000000
,
10000000
00100000
01000000
00000000
00000001
00000010
00000100
00000000
,
10001000
00010001
01000100
10000001
,
00010000
01000000
00000000
00000100
,
00000000
00100000
00000000
00000010
,
00001000
00000100
00000000
01000000
,
00000000
00000010
00000000
00100000
,
10000001
00011000
01000100
00100010
,
10000001
00011000
01000100
00000000
,
10000001
01000100
00100010
00011000
,
00001001
01100000
10010110
00000000
,
10000100
00000010
00000001
00001000
00000010
00000100
00000001
00001000
,
10000100
00000001
00000100
00001000
00000010
00000100
00000001
00001000
,
10000100
00000010
00000001
00001000
00000010
00000100
00000001
00001000
,
10000100
00000010
00000001
00000000
00000000
00000000
10010000
00000000
,
01000001
00100000
00010000
10000000
00100000
01000000
00010000
10000000
,
01000001
00010000
01000000
10000000
00100000
01000000
00010000
10000000
,
01000001
00100000
00010000
10000000
00100000
01000000
00010000
10000000
,
01000001
00100000
00010000
00000000
00000000
00000000
00001001
00000000
,
00000100
00000000
00000010
00000000
,
00001000
00000000
00000100
00000000
00000010
00000001
00001000
00000000
,
01000000
00000000
00100000
00000000
,
10000000
00000000
01000000
00000000
00100000
00010000
10000000
00000000
,
10000010
00000001
00001000
00000010
00000100
00000001
00001000
00000100
,
10000010
00000001
00001000
00000010
00000100
00000001
00001000
00000100
,
10000010
00000001
00001000
00000100
00000010
00000001
00000100
00001000
,
10000100
00000001
00001000
00000000
00000000
00000000
00000110
00000000
,
00100001
00010000
10000000
00100000
01000000
00010000
10000000
01000000
,
00100001
00010000
10000000
00100000
01000000
00010000
10000000
01000000
,
00100001
00010000
10000000
01000000
00100000
00010000
01000000
10000000
,
01000001
00010000
10000000
00000000
00000000
00000000
01100000
00000000
,
10000001
00000100
00000100
00000000
00000010
00001000
00000100
00000010
,
10000000
00000010
00000001
00001000
00000100
00000010
00000001
00001000
,
00010001
01000000
01000000
00000000
00100000
10000000
01000000
00100000
,
00000001
00100000
00010000
10000000
01000000
00100000
00010000
10000000
,
01000100
00000000
01000100
00000000
00100010
00011000
01000100
00000000
,
00100000
10000000
00000000
00000010
00000001
00000000
00010000
01000000
00000000
00001000
00000100
00000000
00100010
00000000
00000000
00000000
,
10000001
01000100
00100010
00000000
00011000
01000100
00100010
10000001
,
00011000
00000000
00000000
00100010
00000000
00000000
01000100
00000000
00000000
00000000
10000001
00000000
01011100
00000000
00000000
00000000
;

//---------------dance-solo - ----------------
#NOTES:
     dance-solo:
     :
     Easy:
     4:
     0.314,0.275,0.000,0.000,0.000:
000000
000000
000000
000000
,
000000
000000
000000
000000
,
010000
000100
100000
000100
,
010000
000010
010000
000100
,
100000
001000
000100
000001
,
010000
000100
000010
000100
,
000001
000001
000001
000001
,
100000
001000
000001
001000
,
000100
000100
000100
000100
,
100000
001000
000100
000001
,
010000
000100
000010
000100
,
010000
000100
000010
000100
,
000001
001000
000100
100000
,
000010
000010
010000
010000
,
000001
000001
000001
000001
,
000100
001000
000001
001000
,
000100
000100
000100
000100
,
100000
000001
000100
001000
,
100000
010000
100000
000001
,
100000
010000
100000
000001
,
000100
001000
100000
000000
,
000001
000001
000001
001000
,
000100
100000
000010
000000
,
010000
000000
000010
000000
,
000100
000001
010000
000000
,
000010
000000
010000
000000
,
000001
000010
000001
000100
,
000001
000010
000001
010000
,
000100
100000
010000
001000
,
000010
000010
000010
000000
,
100000
001000
000100
000000
,
000001
001000
000100
000000
,
100000
000010
001000
000100
,
100000
001000
000100
000001
,
100000
001000
000100
000000
,
000001
001000
000100
000000
,
100000
000010
001000
000100
,
100000
001000
000100
000001
,
100000
001000
000001
001000
,
000010
100000
100000
100000
,
000001
001000
100000
001000
,
010000
000001
000001
000001
,
100000
001000
000100
000000
,
000001
001000
000100
000000
,
100000
000010
001000
000100
,
100000
100000
000010
010000
,
000001
000100
001000
000000
,
100000
000100
001000
000000
,
000010
100000
001000
000100
,
000001
010000
000010
001000
,
000100
100000
000010
000001
,
000100
100000
100000
100000
,
000010
000100
100000
000001
,
100000
000010
000010
000010
,
000100
000001
001000
000100
,
100000
001000
000001
001000
,
000100
100000
000010
010000
,
000001
100000
001000
000100
;

//---------------dance-solo - ----------------
#NOTES:
     dance-solo:
     :
     Medium:
     6:
     0.419,0.397,0.042,0.000,0.000:
000000
000000
000000
000000
,
000000
000000
000000
000000
,
000010
000000
100000
000000
001000
000000
010000
000001
,
000100
000000
000010
000000
001000
000000
000100
100000
,
001000
000000
000100
000000
000001
000000
010000
000010
,
001000
000000
000100
000000
100000
001000
000100
000000
,
000001
000000
001000
000000
000100
100000
001000
000000
,
010000
000000
000001
000100
000000
000010
100000
000000
,
001000
000000
000100
000000
000001
001000
000100
000000
,
100000
000000
000010
001000
000000
100000
000001
000000
,
010000
000000
010000
000000
001000
000100
000001
000000
,
010000
000000
010000
000000
000100
001000
000001
000000
,
100000
001000
000001
001000
,
000100
000000
000000
100001
000000
010000
001000
000000
,
000100
000001
001000
000000
000100
000000
100000
000000
,
000001
001000
000000
000010
100000
000000
001000
000000
,
000100
000001
001000
000000
000010
000000
100000
000000
,
000001
000100
000000
001000
010000
000000
000001
000000
,
000100
000000
000010
100000
001000
000000
000100
000000
,
000001
000000
001000
000100
100000
000000
000010
000000
,
000100
000001
001000
000000
000100
100000
001000
000000
,
010000
000100
100000
000000
001000
010000
000100
000000
,
100000
000000
001000
000000
000001
000000
000100
001000
,
000000
100000
000001
000000
010000
000000
000010
000000
,
000100
000000
001000
000000
100000
000000
000001
001000
,
000000
000100
100000
000000
000010
000000
010000
000000
,
000100
000000
100000
001000
000000
010000
000100
000000
,
001000
000000
000001
000100
000000
000000
000000
000000
,
000010
000000
001000
000001
000000
000100
000010
000000
,
010100
101000
001001
000000
,
100000
000000
001000
010000
000100
000000
000000
000000
,
001000
000000
000010
000100
000001
000000
000000
000000
,
001000
000100
100000
000000
000001
001000
000100
000000
,
100000
001000
010000
000000
000001
000000
001000
000000
,
000010
000000
100000
000001
000100
000000
000000
000000
,
000010
000000
010000
000100
100000
000000
000000
000000
,
001000
000100
000001
000000
100000
000100
001000
000000
,
000001
100000
001000
000000
010000
000000
000001
000000
,
100000
000000
000100
000000
001000
000010
100000
000000
,
000001
000000
000100
000000
001000
010000
000001
000000
,
100000
000000
001000
000000
000100
000001
010000
000000
,
000010
000000
001000
000000
000100
100000
001000
000000
,
000100
000000
000001
001000
000010
000000
100000
000000
,
000100
010000
000010
000000
001000
000000
000100
000000
,
100000
001000
000100
000000
000001
000000
001000
000000
,
000100
100000
000010
000000
010000
000000
001000
000000
,
000100
000000
000001
001000
000010
000000
100000
000000
,
001000
000100
000001
000000
100000
000000
000010
000000
,
001000
000100
100000
000000
000010
010000
000100
000000
,
100000
001000
010000
000000
000001
000000
001000
000000
,
000010
100000
000001
010000
,
001000
000100
000001
000000
010000
000100
100000
000000
,
001000
010000
000100
100000
,
000010
001000
000001
000000
000100
001000
010000
000000
,
000001
000000
001000
000000
000100
100000
001000
000000
,
010000
000000
000001
000000
000100
000000
000010
010000
,
001000
000000
000100
000000
000001
000000
001000
000010
,
100000
000000
000100
000000
010000
000010
001000
000000
;

//---------------dance-solo - ----------------
#NOTES:
     dance-solo:
     :
     Hard:
     9:
     0.610,0.519,0.085,0.000,0.180:
000000
000000
000000
000000
,
000000
000000
000000
000000
,
100000
010000
100000
000010
000100
000001
000010
001000
,
010000
000001
100000
000010
001000
000100
100000
000001
,
000100
001000
010000
000001
100000
000010
001000
000100
,
100000
000000
000000
000001
000000
000000
000100
000000
000000
000000
001000
000000
100000
000000
000000
000000
,
000001
001000
000010
000100
000001
001000
000010
100000
,
000001
010000
001000
000100
000001
100000
000010
000000
,
010000
000100
100000
001000
000100
000001
001000
000010
,
100000
001000
000100
000001
010000
000010
000100
000001
,
001000
000010
100000
000000
000001
010000
001000
000000
,
000100
000001
001000
000000
000100
100000
000010
010000
,
000001
000100
001000
100000
000001
001000
000100
100000
,
010010
000000
000000
000101
000000
100001
001000
000000
,
000100
000000
000001
000000
010000
000010
000000
000000
100000
000000
001000
000000
000100
000000
000000
000000
,
000001
000000
001000
000000
000100
100000
000000
000000
000010
000000
010000
000000
001000
000000
000000
000000
,
000100
000000
000001
000000
010000
001000
000000
000000
000100
000000
000001
000000
001000
000000
000000
000000
,
000100
000000
100000
000000
000010
010000
000000
000000
000001
000000
000100
000000
001000
000000
000000
000000
,
010000
000000
000001
000000
100000
000010
000000
000000
001000
000000
000100
000000
100000
000010
000000
000000
,
010000
000000
000001
000000
000100
001000
000000
000000
010000
000000
000001
000000
100000
000010
000000
000000
,
001000
000100
100000
001000
000100
000001
010000
000010
,
100000
000100
001000
000001
100000
001000
000100
000000
,
000001
010000
000000
000000
000010
100000
000000
000000
000100
001000
000000
000000
000010
100000
000000
000000
,
010000
001000
100000
000001
,
001000
000010
000000
000000
100000
000001
000000
000000
010000
001000
000000
000000
000100
000001
000000
000000
,
100000
000100
001000
000001
,
100000
001000
010000
000001
001000
000010
100000
000100
,
001000
000001
010000
001000
000100
000001
001000
000010
,
100000
000001
000100
001000
000010
000001
010000
100000
,
100001
001001
100001
000000
,
000010
001000
000100
100000
001000
010000
000100
100000
,
001000
000100
000001
010000
000010
001000
000100
000000
,
100000
000010
000000
000000
001000
000000
000000
000000
000100
100000
000000
000000
001000
000000
000000
000000
,
000100
000001
001000
000010
100000
000001
010000
000000
,
001000
000100
000001
001000
000010
100000
000001
010000
,
001000
000100
000001
100000
010000
001000
000010
000000
,
100000
000001
000000
000000
000100
000000
000000
000000
001000
010000
000000
000000
000001
000000
000000
000000
,
100000
000100
001000
000001
101000
000000
001001
000000
,
000010
000000
100000
000000
000100
010000
000000
000000
000001
000000
100000
000000
001000
010000
000000
000000
,
000001
001000
000100
100000
010000
001000
000010
000000
,
000100
000000
000001
000000
001000
000010
000000
000000
100000
000000
000100
000000
001000
010000
000000
000000
,
000100
000001
010000
001000
000100
000001
001000
000000
,
000010
100000
001000
010000
000001
000100
000010
010000
,
000100
100000
001000
000100
000001
100000
000010
000000
,
001000
000100
000000
000000
100000
000000
000000
000000
001000
000100
000000
000000
000001
000000
000000
000000
,
010000
000010
100000
000100
001000
000001
000100
000000
,
001000
100000
000100
001000
000010
100000
000001
010000
,
001000
000100
000001
010000
100000
000100
000001
000000
,
010000
000010
000000
000000
001000
000000
000000
000000
000100
100000
000000
000000
000010
000000
000000
000000
,
010000
000001
000100
001000
100000
000100
001000
000000
,
000010
000000
100000
000000
000001
000100
000000
000000
000010
000000
010000
000000
000100
100000
000000
000000
,
001000
010000
000001
001000
000010
000001
000100
000000
,
100000
000000
001000
000000
010000
000001
000000
000000
001000
000000
000010
000000
100000
000001
000000
000000
,
010000
001000
000100
000001
001000
000100
100000
000001
,
010000
001000
000100
000001
000010
001000
000100
000001
,
001000
000100
100000
001000
010000
000100
100000
001000
,
000100
000001
100000
000010
001000
000100
100000
000001
,
010000
000000
000000
001000
000000
000000
000100
000000
000000
000000
000010
000000
000001
000000
000000
000000
;

//---------------dance-single - ----------------
#NOTES:
     dance-single:
     :
     Challenge:
     9:
     0.678,0.643,0.159,0.000,0.423:
0000
0000
0000
0000
,
0000
0000
0000
0000
,
1000
0000
0001
0000
0100
0001
0000
1000
0001
1000
0000
0010
0000
1000
0100
1000
,
0001
0000
0000
0001
0000
0000
0001
0000
0000
0001
0000
0001
0000
1000
0010
1000
,
0010
0000
0100
0000
0001
0000
1000
0100
1000
0100
0000
1000
0000
0001
0100
0010
,
1000
0000
0000
0001
0000
0000
0100
0000
0001
0010
0000
0001
0010
0001
0010
0000
,
0000
0001
1000
0010
0000
0100
0001
1000
,
0000
0100
1000
0010
0000
0100
0001
0010
,
0000
0100
1000
0001
0000
0100
0001
1000
,
0000
0001
0010
1000
0000
1000
0010
0001
,
1000
0010
0100
0001
0000
1000
0100
0010
,
0000
0001
0100
0010
0000
1000
0010
0001
,
0000
0000
0001
0000
0010
0000
1000
0000
0001
0000
1000
0100
1000
0100
1000
0100
,
1000
0000
0010
0000
0100
0000
0001
0000
0000
0000
1000
0000
1000
0000
0001
0100
,
0001
1000
0100
0001
0000
0001
0100
1000
,
0000
0001
0100
1000
0000
1000
0100
0001
,
0000
1000
0010
0100
0000
0100
0001
0010
,
0000
0100
1000
0001
0000
0001
0100
0010
,
1000
0001
0010
0100
0000
1000
0010
0100
,
0000
1000
0010
0100
0000
0010
0001
0100
,
0000
0010
0001
0100
0000
1000
0001
0100
,
0000
0000
0001
0000
1000
0000
0100
0000
0010
0100
0000
1000
0001
1000
0000
0001
,
0100
0001
0000
1000
0100
0000
1000
0000
0010
0100
0000
1000
0001
0000
1000
0000
,
0100
0010
0000
0001
1000
0000
0100
0000
0010
0100
0000
1000
0001
0000
0010
0000
,
0100
1000
0000
0001
1000
0000
0100
0000
0010
0100
0000
1000
0001
0000
0010
0000
,
0100
1000
0000
0001
1000
0000
0100
0000
0010
0100
0000
1000
0001
0000
0010
0000
,
0100
0000
0001
1000
0000
1000
0100
0000
,
1000
0000
0001
0010
0000
0010
0100
0000
,
1000
0000
0000
0000
0001
0000
0010
0000
0000
0000
0100
0000
1000
0001
1000
0001
,
1000
0001
0000
0100
0010
0100
0000
0001
1000
0000
0110
0000
0110
0000
0000
0000
,
0001
0100
0001
1000
0010
0100
0001
1000
,
0100
1000
0001
0010
0100
1000
0010
0100
,
0001
0010
0100
1000
0001
0100
0001
1000
,
0010
0100
0001
0000
0000
0000
0000
1000
,
1000
0010
0100
0001
1000
0100
0010
0001
,
0100
0010
1000
0001
0100
1000
0100
0001
,
1000
0100
0010
0100
1000
0001
0010
0100
,
0010
0000
0001
0000
1000
0000
0000
0000
0001
0000
1000
0100
1000
0100
1000
0100
,
1000
0000
1100
1000
0001
0000
0101
0001
,
1000
0000
1010
1000
0001
0000
0011
0010
,
0100
0000
1100
0100
0001
0000
0101
0100
,
1000
0000
0000
0000
1001
0000
0100
0000
0001
0000
1000
0100
1000
0000
0001
0100
,
0001
1000
0010
0100
0001
1000
0100
0010
,
0001
0100
1000
0100
0001
0010
1000
0010
,
0010
0001
0100
0001
1000
0100
0010
0100
,
1000
0001
0000
0001
0000
0010
0000
0010
,
0010
0001
0100
0001
0100
0010
1000
0010
,
0100
0001
0010
0001
0100
0001
1000
0100
,
0001
0100
1000
0001
0100
0001
0010
0100
,
1000
0000
0001
0000
0100
0000
0010
0000
1000
0000
0001
0100
0001
0100
0001
0100
,
0001
1000
0100
0000
1000
0001
0101
0000
,
1000
0010
0101
0000
0001
0010
1100
1000
,
0001
0100
0110
0000
0010
1000
1100
0000
,
0010
0000
0001
0000
0101
0000
0000
0000
0010
0000
1000
0100
1000
0000
0001
0100
,
0001
0000
1000
0000
0100
1000
0000
0001
1000
0001
0000
0010
0000
0001
0100
0001
,
1000
0000
0000
1000
0000
0000
1000
0000
0000
1000
0000
1000
0000
1000
0010
1000
,
0010
0000
0100
0000
0001
0000
1000
0100
1000
0100
0000
1000
0000
0001
0100
0010
,
1000
0000
0000
0001
0000
0000
0100
0000
0001
0010
0000
0001
0010
0100
1000
0000
;
