#TITLE:桜;
#SUBTITLE:;
#ARTIST:RevenG;
#TITLETRANSLIT:SAKURA;
#SUBTITLETRANSLIT:;
#ARTISTTRANSLIT:;
#CREDIT:;
#BANNER:SAKURA.png;
#BACKGROUND:SAKURA-bg.png;
#LYRICSPATH:;
#CDTITLE:./CDTITLES/beatmaniaIIDX.PNG;
#MUSIC:SAKURA.mp3;
#OFFSET:-0.046;
#SAMPLESTART:19.200;
#SAMPLELENGTH:15.000;
#SELECTABLE:YES;
#DISPLAYBPM:14.000:320.000;
#BPMS:0.000=300.000,192.000=150.000,202.000=134.330,203.000=128.570,204.000=116.880,205.000=90.000,206.000=60.000,207.000=20.590,208.000=150.000,240.000=80.360,241.000=160.710,242.000=319.950,404.000=300.000,406.000=272.730,408.000=246.580,410.000=219.510,411.000=180.000,412.000=137.400,414.000=88.240;
#STOPS:;
#BGCHANGES:-0.465=Sakura.avi=1.000=1=1=0,
414.750=SAKURA-bg.png=1.000=0=0=1,
99999=-nosongbg-=1.000=0=0=0 // don't automatically add -songbackground-
;

//---------------dance-single - ----------------
#NOTES:
     dance-single:
     :
     Easy:
     5:
     0.357,0.521,0.141,0.070,0.000:
0000
0000
0000
0000
,
0000
0000
0000
0000
,
0000
0000
0000
0000
,
0000
0000
0000
0000
,
0000
0000
0000
0000
,
0000
0000
0000
0000
,
0000
0000
0000
0000
,
0000
0000
0000
0000
,
1000
0000
0100
0000
,
1000
0000
0010
0000
,
1000
0000
0001
0000
,
0010
0000
0100
0000
,
0001
0000
0100
0000
,
0001
0000
0010
0000
,
0100
0000
0000
0000
,
0010
0000
1001
0000
,
1000
0000
1000
0000
,
0020
0000
0030
0000
,
1000
0000
1000
0000
,
0020
0000
0030
0000
,
1000
0000
0010
0000
,
0001
0000
0010
0000
,
1000
0000
0010
1000
,
0200
0000
0300
0000
,
0001
0000
0001
0000
,
0020
0000
0030
0000
,
0001
0000
0001
0000
,
0020
0000
0030
0000
,
0001
0000
0010
0000
,
1000
0000
0010
0000
,
0001
0000
0010
0001
,
0200
0000
0300
0000
,
1000
0000
1000
0000
,
0010
0000
1001
0000
,
1000
0000
1000
0000
,
0010
0000
1001
0000
,
1000
0000
0010
0000
,
0001
0000
0010
0000
,
1000
0000
0010
1000
,
0100
0000
1001
0000
,
0001
0000
0001
0000
,
0010
0000
1001
0000
,
0001
0000
0001
0000
,
0010
0000
1001
0000
,
0001
0000
0010
0000
,
1000
0000
0010
0000
,
0001
0000
0010
0001
,
0100
0000
1001
0000
,
0100
0010
0010
0100
,
1000
0001
0001
1000
,
0010
0100
0100
0010
,
0001
1000
0200
0000
,
1300
1000
0001
0001
,
0010
0001
0010
0011
,
0001
0001
1000
1000
,
0010
1000
0010
1010
,
0001
0100
0001
1000
,
0001
0010
0001
1001
,
1000
0100
1000
0001
,
1000
0010
1000
1001
,
0000
0000
0000
0000
,
0100
0000
0010
0000
,
0100
0100
0010
0000
,
1000
0000
0001
0000
,
1000
1000
0001
0000
,
0010
0000
0100
0000
,
0010
0010
0100
0000
,
0001
0000
1000
0000
,
0001
0001
1000
0000
,
0100
0000
0010
0000
,
1000
0000
0100
0000
,
0001
0000
0100
0000
,
1000
0000
0010
0000
,
0100
0000
0001
0000
,
1000
0000
0100
0000
,
0010
0000
0010
0000
,
0100
0000
1001
0000
,
0001
0000
0001
0000
,
0010
0010
0100
0000
,
1000
0000
1000
0000
,
0010
0010
0100
0000
,
0001
0000
0010
0000
,
1000
0000
0010
0000
,
0001
0000
1000
0001
,
0100
0100
0010
0000
,
1000
0000
1000
0000
,
0010
0010
0100
0000
,
0001
0000
0001
0000
,
0010
0010
0100
0000
,
1000
0000
0010
0000
,
0001
0000
0010
0000
,
1000
0000
0001
1000
,
0100
0100
0010
0000
,
1000
0100
1000
0000
,
0001
0000
0001
0000
,
0001
0100
0001
0000
,
1000
0000
1000
0000
,
0001
0100
0001
0000
,
1000
0100
1000
0000
,
0100
0000
1001
0000
,
0010
0000
1001
0000
,
1000
0000
0100
0000
,
0001
0000
0100
0000
,
1000
0100
0001
0100
;

//---------------dance-single - ----------------
#NOTES:
     dance-single:
     :
     Medium:
     8:
     0.510,0.729,0.080,0.030,0.000:
0000
0000
0000
0000
,
0000
0000
0000
0000
,
0000
0000
0000
0000
,
0000
0000
0000
0000
,
0000
0000
0000
0000
,
0000
0000
0000
0000
,
0000
0000
0000
0000
,
0000
0000
0000
0000
,
1000
0001
1000
0000
,
0001
0001
1000
0000
,
0001
1000
0001
0000
,
1000
1000
0001
0000
,
0100
0010
0100
0000
,
0001
1000
0001
0000
,
1000
0000
0000
1000
0000
0000
1000
0000
,
0000
0001
0001
0001
,
1000
0000
1000
0100
,
0010
0000
0010
0000
,
0001
0000
0001
0100
,
0020
0000
0000
0030
,
1000
0000
0010
0000
,
0001
0000
0010
0000
,
1000
0000
0001
0010
,
0100
0000
0001
0001
,
1000
0001
1000
0010
,
0100
0000
0100
0000
,
0001
1000
0001
0010
,
0200
0000
0000
0300
,
1000
0000
0100
0000
,
0001
0000
0100
0000
,
1000
0000
0001
0100
,
0010
1000
0001
0001
,
1000
0100
1000
0001
,
1000
0000
1000
0000
,
0001
0100
0001
1000
,
0001
0000
0001
0000
,
1000
0100
0001
0000
,
0001
0100
1000
0000
,
1000
0000
0010
0001
,
0010
0000
1000
0001
,
1000
0100
1000
0001
,
0010
0100
0010
0000
,
0001
0100
0001
1000
,
0010
0100
0010
0000
,
1000
0100
0001
0100
,
1000
0010
1000
0001
,
0100
0010
1000
0001
,
0010
0100
0010
0110
,
0100
0010
0001
0100
0010
0000
0010
0000
,
0100
0010
1000
0100
0010
0000
0010
0000
,
0100
0010
0001
1000
0010
0100
0010
0000
,
0100
0010
1000
0001
0020
0000
0000
0000
,
0031
0000
0001
0000
1000
0100
1000
0000
,
0001
1000
0000
1000
0100
0000
0011
0000
,
1000
0000
1000
0000
0001
0100
0001
0000
,
1000
0001
0000
0001
0100
0000
1010
0000
,
0001
0100
0001
0000
1000
0100
1000
0000
,
0010
0001
0000
0001
0100
0000
0011
0000
,
1000
0100
1000
0000
0001
0100
0001
0000
,
0010
1000
0000
1000
0100
0000
1010
0000
,
0000
0000
0000
0000
,
1000
0100
1000
0100
,
0010
0001
0010
0000
,
0001
0100
0001
0100
,
1000
0010
1000
0000
,
0001
0001
1000
0001
,
0010
0100
0010
0000
,
1000
1000
0001
1000
,
0010
0100
0010
0100
,
0001
0010
0001
0010
,
0100
1000
0100
0000
,
1000
0010
1000
0010
,
0001
0100
0001
0000
,
1000
1000
0001
1000
,
0100
0010
0100
0000
,
1000
1000
0100
0100
,
0010
0000
1001
0000
,
0001
0100
0001
1000
,
0010
0100
0100
0000
,
1000
0100
1000
0001
,
0010
0100
0100
0000
,
0100
0010
0100
0001
,
0100
0010
0100
1000
,
0100
0001
1000
0100
,
0010
0100
0100
0100
,
0001
0010
0001
1000
,
0100
0010
0010
0000
,
1000
0010
1000
0001
,
0100
0010
0010
0000
,
0010
0100
0010
0001
,
0010
0100
0010
1000
,
0010
0001
1000
0010
,
0100
0010
0010
0000
,
1000
0100
0010
0001
,
0100
0001
0010
0100
,
1000
0010
0100
0001
,
0100
0010
0001
1000
,
0100
0001
0100
1000
,
0010
0100
0001
1000
,
1001
0000
0000
0100
0000
0000
0100
0000
,
0110
0000
0000
0010
0000
0000
0010
0000
,
1000
0100
0001
0100
,
1000
0010
0001
0010
,
1000
0100
0001
0100
1000
0001
0010
0000
;

//---------------dance-single - ----------------
#NOTES:
     dance-single:
     :
     Hard:
     10:
     0.662,0.937,0.151,0.010,0.095:
0000
0000
0000
0000
,
0000
0000
0000
0000
,
0000
0000
0000
0000
,
0000
0000
0000
0000
,
0000
0000
0000
0000
,
0000
0000
0000
0000
,
0000
0000
0000
0000
,
0000
0000
0000
0000
,
1000
0001
1000
0100
,
1000
1000
0100
0100
,
0001
1000
0001
0100
,
0001
0001
0100
0100
,
1000
0001
1000
0100
,
0001
1000
0001
0100
,
1000
0000
0000
1000
0000
0000
1000
0000
,
0001
0001
0001
0001
,
1000
0100
1000
0100
,
0001
1000
0001
1000
,
0001
0100
0001
0100
,
1000
0000
0001
0000
,
1000
0100
0000
0000
0100
0010
0000
0000
,
0010
0001
0000
0000
0001
0010
0000
0000
,
0010
0100
0000
0000
1000
0000
0001
0000
,
0100
0000
0100
0010
0100
0000
0000
0000
,
0001
0000
0001
1000
0001
0000
0100
0000
,
0010
0000
1000
0001
1000
0000
0000
0000
,
1000
0000
1000
0001
1000
0000
0100
0000
,
0010
0000
0001
1000
0001
0000
0100
0000
,
0001
0100
0000
0000
0100
0010
0000
0000
,
0010
1000
0000
0000
1000
0010
0000
0000
,
0010
0100
0000
0000
0001
0000
1000
0000
,
0100
0000
0100
0010
0100
0000
0010
0000
,
0001
1000
0001
0010
,
0100
1000
1001
0000
,
1000
0001
1000
0010
,
0100
0000
0001
1000
0001
0000
0010
0000
,
0001
0010
0000
0000
0010
0100
0000
0000
,
0100
1000
0000
0000
1000
0100
0000
0000
,
0100
0010
0000
0000
0001
0000
1000
0000
,
0100
0010
0010
0010
,
0001
0100
0001
1000
,
0001
0000
1000
0100
0010
0000
0010
0000
,
0001
0010
0001
1000
,
0001
0000
1000
0010
0100
0000
0100
0000
,
0001
0000
1000
0001
1000
0000
0001
0000
,
0100
0000
0010
0100
0010
0000
0100
0000
,
0001
0000
0100
0001
0100
0000
0001
0000
,
1000
0010
1000
0000
1010
0000
1001
0000
,
0100
0010
0001
0100
0010
0100
0001
0100
,
0100
0010
1000
0100
0010
0100
1000
0100
,
0001
1000
0100
0010
0100
0001
0100
1000
,
1000
0000
0000
0000
0001
0000
0000
0000
0100
0000
0000
0000
0010
0000
0000
0000
0200
0000
0000
0000
0000
0000
0000
0000
0000
1000
0000
0000
0000
0000
0000
0000
,
0301
0000
0000
0000
0001
0000
0000
0000
0001
0000
0000
1000
0100
0000
0000
0100
,
0010
0000
0000
0010
0001
0000
0000
0000
1001
0000
0000
0000
1010
0000
0000
0000
,
1000
0000
0000
0000
1000
0000
0000
0000
1000
0000
0000
0001
0100
0000
0000
0100
,
0010
0000
0000
0010
1000
0000
0000
0000
1001
0000
0000
0000
0011
0000
0000
0000
,
0001
0000
0001
1000
0001
0000
0000
0100
0001
0000
0000
1000
0100
0000
0000
0010
,
0100
0000
0100
1000
0100
0000
0000
0001
1000
0000
0000
0000
0011
0000
0000
0000
,
1000
0000
1000
0001
1000
0000
0000
0100
1000
0000
0000
0001
0100
0000
0000
0010
,
0100
0000
0100
0001
0100
0000
0000
1000
0001
0000
0100
0000
1000
0000
0010
0000
,
0000
0000
0000
0000
,
0001
0100
0001
0010
,
0100
1000
0001
1000
,
1000
0100
1000
0010
,
0100
0001
1000
0001
,
0001
0010
0001
0100
,
0010
1000
0001
1000
,
1000
0010
1000
0100
,
0010
0000
0001
0000
1000
0001
1000
0001
,
1000
1000
0100
0100
,
0010
0010
0001
0001
,
0010
0010
0100
0100
,
1000
1000
0001
0001
,
1000
0000
0100
0000
1000
0000
0100
1000
,
0001
0000
0100
0000
0001
0000
0100
0001
,
1000
0001
1000
0000
0001
1000
0001
0000
,
1000
0001
1000
0000
0001
0000
1001
0000
,
1000
0000
0000
0001
1000
0000
1000
0000
,
0001
0100
0010
1000
,
0001
0000
0000
1000
0001
0000
0001
0000
,
1000
0100
0010
0001
,
1000
0100
1000
0001
,
1000
0010
1000
0001
,
0010
0100
1000
0001
,
0100
0010
0010
0010
,
1000
0001
1000
0000
0001
0000
1000
0000
,
0001
0010
0100
1000
,
0001
1000
0001
0000
1000
0000
0001
0000
,
1000
0010
0100
0001
,
1000
0010
1000
0001
,
1000
0100
1000
0001
,
0100
0010
1000
0001
,
0010
0100
0100
0100
,
1000
0100
1000
0000
0001
0000
0001
0000
,
0010
1000
0010
0001
,
0001
0100
0001
0000
1000
0000
1000
0000
,
0010
0001
0010
1000
,
0001
1000
0001
0000
0100
0000
0100
0000
,
0001
0001
1000
1000
,
1100
0000
0000
1001
0000
0000
0011
0000
,
0110
0000
0000
1100
0000
0000
1001
0000
,
1000
0100
1000
0100
0010
0001
0010
0001
,
1000
0001
1000
0001
0100
0010
0100
0010
,
1000
0100
0001
0100
1000
0001
0010
0000
;

//---------------dance-double - ----------------
#NOTES:
     dance-double:
     :
     Easy:
     6:
     0.351,0.521,0.100,0.090,0.000:
00000000
00000000
00000000
00000000
,
00000000
00000000
00000000
00000000
,
00000000
00000000
00000000
00000000
,
00000000
00000000
00000000
00000000
,
00000000
00000000
00000000
00000000
,
00000000
00000000
00000000
00000000
,
00000000
00000000
00000000
00000000
,
00000000
00000000
00000000
00000000
,
10000000
00000000
01000000
00000000
,
00100000
00000000
00001000
00000000
,
00010000
00000000
00001000
00000000
,
00010000
00000000
00000010
00000000
,
00001000
00000000
00000001
00000000
,
00000100
00000000
00000010
00000000
,
00010000
00000000
00010000
00000000
,
00001000
00000000
00001000
00000000
,
01000000
00000000
01000000
00000000
,
00020000
00000000
00030000
00000000
,
01000000
00000000
01000000
00000000
,
00020000
00000000
00030000
00000000
,
00100000
00000000
00001000
00000000
,
00010000
00000000
00000010
00000000
,
00000100
00000000
00000001
00001000
,
00000200
00000000
00000300
00000000
,
00000010
00000000
00000010
00000000
,
00002000
00000000
00003000
00000000
,
00000010
00000000
00000010
00000000
,
00002000
00000000
00003000
00000000
,
00000100
00000000
00010000
00000000
,
00001000
00000000
00100000
00000000
,
01000000
00000000
10000000
00010000
,
02000000
00000000
03000000
00000000
,
10000000
00000000
10000000
00000000
,
00100000
00000000
01100000
00000000
,
01000000
00000000
01000000
00000000
,
00001000
00000000
00011000
00000000
,
00010000
00000000
00000100
00000000
,
00001000
00000000
00000010
00000000
,
00000100
00000000
00000010
00001000
,
00000001
00000000
00001001
00000000
,
00000001
00000000
00000001
00000000
,
00000010
00000000
00000110
00000000
,
00000100
00000000
00000100
00000000
,
00010000
00000000
00011000
00000000
,
00001000
00000000
01000000
00000000
,
00010000
00000000
00100000
00000000
,
01000000
00000000
00100000
00010000
,
10000000
00000000
10010000
00000000
,
10000000
00010000
00010000
01000000
,
01000000
00001000
00001000
00010000
,
00010000
00000100
00000100
00001000
,
00000001
00000010
00000002
00000000
,
00001003
00001000
00000001
00000001
,
00000100
00000010
00010000
00001000
,
00100000
00100000
01000000
01000000
,
10000000
00100000
01000000
00010000
,
01000000
01000000
00010000
00100000
,
00001000
00010000
00001000
00011000
,
00000010
00000010
00001000
00000001
,
00000100
00000001
00001000
00001001
,
00000000
00000000
00000000
00000000
,
00000001
00000000
00000100
00000000
,
00000001
00000000
00000010
00000000
,
00000100
00000000
00001000
00000000
,
00000100
00000000
00010000
00000000
,
00001000
00000000
00100000
00000000
,
00001000
00000000
01000000
00000000
,
00010000
00000000
10000000
00000000
,
00100000
00000000
01100000
00000000
,
01000000
00000000
00100000
00000000
,
10000000
01000000
10000000
00000000
,
00010000
00000000
00100000
00000000
,
00001000
00010000
00001000
00000000
,
00010000
00000000
00000100
00000000
,
00001000
00000010
00001000
00000000
,
00000001
00000000
00001000
00000000
,
00000001
00000000
00001001
00000000
,
00000100
00000000
00000100
00000000
,
00000001
00000001
00001000
00000000
,
00000100
00000000
00000100
00000000
,
00010000
00010000
00001000
00000000
,
00100000
00000000
00010000
00000000
,
01000000
00000000
00100000
00000000
,
10000000
00000000
00010000
01000000
,
00001000
00001000
00010000
00000000
,
00000010
00000000
00000010
00000000
,
00001000
00000001
00001000
00000000
,
00000100
00000000
00000100
00000000
,
00010000
00001000
00010000
00000000
,
00001000
00000000
00100000
00000000
,
00010000
00000000
01000000
00000000
,
00010000
00000000
10000000
00010000
,
01000000
00010000
10000000
00000000
,
00100000
01000000
00010000
00000000
,
01000000
00000000
01000000
00000000
,
00001000
00010000
00001000
00000000
,
00010000
00000000
00010000
00000000
,
00000010
00001000
00000010
00000000
,
00000001
00000100
00000001
00000000
,
00002000
00000000
00000000
00003000
,
00000020
00000000
00000000
00000030
,
00000100
00000000
00000010
00000000
,
00001000
00000000
00000100
00000000
,
00010000
00001000
00100000
01000000
;

//---------------dance-double - ----------------
#NOTES:
     dance-double:
     :
     Medium:
     8:
     0.485,0.677,0.151,0.060,0.000:
00000000
00000000
00000000
00000000
,
00000000
00000000
00000000
00000000
,
00000000
00000000
00000000
00000000
,
00000000
00000000
00000000
00000000
,
00000000
00000000
00000000
00000000
,
00000000
00000000
00000000
00000000
,
00000000
00000000
00000000
00000000
,
00000000
00000000
00000000
00000000
,
00100000
00000000
00100000
00000000
,
10000000
10000000
01000000
00000000
,
00100000
00000000
00100000
00000000
,
00001000
00001000
00010000
00000000
,
00000010
00000000
00000010
00000000
,
00000100
00000001
00000100
00000001
,
00001000
00000000
00000000
00001000
00000000
00000000
00001000
00000000
,
00000000
00000100
00000100
00000100
,
00010000
00000000
00010000
00001000
,
00200000
00000000
00000000
00300000
,
00010000
00000000
00010000
01000000
,
00200000
00000000
00000000
00300000
,
10000000
00000000
00100000
00000000
,
00010000
00000000
00001000
00000000
,
00000010
00000000
00000001
00001000
,
00000200
00000000
00000000
00000300
,
00001000
00000001
00001000
00000001
,
00000200
00000000
00000000
00000300
,
00001000
00010000
00001000
00010000
,
00200000
00000000
00000000
00300000
,
10000000
00000000
01000000
00000000
,
00010000
00000000
00100000
00000000
,
10000000
00000000
01000000
00010000
,
00001000
00000000
00010000
00010000
,
00000010
00001000
00000010
00000100
,
00000001
00000000
00000001
00000000
,
00000010
00000001
00000010
00000100
,
00001000
00000000
00001000
00000000
,
00000001
00000100
00001000
00000000
,
00010000
01000000
10000000
00000000
,
10000000
00000000
00100000
01000000
,
00100000
00000000
10000000
00010000
,
10000000
01000000
10000000
00010000
,
00100000
00001000
00100000
00000000
,
00001000
00010000
00000100
00010000
,
00000010
00001000
00000010
00000000
,
00001000
00000001
00000100
00000010
,
00001000
00000100
00000010
00000001
,
00000100
00001000
00010000
00100000
,
10000000
00010000
10010000
00000000
,
01000000
00100000
10000000
01000000
00010000
00000000
00001000
00000000
,
00000100
00000010
00001000
00000100
00000010
00000000
00000001
00000000
,
00000100
00000001
00000100
00001000
00010000
00000000
00100000
00000000
,
01000000
00100000
10000000
00010000
00200000
00000000
00000000
00000000
,
00310000
00000000
00010000
00000000
10000000
01000000
00000000
01000000
,
00100000
00010000
00000000
00010000
01000000
00000000
01010000
00000000
,
10000000
00000000
10000000
00000000
00100000
01000000
00000000
01000000
,
00001000
00010000
00000000
00010000
00001000
00000000
00011000
00000000
,
00000100
00000100
00001100
00001000
,
00000001
00000100
00000000
00000100
00000010
00000000
00000110
00000000
,
00001000
00000000
00001000
00000000
00000100
00010000
00000000
00010000
,
00001000
01000000
00000000
01000000
00010000
00000000
01010000
00000000
,
00000000
00000000
00000000
00000000
,
10000000
01000000
10000000
01000000
,
00100000
00010000
00100000
00000000
,
00010000
00100000
00010000
00100000
,
00001000
00010000
00001000
00000000
,
00010000
00001000
00010000
00000010
,
00001000
00000010
00001000
00000000
,
00000001
00000010
00000001
00000010
,
00000100
00001000
00000100
00001000
,
00000001
00000100
00000001
00000100
,
00001000
00010000
00001000
00000000
,
00100000
00010000
00100000
00010000
,
10000000
00100000
10000000
00000000
,
00010000
10000000
00010000
01000000
,
00100000
10000000
01000000
10000000
,
01000000
00010000
00001000
00000100
,
00000001
00000000
00001001
00000000
,
00000001
00000100
00000001
00000100
,
00001000
00000000
00000100
00000000
,
00001000
00010000
00001000
00010000
,
00100000
01000000
01000000
00000000
,
00010000
00000000
01010000
00000000
,
00001000
00000000
00011000
00000000
,
00000010
00000000
00000110
00000000
,
00000001
00000100
00000100
00000100
,
00000001
00000100
00001000
00010000
,
00100000
00000000
01000000
00000000
,
10000000
01000000
00010000
00001000
,
00000010
00000100
00000100
00000000
,
00001000
00000000
00001100
00000000
,
00010000
00000000
00011000
00000000
,
00100000
00000000
01100000
00000000
,
10000000
01000000
01000000
00000000
,
10000000
01000000
00100000
00010000
,
00100000
01000000
00010000
00001000
,
00000100
00000010
00000100
00000001
,
00001000
00000010
00000100
00000001
,
00000010
00001000
00010000
00100000
,
10000000
01000000
10000000
00000000
,
10010000
00000000
00000000
00010000
00000000
00000000
00010000
00000000
,
00110000
00000000
00000000
00100000
00000000
00000000
00100000
00000000
,
01000000
00010000
00001000
00000100
,
00000001
00000010
00001000
00010000
,
01000000
00000000
00010000
00000000
00001000
00000100
00000001
00000000
;

//---------------dance-double - ----------------
#NOTES:
     dance-double:
     :
     Hard:
     10:
     0.654,0.885,0.171,0.010,0.095:
00000000
00000000
00000000
00000000
,
00000000
00000000
00000000
00000000
,
00000000
00000000
00000000
00000000
,
00000000
00000000
00000000
00000000
,
00000000
00000000
00000000
00000000
,
00000000
00000000
00000000
00000000
,
00000000
00000000
00000000
00000000
,
00000000
00000000
00000000
00000000
,
10000000
00010000
10000000
01000000
,
00010000
00001000
00000100
00000100
,
00000001
00001000
00000001
00000100
,
00001000
00010000
01000000
01000000
,
10000000
00100000
01000000
00010000
,
10000000
01000000
00010000
01000000
,
00010000
00000000
00000000
00010000
00000000
00000000
00010000
00000000
,
00001000
00001000
00001000
00001000
,
00000100
00000001
00000100
00000001
,
00000100
00000010
00000100
00000010
,
00000100
00000001
00000100
00001000
,
00010000
00000000
00100000
00000000
,
10000000
01000000
00000000
00000000
01000000
00100000
00000000
00000000
,
00100000
01000000
00000000
00000000
01000000
00010000
00000000
00000000
,
00010000
00001000
00000000
00000000
00010000
00000000
00000010
00000000
,
00000100
00000000
00000100
00000010
00000100
00000000
00000000
00000000
,
00000001
00000000
00000001
00001000
00000001
00000000
00000100
00000000
,
00000010
00000000
00001000
00000100
00001000
00000000
00000100
00000000
,
00010000
00000000
00010000
00001000
00010000
00000000
00001000
00000000
,
00100000
00000000
00100000
00010000
00100000
00000000
01000000
00000000
,
10000000
01000000
00000000
00000000
01000000
00100000
00000000
00000000
,
00100000
01000000
00000000
00000000
01000000
00010000
00000000
00000000
,
00010000
00001000
00000000
00000000
00010000
00000000
00000010
00000000
,
00000100
00000000
00000100
00000010
00000100
00000000
00000000
00000000
,
00000001
00001000
00000001
00000100
,
00001000
00010000
00011000
00000000
,
00100000
00010000
00100000
01000000
,
10000000
00010000
10010000
00000000
,
00010000
00100000
00000000
00000000
00100000
01000000
00000000
00000000
,
01000000
00010000
00000000
00000000
00010000
00001000
00000000
00000000
,
00001000
00000010
00000000
00000000
00000100
00000000
00001000
00000000
,
00000001
00000010
00000010
00000010
,
00000001
00001000
00000010
00001000
,
00000001
00000000
00000100
00000010
00000100
00000000
00001000
00000000
,
00010000
00100000
10000000
01000000
,
10000000
00000000
00100000
01000000
00100000
00000000
10000000
00000000
,
00010000
00000000
10000000
00010000
10000000
00000000
00010000
00000000
,
01000000
00000000
00100000
01000000
00100000
00000000
01000000
00000000
,
00001000
00000000
00010000
00001000
00010000
00000000
00001000
00000000
,
00000100
00000100
00000110
00000110
,
00000001
00000010
00000100
00000010
00000001
00001000
00000001
00000010
,
00001000
00000010
00001000
00010000
00100000
10000000
00010000
01000000
,
00100000
10000000
01000000
00100000
00010000
00100000
01000000
10000000
,
00010000
00000000
00000000
00000000
01000000
00000000
00000000
00000000
10000000
00000000
00000000
00000000
01000000
00000000
00000000
00000000
00200000
00000000
00000000
00000000
00000000
00000000
00000000
00000000
00000000
10000000
00000000
00000000
00000000
00000000
00000000
00000000
,
01300000
00000000
00000000
00000000
01000000
00000000
00000000
00000000
01000000
00000000
00000000
00010000
00100000
00000000
00000000
00001000
,
00010000
00000000
00000000
00001000
00010000
00000000
00000000
00000000
00011000
00000000
00000000
00000000
00001010
00000000
00000000
00000000
,
00000001
00000000
00000000
00000000
00000001
00000000
00000000
00000000
00000001
00000000
00000000
00000010
00000100
00000000
00000000
00000100
,
00001000
00000000
00000000
00001000
00000010
00000000
00000000
00000000
00001100
00000000
00000000
00000000
00011000
00000000
00000000
00000000
,
00001000
00000000
00000000
00100000
00010000
00000000
00000000
10000000
00010000
00000000
00000000
01000000
00100000
00000000
00000000
00100000
,
10000000
00000000
00000000
00010000
01000000
00000000
00000000
00010000
10000000
00000000
00000000
00000000
10010000
00000000
00000000
00000000
,
00100000
00000000
00000000
01000000
00010000
00000000
00000000
00100000
00001000
00000000
00000000
00010000
00001000
00000000
00000000
00001000
,
00010000
00000000
00000000
00000100
00001000
00000000
00000000
00000010
00001000
00000000
00000001
00000000
00000100
00000000
00000010
00000000
,
00000000
00000000
00000000
00000000
,
00000001
00000100
00000010
00000100
,
00001000
00000100
00001000
00010000
,
00100000
01000000
00100000
10000000
,
01000000
00010000
01000000
10000000
,
00100000
00010000
00100000
10000000
,
01000000
00010000
00001000
00000010
,
00000001
00000100
00001000
00000100
,
00000001
00000000
00000100
00000000
00000010
00000100
00000010
00000100
,
00000010
00000010
00000100
00000100
,
00001000
00001000
00010000
00010000
,
00100000
00100000
01000000
01000000
,
00010000
00010000
10000000
10000000
,
00100000
00000000
10000000
00000000
00100000
00000000
10000000
00010000
,
01000000
00000000
00010000
00000000
00100000
00000000
00001000
00010000
,
00001000
00010000
00001000
00000000
00010000
00001000
00010000
00000000
,
00000010
00001000
00000010
00000000
00001000
00000000
00001001
00000000
,
00000100
00000000
00000000
00000010
00001000
00000000
00000001
00000000
,
00000010
00001000
00010000
01000000
,
10000000
00000000
00000000
00010000
01000000
00000000
00010000
00000000
,
10000000
01000000
00100000
01000000
,
10000000
01000000
00010000
00010000
,
00001000
00000100
00000001
00000001
,
00001000
00000010
00000100
00001000
,
00010000
00001000
00001000
00001000
,
00100000
00010000
00100000
00000000
00010000
00000000
10000000
00000000
,
00010000
00100000
01000000
10000000
,
01000000
00100000
01000000
00000000
00010000
00000000
00001000
00000000
,
00000010
00000001
00000101
00000000
,
00000001
00000100
00001000
00001000
,
00010000
00100000
10000000
10000000
,
01000000
00100000
00010000
10000000
,
00100000
01000000
01000000
01000000
,
00010000
00100000
00010000
00000000
01000000
00000000
01000000
00000000
,
00100000
00010000
00001000
00000010
,
00000100
00001000
00000100
00000000
00000010
00000000
00000010
00000000
,
00000001
00000100
00001000
00010000
,
00100000
10000000
00100000
00000000
01000000
00000000
01000000
00000000
,
00010000
00010000
10000000
10000000
,
11000000
00000000
00000000
01010000
00000000
00000000
00011000
00000000
,
00001100
00000000
00000000
00001001
00000000
00000000
00000101
00000000
,
00000001
00000100
00000001
00000100
00000010
00000100
00000010
00000100
,
00000010
00001000
00000010
00001000
00000100
00010000
00001000
00010000
,
00100000
10000000
01000000
00010000
00001000
00000100
00000001
00000000
;

//---------------dance-single - ----------------
#NOTES:
     dance-single:
     :
     Beginner:
     3:
     0.229,0.364,0.000,0.000,0.000:
0000
0000
0000
0000
,
0000
0000
0000
0000
,
0000
0000
0000
0000
,
0000
0000
0000
0000
,
0000
0000
0000
0000
,
0000
0000
0000
0000
,
0000
0000
0000
0000
,
0000
0000
0000
0000
,
1000
0000
1000
0000
,
0001
0000
0100
0000
,
0001
0000
0001
0000
,
1000
0000
0100
0000
,
0001
0000
1000
0000
,
1000
0000
0001
0000
,
0100
0000
0010
0000
,
0010
0000
0100
0000
,
0001
0000
0001
0000
,
0010
0000
0000
0000
,
1000
0000
1000
0000
,
0010
0000
0000
0000
,
0001
0000
0000
0000
,
0010
0000
0000
0000
,
0001
0000
0000
0000
,
0100
0000
0000
0000
,
1000
0000
1000
0000
,
0010
0000
0000
0000
,
0001
0000
0001
0000
,
0010
0000
0000
0000
,
1000
0000
0000
0000
,
0010
0000
0000
0000
,
1000
0000
0000
0000
,
0100
0000
0000
0000
,
0001
0000
0001
0000
,
0100
0000
0000
0000
,
1000
0000
1000
0000
,
0100
0000
0000
0000
,
0001
0000
0000
0000
,
0100
0000
0000
0000
,
0001
0000
0000
0000
,
0010
0000
0000
0000
,
1000
0000
1000
0000
,
0100
0000
0000
0000
,
0001
0000
0001
0000
,
0100
0000
0000
0000
,
1000
0000
0000
0000
,
0100
0000
0000
0000
,
1000
0000
0000
0000
,
0010
0000
0010
0000
,
0100
0000
0010
0010
,
0010
0000
1000
1000
,
1000
0000
0001
0001
,
0001
0000
0100
0000
,
0001
0001
0001
0000
,
1000
1000
1000
0000
,
0100
0100
0100
0000
,
0010
0010
0010
0000
,
0001
0000
0001
0000
,
1000
0000
1000
0000
,
0100
0000
0100
0000
,
0010
0000
0010
0010
,
0000
0000
0000
0000
,
1000
0000
1000
0000
,
0000
0000
0100
0000
,
0001
0000
0001
0000
,
0000
0000
0100
0000
,
0010
0000
0010
0000
,
0000
0000
1000
0000
,
0010
0000
0010
0000
,
0000
0000
0001
0000
,
0100
0000
1000
0000
,
0000
0000
1000
0000
,
0100
0000
0001
0000
,
0000
0000
0001
0000
,
0010
0000
0010
0000
,
0000
0000
0100
0000
,
1000
0000
0001
0000
,
1000
0000
0001
0000
,
0100
0000
0100
0000
,
0010
0000
0000
0000
,
0100
0000
0100
0000
,
0010
0000
0000
0000
,
0100
0000
0001
0000
,
0010
0000
0001
0000
,
0100
0000
0010
0000
,
1000
0000
0000
0000
,
0100
0000
0100
0000
,
0010
0000
0000
0000
,
0100
0000
0100
0000
,
0010
0000
0000
0000
,
0100
0000
1000
0000
,
0010
0000
1000
0000
,
0100
0000
0010
0000
,
0001
0000
0000
0000
,
1000
0000
0100
0000
,
1000
0000
0000
0000
,
0001
0000
0100
0000
,
0001
0000
0000
0000
,
0100
0000
0100
0000
,
0010
0000
0010
0000
,
1000
0000
1000
0000
,
0001
0000
0001
0000
,
0100
0000
0100
0000
,
0010
0000
0010
0000
,
0100
0000
0000
0010
;

//---------------dance-single - ----------------
#NOTES:
     dance-single:
     :
     Challenge:
     9:
     0.525,0.677,0.090,0.010,0.000:
0000
0000
0000
0000
,
0000
0000
0000
0000
,
0000
0000
0000
0000
,
0000
0000
0000
0000
,
0000
0000
0000
0000
,
0000
0000
0000
0000
,
0000
0000
0000
0000
,
0000
0000
0000
0000
,
1000
0001
1000
0000
,
1000
1000
0100
0000
,
0001
1000
0001
0000
,
0001
0001
0100
0000
,
1000
0001
1000
0000
,
0001
1000
0001
0000
,
1000
0000
0000
1000
0000
0000
1000
0000
,
0000
0001
0001
0001
,
1000
0000
1000
0100
,
0001
0000
0001
0000
,
0001
0000
0001
0100
,
1000
0000
1000
0000
,
1000
0100
0000
0000
0100
0010
0000
0000
,
0010
0001
0000
0000
0001
0010
0000
0000
,
0010
0100
0000
0000
1000
0000
0001
0000
,
0100
0000
0100
0000
,
0001
1000
0001
0100
,
0001
1000
1000
0000
,
1000
0001
1000
0100
,
1000
0001
0001
0000
,
0100
0001
0100
0010
,
0100
1000
0100
0001
,
1000
0000
0000
0100
0010
0000
0001
0000
,
0100
0000
0100
0000
,
1000
0000
0000
0100
1000
0000
0100
0000
,
0010
0000
0000
0100
0010
0000
0000
0000
,
0001
0000
0000
0100
0001
0000
0100
0000
,
0010
0000
0000
0100
0010
0000
0000
0000
,
1000
0000
0000
0100
0010
0000
0000
0001
,
1000
0000
0000
0010
0100
0000
0000
0001
,
1000
0000
0000
0100
0010
0000
0001
0000
,
0100
0100
0100
0100
,
0001
0000
0000
0100
0001
0000
0100
0000
,
0010
0000
0010
0000
,
1000
0000
0000
0100
1000
0000
0100
0000
,
0010
0000
0010
0000
,
0001
0000
0000
0100
0010
0000
0000
1000
,
0001
0000
0000
0010
0100
0000
0000
1000
,
0001
0000
0000
0100
0010
0000
1000
0000
,
0001
1000
0001
1001
,
0100
0001
0010
0100
1000
0000
1000
0000
,
0100
1000
0010
0100
0001
0000
0001
0000
,
0010
0001
0100
0010
1000
0000
1000
0000
,
0010
1000
0100
0010
0200
0000
0000
0000
,
0301
0000
0001
0000
0001
1000
0000
0001
,
0100
0010
0000
0010
0100
0000
1010
0000
,
1000
0000
1000
0000
1000
0001
0000
1000
,
0100
0010
0000
0010
0100
0000
0011
0000
,
0001
1000
0001
0000
0001
0100
0000
1000
,
0001
0010
0000
0100
1000
0000
0110
0000
,
1000
0001
1000
0000
1000
0100
0000
0001
,
1000
0010
0000
0100
0001
0000
0110
0000
,
0000
0000
0000
0000
,
0001
0100
0001
0001
,
1000
1000
0100
0000
,
1000
0100
1000
1000
,
0001
0001
0100
0000
,
1000
0000
1000
0000
,
0001
0100
0010
1000
,
0000
0001
0001
0001
,
1000
0000
1001
0000
,
0001
0000
0001
0000
,
1000
0100
0010
0001
,
0000
1000
1000
1000
,
0001
0000
1001
0000
,
1000
0100
1000
0100
,
0001
0001
0001
0000
,
0001
0100
0001
0100
,
1000
1000
1000
0000
,
0001
0100
0001
1000
,
0010
0000
0000
0000
0001
1000
0000
0100
,
1000
0100
1000
0001
,
0010
0000
0000
1000
0001
0000
0100
0000
,
1000
0100
0010
0100
,
0001
0100
0010
0100
,
0001
0100
0010
1000
,
0001
0100
0100
0100
,
1000
0100
1000
0001
,
0010
0000
0000
0000
1000
0001
0000
0100
,
0001
0100
0001
1000
,
0010
0000
0000
0001
1000
0000
0100
0000
,
0001
0100
0010
0100
,
1000
0100
0010
0100
,
1000
0100
0010
0001
,
1000
0100
0100
0000
,
0001
0000
1000
0100
1000
0000
0001
0000
,
0100
0010
0010
0000
,
1000
0000
0001
0100
0001
0000
1000
0000
,
0100
0010
0010
0000
,
0001
0000
1000
0100
1000
0000
0001
0000
,
1000
0000
0001
0100
0001
0000
1000
0000
,
0100
0000
0000
0100
0000
0000
1001
0000
,
0010
0000
0000
0010
0000
0000
1001
0000
,
0100
1000
0100
0001
,
0010
1000
0010
0001
,
0100
0010
1000
0001
;

//---------------dance-double - ----------------
#NOTES:
     dance-double:
     :
     Challenge:
     9:
     0.519,0.677,0.090,0.010,0.000:
00000000
00000000
00000000
00000000
,
00000000
00000000
00000000
00000000
,
00000000
00000000
00000000
00000000
,
00000000
00000000
00000000
00000000
,
00000000
00000000
00000000
00000000
,
00000000
00000000
00000000
00000000
,
00000000
00000000
00000000
00000000
,
00000000
00000000
00000000
00000000
,
00100000
00010000
01000000
00000000
,
00100000
10000000
01000000
00000000
,
00010000
00001000
00000100
00000000
,
00000010
00001000
00000100
00000000
,
00000010
00000001
00001000
00000000
,
00000001
00000100
00001000
00000000
,
00010000
00000000
00000000
00010000
00000000
00000000
00010000
00000000
,
00000000
01000000
01000000
01000000
,
10000000
00000000
10000000
01000000
,
00010000
00000000
00010000
00000000
,
00001000
00000000
00001000
00000100
,
00000001
00000000
00000001
00000000
,
00000001
00000100
00000000
00000000
00000100
00000010
00000000
00000000
,
00000010
00000100
00000000
00000000
00000100
00001000
00000000
00000000
,
00001000
00010000
00000000
00000000
00001000
00000000
00100000
00000000
,
01000000
00000000
01000000
00000000
,
10000000
00010000
10000000
00100000
,
10000000
01000000
00010000
00000000
,
00001000
00000100
00000001
00000100
,
00000010
00000100
00000001
00000000
,
00001000
00000100
00001000
00000010
,
00000100
00000001
00000100
00001000
,
00010000
00000000
00000000
00100000
01000000
00000000
00010000
00000000
,
01000000
00000000
01000000
01000000
,
00010000
00000000
00000000
10000000
01000000
00000000
10000000
00000000
,
00100000
00000000
00000000
01000000
00100000
00000000
00000000
00000000
,
01000000
00000000
00000000
00001000
00010000
00000000
00001000
00000000
,
00000100
00000000
00000000
00000010
00000100
00000000
00000000
00000000
,
00000001
00000000
00000000
00001000
00000100
00000000
00000000
00010000
,
00001000
00000000
00000000
00100000
00010000
00000000
00000000
10000000
,
00010000
00000000
00000000
01000000
00100000
00000000
10000000
00000000
,
00010000
01000000
01000000
01000000
,
10000000
00000000
00000000
00100000
01000000
00000000
00010000
00000000
,
00100000
00000000
00100000
00000000
,
00001000
00000000
00000000
00010000
00001000
00000000
00010000
00000000
,
00000100
00000000
00000100
00000000
,
00000001
00000000
00000000
00001000
00000010
00000000
00000000
00010000
,
00001000
00000000
00000000
01000000
00010000
00000000
00000000
10000000
,
00010000
00000000
00000000
00100000
01000000
00000000
10000000
00000000
,
00100000
01000000
00100000
00000000
,
10000000
01000000
00100000
00010000
10000000
00000000
01000000
00000000
,
00010000
00001000
00000100
00000001
00000100
00000000
00000010
00000000
,
00000100
00000010
00000100
00000001
00000100
00000000
00001000
00000000
,
00010000
00000000
01000000
10000000
02000000
00000000
00000000
00000000
,
13000000
00000000
10000000
00000000
10000000
00100000
00000000
01000000
,
00010000
00100000
00000000
00100000
01000000
00000000
01100000
00000000
,
00010000
00000000
00010000
00000000
00010000
01000000
00000000
00001000
,
00010000
00000100
00000000
00000100
00001000
00000000
00001010
00000000
,
00000100
00000000
00000100
00000000
00000100
00000010
00000000
00001000
,
00000100
00000010
00000000
00000001
00001000
00000000
00011000
00000000
,
00100000
00000000
00100000
00000000
00100000
01000000
00000000
01000000
,
10000000
00100000
00000000
01000000
00010000
00000000
01010000
00000000
,
00000000
00000000
00000000
00000000
,
10000000
00100000
10000000
01000000
,
00010000
00001000
00000100
00000000
,
00000001
00000010
00000001
00000100
,
00001000
00010000
01000000
00000000
,
10000000
00000000
10000000
00000000
,
00100000
01000000
00100000
10000000
,
00000000
00010000
00010000
00010000
,
01000000
00000000
00011000
00000000
,
00000010
00000000
00000010
00000000
,
00001000
00000100
00001000
00000001
,
00000000
00001000
00001000
00001000
,
00000100
00000000
00011000
00000000
,
01000000
00010000
01000000
00010000
,
10000000
10000000
10000000
00000000
,
00010000
01000000
00010000
01000000
,
00001000
00000000
00011000
00000000
,
00000010
00001000
00000010
00000100
,
00000001
00000000
00000000
00000000
00000100
00000010
00000000
00001000
,
00000001
00000100
00001000
00010000
,
00100000
00000000
00000000
10000000
00010000
00000000
01000000
00000000
,
10000000
01000000
00100000
01000000
,
00010000
01000000
00001000
00010000
,
00000100
00001000
00000010
00001000
,
00000100
00010000
00010000
00010000
,
00001000
00100000
00010000
01000000
,
00100000
00000000
00000000
00000000
00100000
01000000
00000000
00010000
,
10000000
01000000
00010000
00001000
,
00000010
00000000
00000000
00000001
00001000
00000000
00000010
00000000
,
00000001
00000010
00000100
00000010
,
00001000
00000010
00010000
00001000
,
00100000
00010000
10000000
00010000
,
01000000
00100000
00100000
00000000
,
10000000
00000000
00010000
01000000
00010000
00000000
00100000
00000000
,
00001000
00010000
00010000
00000000
,
00001000
00000000
00010000
00001000
00010000
00000000
00000100
00000000
,
00001000
00000001
00000001
00000000
,
00001000
00000000
00000010
00000100
00000010
00000000
00001000
00000000
,
00000100
00000000
00010000
00001000
00010000
00000000
00001000
00000000
,
01000000
00000000
00000000
00010000
00000000
00000000
01010000
00000000
,
10000000
00000000
00000000
00100000
00000000
00000000
10100000
00000000
,
01000000
10000000
01000000
00010000
,
00001000
00010000
01000000
10000000
,
01000000
00010000
00001000
00000010
;

//---------------dance-double - ----------------
#NOTES:
     dance-double:
     :
     Beginner:
     1:
     0.122,0.208,0.060,0.000,0.000: // measure 1
00000000
00000000
00000000
00000000
,  // measure 2
00000000
00000000
00000000
00000000
,  // measure 3
00000000
00000000
00000000
00000000
,  // measure 4
00000000
00000000
00000000
00000000
,  // measure 5
00000000
00000000
00000000
00000000
,  // measure 6
00000000
00000000
00000000
00000000
,  // measure 7
00000000
00000000
00000000
00000000
,  // measure 8
00000000
00000000
00000000
00000000
,  // measure 9
10000000
00000000
00000000
00000000
,  // measure 10
00000000
00000000
00000000
00000000
,  // measure 11
01000000
00000000
00000000
00000000
,  // measure 12
00000000
00000000
00000000
00000000
,  // measure 13
00010000
00000000
00000000
00000000
,  // measure 14
00000000
00000000
00000000
00000000
,  // measure 15
00001000
00000000
00000000
00000000
,  // measure 16
00000000
00000000
00000000
00000000
,  // measure 17
00000100
00000000
00000000
00000000
,  // measure 18
00000000
00000000
00000000
00000000
,  // measure 19
00001001
00000000
00000000
00000000
,  // measure 20
00000000
00000000
00000000
00000000
,  // measure 21
00001000
00000000
00000000
00000000
,  // measure 22
00000000
00000000
00000000
00000000
,  // measure 23
00000100
00000000
00000000
00000000
,  // measure 24
00000000
00000000
00000000
00000000
,  // measure 25
00010000
00000000
00000000
00000000
,  // measure 26
00000000
00000000
00000000
00000000
,  // measure 27
00001000
00000000
00000000
00000000
,  // measure 28
00000000
00000000
00000000
00000000
,  // measure 29
00010000
00000000
00000000
00000000
,  // measure 30
00000000
00000000
00000000
00000000
,  // measure 31
00010000
00000000
00000000
00000000
,  // measure 32
00000000
00000000
00000000
00000000
,  // measure 33
10000000
00000000
00000000
00000000
,  // measure 34
00000000
00000000
00000000
00000000
,  // measure 35
00100000
00000000
00000000
00000000
,  // measure 36
00000000
00000000
00000000
00000000
,  // measure 37
00010000
00000000
00000000
00000000
,  // measure 38
00000000
00000000
00000000
00000000
,  // measure 39
00001000
00000000
00000000
00000000
,  // measure 40
00001000
00000000
00000000
00000000
,  // measure 41
00010000
00000000
00000000
00000000
,  // measure 42
00010000
00000000
00000000
00000000
,  // measure 43
00001000
00000000
00000000
00000000
,  // measure 44
00001000
00000000
00000000
00000000
,  // measure 45
00000100
00000000
00000000
00000000
,  // measure 46
00000100
00000000
00000000
00000000
,  // measure 47
00000001
00000000
00000000
00000000
,  // measure 48
00000001
00000000
00000000
00000000
,  // measure 49
00001001
00000000
00000000
00000000
,  // measure 50
00000100
00000000
00000000
00000000
,  // measure 51
00001000
00000000
00000000
00000000
,  // measure 52
00010000
00000000
00001000
00000000
,  // measure 53
00010000
00000000
00000000
00000000
,  // measure 54
01000000
00000000
00000000
00000000
,  // measure 55
10000000
00000000
00000000
00000000
,  // measure 56
00100000
00000000
00000000
00000000
,  // measure 57
01000000
00000000
00000000
00000000
,  // measure 58
00100000
00000000
00000000
00000000
,  // measure 59
10000000
00000000
00000000
00000000
,  // measure 60
01000000
00000000
00000000
00000000
,  // measure 61
00010000
00000000
00000000
00000000
,  // measure 62
00001000
00000000
00000000
00000000
,  // measure 63
00001000
00000000
00000000
00000000
,  // measure 64
00010000
00000000
00000000
00000000
,  // measure 65
00010000
00000000
00000000
00000000
,  // measure 66
00000100
00000000
00000000
00000000
,  // measure 67
00000100
00000000
00000000
00000000
,  // measure 68
00001000
00000000
00000000
00000000
,  // measure 69
00001000
00000000
00000000
00000000
,  // measure 70
00000001
00000000
00000000
00000000
,  // measure 71
00000001
00000000
00000000
00000000
,  // measure 72
00000100
00000000
00000000
00000000
,  // measure 73
00001000
00000000
00000000
00000000
,  // measure 74
00010000
00000000
00000000
00000000
,  // measure 75
00001000
00000000
00000000
00000000
,  // measure 76
00010000
00000000
00000000
00000000
,  // measure 77
01000000
00000000
00000000
00000000
,  // measure 78
10010000
00000000
00000000
00000000
,  // measure 79
00000000
00000000
00000000
00000000
,  // measure 80
01100000
00000000
00000000
00000000
,  // measure 81
00000000
00000000
00000000
00000000
,  // measure 82
01000000
00000000
00000000
00000000
,  // measure 83
00010000
00000000
00000000
00000000
,  // measure 84
00001000
00000000
00000000
00000000
,  // measure 85
00000100
00000000
00000000
00000000
,  // measure 86
00000110
00000000
00000000
00000000
,  // measure 87
00000000
00000000
00000000
00000000
,  // measure 88
00001001
00000000
00000000
00000000
,  // measure 89
00000000
00000000
00000000
00000000
,  // measure 90
00000100
00000000
00000000
00000000
,  // measure 91
00001000
00000000
00000000
00000000
,  // measure 92
00010000
00000000
00000000
00000000
,  // measure 93
01000000
00000000
00000000
00000000
,  // measure 94
10000000
00000000
00000000
00000000
,  // measure 95
10000000
00000000
00000000
00000000
,  // measure 96
00010000
00000000
00000000
00000000
,  // measure 97
00010000
00000000
00000000
00000000
,  // measure 98
00100000
00000000
00000000
00000000
,  // measure 99
00100000
00000000
00000000
00000000
,  // measure 100
00001000
00000000
00000000
00000000
,  // measure 101
00001000
00000000
00000000
00000000
,  // measure 102
00010000
00000000
00000000
00000000
,  // measure 103
00001000
00000000
00000000
00000000
,  // measure 104
00000100
00000000
00000000
00000001
;

//---------------dance-single - ----------------
#NOTES:
     dance-single:
     :
     Edit:
     10:
     0.734,0.989,0.281,0.311,0.040:
0000
0000
0000
0000
,
0000
0000
0000
0000
,
0000
0000
0000
0000
,
0000
0000
0000
0000
,
0000
0000
0000
0000
,
0000
0000
0000
0000
,
0000
0000
0000
0000
,
0000
0000
0000
0000
,
1000
0000
0000
1000
0000
0000
0000
0000
,
1000
0000
1000
0000
1000
0000
1000
0100
,
0010
0000
0000
0010
0000
0000
0000
0000
,
0010
0000
0010
0000
0010
0000
0010
0100
,
0001
0000
0000
0001
0000
0000
0000
0000
,
0001
0000
0001
0000
0001
0000
0001
0100
,
1000
0000
0000
1000
0000
0000
1000
0000
,
0000
1000
0010
0100
0001
1000
0100
0010
,
0001
1000
0100
1000
,
0011
0100
0001
1000
,
0110
0100
0001
1000
,
0120
0000
0000
0030
,
2100
3100
0020
0031
,
0021
0031
0200
0310
,
1020
1030
0200
0310
,
0012
0000
1003
0100
1000
0000
0000
0000
,
0001
0100
1000
0100
,
0010
0000
1000
0100
0010
0000
0100
0000
,
0001
0100
0010
0001
,
0100
0000
0001
0100
0010
0000
1000
0000
,
2001
0000
3100
0010
0002
0000
0103
0010
,
2000
0000
3001
0010
0200
0000
1300
0001
,
0020
0000
0130
1000
0002
0000
1003
0010
,
0200
0000
0301
1000
0001
0000
1000
0000
,
0010
0100
0001
1000
,
0100
0010
1001
0000
,
0001
0100
0001
0100
0010
0100
0010
0100
,
0010
1000
0001
0000
1001
0000
0000
0000
,
0102
0103
0020
1030
,
2100
3100
0020
0031
,
1002
1003
0020
0130
,
0102
0000
0000
0000
0010
0000
0000
0000
0010
0000
0000
0000
0013
0000
0000
0100
,
2000
0000
0100
0000
,
0001
0000
0100
0000
,
0001
0000
0010
0000
,
0100
0000
3020
0000
,
2030
0000
0001
0000
,
0100
0000
0010
0000
,
3002
0000
1000
1003
,
0020
0000
0130
0001
1000
0100
0010
0001
,
0200
0301
0010
0001
0100
0001
0010
0001
,
0100
0000
0001
0000
0010
0000
0001
0000
0100
0000
0001
0000
0010
0000
0001
1000
,
0020
1030
0100
1000
0010
1000
0001
1000
,
0100
0000
0000
0000
0000
0000
0010
0000
0000
0000
0000
0000
0001
0000
0000
0000
0000
0000
1000
0000
0000
0000
0000
0001
0020
0000
0000
0000
0000
0000
0000
0000
0000
0000
0000
0000
0000
0000
0000
1000
0000
0000
0000
0000
0000
0000
0000
0000
,
0031
1000
0010
0100
0001
1000
0010
0100
,
0001
1000
0010
0100
0001
1000
0010
0100
,
0001
1000
0010
0100
0001
1000
0010
1000
,
0001
0100
0010
1000
0002
0100
1000
0013
,
0110
0110
0110
0000
,
0000
1100
0000
0001
0001
0000
0000
0000
,
1010
0000
0000
0000
0000
0000
0000
0000
1010
0000
0000
0000
0000
0000
0000
0000
1010
0000
0000
0000
0000
0101
0000
0000
0000
0000
0000
0000
1001
0000
0000
0000
,
0000
1100
0000
0011
0001
0100
0010
1000
,
0000
0000
0000
0000
0010
0000
0000
0000
0000
0010
0000
0000
0000
0000
0000
0010
0000
0000
0000
0000
0000
0000
0000
0000
0010
0000
0000
0000
0000
0000
0000
0000
0000
0000
0000
0000
0010
0000
0000
0000
0000
0000
0000
0000
0000
0000
0000
0000
,
1000
0100
0010
0100
,
1000
0001
0010
0100
,
0010
0001
0100
0010
,
0100
0001
1000
0010
,
0100
0010
1000
0100
,
0001
0100
1000
0010
,
0100
0001
0010
1000
,
0010
0000
0001
0000
1000
0010
0100
0001
,
1000
0100
0010
0001
,
0010
1000
0010
0001
,
0100
0010
1000
0001
,
0010
0000
0100
0000
1000
0000
0001
0100
,
0001
1000
0010
0100
,
0001
0000
0010
0000
0100
0000
1000
0100
,
1000
0001
0100
0000
0001
1000
0001
0000
,
1000
0010
0100
0001
1000
0100
0010
0001
,
0100
0010
0100
0000
0000
0000
0001
0000
,
0001
0000
0010
0100
,
1000
0001
1000
0000
0000
0000
0010
0000
,
0010
0000
1000
0010
,
0100
0001
0100
0000
0000
0000
0001
0000
,
0001
0000
1000
0100
,
1000
0010
0001
0100
,
1000
0000
1001
0000
,
1000
0100
0010
0000
0000
0000
0100
0000
,
0100
0000
1000
0001
,
1000
0010
0100
0000
0000
0000
0001
0000
,
0001
0000
1000
0100
,
1000
0001
0010
0000
0000
0000
0100
0000
,
0100
0000
0001
0100
,
0001
0010
1000
0100
,
0001
0010
0010
0000
,
0100
1000
0001
0100
0001
1000
0100
1000
,
0001
0100
0001
1000
0100
1000
0001
0100
,
0001
1000
0100
1000
0001
0100
0001
1000
,
0100
1000
0001
0010
0001
1000
0010
1000
,
0001
0010
0100
0010
0001
1000
0100
0010
,
0100
1000
0001
0100
0010
1000
0001
0010
,
1000
0000
0000
0110
0000
0000
1000
0100
,
0010
0000
0000
0110
0000
0000
0001
0100
,
0010
1000
0010
0100
0010
0100
1000
0100
,
0001
0100
0010
1000
0100
0010
1000
0010
,
0001
1000
0010
0100
0001
1000
0010
0000
;
