#TITLE:S·A·G·A;
#SUBTITLE:;
#ARTIST:Veeton;
#TITLETRANSLIT:;
#SUBTITLETRANSLIT:;
#ARTISTTRANSLIT:;
#CREDIT:;
#BANNER:SAGA.png;
#BACKGROUND:SAGA-bg.png;
#LYRICSPATH:;
#CDTITLE:./CDTITLES/Dance Dance Revolution SuperNOVA 2.png;
#MUSIC:SAGA.mp3;
#OFFSET:-0.015;
#SAMPLESTART:0.040;
#SAMPLELENGTH:14.980;
#SELECTABLE:YES;
#BPMS:0.000=200.000,96.000=205.500,100.000=211.000,104.000=216.500,108.000=222.000,112.000=227.500,116.000=233.000,120.000=238.500,124.000=244.000,128.000=200.000;
#STOPS:;
#BGCHANGES:;

//---------------dance-single - ----------------
#NOTES:
     dance-single:
     :
     Beginner:
     2:
     0.206,0.368,0.000,0.000,0.000:
0000
0000
0000
0000
,
0000
0000
0000
0000
,
0000
0000
0000
0000
,
0000
0000
0000
0000
,
0000
0001
0000
0000
,
0000
1000
0000
0000
,
0000
0100
0000
0000
,
0000
0010
0000
0000
,
0000
0100
0000
0000
,
0000
1000
0000
0000
,
0000
0010
0000
0000
,
0000
0001
0000
0000
,
0000
0010
0000
0000
,
0000
0100
0000
0000
,
0001
0000
0000
0000
,
0000
0000
0000
0000
,
0001
0000
0001
0000
,
0010
0000
0010
0000
,
0100
0000
0100
0000
,
0001
0000
1000
0000
,
0001
0000
0001
0000
,
1000
0000
1000
0000
,
0100
0000
0100
0000
,
0010
0000
0000
0000
,
1000
1000
0000
0000
,
0010
0010
0000
0000
,
0001
0001
0000
0000
,
1000
1000
0000
0000
,
0001
0001
0000
0000
,
0010
0010
0000
0000
,
0100
0100
0000
0000
,
1000
0000
0000
0000
,
0001
0000
0000
0000
,
0010
0000
0000
0000
,
0100
0000
0000
0000
,
0001
0000
0000
0000
,
1000
0000
1000
0000
,
0001
0000
0001
0000
,
0010
0000
0010
0000
,
0001
0000
0000
0000
,
0100
0000
0010
0000
,
0010
0000
0000
0000
,
0001
0000
0001
0000
,
0100
0000
0000
0000
,
0010
0000
1000
0000
,
0100
0000
0000
0000
,
1000
0000
0100
0000
,
0001
0000
0000
0000
,
0000
0010
0000
0000
,
0000
1000
0000
0000
,
0000
0001
0000
0000
,
0000
0010
0000
0000
,
0010
0010
0010
0010
,
0010
0010
0010
0010
,
0010
0010
0010
0010
,
0010
0000
0000
0000
,
1000
1000
1000
0000
,
0010
0010
0010
0000
,
0100
0100
0100
0000
,
0001
0001
0001
0000
,
0010
0010
0010
0000
,
0001
0001
0001
0000
,
1000
1000
1000
0000
,
0010
0000
0000
0000
,
0010
0010
0010
0000
,
0100
0100
0100
0000
,
0001
0001
0001
0000
,
1000
1000
1000
0000
,
0100
0100
0100
0000
,
0010
0010
0010
0000
,
0000
0001
0000
0001
,
0000
0100
0000
0100
,
0000
0010
0000
0010
,
0000
0001
0000
0001
,
0000
1000
0000
1000
,
0000
0010
0000
0010
,
0000
0001
0000
0001
,
0000
1000
0000
1000
;

//---------------dance-single - ----------------
#NOTES:
     dance-single:
     :
     Easy:
     5:
     0.370,0.368,0.274,0.126,0.000:
0000
0000
0000
0000
,
0000
0000
0000
0000
,
0000
0000
0000
0000
,
0000
0000
0000
0000
,
0000
0001
0000
0001
,
0000
1000
0000
1000
,
0000
0100
0000
0100
,
0000
0010
0000
0010
,
1001
0100
0000
0100
,
0000
1000
0000
1000
,
0000
0010
0000
0010
,
0000
0001
0000
0001
,
0000
0010
0000
0010
,
0000
0100
0000
0100
,
0002
0000
0000
0000
,
0000
0000
1000
1003
,
0001
0010
0011
0000
,
0010
1000
1010
0000
,
0100
0010
0110
0000
,
0001
0010
0100
0100
,
0001
0010
0011
0000
,
1000
0001
1001
0000
,
0100
0001
0100
1000
,
0020
0000
0000
0030
,
0010
0100
1100
0000
,
0010
0100
0101
0000
,
0010
1000
1100
0000
,
0010
1000
0101
0000
,
0001
0100
1100
0000
,
0001
0010
0110
0000
,
0100
0001
0010
0001
,
0200
0000
0000
0300
,
0002
0003
2000
3000
,
0020
0030
0100
0100
,
0200
0300
2000
3000
,
0002
0003
0010
0010
,
1000
0010
1010
0000
,
0001
1000
0110
0000
,
0010
1000
0001
0010
,
0002
0000
0000
0003
,
0100
1000
0010
0001
,
0010
0000
0001
0010
,
0001
1000
0010
0001
,
0100
0000
1000
0001
,
0010
0001
0100
0010
,
0100
0000
0100
0010
,
1000
0001
0100
0001
,
0010
0100
0001
0000
,
0001
0010
0000
0010
,
0000
1000
0000
1000
,
0100
0001
0000
0001
,
0000
1000
0000
1000
,
0010
0100
0010
0100
,
0010
0100
0010
0100
,
0001
0100
1000
0100
,
0002
0000
0000
0003
,
1000
0001
1010
0000
,
0100
0010
1001
0000
,
0100
0001
0011
0000
,
0100
0010
0100
0100
,
0001
0010
1010
0000
,
0001
1000
0110
0000
,
0010
0001
0100
0001
,
0020
0000
0000
0030
,
0001
0010
1100
0000
,
0010
1000
0110
0000
,
0001
1000
0101
0000
,
0010
0001
1000
0100
,
1000
0010
0101
0000
,
1000
0001
0110
0000
,
1000
0001
0000
0001
,
0000
0100
0000
0100
,
1000
0010
0000
0010
,
0000
0001
1001
1001
,
0100
1000
0000
1000
,
0000
0010
0000
0010
,
0000
0001
0000
0001
,
0010
1000
0100
0001
;

//---------------dance-single - ----------------
#NOTES:
     dance-single:
     :
     Medium:
     7:
     0.489,0.533,0.337,0.126,0.005:
0000
0000
0000
0000
,
0000
0000
0000
0000
,
0000
0000
0000
0000
,
0000
0000
0000
0000
,
0000
1000
0000
1000
,
0000
0001
0000
0001
,
0000
0100
0000
0100
,
0000
0010
0000
0010
,
1001
0100
1000
0100
,
0000
0001
1000
0001
,
0000
0100
0010
0100
,
0000
0001
0010
0001
,
0000
0010
1000
0010
,
0000
0100
0001
0100
,
2000
0000
0000
0000
,
0000
0000
0001
3001
,
1000
0000
0010
0000
1010
0000
1000
0001
,
0010
0000
0001
0000
0011
0000
0001
1000
,
0100
0000
0010
0000
0110
0000
0010
0001
,
1000
0010
0101
0101
,
1000
0000
0010
0000
1010
0000
0010
0100
,
0001
0000
1000
0000
1001
0000
0010
1000
,
0100
1000
0100
0001
,
0020
0000
0000
0030
,
0010
0000
0100
0000
0101
0000
0001
1000
,
0010
0000
0100
0000
1100
0000
1000
0001
,
0010
0000
0001
0000
0101
0000
0001
1000
,
0010
0000
0001
0000
1100
0000
0010
0001
,
1000
0000
0100
0000
0101
0000
0100
0010
,
1000
0000
0010
0000
0110
0000
1000
0001
,
0100
1000
0010
1000
,
0200
0000
0000
0300
,
2000
0000
0002
3000
,
0020
0033
0100
0001
,
0200
0000
0002
0300
,
2000
3003
0010
0100
,
0001
0000
0010
0000
0011
0000
0010
0100
,
1000
0000
0001
0000
0110
0000
1000
0001
,
0010
0001
0100
0010
,
2000
0000
0000
3000
,
0100
0000
0001
0010
0000
1000
0000
0010
,
0000
0100
0000
0010
1000
0000
0010
0000
,
1000
0000
0001
0010
0000
1000
0000
0001
,
0100
0000
0001
1000
,
0010
0000
1000
0100
0000
0010
0000
0100
,
0000
1000
0000
0001
0100
0000
0010
0000
,
0001
0000
1000
0100
0000
1000
0000
0100
,
0010
0100
1000
0011
,
1000
0010
0000
0010
,
0000
0001
0000
0001
,
0100
1000
0000
1000
,
0000
0100
0000
0100
,
0010
1000
0100
0000
0010
0001
0100
0000
,
0010
1000
0100
0000
0010
0001
0100
0000
,
0001
0010
0100
1000
0100
0010
0001
0000
,
2000
0000
0000
3000
,
0001
0000
1000
0000
0011
0000
0001
1000
,
0100
0000
0010
0000
1010
0000
1000
0001
,
0100
0000
1000
0000
0011
0000
0001
1000
,
0100
0010
1100
1100
,
1000
0000
0010
0000
0011
0000
0010
0100
,
1000
0000
0001
0000
0110
0000
1000
0001
,
0010
1000
0100
1000
,
0002
0000
0000
0003
,
0010
0000
0001
0000
1100
0000
1000
0001
,
0010
0000
0100
0000
0101
0000
0001
1000
,
0010
0000
0001
0000
1100
0000
1000
0001
,
0010
0000
1000
0000
0101
0000
0010
1000
,
0001
0000
0100
0000
1100
0000
0100
0010
,
0001
0000
1000
0000
0110
0000
1000
0001
,
1000
0000
0000
0010
0000
0000
1000
0000
,
0000
0100
0000
0000
0001
0010
0100
0000
,
0001
0000
0000
0100
0000
0000
0001
0000
,
0000
0010
0000
0000
1001
0000
1001
0000
,
0001
0000
0000
0010
0000
0000
0001
0000
,
0000
0100
0000
0000
0001
1000
0010
0000
,
1000
0000
0000
0100
0000
0000
1000
0000
,
1000
0000
0000
0000
0001
0000
0000
0000
0100
0000
0000
0000
1000
0000
0000
0010
;

//---------------dance-single - ----------------
#NOTES:
     dance-single:
     :
     Hard:
     9:
     0.644,0.738,0.989,0.179,0.005:
0000
0000
0000
0000
,
0000
0000
0000
0000
,
0000
0000
0000
0000
,
0000
0000
0000
0000
,
0000
0001
0000
0001
,
0000
1000
0000
1000
,
0000
0010
0000
0010
,
0000
0100
0000
0100
,
1001
0010
0001
0100
,
0000
1000
0001
0100
,
0000
0010
0100
0001
,
0000
1000
0100
0001
,
0000
1000
0010
0100
,
0000
0001
0010
1000
,
0002
0000
0000
0000
,
0000
0003
1100
1100
,
0011
0000
1100
0000
0101
0000
0001
1000
,
1010
0000
0101
0000
1100
0000
1000
0001
,
0011
0000
1001
0000
0101
0000
0001
1000
,
0010
1000
0100
1000
1010
0000
1010
0000
,
1001
0000
1100
0000
0101
0000
0100
0010
,
1010
0000
0011
0000
0110
0000
1000
0001
,
0101
0000
1100
0000
1010
0000
1000
0002
,
0200
0000
0000
0303
,
1100
0000
0011
0000
1010
0000
1000
0001
,
0101
0000
1010
0000
0011
0000
0001
1000
,
1100
0000
1001
0000
1010
0000
1000
0001
,
0101
0000
1001
0000
0011
0000
0100
1000
,
1001
0000
0011
0000
1010
0000
0010
0100
,
0101
0000
1100
0000
0110
0000
0001
1000
,
1010
0000
0011
0000
0101
0000
0001
2000
,
0020
0000
0000
3030
,
0002
0000
2000
0003
,
0200
0000
3300
0000
0010
0100
1000
0000
,
0020
0000
2000
0030
,
0002
0000
3003
0000
0100
1000
0010
0000
,
1001
0000
0101
0000
1100
0000
0100
0010
,
0011
0000
1010
0000
0110
0000
0001
1000
,
1100
0000
0101
0000
0011
0000
0001
2000
,
0200
0000
0000
3300
,
0010
0100
1000
0100
0000
0001
0000
0100
,
0000
0010
0000
0100
0001
1000
0100
0000
,
0001
0000
1000
0100
0000
0001
0100
1000
,
0010
0000
1000
0001
,
0100
1000
0001
0010
0000
0100
0000
0010
,
0000
0001
0000
1000
0010
1000
0100
0000
,
1000
0000
0001
0010
0000
0001
1000
0010
,
0100
0010
0001
1100
,
0001
0100
0000
0100
,
0000
1000
0000
1000
,
0010
0001
0000
0001
,
0000
0100
0000
0100
,
0001
0100
0010
0100
0001
0100
0010
0100
,
1000
0100
0010
0100
1000
0100
0010
0100
,
0010
1000
0100
0010
0001
0100
0010
2000
,
0002
0000
0000
3003
,
1010
0000
0101
0000
1100
0000
1000
0001
,
0011
0000
1100
0000
0101
0000
0001
1000
,
1010
0000
1001
0000
1100
0000
1000
0001
,
0010
0001
0100
0001
0011
0000
0011
0000
,
1001
0000
0101
0000
1100
0000
0100
0010
,
0011
0000
1010
0000
0110
0000
0001
1000
,
1100
0000
0101
0000
0011
0000
0001
2000
,
0200
0000
0000
3300
,
0101
0000
1010
0000
0011
0000
0001
1000
,
1100
0000
0011
0000
1010
0000
1000
0001
,
0101
0000
1001
0000
0011
0000
0001
1000
,
1100
0000
1001
0000
1010
0000
0100
0001
,
1001
0000
1010
0000
0011
0000
0010
0100
,
1100
0000
0101
0000
0110
0000
0001
1000
,
0001
0100
0000
1000
0100
0000
0001
0100
,
0000
1000
0100
0000
0010
1000
0100
0000
,
1000
0010
0000
0001
0010
0000
1000
0010
,
0000
0001
0010
0000
1001
0000
1001
0000
,
1000
0100
0000
0001
0100
0000
1000
0100
,
0000
0001
0100
0000
0010
0001
0100
0000
,
0001
0010
0000
1000
0010
0000
0001
0010
,
0001
0000
0000
0000
1000
0000
0000
0000
0010
0000
0000
0000
0001
0000
0000
0100
;

//---------------dance-double - ----------------
#NOTES:
     dance-double:
     :
     Easy:
     4:
     0.325,0.409,0.032,0.042,0.000:
00000000
00000000
00000000
00000000
,
00000000
00000000
00000000
00000000
,
00000000
00000000
00000000
00000000
,
00000000
00000000
00000000
00000000
,
00000000
00000001
00000000
00000001
,
00000000
00000100
00000000
00000100
,
00000000
00001000
00000000
00001000
,
00000000
00010000
00000000
00010000
,
00000000
01000000
01000000
01000000
,
00000000
10000000
10000000
10000000
,
00000000
00100000
00100000
00100000
,
00000000
00010000
00010000
00010000
,
00000000
00001000
00001000
00001000
,
00000000
00000010
00000010
00000010
,
00000001
00001000
00000100
00001000
,
00010000
00000000
00011000
00011000
,
01000000
10000000
00010000
00000000
,
00100000
00001000
01000000
00000000
,
00010000
00100000
10000000
00000000
,
00010000
00001000
00000100
00000000
,
00000010
00000001
00000100
00000000
,
00001000
00000100
00000001
00000000
,
00000010
00010000
00001000
00000000
,
00020000
00000000
00000000
00030000
,
01000000
10000000
00010000
00000000
,
00100000
10000000
01000000
00000000
,
00010000
00001000
00000010
00000000
,
00000001
00001000
00000010
00000000
,
00000100
00001000
00010000
00000000
,
00100000
00001000
01000000
00000000
,
00010000
01000000
10000000
00000000
,
00100000
00000000
00000000
00000000
,
00010000
00000000
00000010
00000000
,
00000100
00000000
00000001
00000001
,
00001000
00000000
00010000
00000000
,
10000000
00000000
00010000
00010000
,
00100000
10000000
01000000
00000000
,
00100000
00001000
00010000
00000000
,
00001000
00000010
00000001
00000000
,
00002000
00000000
00000000
00003000
,
00000100
00001000
00000010
00010000
,
00001000
00100000
00010000
00000000
,
01000000
00010000
10000000
01000000
,
00100000
00000000
00001000
00001000
,
00000100
00000001
00000010
00000001
,
00001000
00010000
00100000
00000000
,
00010000
10000000
01000000
00100000
,
01000000
01000000
01000000
00000000
,
00000000
10000000
00000000
10000000
,
00000000
00100000
00000000
00100000
,
00000000
00010000
00000000
00010000
,
00000000
00001000
00000000
00001000
,
00000010
00000010
00000001
00000001
,
00001000
00001000
00000010
00000010
,
00000100
00000100
00001000
00010000
,
00022000
00000000
00000000
00033000
,
00100000
10000000
00010000
00000000
,
01000000
00001000
00100000
00000000
,
00010000
01000000
10000000
01000000
,
00010000
00001000
00000010
00000000
,
00000100
00000001
00000010
00000000
,
00001000
00000010
00000001
00000000
,
00000100
00010000
00001000
00010000
,
01000000
00000000
00000000
00000000
,
00100000
10000000
00010000
00000000
,
01000000
10000000
00100000
00000000
,
00010000
00001000
00000100
00000010
,
00000001
00001000
00000100
00000000
,
00000010
00001000
00010000
00000000
,
01000000
00001000
00100000
00000000
,
00010000
01000000
00000000
01000000
,
00000000
10000000
00000000
10000000
,
00000000
00010000
00000000
00010000
,
00000000
00001000
00000000
00001000
,
00000010
00000001
00000000
00000001
,
00000000
00000100
00000000
00000100
,
00000000
00001000
00000000
00001000
,
00010000
00001000
00010000
00001000
;

//---------------dance-double - ----------------
#NOTES:
     dance-double:
     :
     Medium:
     7:
     0.571,0.697,1.000,0.232,0.005:
00000000
00000000
00000000
00000000
,
00000000
00000000
00000000
00000000
,
00000000
00000000
00000000
00000000
,
00000000
00000000
00000000
00000000
,
10010000
01000000
00000000
01000000
,
00000000
00001000
00000000
00001000
,
00000000
00010000
00000000
00010000
,
00000000
00000100
00000000
00000100
,
00001001
00000010
00000001
00000100
,
00000000
00000010
00001000
00000100
,
00000000
01000000
00010000
00100000
,
00000000
01000000
10000000
00010000
,
00000000
10000000
00100000
00010000
,
00000000
00001000
00000010
00000001
,
00000010
00001000
00000001
00000100
,
00001000
00000000
00011000
00011000
,
00110000
11000000
01010000
00100000
,
10010000
01010000
00011000
00000010
,
00000011
00001001
00001100
00000001
,
00001000
00000100
00000010
00000100
,
00011000
01010000
11000000
00100000
,
00101000
00011000
01010000
00100000
,
00110000
00011000
00010100
00001000
,
00002002
00000000
00000000
00003003
,
00000110
00000101
00001100
00010000
,
00101000
00011000
00010010
00001000
,
01010000
01100000
11000000
00010000
,
00100000
00010000
01000000
00001000
,
00010010
00011000
00010100
00001000
,
00000110
00001100
00000101
00000010
,
00000110
00001100
00010100
00001000
,
00220000
00000000
00000000
00330000
,
02200000
03300000
22000000
33000000
,
02020000
00000000
03030000
00000000
00100000
00001000
01000000
00000000
,
00022000
00033000
00002200
00003300
,
00000202
00000000
00000303
00000000
00001000
00000001
00000100
00000000
,
00000110
00000011
00001100
00010000
,
00010100
00011000
00110000
01000000
,
10100000
10010000
11000000
00100000
,
02020000
00000000
00000000
03030000
,
00100000
00001000
01000000
00010000
,
00100000
00000000
00001000
00000000
00010000
00001000
00000100
00000000
,
00000010
00001000
00000010
00000001
,
00000010
00000000
00001000
00000000
00010000
01000000
00100000
00000000
,
10000000
00010000
01000000
00010000
,
10000000
00000000
01000000
00000000
00100000
00010000
00001000
00000000
,
00000001
00001000
00000100
00000010
,
00001000
00010000
00022000
00033000
,
00100000
10000000
00000000
10000000
,
00000000
01000000
00000000
01000000
,
00010000
00001000
00000000
00001000
,
00000000
00000001
00000000
00000001
,
00000010
00000001
00000010
00000000
00000100
00001000
00000100
00000000
,
00010000
00001000
00010000
00000000
00100000
10000000
00100000
00000000
,
01000000
00100000
10000000
00100000
01000000
00100000
10000000
00000000
,
00010000
00000000
00000000
00000000
,
00001010
00000101
00001100
00000010
,
00001001
00001100
00011000
00100000
,
10100000
10010000
01010000
00001000
,
00010000
01000000
00100000
01000000
,
00011000
00001100
00000101
00000010
,
00010010
00011000
00001100
00000010
,
00001010
00011000
01001000
00010000
,
20020000
00000000
00000000
30030000
,
01100000
11000000
01010000
00001000
,
00010010
00011000
00101000
00010000
,
00001100
00000110
00000101
00001000
,
00000010
00001000
00000100
00010000
,
00101000
00011000
01001000
00010000
,
01100000
01010000
11000000
00100000
,
00010000
00000000
00000000
00100000
00000000
00000000
10000000
00000000
,
00000000
01000000
00000000
00000000
00010000
00001000
00000100
00000000
,
00001000
00000000
00000000
00000010
00000000
00000000
00000001
00000000
,
00000000
00000100
00000000
00000000
00001100
00000000
00001100
00000000
,
00010000
00000000
00000000
00100000
00000000
00000000
10000000
00000000
,
00000000
01000000
00000000
00000000
00010000
00001000
00000010
00000000
,
00000001
00000000
00000000
00000100
00000000
00000000
00001000
00000000
,
00010000
00000000
00000000
00000000
01000000
00000000
00000000
00000000
10000000
00000000
00000000
00000000
00010000
00000000
00000000
10000000
;

//---------------dance-double - ----------------
#NOTES:
     dance-double:
     :
     Hard:
     9:
     0.574,0.697,0.211,0.095,0.005:
00000000
00000000
00000000
00000000
,
00000000
00000000
00000000
00000000
,
00000000
00000000
00000000
00000000
,
00000000
00000000
00000000
00000000
,
00001001
00000100
00000000
01000000
,
00000000
00001000
00000000
10000000
,
00000000
00100000
00000000
00000010
,
00000000
00010000
00000000
00000001
,
00001001
00000010
00001000
00000100
,
00000000
00100000
00010000
01000000
,
00000000
00001000
00000100
00000001
,
00000000
00010000
01000000
10000000
,
00000000
01000000
00001000
00100000
,
00000000
00000100
00010000
00000010
,
00000001
00000100
00001000
00010000
,
00100000
10000000
10010000
10010000
,
00100000
10000000
00010000
10000000
00100000
00000000
00010000
00000000
,
00001000
00010000
01000000
00010000
00001000
00000000
00000100
00000000
,
00000010
00010000
00001000
00010000
00000010
00000000
00000100
00000000
,
00000001
00001000
00000100
00000010
,
00001000
00010000
00100000
00010000
00001000
00000000
01000000
00000000
,
00100000
10000000
01000000
10000000
00100000
00000000
00010000
00000000
,
00001000
00100000
00010000
00100000
00001000
00000000
00000100
00000000
,
00002002
00000000
00000000
00003003
,
00000010
00000100
00000001
00000100
00000010
00000000
00010000
00000000
,
00001000
01000000
00010000
01000000
00001000
00000000
00100000
00000000
,
10000000
01000000
00010000
01000000
10000000
00000000
00010000
00000000
,
00100000
00001000
00100000
00010000
,
00001000
00000010
00000001
00000010
00001000
00000000
00000100
00000000
,
00010000
00000100
00001000
00000100
00010000
00000000
00000010
00000000
,
00000001
00001000
00000100
00001000
00000001
00000000
00000010
00000000
,
00022000
00000000
00000000
00033000
,
00110000
00000000
11000000
00000000
,
10100000
00000000
00000000
00000000
00010000
00001000
00000010
00000000
,
00000011
00000000
00001100
00000000
,
00011000
00000000
00000000
00000000
00100000
00010000
01000000
00000000
,
10000000
00010000
01000000
00010000
10000000
00000000
01000000
00000000
,
00010000
00001000
00000010
00001000
00010000
00000000
00000100
00000000
,
00000010
00000100
00001000
00000001
00000100
00000000
00000010
00000000
,
00002002
00000000
00000000
00003003
,
00000001
00000100
00000001
00000010
00000000
00001000
00000000
00010000
,
00000000
00100000
00000000
10000000
00010000
01000000
00010000
00000000
,
10000000
01000000
10000000
00100000
00000000
10000000
00000000
01000000
,
00010000
00000000
00001100
00000101
,
00000010
00001000
00000100
00001000
00000000
00000001
00000000
00000100
,
00000000
00001000
00000000
00010000
01000000
10000000
00100000
00000000
,
00010000
00100000
00001000
00010000
00000000
00000100
00000000
00001000
,
00000001
00001000
00001001
00001001
,
00000010
00000100
00000000
00000001
00000100
00000000
00001000
00000100
,
00000000
00000010
00001000
00000000
00010000
00000000
00100000
00000000
,
01000000
10000000
00000000
00100000
10000000
00000000
00010000
10000000
,
00000000
01000000
10000000
00000000
00100000
00000000
00010000
00000000
,
00001000
00010000
00000010
00001000
00000001
00000100
00000010
00001000
,
00000100
00010000
00001000
00100000
00010000
01000000
00100000
10000000
,
01000000
00100000
00010000
00001000
00000100
00000010
00000001
00000100
,
00000020
00000000
00000000
00000030
,
00000001
00000100
00001000
00000100
00000001
00000000
00001000
00000000
,
00010000
00100000
00010000
00001000
00010000
00000000
01000000
00000000
,
00100000
10000000
00010000
10000000
00100000
00000000
01000000
00000000
,
00100000
00010000
00001000
00000010
,
00000001
00001000
00000100
00001000
00000010
00000000
00000100
00000000
,
00000010
00010000
00001000
00100000
00010000
00000000
10000000
00000000
,
00010000
01000000
00100000
01000000
00010000
00000000
10000000
00000000
,
02200000
00000000
00000000
03300000
,
10000000
01000000
00010000
01000000
00100000
00000000
00010000
00000000
,
00001000
00010000
00100000
00010000
00001000
00000000
00000010
00000000
,
00000001
00001000
00000010
00001000
00000001
00000000
00000100
00000000
,
00000010
00000001
00000100
00001000
,
00010000
00100000
10000000
00100000
00010000
00000000
01000000
00000000
,
00010000
10000000
01000000
10000000
00100000
00000000
10000000
00000000
,
00010000
01000000
00000000
01000000
00100000
00000000
00100000
00010000
,
00000000
00010000
00001000
00000000
00000010
00000001
00001000
00000000
,
00000010
00010000
00000000
00010000
00000100
00000000
00000100
00001000
,
00000000
00001000
00000010
00000000
00011000
00000000
01010000
00000000
,
00010000
10000000
00000000
10000000
00100000
00000000
00100000
01000000
,
00000000
01000000
00010000
00000000
10000000
01000000
00010000
00000000
,
00001000
00000010
00000000
00000010
00000001
00000000
00000001
00001000
,
00000100
00000000
00000000
00000000
00000010
00000000
00000000
00000000
00001000
00000000
00000000
00000000
00010000
00000000
00000000
00100000
;

//---------------dance-double - ----------------
#NOTES:
     dance-double:
     :
     Challenge:
     9:
     0.738,0.862,1.000,0.505,0.084:
00000000
00000000
00000000
00000000
,
00000000
00000000
00000000
00000000
,
00000000
00000000
00000000
00000000
,
00000000
00000000
01100000
00011000
,
00000110
00000001
00000000
00001000
,
00000000
00010000
00000000
10000000
,
00000000
01000000
00000000
00000100
,
00000000
00000010
00000000
00100000
,
10000000
01000000
00000000
00010000
01000000
10000000
01000000
00010000
,
00000000
00001000
00000100
00000000
00000001
00000100
00001000
00000100
,
00000001
00000010
00000000
00001000
00000010
00000001
00000010
00001000
,
00000000
00010000
00100000
00000000
10000000
00100000
00010000
00100000
,
10000000
00010000
00000000
01000000
00100000
00010000
00001000
00000010
,
00000000
00000001
00001000
00000000
00000100
00000010
00001000
00010000
,
00200000
00000000
00000000
00000000
,
00000000
00300000
01100000
01100000
,
10010000
00000000
00000000
00000000
11000000
00000000
00000000
00000000
01010000
00000000
00000000
00000000
00010000
00001000
00010000
00000000
,
00011000
00000000
00000000
00000000
00001100
00000000
00000000
00000000
00000101
00000000
00000000
00000000
00002002
00000000
00000000
00003003
,
00000011
00000000
00000000
00000000
00001010
00000000
00000000
00000000
00000011
00000000
00000000
00000000
00000010
00000100
00000010
00000000
,
00000100
00000000
00000100
00000000
00010000
00000000
00010000
00000000
00001000
00000000
00000000
00000000
02002000
00000000
00000000
03003000
,
01010000
00000000
00000000
00000000
11000000
00000000
00000000
00000000
01010000
00000000
00000000
00000000
00100000
10000000
00100000
00000000
,
10100000
00000000
00000000
00000000
01001000
00000000
00000000
00000000
01010000
00000000
00000000
00000000
20020000
00000000
00000000
30030000
,
10010000
00000000
00000000
00000000
00011000
00000000
00000000
00000000
10010000
00000000
00000000
00000000
01000000
00100000
01000000
00000000
,
01100000
00000000
00000000
00000000
,
00001001
00000000
00000000
00000000
00000101
00000000
00000000
00000000
00001100
00000000
00000000
00000000
00001000
00010000
00001000
00000000
,
00011000
00000000
00000000
00000000
01010000
00000000
00000000
00000000
11000000
00000000
00000000
00000000
20020000
00000000
00000000
30030000
,
10100000
00000000
00000000
00000000
00110000
00000000
00000000
00000000
10100000
00000000
00000000
00000000
00100000
01000000
00100000
00000000
,
01100000
00000000
00000000
00000000
01001000
00000000
00000000
00000000
00011000
00000000
00000000
00000000
00020200
00000000
00000000
00030300
,
00001100
00000000
00000000
00000000
00000101
00000000
00000000
00000000
00001100
00000000
00000000
00000000
00000010
00000001
00000010
00000000
,
00000011
00000000
00000000
00000000
00010100
00000000
00000000
00000000
00001100
00000000
00000000
00000000
00002002
00000000
00000000
00003003
,
00001001
00000000
00000000
00000000
00011000
00000000
00000000
00000000
00001001
00000000
00000000
00000000
00000100
00000010
00000100
00000000
,
00000110
00000020
00000100
00000130
,
00000001
00000000
00001000
00000000
,
00010000
00000000
00000000
00000000
00100000
00010000
01000000
00000000
,
10000000
00000000
00100000
00000000
,
00001000
00000000
00000000
00000000
02000000
00000000
00000000
03000000
,
00100000
10000000
01000000
00011000
,
00000010
00001000
00000100
00000011
,
00000100
00001000
00010000
01100000
,
10000000
00010000
00000000
00010000
10000000
00000000
00000000
00000000
,
00100000
10000000
02000000
00000000
03100000
10000000
02000000
00000000
,
13000000
01000000
00020000
00000000
10030000
01000000
00020000
00000000
,
00031000
00000010
00000002
00000000
00001003
00000010
00000002
00000000
,
00000013
00000001
00000200
00000000
00000310
00000001
00000200
00000000
,
00000301
00000100
00002000
00000000
00003001
00000100
00002000
00000000
,
00013000
00100000
20000000
00000000
30010000
00100000
20000000
00000000
,
30010000
01000000
00200000
00000000
10300000
01000000
00200000
00000000
,
10300000
01000000
00200000
00000000
10300000
01000000
00200000
00000000
,
00310000
10000000
00000000
10000000
00100000
00000000
00100000
00010000
,
00000000
00010000
00001000
00000000
00001000
00010000
00100000
10000000
,
01000000
00010000
00000000
00010000
01000000
00000000
01000000
10000000
,
00000000
10000000
01000000
00000000
00010000
00001000
00000010
00000001
,
00000100
00000001
00000010
00001000
00010000
00100000
10000000
01000000
,
10000000
00100000
00010000
00001000
00000010
00000001
00000100
00000001
,
00000020
00000000
00002030
00000000
,
00020000
00000000
00000000
00033000
,
00110000
00000000
00000000
00000000
01100000
00000000
00000000
00000000
01001000
00000000
00000000
00000000
00001000
00000100
00000010
00000000
,
00000110
00000000
00000000
00000000
00001100
00000000
00000000
00000000
00011000
00000000
00000000
00000000
00220000
00000000
00000000
00330000
,
01010000
00000000
00000000
00000000
10100000
00000000
00000000
00000000
11000000
00000000
00000000
00000000
00100000
01000000
00010000
00000000
,
01010000
00000000
00000000
00000000
00011000
00000000
00000000
00000000
00001010
00000000
00000000
00000000
00000220
00000000
00000000
00000330
,
00001001
00000000
00000000
00000000
00001100
00000000
00000000
00000000
00010100
00000000
00000000
00000000
00000100
00001000
00000001
00000000
,
00000101
00000000
00000000
00000000
00010010
00000000
00000000
00000000
00001100
00000000
00000000
00000000
00220000
00000000
00000000
00330000
,
10010000
00000000
00000000
00000000
01100000
00000000
00000000
00000000
00011000
00000000
00000000
00000000
00001000
00010000
02000000
00000000
,
00000000
00000000
00000000
03000000
,
10100000
00000000
00000000
00000000
11000000
00000000
00000000
00000000
00101000
00000000
00000000
00000000
00010000
00100000
01000000
00000000
,
01100000
00000000
00000000
00000000
00110000
00000000
00000000
00000000
00011000
00000000
00000000
00000000
00002020
00000000
00000000
00003030
,
00001100
00000000
00000000
00000000
00000011
00000000
00000000
00000000
00000101
00000000
00000000
00000000
00000010
00000100
00001000
00000000
,
00001100
00000000
00000000
00000000
00011000
00000000
00000000
00000000
00110000
00000000
00000000
00000000
02200000
00000000
00000000
03300000
,
10010000
00000000
00000000
00000000
01010000
00000000
00000000
00000000
01001000
00000000
00000000
00000000
01000000
00010000
10000000
00000000
,
11000000
00000000
00000000
00000000
00101000
00000000
00000000
00000000
01010000
00000000
00000000
00000000
22000000
00000000
00000000
33000000
,
10010000
10000000
00000000
00010000
,
00000000
00001000
00000000
00000001
,
00000000
00000100
00000000
01000000
,
00000000
00100000
00011000
00011000
,
00011000
00000010
00000000
00000100
,
00000000
00010000
00000000
00100000
,
00000000
00000100
00000000
00000001
,
00000110
00000000
00000000
00000000
00011000
00000000
00000000
00000000
01100000
00000000
00000000
00000000
20000000
00000000
00000000
00M00000
,
30000000
00000000
00000000
00000000
;

//---------------dance-single - ----------------
#NOTES:
     dance-single:
     :
     Challenge:
     9:
     0.747,0.862,1.000,0.337,0.084: // measure 1
0000
0000
0000
0000
,  // measure 2
0000
0000
0000
0000
,  // measure 3
0000
0000
0000
0000
,  // measure 4
0000
0000
0101
0101
,  // measure 5
1001
1000
0000
0001
,  // measure 6
0000
0010
0000
0100
,  // measure 7
0000
1000
0000
0001
,  // measure 8
0000
0100
0000
0010
,  // measure 9
1000
0001
0000
0010
0001
0100
1000
0100
,  // measure 10
0000
0001
1000
0000
0100
0010
0001
0010
,  // measure 11
0100
1000
0000
0010
1000
0100
0001
0100
,  // measure 12
0000
1000
0001
0000
1000
0010
0100
0010
,  // measure 13
1000
0001
0000
0010
0001
0100
1000
0100
,  // measure 14
0000
0001
1000
0000
0100
0010
0001
0010
,  // measure 15
0200
0000
0000
0000
,  // measure 16
0000
0300
1100
1100
,  // measure 17
1001
0000
0000
0000
0101
0000
0000
0000
0110
0000
0000
0000
0010
1000
0010
0000
,  // measure 18
1010
0000
0000
0000
1100
0000
0000
0000
0110
0000
0000
0000
0022
0000
0000
0033
,  // measure 19
0011
0000
0000
0000
0101
0000
0000
0000
0110
0000
0000
0000
0010
1000
0010
0000
,  // measure 20
0100
0000
0100
0000
0010
0000
0010
0000
1000
0000
0000
0000
2200
0000
0000
3300
,  // measure 21
1100
0000
0000
0000
0011
0000
0000
0000
1001
0000
0000
0000
1000
0001
1000
0000
,  // measure 22
1001
0000
0000
0000
0101
0000
0000
0000
1010
0000
0000
0000
2200
0000
0000
3300
,  // measure 23
1100
0000
0000
0000
0110
0000
0000
0000
0011
0000
0000
0000
0010
0100
1000
0000
,  // measure 24
1001
0000
0000
0000
,  // measure 25
0011
0000
0000
0000
0101
0000
0000
0000
0011
0000
0000
0000
0001
1000
0001
0000
,  // measure 26
1010
0000
0000
0000
1100
0000
0000
0000
1010
0000
0000
0000
2002
0000
0000
3003
,  // measure 27
0101
0000
0000
0000
0011
0000
0000
0000
0101
0000
0000
0000
0001
1000
0001
0000
,  // measure 28
1100
0000
0000
0000
1010
0000
0000
0000
1100
0000
0000
0000
2002
0000
0000
3003
,  // measure 29
0110
0000
0000
0000
1001
0000
0000
0000
0110
0000
0000
0000
0001
1000
0001
0000
,  // measure 30
0110
0000
0000
0000
1001
0000
0000
0000
0110
0000
0000
0000
2002
0000
0000
3003
,  // measure 31
0011
0000
0000
0000
0110
0000
0000
0000
1100
0000
0000
0000
0100
1000
0001
0000
,  // measure 32
1001
0002
0010
0010
,  // measure 33
0103
0000
0001
0000
,  // measure 34
0100
0000
0000
0000
1000
0010
0001
0000
,  // measure 35
0100
0000
1000
0000
,  // measure 36
0010
0000
0000
0000
0020
0000
0000
0030
,  // measure 37
0001
0010
0100
1100
,  // measure 38
0010
0100
0001
0101
,  // measure 39
1000
0100
0010
0101
,  // measure 40
0020
0000
0000
0030
,  // measure 41
0001
0010
0100
1000
0100
0001
0100
1000
,  // measure 42
0100
0010
0001
0100
1000
0100
0001
0100
,  // measure 43
0010
1000
0100
1000
0001
0100
0010
1000
,  // measure 44
0100
0001
0010
0001
0100
1000
0001
0010
,  // measure 45
0010
0100
1000
0100
0001
0100
1000
0100
,  // measure 46
0010
0001
0100
1000
0100
0001
0010
0100
,  // measure 47
1000
0010
0100
1000
0010
1000
0100
0001
,  // measure 48
1000
0001
1001
0020
,  // measure 49
0031
1000
0000
0010
1000
0000
0001
1000
,  // measure 50
0000
0100
1000
0000
0010
1000
0001
0010
,  // measure 51
0100
1000
0000
0001
1000
0000
0010
1000
,  // measure 52
0000
0001
1000
0000
0010
1000
0001
0010
,  // measure 53
0100
0100
1000
1000
0001
0001
0100
0100
,  // measure 54
0010
0010
0001
0001
0100
0100
0010
0010
,  // measure 55
0002
0000
0200
0003
,  // measure 56
0020
0000
0000
0330
,  // measure 57
0110
0000
0000
0000
0101
0000
0000
0000
1001
0000
0000
0000
1000
0010
0100
0000
,  // measure 58
1001
0000
0000
0000
1100
0000
0000
0000
0110
0000
0000
0000
0202
0000
0000
0303
,  // measure 59
1010
0000
0000
0000
1001
0000
0000
0000
1100
0000
0000
0000
0010
0001
0100
0000
,  // measure 60
0110
0000
0000
0000
1010
0000
0000
0000
1001
0000
0000
0000
0220
0000
0000
0330
,  // measure 61
1001
0000
0000
0000
0101
0000
0000
0000
0110
0000
0000
0000
1000
0100
0010
0000
,  // measure 62
0011
0000
0000
0000
1001
0000
0000
0000
1100
0000
0000
0000
0022
0000
0000
0033
,  // measure 63
0110
0000
0000
0000
0101
0000
0000
0000
1001
0000
0000
0000
1000
0010
0200
0000
,  // measure 64
0000
0000
0000
0300
,  // measure 65
0101
0000
0000
0000
0011
0000
0000
0000
1010
0000
0000
0000
1000
0010
1000
0000
,  // measure 66
1010
0000
0000
0000
0110
0000
0000
0000
1100
0000
0000
0000
2002
0000
0000
3003
,  // measure 67
0101
0000
0000
0000
1100
0000
0000
0000
1010
0000
0000
0000
1000
0010
0100
0000
,  // measure 68
1010
0000
0000
0000
1001
0000
0000
0000
1100
0000
0000
0000
0022
0000
0000
0033
,  // measure 69
0101
0000
0000
0000
0011
0000
0000
0000
1010
0000
0000
0000
0010
1000
0010
0000
,  // measure 70
0101
0000
0000
0000
1100
0000
0000
0000
1001
0000
0000
0000
0001
0100
0010
0000
,  // measure 71
1000
0001
0000
0001
0010
0000
0010
0100
,  // measure 72
0000
0100
1000
0000
0010
0100
0001
1000
,  // measure 73
0100
0010
0000
0010
0001
0000
0001
1000
,  // measure 74
0000
1000
0010
0000
1001
0000
1001
0000
,  // measure 75
1001
0100
0000
0010
,  // measure 76
0000
0001
0000
1000
,  // measure 77
0000
0010
0000
0001
,  // measure 78
0110
0110
0110
2000
,  // measure 79
300M
0000
0000
0000
;
