#TITLE:ROCK BEAT;
#SUBTITLE:;
#ARTIST:LOUD FORCE;
#TITLETRANSLIT:;
#SUBTITLETRANSLIT:;
#ARTISTTRANSLIT:;
#CREDIT:;
#BANNER:ROCK BEAT.png;
#BACKGROUND:ROCK BEAT-bg.png;
#LYRICSPATH:;
#CDTITLE:Dance Dance Revolution 3rd Mix.png;
#MUSIC:ROCK BEAT.ogg;
#OFFSET:0.000;
#SAMPLESTART:30.400;
#SAMPLELENGTH:15.000;
#SELECTABLE:YES;
#DISPLAYBPM:150.000;
#BPMS:0.000=150.000;
#STOPS:;
#BGCHANGES:;

//---------------dance-single - ----------------
#NOTES:
     dance-single:
     :
     Beginner:
     1:
     :
0000
0000
0000
0000
,
0000
0000
0000
0000
,
0000
0000
0000
0000
,
0000
0000
0000
0000
,
0000
0000
0000
0000
,
0000
0000
0000
0000
,
0000
0000
0000
0000
,
0010
0000
0000
0000
,
0010
0000
0000
0000
,
0100
0000
0000
0000
,
0001
0001
0000
0000
,
0000
1000
0000
0000
,
0000
0010
0000
0010
,
0000
1000
1000
0000
,
0000
0001
0001
0000
,
0000
1000
0000
0000
,
0000
0010
0000
0010
,
0000
1000
1000
0000
,
0000
0001
0001
0000
,
1000
0000
1000
0000
,
0001
0001
0000
0000
,
0100
0000
0100
0000
,
0010
0010
0000
0000
,
0001
0000
0001
0000
,
1000
1000
0000
0000
,
0010
0000
0010
0000
,
1000
1000
0000
0000
,
0000
0000
0000
0000
,
0000
0000
0000
0000
,
1001
0000
0000
0000
,
0000
1000
0000
0001
,
0000
1000
0000
0001
,
0000
1000
1000
1000
,
0000
0001
0000
0100
,
0000
0001
0001
0000
,
0000
1000
0000
0010
,
0000
1000
0000
0000
,
0000
0000
0000
0000
,
0010
0000
0000
0000
,
0001
0000
0000
0000
,
0010
0000
0000
0000
,
0100
0000
0000
0000
,
0010
0010
0000
0000
,
1000
1000
0000
0000
,
0010
0010
0000
0000
,
0000
0000
0000
0000
,
1000
0000
0001
0000
,
1000
1000
0000
0000
,
0001
0000
1000
0000
,
0010
0010
0000
0000
,
1000
0000
0010
0000
,
1000
1000
0000
0000
,
0001
0000
0100
0000
,
0010
0010
0000
0000
,
1000
0000
0001
0000
;

//---------------dance-single - ----------------
#NOTES:
     dance-single:
     :
     Easy:
     4:
     :
0000
0000
0000
0000
,
0000
0000
0000
0000
,
0000
0000
0000
0000
,
0000
0000
0000
0000
,
0000
0000
0000
0000
,
1000
0001
1000
0100
,
0001
1000
0001
0100
,
1000
1000
0100
0100
,
0001
0001
0100
0100
,
1000
1000
0100
0001
,
0100
0100
1000
0100
,
0001
0000
0100
0100
,
1000
0000
0100
0100
,
1000
1000
0001
0100
,
0001
0001
1000
0100
,
0001
1000
0001
1000
,
0001
0001
1000
1000
,
0010
0100
0010
0100
,
0001
0100
1000
0100
,
0001
0000
1000
0000
,
0010
0100
0001
1000
,
0001
0000
1000
0000
,
0010
0100
1000
0001
,
1000
0000
0001
0000
,
1000
0100
0001
0010
,
1000
0000
0001
0000
,
1000
0001
1000
0100
,
0010
1000
0001
0100
,
1000
1000
0001
0001
,
1001
0100
0001
0100
,
1000
0100
0001
1000
,
1001
0001
1000
0001
,
1000
0100
0010
0100
,
1000
0100
0001
0001
,
1000
0001
0100
0100
,
0001
0100
1000
1000
,
0001
1000
0100
0100
,
0000
0000
0000
0000
,
1001
0100
1000
0100
,
1001
0100
0001
0100
,
1001
0010
0100
0001
,
1001
0100
0010
1001
,
1000
0001
1000
1000
,
0010
0100
0001
0001
,
0001
1000
0001
0001
,
0010
0100
1000
1000
,
0001
0000
1000
0000
,
0010
0100
0001
1000
,
1000
0000
0001
0000
,
0010
0100
1000
0001
,
1000
0000
0001
0000
,
1000
0100
0001
0100
,
1000
0000
0001
0000
,
1000
0001
1000
0100
,
0001
0001
1000
1000
,
1001
0000
0000
0000
;

//---------------dance-single - ----------------
#NOTES:
     dance-single:
     :
     Medium:
     7:
     :
0000
0000
0000
0000
,
0000
0000
0000
0000
,
0000
0000
0000
0000
,
0000
0000
0000
0000
,
0000
0000
0000
0000
,
1000
0001
0000
0001
0000
1000
0001
0100
,
0010
1000
0001
0100
,
0001
0010
0000
0001
0000
0001
0000
0100
,
0010
0001
0000
1000
0000
1000
0000
0010
,
0100
1000
0000
0001
0000
0001
0000
0100
,
0010
0001
0000
1000
0000
1000
0000
0000
,
0100
1000
0100
0000
1000
0000
0000
0000
,
0100
0001
0100
0000
0001
0000
0000
0000
,
0010
1000
0010
0000
0100
0000
0000
0000
,
0010
0001
0010
0000
0100
0000
0000
0000
,
0010
1000
0001
0001
,
0010
0001
1000
1000
,
0010
1000
0001
0001
,
0010
0001
1000
1000
,
1100
0001
0101
1000
,
0010
0000
0100
0001
0000
1000
1000
0000
,
0101
1000
1001
0100
,
0001
0000
1000
0100
0000
0010
0010
0000
,
1001
0100
0101
1000
,
0010
0000
1000
0100
0000
0001
0100
0000
,
0011
1000
0101
0010
,
0001
0000
0100
0010
0000
1000
0100
0000
,
0010
1000
0100
0001
,
0010
0001
0100
1000
,
1001
0000
0100
0000
0001
0001
0100
0000
,
0000
1000
0100
0000
0001
0000
0001
0000
,
1100
0000
1001
0000
0000
1000
0100
0000
,
0001
0000
0100
0000
0000
1000
0100
0000
,
0010
0100
0000
0001
0000
0001
1000
0100
,
0010
0001
0000
0001
0000
0001
0010
0100
,
1000
0100
0000
0100
0000
0100
0010
0001
,
0010
0000
1000
0000
0001
1000
0100
0000
,
0000
0000
0000
0000
,
1100
0001
0000
1000
0000
0100
0000
0000
,
0101
1000
0000
0010
0000
0100
0000
0000
,
1010
0001
0000
1000
0000
0100
0000
0000
,
0011
1000
0000
0001
0000
0100
0000
0100
,
1000
0100
0000
0100
0000
0100
1000
0100
,
0001
0010
0000
0100
0000
0100
1000
0100
,
0001
0100
0000
0010
0000
0010
1000
0001
,
0100
0010
0000
0010
0000
1000
0000
0100
,
1100
0001
0101
1000
,
0010
0000
0100
0001
0000
1000
1000
0000
,
0101
1000
1001
0100
,
0001
0000
1000
0100
0000
0010
0010
0000
,
1010
1001
0101
1001
,
0010
0000
1000
0100
0000
0001
0100
0000
,
0011
1001
0110
1001
,
0001
0000
0100
0010
0000
1000
0100
0000
,
0010
0000
0010
0000
1000
0001
0100
0000
,
1001
0000
0000
0000
;

//---------------dance-single - ----------------
#NOTES:
     dance-single:
     :
     Hard:
     8:
     :
0000
0000
0000
0000
,
0000
0000
0000
0000
,
0000
0000
0000
0000
,
0000
0000
0000
0000
,
0000
0000
0000
0000
,
1001
0001
0000
0001
0000
1000
0001
0100
,
0010
1000
0000
0100
0000
0100
0001
0010
,
0001
1001
0000
0001
0000
0001
1000
0100
,
0010
0001
0000
1000
0000
1000
0001
0010
,
0100
1001
0000
0001
0000
0001
1000
0100
,
0010
0001
0000
1000
0000
1000
0000
0001
,
1001
0100
1000
0001
,
0100
0010
1000
0001
0000
0100
1000
0000
,
0010
1000
0100
0010
0000
0100
0010
0000
,
1000
0100
0010
0001
0000
0010
1000
0000
,
0010
0000
1000
1000
0000
0001
0000
0000
,
0010
0000
0001
1000
0000
0100
0000
0000
,
0010
0000
0001
0001
0000
1000
0000
0000
,
0010
1000
0001
0100
0010
1000
0100
0100
,
1100
0001
0101
0000
0101
1000
1100
0000
,
0010
0100
1000
0001
0000
1000
1000
0000
,
1100
0001
0101
0000
0101
1000
1100
0000
,
0010
0001
0100
0010
0000
1000
1000
0000
,
0000
0001
0001
0000
0000
1000
1000
0000
,
0010
1000
0010
0100
0001
1000
0100
0000
,
0000
0010
0010
0000
0000
0100
0100
0000
,
0001
0100
0100
0010
1000
0001
0100
0000
,
1001
1001
1001
1001
,
1001
1001
1001
1001
,
1001
0100
0010
0000
0001
0001
0100
0000
,
0010
0100
0001
1000
0010
0000
0100
0000
,
1100
0001
0100
0000
0011
1000
0100
0000
,
0001
0100
1000
0100
0010
0000
0001
0000
,
1010
0001
0100
0000
0011
1000
0100
0000
,
0010
0001
0100
0010
1000
0000
0100
0000
,
1001
0100
0010
0000
1001
0100
0010
0000
,
0001
1000
1000
0100
0001
1000
0100
0000
,
0000
0000
0000
0000
,
0010
1001
0000
0100
0000
0100
0010
0001
,
0100
1001
0000
0010
0000
0100
0001
1000
,
0010
1001
0000
1000
0000
0100
0010
0001
,
0100
0000
0000
0010
0000
0010
0000
0010
,
0010
1001
0000
0100
0000
0100
1000
0100
,
0010
1001
0000
0100
0000
0100
1000
0100
,
0001
1001
0000
0010
0000
0010
1000
0001
,
0100
0000
0000
0010
0000
1000
0000
0100
,
1100
0001
0101
0000
0101
1000
1100
0000
,
0010
0100
1000
0001
0000
1000
1000
0000
,
1100
0001
0101
0000
0101
1000
1100
0000
,
0010
0001
0100
0010
0000
1000
1000
0000
,
0000
0001
0001
0000
0000
1000
1000
0000
,
0010
1000
0010
0100
0001
1000
0100
0000
,
0000
0010
0010
0000
0000
0100
0100
0000
,
0001
0100
0100
0010
1000
0001
0100
0000
,
1001
0000
1001
0000
0010
0001
1000
0100
,
1001
0000
0000
0000
;

//---------------dance-double - ----------------
#NOTES:
     dance-double:
     :
     Easy:
     5:
     :
00000000
00000000
00000000
00000000
,
00000000
00000000
00000000
00000000
,
00000000
00000000
00000000
00000000
,
00000000
00000000
00000000
00000000
,
00000000
00000000
00000000
00000000
,
10010000
00000000
00100000
01000000
,
00001000
00010000
00000100
00000010
,
00001001
00000000
00000010
00000100
,
00011000
00000000
00001000
00010000
,
10010000
00000000
00100000
01000000
,
00001000
00010000
00000010
00000100
,
00000001
00000010
00000100
00001000
,
00000010
00000100
00001000
00010000
,
01000000
10000000
00100000
01000000
,
00010000
00010000
10000000
10000000
,
01000000
00100000
00010000
01000000
,
00001000
00010000
00000100
00000010
,
00000001
00000100
00000010
00001000
,
00000001
00000001
00001000
00001000
,
00000110
00000000
00001001
00000000
,
00000100
00010000
00001000
00000000
,
10010000
00000000
01100000
00000000
,
00010000
01000000
00001000
00010000
,
00000110
00000000
00001001
00000000
,
00000100
00010000
00001000
00000000
,
10010000
00000000
01100000
00000000
,
00010000
01000000
00001000
00010000
,
00001000
00001000
00001000
00001000
,
00001000
00001000
00001000
00001000
,
00100000
00000000
00000000
00000000
00100000
00010000
01000000
00000000
,
00001000
00000000
00000000
00000000
00010000
00000100
00001000
00000000
,
00000010
00000000
00000000
00000000
00010000
00001000
01000000
00000000
,
00010000
00100000
01000000
10000000
,
00010000
00000000
00000000
00000000
01000000
00001000
00010000
00000000
,
00000100
00000000
00000000
00000000
00001000
00000010
00000100
00000000
,
00001000
00000000
00000000
00000000
00000100
00010000
00001000
00000000
,
00011000
00000000
00000000
00000000
,
00000000
00000000
00000000
00000000
,
00001001
00000000
00000010
00000100
,
00011000
00000000
00001000
00010000
,
10010000
00000000
00100000
01000000
,
00001000
00010000
00000010
00000100
,
00001001
00000000
00000010
00000100
,
00011000
00000000
00001000
00010000
,
10010000
00000000
00100000
01000000
,
00001000
00010000
00000010
00000100
,
00001001
00000000
00000110
00000000
,
00001000
00000100
00010000
00000000
,
00011000
00000000
10010000
00000000
,
01000000
00100000
10000000
00010000
,
00011000
00000000
00000110
00000000
,
00001000
00000100
00010000
00000000
,
00011000
00000000
10010000
00000000
,
01000000
00100000
00001000
00010000
,
00000100
00000100
00000100
00000100
,
00001001
00000000
00000000
00000000
;

//---------------dance-double - ----------------
#NOTES:
     dance-double:
     :
     Medium:
     6:
     :
00000000
00000000
00000000
00000000
,
00000000
00000000
00000000
00000000
,
00000000
00000000
00000000
00000000
,
00000000
00000000
00000000
00000000
,
00000000
00000000
00000000
00000000
,
10000000
01000000
00000000
00100000
00000000
00010000
00000000
00000000
,
01000000
00001000
00000000
00010000
00000000
00000100
00000000
00000010
,
00000100
00001000
00000000
00000010
00000000
00010000
00000000
00000000
,
00001000
00100000
00000000
00010000
00000000
01000000
00000000
00000000
,
00100000
10000000
00000000
01000000
00000000
00100000
00000000
00000000
,
00001000
00010000
00000000
00000100
00000000
00000010
00000000
00000001
,
00000000
00001000
00000100
00010000
,
00001000
00100000
00000000
00100000
00000000
00100000
00000000
00000000
,
00001000
01000000
00000000
01000000
00000000
01000000
00000000
00000000
,
00010000
00010000
10000000
10000000
,
00000000
00010000
01000000
00001000
,
00010000
00000010
00000000
00000010
00000000
00000010
00000000
00000000
,
00010000
00000100
00000000
00000100
00000000
00000100
00000000
00000000
,
00001000
00001000
00000001
00000001
,
00000110
00000000
00001001
00000000
,
00000100
00000010
00000001
00001000
00000000
00000000
00000000
00000000
,
00011000
00000000
01100000
00000000
,
00010000
10000000
01000000
00100000
00000000
00010000
00000000
01000000
,
10010000
00000000
00011000
00000000
,
00000100
00001000
00000010
00000100
00000000
00000000
00000000
00000000
,
00001001
00000000
00000110
00000000
,
00001000
00000100
00010000
00001000
00000000
00100000
00000000
00000000
,
01000000
01000000
01000000
01000000
,
01000000
01000000
01000000
01000000
,
10000000
00000000
00000000
00000000
00100000
01000000
00001000
00000000
,
00000000
00010000
00000000
00000000
00000100
00000010
00000001
00000100
,
00000010
00000000
00000000
00000000
00001000
00000100
00010000
00000000
,
00001000
01000000
00000000
00000000
,
00010000
00000000
00000000
00000000
00100000
01000000
10000000
00000000
,
00000000
00010000
00000000
00000000
01000000
00001000
00010000
00000100
,
00000010
00000000
00000000
00000000
00000001
00001000
00000100
00000000
,
00010000
00000000
00000000
00000000
,
00000000
00000000
00000000
00000000
,
00001000
00010000
00000000
00000010
00000000
00000100
00000000
00000000
,
00000001
00001000
00000000
00000100
00000000
00010000
00000000
00000000
,
00001000
01000000
00000000
00100000
00000000
10000000
00000000
00000000
,
01000000
00100000
00000000
00001000
00000000
00010000
00000000
00001000
,
00010000
00000100
00000000
00000010
00000000
00000001
00000000
00000000
,
00000100
00000010
00000000
00001000
00000000
00000100
00000000
00000000
,
00010000
00001000
00000000
00100000
00000000
00010000
00000000
00000000
,
10000000
01000000
00000000
00100000
00000000
00010000
00000000
01000000
,
10010000
00000000
00011000
00000000
,
00000100
00001000
00000001
00000010
00000000
00000000
00000000
00000000
,
00001100
00000000
00011000
00000000
,
00100000
00010000
01000000
00100000
00000000
10000000
00000000
00010000
,
01010000
00000000
00011000
00000000
,
00000100
00001000
00000010
00000100
00000000
00000000
00000000
00000000
,
00001001
00000000
00011000
00000000
,
00100000
00010000
01000000
00100000
00000000
10000000
00000000
00000000
,
00010000
00000000
00010000
00000000
00010000
00000000
01000000
00001000
,
00011000
00000000
00000000
00000000
;

//---------------dance-double - ----------------
#NOTES:
     dance-double:
     :
     Hard:
     7:
     :
00000000
00000000
00000000
00000000
,
00000000
00000000
00000000
00000000
,
00000000
00000000
00000000
00000000
,
00000000
00000000
00000000
00000000
,
00000000
00000000
00000000
00000000
,
10010000
01000000
00000000
00100000
00000000
00010000
01000000
00001000
,
00011000
00000100
00000000
00001000
00000000
00000010
00000000
00000100
,
00001001
00000100
00000000
00000010
00000000
00001000
00000100
00010000
,
00011000
01000000
00000000
00010000
00000000
00100000
01000000
10000000
,
01100000
10000000
00000000
00010000
00000000
00100000
00001000
00010000
,
00001100
00000001
00000000
00000010
00000000
00000100
00000000
00001000
,
00000000
00000100
00010000
00001000
00000000
00100000
00000000
00000000
,
00010000
01000000
00010000
01000000
00000000
01000000
00000000
01000000
,
00010000
00100000
00010000
00100000
00000000
00100000
00000000
00100000
,
01000000
10000000
01000000
10000000
00000000
00010000
00000000
01000000
,
00000000
00001000
00010000
00000100
00000000
00001000
00000000
00000000
,
00000001
00000100
00000001
00000100
00000000
00000100
00000000
00000100
,
00000001
00000010
00000001
00000010
00000000
00000010
00000000
00000010
,
00000100
00001000
00000100
00001000
00000000
00000010
00000000
00010000
,
00001000
00010000
00001000
00000000
00100000
00010000
00100000
00000000
,
01000000
10000000
00100000
01000000
00000000
00000000
00000000
00000000
,
00010000
00100000
00010000
00000000
01000000
00001000
01000000
00000000
,
00010000
00100000
00001000
00010000
00000000
00000100
00000000
00000010
,
00000001
00000100
00000001
00000000
00001000
00000100
00001000
00000000
,
00000010
00010000
00001000
00100000
00000000
00000000
00000000
00000000
,
00010000
01000000
00010000
00000000
00100000
01000000
00100000
00000000
,
00001000
00010000
00000100
00001000
00000000
00000010
00000000
00000100
,
00000001
00000010
00000001
00000010
00000001
00000010
00000001
00000010
,
00000001
00000010
00000001
00000010
00000001
00000010
00000001
00000000
,
00001000
00000100
00001000
00000100
00001000
00000100
00001000
00000100
,
00010000
00001000
00010000
00001000
00010000
00001000
00010000
00001000
,
00100000
00010000
00100000
00010000
00100000
00010000
00100000
00000000
,
11000000
00110000
00000000
00000000
,
00001000
00010000
00001000
00010000
00001000
00010000
00001000
00010000
,
00000010
00001000
00000010
00001000
00000010
00001000
00000010
00001000
,
00000001
00000100
00000001
00000100
00000001
00000100
00000001
00000100
,
00000001
00000000
00000000
00000000
,
00000000
00000000
00000000
00000000
,
00001001
00000100
00000000
00000010
00000000
00001000
00000100
00010000
,
00011000
01000000
00000000
00010000
00000000
00100000
01000000
10000000
,
10010000
01000000
00000000
00100000
00000000
10000000
01000000
00100000
,
00110000
01000000
00000000
00001000
00000000
00010000
00000000
00000010
,
00001010
00000100
00000000
00010000
00000000
00001000
00100000
00010000
,
10010000
01000000
00000000
00100000
00000000
00010000
01000000
00001000
,
00011000
00100000
00000000
00010000
00000000
01000000
00001000
00010000
,
00010100
00001000
00000000
00000010
00000000
00000100
00000000
00000001
,
00000010
00000100
00001000
00000000
00000100
00010000
00001000
00000000
,
01000000
00010000
00100000
01000000
00000000
00000000
00000000
00000000
,
10000000
00100000
01000000
00000000
00100000
10000000
00010000
00000000
,
01000000
00001000
00010000
00000100
00000000
00000010
00000000
00000001
,
00000100
00000010
00001000
00000000
00000010
00010000
00001000
00000000
,
01000000
00010000
00100000
01000000
00000000
00000000
00000000
00000000
,
10000000
00100000
01000000
00000000
00100000
10000000
00010000
00000000
,
01000000
00001000
00010000
00000010
00000000
00001000
00000000
00000100
,
00000010
00000001
00000010
00000001
00000010
00000001
00000010
00000100
,
00001001
00000000
00000000
00000000
;

//---------------dance-couple - ----------------
#NOTES:
     dance-couple:
     :
     Challenge:
     8:
     :
00000000
00000000
00000000
00000000
,
00000000
00000000
00000000
00000000
,
00000000
00000000
00000000
00000000
,
00000000
00000000
00000000
00000000
,
00000000
00000000
00000000
00000000
,
00001000
00000001
00001000
00000000
00000010
00000000
00000100
00000000
,
10000000
00010000
10000000
00000000
00100000
00000000
01000000
00000000
,
00001000
00000010
00001000
00000000
00000010
00000000
00001000
00000000
,
10000000
00100000
10000000
00000000
00100000
00000000
10000000
00000000
,
01000100
10000001
00000000
00011000
00000000
00011000
10000001
01000100
,
00100010
00011000
00000000
10000001
00000000
10000001
00000000
00000000
,
00001001
00000100
00001000
00000100
,
10010000
01000000
10000000
01000000
,
00000010
00001000
00000100
00000010
00000000
00000100
00000010
00000000
,
00100000
10000000
01000000
00100000
00000000
01000000
00100000
00000000
,
00000010
00000000
00000001
00001000
00000100
00000000
00001000
00000000
,
00100000
00000000
00010000
10000000
01000000
00000000
10000000
00000000
,
00000010
00000000
00000001
00000001
00000000
00001000
00000100
00000000
,
00100000
00000000
00010000
00010000
00000000
10000000
01000000
00000000
,
10010000
01000000
00001001
00000100
,
01100000
00010000
00000110
00001000
,
00001001
00000010
10010000
00100000
,
00000110
00000001
01100000
10000000
,
00000000
00010000
00010001
00000000
00000000
10000000
10000001
00000000
,
00100000
10000000
00100000
01000000
00010000
10000000
01000000
00000000
,
00000000
00000010
10000010
00000000
00000000
00000100
10000100
00000000
,
00000010
00001000
00000010
00000100
00000001
00001000
00000100
00000000
,
00001001
10010000
00001001
10010000
,
00001100
01010000
00001100
01010000
,
00001001
00000000
10000100
00000000
00000010
00001000
10000100
00000000
,
00000001
00000000
10000100
00000000
00000010
00001000
10000010
00000000
,
00000010
00001000
10000100
00000000
00000010
00001000
10000100
00000000
,
00000001
10000100
00001001
10000100
,
10010000
00000000
01000001
00000000
00100000
10000000
01000001
00000000
,
00010000
00000000
01000001
00000000
00100000
10000000
00100001
00000000
,
00100000
10000000
01000001
00000000
00100000
10000000
01000001
00000000
,
00010000
01000001
10010000
01000001
,
00000000
00000000
00000000
00000000
,
10011001
00010001
10001000
01000100
,
10011001
10001000
00010001
01000100
,
10100000
00010000
00000000
10000000
00000000
01000000
00000000
01000000
,
00000011
00001000
00000000
00000001
00000000
00000100
00000000
00000100
,
00100000
10000000
00000000
00010000
00000000
10000000
00000000
00010000
,
00000010
00001000
00000000
00000001
00000000
00001000
00000000
00000001
,
00100000
00100000
00000000
01000000
00000000
01000000
00000000
01000000
,
00000010
00000010
00000000
00000100
00000000
00000100
00000000
00000100
,
10010000
01000000
01010000
00100000
,
00100000
01000000
10000000
00010000
00000000
10000000
10000000
00000000
,
00001001
00000100
00000101
00000010
,
00000010
00000100
00001000
00000001
00000000
00001000
00001000
00000000
,
00001001
00010000
00010000
00000000
10010000
00001000
00001000
00000000
,
00100010
10000001
00100010
01000100
00011000
10000001
01000100
00000000
,
00000101
00010000
00010000
00000000
11000000
00001000
00001000
00000000
,
10000001
01000100
01000100
00100010
00011000
10000001
01000100
00000000
,
00001001
00000000
10010000
00000000
00100010
00011000
01000100
00000000
,
11000101
00000000
00000000
00000000
;

//---------------dance-solo - ----------------
#NOTES:
     dance-solo:
     :
     Easy:
     4:
     :
000000
000000
000000
000000
,
000000
000000
000000
000000
,
000000
000000
000000
000000
,
000000
000000
000000
000000
,
000000
000000
000000
000000
,
100000
000100
001000
000001
,
100000
001000
000100
000001
,
010000
010000
010000
010000
,
000010
000010
000010
000010
,
010000
010000
000010
000010
,
010000
000001
100000
000010
,
001000
000000
000001
000001
,
100000
000000
000100
000100
,
100000
000001
001000
000100
,
010000
010000
000010
000010
,
100000
000000
000001
000001
,
000010
000000
010000
010000
,
000100
100000
000010
001000
,
000001
000001
100000
100000
,
000100
000000
001000
000000
,
000001
100000
010000
000001
,
001000
000000
000100
000000
,
100000
000001
000010
100000
,
000001
000000
100000
000000
,
001000
000100
010000
001000
,
100000
000000
000001
000000
,
001000
000100
000010
001000
,
000001
000001
000001
000001
,
000001
000001
000001
100001
,
001000
000000
100001
100001
,
000100
000000
100001
100001
,
010000
000000
100001
100001
,
000100
100000
000001
001000
,
010000
010000
000001
100000
,
000010
000010
100000
000001
,
001000
001000
000010
010000
,
000001
000000
000000
000000
,
000000
000000
000000
000000
,
001000
100001
000100
001000
,
000100
100001
001000
000100
,
000001
000001
100000
100000
,
000010
000010
010000
010000
,
000100
100000
000001
001000
,
000001
001000
000100
100000
,
000010
000010
010000
000010
,
001000
001000
000100
100000
,
000010
000000
001000
000000
,
000001
100000
000100
001000
,
010000
000000
001000
000000
,
000100
001000
000001
100000
,
000100
000000
001000
000000
,
000010
001000
000100
010000
,
000001
000000
100000
000000
,
010000
000100
001000
000010
,
010000
010000
010000
010000
,
000010
000000
000000
000000
;

//---------------dance-solo - ----------------
#NOTES:
     dance-solo:
     :
     Medium:
     5:
     :
000000
000000
000000
000000
,
000000
000000
000000
000000
,
000000
000000
000000
000000
,
000000
000000
000000
000000
,
000000
000000
000000
000000
,
010000
000010
000000
000010
000000
001000
000100
100000
,
000001
001000
000100
100000
,
000001
000100
000000
000010
000000
000010
000000
001000
,
000100
010000
000000
010000
000000
000010
000000
001000
,
000100
100000
000000
000001
000000
000001
000000
001000
,
000100
000010
000000
010000
000000
010000
000000
000000
,
001000
100000
001000
000000
010000
000000
000000
000000
,
000100
000001
000100
000000
000010
000000
000000
000000
,
100000
000100
100000
000000
001000
000000
000000
000000
,
000001
000100
000001
000000
001000
000000
000000
000000
,
000100
100000
000010
000010
,
000100
000001
010000
010000
,
000100
010000
000001
000001
,
000100
000010
100000
100000
,
010000
010100
000001
000101
,
010000
000000
010000
000010
000000
100000
100000
000000
,
000001
000011
100000
110000
,
000010
000000
000010
010000
000000
000001
000001
000000
,
001100
100000
100001
001000
,
000100
000000
010000
010000
000000
000010
001000
000000
,
000101
100000
100100
000001
,
001000
000000
000100
001000
000000
000001
100000
000000
,
000100
001000
000001
100000
,
000010
000010
010000
010000
,
100010
000000
000001
000000
001000
001000
000100
000000
,
000000
010000
100000
000000
000001
000000
000001
000000
,
101000
000000
100001
000000
000000
000100
001000
000000
,
000001
000000
100000
000000
000000
000010
000010
000000
,
010000
010000
000000
000001
000000
000001
100000
001000
,
000100
000001
000000
000010
000000
000010
000100
001000
,
100000
001000
000000
001000
000000
001000
000100
000010
,
000100
000000
010000
000000
000010
001000
000100
000000
,
000000
000000
000000
000000
,
010100
100000
000000
000001
000000
001000
000000
000000
,
000110
000001
000000
100000
000000
001000
000000
000000
,
101000
010000
000000
000010
000000
000100
000000
000000
,
001001
000010
000000
010000
000000
000100
000000
000100
,
010000
000100
000000
000100
000000
000100
000010
000100
,
100000
000001
000000
001000
000000
001000
100000
001000
,
000001
001000
000000
000100
000000
000100
010000
010000
,
000010
000010
000000
001000
000000
000001
000000
010000
,
100100
000010
000101
010000
,
000100
000000
001000
000001
000000
010000
010000
000000
,
000001
000011
100000
110000
,
000100
000000
001000
000100
000000
100000
100000
000000
,
000101
000110
000011
100001
,
000100
000000
001000
000001
000000
100000
000100
000000
,
011000
010000
001010
000010
,
100000
000000
000001
001000
000000
000100
100000
000000
,
000100
000000
000100
000000
010000
000010
001000
000000
,
100001
000000
000000
000000
;

//---------------dance-solo - ----------------
#NOTES:
     dance-solo:
     :
     Hard:
     8:
     :
000000
000000
000000
000000
,
000000
000000
000000
000000
,
000000
000000
000000
000000
,
000000
000000
000000
000000
,
000000
000000
000000
000000
,
100001
000001
000000
000001
000000
010000
000010
001000
,
000100
001000
000000
000010
000000
000010
100000
000100
,
100000
100001
000000
000001
000000
000001
010000
000010
,
010000
000010
000000
100000
000000
100000
000010
010000
,
000010
010000
000000
000001
000000
000001
010000
000100
,
100000
000001
000000
000001
000000
000001
000000
100000
,
100001
001000
000100
100000
,
000010
010000
000001
100000
000000
000100
001000
000000
,
001000
000010
001000
010000
000000
001000
000010
000000
,
100000
001000
000100
000001
000000
100000
001000
000000
,
000100
000000
000001
100000
000000
000001
000000
000000
,
010000
000000
000010
000100
000000
001000
000000
000000
,
100000
000000
000010
000010
000000
010000
000000
000000
,
000100
100000
000001
001000
000100
010000
000010
000010
,
000110
010100
000101
100100
,
000010
000010
010000
000010
000000
100000
100000
000000
,
000011
000101
010100
110000
,
000010
100000
001000
000100
000000
000010
100000
000000
,
000000
000010
000010
000000
000000
001000
001000
000000
,
000100
100000
000100
001000
000001
100000
001000
000000
,
000000
010000
010000
000000
000000
001000
001000
000000
,
100000
000010
000010
010000
010000
001000
100000
000000
,
001100
001100
001100
001100
,
001100
001100
001100
001100
,
001100
000010
000001
000000
010000
100000
001000
000000
,
000100
001000
000001
100000
000010
000000
010000
000000
,
000110
000001
100000
000000
110000
000100
001000
000000
,
000001
001000
100000
001000
000010
000000
010000
000000
,
101000
010000
000100
000000
000101
000010
001000
000000
,
000010
000001
000100
000001
010000
000000
100000
000000
,
001100
000010
010000
000000
100001
001000
000100
000000
,
100000
000010
000010
010000
000001
001000
000100
000000
,
000000
000000
000000
000000
,
010000
010010
000000
100000
000000
000001
001000
000100
,
100000
100000
000000
000010
000000
010000
000001
100000
,
000100
010000
000000
000001
000000
001000
000010
100000
,
000001
000000
000000
010000
000000
010000
000000
010000
,
010000
001100
000000
000001
000000
000001
100000
000001
,
000100
001000
000000
010000
000000
000010
010000
001000
,
100000
100001
000000
000100
000000
000100
010000
000010
,
001000
000000
000000
000001
000000
100000
000000
001000
,
011000
000010
001010
000000
001010
010000
011000
000000
,
000100
001000
100000
000001
000000
001000
001000
000000
,
010100
000001
000110
000000
010100
000001
000110
000000
,
001000
000100
100000
000001
000000
001000
001000
000000
,
000000
000010
000010
000000
000000
010000
010000
000000
,
000100
010000
000100
000010
000100
010000
000100
000000
,
000000
000001
000001
000000
000000
100000
100000
000000
,
000010
100000
000100
001000
000001
010000
000100
000000
,
010001
000000
100010
000000
000100
000001
100000
001000
,
100001
000000
000000
000000
;

//---------------dance-double - Edit by silenttype01----------------
#NOTES:
     dance-double:
     Edit by silenttype01:
     Challenge:
     8:
     0.513,0.507,0.141,0.043,0.119: // measure 1
00000000
00000000
00000000
00000000
,  // measure 2
00000000
00000000
00000000
00000000
,  // measure 3
00000000
00000000
00000000
00000000
,  // measure 4
00000000
00000000
00000000
00000000
,  // measure 5
00000000
00000000
00000000
00000000
,  // measure 6
00000000
00000000
00000000
00000000
,  // measure 7
00000000
00000000
00000000
00000000
00000000
00000000
00000000
00000100
,  // measure 8
00001001
00000100
00000000
00000010
00000000
00001000
00000100
00010000
,  // measure 9
00011000
01000000
00000000
00010000
00000000
00100000
01000000
10000000
,  // measure 10
01100000
10000000
00000000
00010000
00000000
00100000
00001000
00010000
,  // measure 11
00001100
00000001
00000000
00000010
00000000
00000100
00000000
00001000
,  // measure 12
00000100
00010000
00001000
00100000
01000000
10000000
01000000
10000000
,  // measure 13
00010000
01000000
00010000
01000000
00100000
10000000
01000000
00100000
,  // measure 14
00001000
00100000
00001000
00100000
00000010
00010000
00000010
00010000
,  // measure 15
01000000
10000000
00100000
00010000
00000000
00010000
00000000
01000000
,  // measure 16
00100000
00001000
00010000
00000100
00000010
00000001
00000010
00000001
,  // measure 17
00001000
00000010
00001000
00000010
00000100
00000001
00000010
00000100
,  // measure 18
00010000
00000100
00010000
00000100
01000000
00001000
01000000
00001000
,  // measure 19
00000010
00000001
00000100
00001000
00000000
00001000
00000100
00000001
,  // measure 20
00001000
00000000
00000000
00000100
00001000
00000000
00000010
00000000
00000100
00000000
00000000
00000001
00000010
00000000
00000100
00000000
,  // measure 21
00001000
00000000
00000000
00000010
00000100
00000000
00000001
00000000
00000000
00000000
00000001
00000000
00000100
00000000
00001000
00000000
,  // measure 22
00010000
00000000
00000000
00100000
01000000
00000000
00010000
00000000
10000000
00000000
00000000
01000000
00100000
00000000
00010000
00000000
,  // measure 23
01000000
00000000
00000000
00100000
10000000
00000000
01000000
00000000
00000000
00000000
10000000
00000000
00100000
00000000
00010000
00000000
,  // measure 24
00001000
00000000
00000000
00000100
00000001
00000000
00001000
00000000
00000100
00000000
00000000
00001000
00000001
00000000
00000100
00000000
,  // measure 25
00001000
00000000
00000000
00000100
00000001
00000000
00001000
00000000
00000000
00000000
00001000
00000000
00100000
00000000
10000000
00000000
,  // measure 26
00010000
00000000
00000000
01000000
00010000
00000000
10000000
00000000
01000000
00000000
00000000
00010000
01000000
00000000
10000000
00000000
,  // measure 27
01000000
00000000
10000000
00020000
00000000
00000000
00000000
00000000
,  // measure 28
00100000
00100000
00100000
00100000
,  // measure 29
00100000
00100000
00100000
00130000
,  // measure 30
01000000
10000000
00010000
00100000
01000000
10000000
00010000
00100000
,  // measure 31
00001000
00010000
01000000
10000000
00010000
00100000
00001000
00010000
,  // measure 32
01000000
10000000
00010000
00100000
00001000
00010000
01000000
10000000
,  // measure 33
00010000
00100000
00001000
00010000
00000100
00001000
00000001
00000010
,  // measure 34
00000001
00000100
00000001
00000010
00000001
00001000
00000010
00001000
,  // measure 35
00000100
00001000
00000010
00001000
00010000
00100000
00010000
01000000
,  // measure 36
00010000
00100000
00010000
10000000
00100000
10000000
01000000
10000000
,  // measure 37
00200000
20000000
00000000
00000000
00000000
00000000
00000000
00000000
,  // measure 38
00000000
00000000
00000000
30300000
,  // measure 39
10010000
00100000
00000000
01000000
00000000
00010000
00100000
00001000
,  // measure 40
00011000
00000010
00000000
00001000
00000000
00000100
00000010
00000001
,  // measure 41
00001001
00000010
00000000
00000100
00000000
00000001
00000010
00000100
,  // measure 42
00001100
00000010
00000000
00010000
00000000
00001000
00000000
01000000
,  // measure 43
01010000
00100000
00000000
00001000
00000000
00010000
00000100
00001000
,  // measure 44
00001001
00000010
00000000
00000100
00000000
00001000
00000010
00010000
,  // measure 45
00011000
00000100
00000000
00001000
00000000
00000010
00010000
00001000
,  // measure 46
00101000
00010000
00000000
01000000
00000000
00100000
00000000
10000000
,  // measure 47
00010000
00000000
00000000
00100000
00010000
00000000
01000000
00000000
00100000
00000000
00000000
10000000
01000000
00000000
00100000
00000000
,  // measure 48
00010000
00000000
00000000
01000000
00100000
00000000
10000000
00000000
00000000
00000000
10000000
00000000
00100000
00000000
00010000
00000000
,  // measure 49
00001000
00000000
00000000
00000100
00000010
00000000
00001000
00000000
00000001
00000000
00000000
00000010
00000100
00000000
00001000
00000000
,  // measure 50
00000010
00000000
00000000
00000100
00000001
00000000
00000010
00000000
00000000
00000000
00000001
00000000
00000100
00000000
00001000
00000000
,  // measure 51
00010000
00000000
00000000
00100000
10000000
00000000
00010000
00000000
00100000
00000000
00000000
00010000
10000000
00000000
00100000
00000000
,  // measure 52
00010000
00000000
00000000
00100000
10000000
00000000
00010000
00000000
00000000
00000000
00010000
00000000
00000100
00000000
00000001
00000000
,  // measure 53
00001000
00000000
00000000
00000010
00001000
00000000
00000001
00000000
00000010
00000000
00000000
00001000
00000010
00000000
00000001
00000000
,  // measure 54
00000010
00000000
00000001
00002000
00000000
00000000
00000000
00000000
,  // measure 55
00000010
00000010
00000010
00003010
,  // measure 56
00001001
00000000
00000000
00000000
;
