#TITLE:RIDE ON THE LIGHT;
#SUBTITLE:(HI GREAT MIX);
#ARTIST:Mr. T;
#TITLETRANSLIT:;
#SUBTITLETRANSLIT:;
#ARTISTTRANSLIT:;
#CREDIT:;
#BANNER:RIDE ON THE LIGHT (HI GREAT MIX).png;
#BACKGROUND:RIDE ON THE LIGHT (HI GREAT MIX)-bg.png;
#LYRICSPATH:;
#CDTITLE:;
#MUSIC:RIDE ON THE LIGHT (HI GREAT MIX).ogg;
#OFFSET:0.000;
#SAMPLESTART:67.500;
#SAMPLELENGTH:15.000;
#SELECTABLE:YES;
#BPMS:0.000=180.000;
#STOPS:;
#BGCHANGES:4.000=RIDE ON THE LIGHT (HI GREAT MIX).avi=1.000=1=0=0,
313.000=RIDE ON THE LIGHT (HI GREAT MIX)-bg.png=1.000=0=0=1,
99999=-nosongbg-=1.000=0=0=0 // don't automatically add -songbackground-
;

//---------------dance-single - ----------------
#NOTES:
     dance-single:
     :
     Beginner:
     2:
     0.205,0.289,0.056,0.065,0.000:
0000
0000
0000
0000
,
0000
0000
0000
0000
,
0000
0000
0000
0000
,
0000
0000
0000
0000
,
0000
0000
0000
0000
,
0000
0000
0000
0000
,
1001
0000
0000
0000
,
0000
0000
0000
0000
,
0010
0000
0010
0000
,
0010
0010
0010
0010
,
0010
0000
0000
0000
,
1000
0000
0001
0000
,
0100
0000
0000
0000
,
0100
0000
0100
0100
,
0100
0000
0000
0000
,
0001
0000
1000
0000
,
0010
0000
0000
0000
,
0010
0000
0010
0000
,
0010
0010
0010
0000
,
1001
0000
0000
0000
,
0001
0000
1000
0000
,
0010
0010
0000
0000
,
0000
0000
0100
0000
,
0100
0000
0001
0000
,
0010
0000
1000
0000
,
0100
0000
0000
0000
,
0001
0000
1000
0000
,
1001
0000
0000
0000
,
1000
0000
0001
0000
,
0010
0010
0000
0000
,
0000
0000
0100
0000
,
0100
0000
1000
0000
,
0010
0000
0001
0000
,
0100
0000
0000
0000
,
0001
0001
0001
0000
,
2000
3000
1000
0000
,
0002
0003
0001
0000
,
0200
0300
0100
0000
,
0020
0030
0010
0000
,
0002
0003
0001
0000
,
2000
3000
1000
0000
,
0200
0300
0100
0000
,
0110
0000
0000
0000
,
1000
1000
1000
0000
,
0001
0001
0001
0000
,
0100
0100
0100
0000
,
0010
0010
0010
0000
,
0001
0000
0010
0000
,
1000
0000
0100
0000
,
0010
0010
0010
0010
,
0000
0000
0000
0000
,
0100
0100
0100
0100
,
0100
0000
1000
0000
,
0010
0000
0001
0000
,
0100
0000
1000
1000
,
1000
0000
0001
0000
,
1000
0000
0100
0000
,
0010
0000
0001
0000
,
1000
0000
0010
0010
,
0010
0010
0010
0010
,
0010
0000
1000
0000
,
0001
0000
0100
0000
,
0010
0000
0001
0001
,
0001
0000
1000
0000
,
0001
0000
0010
0000
,
0100
0000
0001
0000
,
1000
0000
0100
0000
,
0000
0000
0000
0000
,
0000
0000
1001
0000
,
0010
0000
0000
0000
,
1000
0000
0001
0000
,
0100
0000
0000
0000
,
0100
0000
0100
0100
,
0100
0000
0000
0000
,
0001
0000
1000
0000
,
0010
0000
0000
0000
,
0010
0000
0010
0000
,
0010
0010
0010
0000
,
1001
0000
0000
0000
;

//---------------dance-single - ----------------
#NOTES:
     dance-single:
     :
     Easy:
     4:
     0.341,0.506,0.352,0.223,0.000:
0000
0000
0000
0000
,
0000
0000
0000
0000
,
0000
0000
0000
0000
,
0000
0000
0000
0000
,
0000
0000
0000
0000
,
0000
0000
0000
0000
,
2002
0000
0000
0000
,
0000
0000
3003
0100
,
1001
0010
1001
0000
,
0101
1100
0101
1100
,
0010
0000
0010
0000
,
0001
0000
1000
0000
,
0001
0000
0100
0000
,
1000
0001
1000
1000
,
0001
1001
0000
0010
,
0000
0010
1001
0000
,
1000
0100
0001
0010
,
1000
0000
0001
0000
,
1000
0001
0100
1001
,
1001
0000
1000
0000
,
0001
0000
1000
0000
,
0001
0000
0010
0000
,
0001
0000
1000
0000
,
0100
0000
0001
0000
,
0010
0000
0100
0000
,
0010
0000
1000
0000
,
0001
0000
1000
0000
,
1001
0000
1000
0000
,
0001
0000
0010
0000
,
0100
0000
1000
0000
,
1000
0100
0001
0010
,
1001
0000
0001
0000
,
1000
0000
0001
0100
,
1000
0010
0001
0000
,
1010
0101
0000
0000
,
2100
0000
0001
3000
,
0002
0000
0100
0003
,
2000
0000
0001
3000
,
0002
0000
0010
0003
,
0200
0000
0010
0300
,
2000
0000
0100
3000
,
0002
0000
1000
0003
,
0000
0100
0001
1001
,
1001
0000
0010
1000
,
0100
0001
0100
1000
,
0001
1000
0001
0010
,
0100
0100
1000
0001
,
0100
0010
1000
0001
,
0100
1000
0100
0001
,
2000
0001
0001
3001
,
1000
0001
0100
0000
,
1001
0000
0100
0000
,
0001
0000
0010
0000
,
0001
0000
0100
0000
,
1000
0000
0010
0000
,
0001
0000
0010
0000
,
1000
0000
0100
0000
,
0001
0000
1000
0000
,
0001
0000
1000
1000
,
1000
0001
0001
0001
,
2002
3003
0010
0100
,
2002
3003
0100
0010
,
2002
3003
1000
0100
,
2200
3300
0001
0100
,
0202
0303
0001
1000
,
2002
3003
0010
0100
,
0220
0330
0000
0000
,
1000
0001
1000
0001
,
0100
0000
0100
0000
,
1001
0000
0010
0100
,
0001
0010
0100
1000
,
1100
0000
0101
0000
,
1001
0010
0001
1000
,
0010
1001
0100
0001
,
0100
0001
1000
0100
,
1000
0100
0001
1000
,
1001
0000
1100
0101
,
1100
0101
1100
0000
,
1001
0000
0000
0000
;

//---------------dance-single - ----------------
#NOTES:
     dance-single:
     :
     Medium:
     6:
     0.433,0.507,0.204,0.278,0.000:
0000
0000
0000
0000
,
0000
0000
0000
0000
,
0000
0000
0000
0000
,
0000
0000
0000
0000
,
0000
0000
0000
0000
,
0000
0000
0000
0000
,
0001
0100
1000
0001
,
0010
1000
1001
0000
,
1010
0000
0101
0000
,
0110
1001
1001
0110
,
1001
0100
0001
1000
,
0010
0001
1000
0000
,
0001
0100
0010
1000
,
0001
0010
0100
0000
,
0001
0100
1000
0001
,
0010
1000
0001
0000
,
1000
0100
0010
0001
,
0000
0002
0000
0000
0023
0000
0000
0230
,
0000
2300
0000
3001
0000
1001
0000
0000
,
1001
0000
1000
0001
,
0100
1000
0010
0100
,
1000
0000
0001
0000
0010
0100
0000
1000
,
0000
0001
0000
0100
0000
0010
0000
1000
,
0000
0000
0001
0001
0000
1000
0001
1000
,
0000
0000
0010
0010
0000
1000
0100
0001
,
0000
0100
0001
0100
0000
0100
0010
0100
,
0000
0100
1000
0100
0000
0100
0010
0001
,
1000
0001
0100
1000
,
0100
0010
0001
0010
,
0001
0000
0100
0000
0001
0100
0000
1000
,
0000
0001
0000
0010
0000
0100
0000
1000
,
0000
0000
0001
0001
0000
1000
0001
1000
,
0000
0000
0100
0100
0000
1000
0100
1000
,
0000
0000
0100
0000
0001
0100
0000
0000
,
0000
1001
0000
1001
0000
1001
0000
0020
,
0000
0000
0030
0000
0100
0000
0010
0020
,
0000
0000
0000
0000
0030
0001
0010
2000
,
0000
0000
3000
0000
0010
0000
0001
0200
,
0000
0000
0000
0000
0300
1000
0100
0001
,
0000
0000
0001
0001
0000
0000
1000
1000
,
0000
0000
0100
0100
0000
0001
0000
0020
,
0000
0000
0000
0030
,
0000
1001
0000
1001
0000
1001
0000
0020
,
0000
0000
0030
0000
0100
0000
0010
0020
,
0000
0000
0000
0000
0030
1000
0010
0002
,
0000
0000
0003
0000
0010
0000
1000
0200
,
0000
0000
0000
0000
0300
0001
0100
1000
,
0000
0000
1000
1000
0000
0001
0000
0100
,
0000
0000
0001
0100
0000
1000
0000
0100
,
0000
0001
0001
1000
1000
0100
0100
0010
,
0000
1001
0000
1001
0000
1001
0000
0000
,
0100
0000
1000
0000
0100
0000
0001
2000
,
0000
3000
0000
0000
0100
0001
0100
0001
,
0000
0000
1000
0100
0000
0001
0000
0100
,
0000
0000
0000
1000
0100
1000
0100
0020
,
0000
0030
0001
0002
0000
0003
0100
0200
,
0000
0300
0010
2000
3000
0001
0001
0200
,
0300
0000
0001
0001
0000
0100
0000
0001
,
0000
0000
0000
0001
0100
0001
0000
0001
,
0100
0000
1000
0000
0010
0000
0100
0002
,
0000
0000
0003
0000
1000
0001
1000
0002
,
0000
0003
0010
0100
0000
0010
0000
0100
,
0000
0000
0000
0001
0100
0001
0000
0001
,
0100
0000
1000
0100
0000
0001
0000
0100
,
0000
0000
1000
0100
0000
0001
0000
0100
,
0000
0000
1000
0100
0000
0001
0000
0100
,
0000
0000
1000
0100
0000
0000
0001
0000
,
2002
0000
0000
3003
,
0000
0110
0000
0000
2000
0002
3003
0000
,
1001
0100
0001
1000
,
0010
0001
1000
0000
,
0001
0100
0010
1000
,
0001
0010
0100
0000
,
0001
0100
1000
0001
,
0010
0001
1000
0000
,
1000
0100
0010
0001
,
0000
0002
0000
0000
0023
0000
0000
0230
,
0000
2300
0000
3002
0000
1003
0000
0000
,
0010
0100
0000
0000
0000
0000
0000
0000
;

//---------------dance-single - ----------------
#NOTES:
     dance-single:
     :
     Hard:
     8:
     0.535,0.580,0.241,0.167,0.000:
0000
0000
0000
0000
,
0000
0000
0000
0000
,
0000
0000
0000
0000
,
0000
0000
0000
0000
,
0000
0000
0000
0000
,
0000
0000
0000
0000
,
0000
1000
0010
1000
0100
0001
0100
0010
,
0000
0001
1000
0100
0000
0010
0000
1001
,
0000
0000
0001
1000
0000
1000
0000
0000
,
2000
0100
0001
3100
,
0000
0010
0100
0001
0100
1000
0000
0100
,
0000
0010
1000
0100
0000
0011
0000
0010
,
0001
1000
0001
0100
0010
0100
0001
1000
,
0000
1010
0000
0000
1100
0000
0100
0001
,
0000
0100
1000
0010
0100
0001
0010
0001
,
0000
0010
0100
1000
0000
0001
0000
1000
,
0010
0001
0010
0100
0010
0100
1000
0100
,
0000
0110
0000
0000
1001
0000
0000
0002
,
0000
1000
0000
0100
0000
1003
0000
0000
,
1001
0000
0000
1000
0010
0100
0010
0100
,
0000
0001
0100
0001
0000
0000
0100
0000
,
1000
0000
1000
0100
0001
0100
0001
0100
,
0000
0001
0000
0010
0000
0100
1000
0001
,
0000
0000
0001
0010
0000
0010
0100
1000
,
0000
0000
1000
0100
0000
0100
0010
0001
,
0000
0100
1000
0100
0001
0100
0001
0100
,
0010
0100
0010
1000
0010
0001
0010
0100
,
0000
0000
0000
0010
0100
1000
0100
0010
,
0000
1000
0001
0100
0000
0000
0010
0000
,
1000
0000
0010
0001
0010
0100
0001
0100
,
0000
0010
0000
0100
0000
0100
1000
0100
,
0000
0000
0100
0001
0000
0001
0100
1000
,
0000
0000
1000
0100
0000
0100
0010
2000
,
0000
0000
0000
3000
,
0002
0100
0000
0100
0000
0100
0000
0003
,
2000
0000
0000
0000
0010
0000
0010
3020
,
0000
0000
0000
0000
0000
1000
1000
2030
,
0000
0000
0000
0000
0001
0000
0001
3002
,
0000
0000
0000
0000
0000
0100
0100
0203
,
0000
0000
0001
0001
0000
0000
0001
0320
,
0000
0000
0000
1000
0000
0001
0000
2030
,
0000
0000
0000
0000
,
0000
0001
0000
0001
0000
3010
0000
0000
,
0001
1000
0001
0010
0100
0010
0100
0000
,
1000
0001
1000
0010
1000
0010
0100
0000
,
0001
1000
0100
1000
0100
0010
1000
0000
,
0010
1000
0010
0001
0100
1000
0100
0000
,
0100
0010
0001
0010
0001
0010
1000
0000
,
1000
0001
0010
0001
0010
0001
0100
1000
,
0100
0010
1000
0100
0010
0001
0010
1000
,
0000
0110
0000
1100
0000
0110
0000
0010
,
0001
1000
0010
0001
0010
0001
0010
0100
,
0000
0000
0000
0000
0001
1000
0001
1000
,
0000
0000
0002
0100
0000
0010
0000
0103
,
0000
0000
0000
0010
0100
0001
0100
0010
,
0000
0000
0100
0010
0000
0000
0010
0100
,
0000
0000
0100
0001
0000
0001
0100
1000
,
0000
0000
2000
0100
0000
0100
0000
3001
,
0000
0000
0000
0100
0010
0100
0001
0100
,
0010
0100
1000
0100
0010
0100
0001
0100
,
0000
0000
0000
0000
0100
0001
0100
0010
,
0000
0000
0020
1000
0000
1000
0000
1030
,
0000
0000
0000
0010
0001
0100
1000
0100
,
1000
0000
2000
0100
0000
0100
0000
3100
,
0000
0000
0002
0010
0000
0010
0000
0013
,
0000
0000
0020
1000
0000
1000
0000
1030
,
0000
0000
1000
0001
0000
0000
0001
2000
,
0000
0000
0000
3000
,
0000
1001
0000
0000
0110
0110
0000
0000
,
1000
0010
0100
0001
0010
0100
0000
0011
,
0000
0100
1000
0100
0000
1100
0000
0001
,
0100
0001
1000
0100
1000
0010
1000
0001
,
0000
0011
0000
0000
0110
0000
0100
1000
,
0000
1000
0100
0010
0100
0001
0010
0100
,
0000
0100
0010
0100
0000
1100
0000
0100
,
0001
0100
0010
0001
0100
1000
0100
1000
,
0000
0110
0000
0000
0101
0000
0000
1100
,
0000
0011
0000
1001
0000
0101
0000
0000
,
0110
0110
0000
0000
0000
0000
0000
0000
;

//---------------dance-double - ----------------
#NOTES:
     dance-double:
     :
     Beginner:
     3:
     0.220,0.362,0.213,0.000,0.000:
00000000
00000000
00000000
00000000
,
00000000
00000000
00000000
00000000
,
00000000
00000000
00000000
00000000
,
00000000
00000000
00000000
00000000
,
00000000
00000000
00000000
00000000
,
00000000
00000000
00000000
00000000
,
10000000
00000000
00010000
00000000
,
00000100
00000000
00000010
00000000
,
00001001
00000000
00000110
00000000
,
00001001
00000000
00011000
00000000
,
10010000
00000000
00010000
00000000
,
00000100
00000000
00000010
00000000
,
00000010
00000000
00000100
00000000
,
00000010
00000000
00000010
00000000
,
00000001
00000000
00001000
00000000
,
01000000
00000000
00100000
00000000
,
00100000
00000000
01000000
00000000
,
00100000
00000000
00010000
00000000
,
00001000
00000000
00001000
00000000
,
00001001
00000000
00000010
00000000
,
00010000
00000000
10000000
00000000
,
01100000
00000000
10000000
00000000
,
00010000
00000000
00000010
00000000
,
00000010
00000000
00000100
00000000
,
00000010
00000000
00000100
00000000
,
00000001
00000000
00000001
00000000
,
00000010
00000000
00001000
00000000
,
10010000
00000000
00100000
00000000
,
00001000
00000000
00000001
00000000
,
00000110
00000000
00000001
00000000
,
00001000
00000000
00100000
00000000
,
00100000
00000000
01000000
00000000
,
00100000
00000000
01000000
00000000
,
10000000
00000000
10000000
00000000
,
01100000
00000000
10010000
00000000
,
00011000
00000000
00000010
00000000
,
00000001
00000000
00000100
00000000
,
00001000
00000000
00010000
00000000
,
00100000
00000000
10000000
00000000
,
01000000
00000000
00010000
00000000
,
00001000
00000000
00000010
00000000
,
00000001
00000000
00000100
00000000
,
00000110
00000000
01100000
00000000
,
10000000
00000000
00010000
00000000
,
00010000
00000000
00000010
00000000
,
00000100
00000000
00010000
00000000
,
00010000
00000000
01000000
00000000
,
00010000
00000000
00000010
00000000
,
00001000
00000000
00001000
00000000
,
00000100
00000000
00000010
00000000
,
00000110
00000000
00001001
00000000
,
00000010
00000000
00000100
00000000
,
00001000
00000000
01100000
00000000
,
01000000
00000000
00100000
00000000
,
00010000
00000000
00000110
00000000
,
00000001
00000000
00001000
00000000
,
00010000
00000000
10000000
00000000
,
10000000
00000000
00010000
00000000
,
00001000
00000000
00000001
00000000
,
00000001
00000000
00000100
00000000
,
00000100
00000000
00010000
00000000
,
00010000
00000000
00100000
00000000
,
00100000
00000000
01000000
00000000
,
10000000
00000000
00100000
00000000
,
00010000
00000000
00100000
00000000
,
00010000
00000000
00000010
00000000
,
00001000
00000000
00100000
00000000
,
00011000
00000000
00000000
00000000
,
00000000
10010000
00000000
00001001
,
00000000
00000100
00000000
00010000
,
00000000
10000000
00000000
00000000
,
00100000
00000000
01000000
00000000
,
00100000
00000000
00100000
00000000
,
10010000
00000000
00010000
00000000
,
00000100
00000000
00000010
00000000
,
00000010
00000000
00000100
00000000
,
00000010
00000000
00001000
00000000
,
00010000
00000000
00010000
00000000
,
10010000
00000000
00000000
00000000
;

//---------------dance-double - ----------------
#NOTES:
     dance-double:
     :
     Easy:
     4:
     0.334,0.434,0.223,0.139,0.000:
00000000
00000000
00000000
00000000
,
00000000
00000000
00000000
00000000
,
00000000
00000000
00000000
00000000
,
00000000
00000000
00000000
00000000
,
00000000
00000000
00000000
00000000
,
00000000
00000000
00000000
00000000
,
10000000
01000000
00010000
00001000
,
00000100
00000001
00000010
00000000
,
00001001
00000000
00000110
00000000
,
00001001
00001000
00011000
00010000
,
10010000
01000000
00010000
00001000
,
00000100
00000001
00000010
00000000
,
00000010
00001000
00000100
00000001
,
00000010
00000100
00000010
00000000
,
00000001
00000100
00001000
00010000
,
01000000
10000000
00100000
00000000
,
00100000
00010000
01000000
10000000
,
00100000
00000000
00010000
00000000
,
00001000
00000001
00001000
00000000
,
00001001
00000000
00000010
00001000
,
00010000
00100000
10000000
00000000
,
01100000
00000000
10000000
00100000
,
00010000
00001000
00000010
00000000
,
00000010
00000001
00000100
00000000
,
00000010
00001000
00000100
00000000
,
00000001
00001000
00000001
00001000
,
00000010
00010000
00001000
01000000
,
10010000
00000000
00100000
00010000
,
00001000
00000010
00000001
00000000
,
00000110
00000000
00000001
00000010
,
00001000
00010000
00100000
00000000
,
00100000
10000000
01000000
00000000
,
00100000
00010000
01000000
00000000
,
10000000
00010000
10000000
00010000
,
01100000
00000000
10010000
00000000
,
00012000
00000000
00003020
00000000
,
00000032
00000000
00000203
00000000
,
00002300
00000000
00023000
00000000
,
00230000
00000000
20300000
00000000
,
32000000
00000000
03020000
00000000
,
00032000
00000000
00003020
00000000
,
00000032
00000000
00000103
00000000
,
00001100
00000000
01010000
00000000
,
10000000
00100000
00010000
00000000
,
00010000
00001000
00000010
00000000
,
00000100
00001000
00010000
00000000
,
00010000
10000000
01000000
00000000
,
00010000
00001000
00000010
00000000
,
00001000
00000100
00001000
00000000
,
00000100
00000001
00000010
00001000
,
00000110
00000000
00001001
00000000
,
00000010
00000000
00000100
00000000
,
00001000
00010000
01100000
00000000
,
01000000
00000000
00100000
00000000
,
00010000
00001000
00000110
00000000
,
00000001
00000100
00001000
00000000
,
00010000
01000000
10000000
00000000
,
10000000
00100000
00010000
00000000
,
00001000
00000010
00000001
00000000
,
00000001
00000010
00000100
00000000
,
00000100
00001000
00010000
00000000
,
00010000
01000000
00100000
00000000
,
00100000
10000000
01000000
00000000
,
10000000
01000000
00100000
00000000
,
00010000
01000000
00100000
00000000
,
00010000
00001000
00000010
00000000
,
00001000
00010000
00100000
00000000
,
00022000
00000000
00000000
00033000
,
00000000
00110000
00000000
00001010
,
00001001
00000100
00001000
00010000
,
01000000
10000000
00100000
00000000
,
00100000
00010000
01000000
10000000
,
00100000
01000000
00100000
00000000
,
10010000
01000000
00010000
00001000
,
00000100
00000001
00000010
00000000
,
00000010
00001000
00000100
00000001
,
00000010
00000000
00001000
00000000
,
00010000
10000000
00010000
00000000
,
10010000
00000000
00000000
00000000
;

//---------------dance-double - ----------------
#NOTES:
     dance-double:
     :
     Medium:
     7:
     0.440,0.507,0.213,0.269,0.000:
00000000
00000000
00000000
00000000
,
00000000
00000000
00000000
00000000
,
00000000
00000000
00000000
00000000
,
00000000
00000000
00000000
00000000
,
00000000
00000000
00000000
00000000
,
00000000
00000000
00000000
00000000
,
10000000
01000000
00010000
00001000
,
00000010
00000001
00001001
00000000
,
00000011
00000000
00001100
00000000
,
00000110
00001001
00001001
00000110
,
00001001
00000100
00001000
00010000
,
00100000
10000000
00010000
00000000
,
10000000
01000000
00100000
00010000
,
10000000
00100000
01000000
00000000
,
10000000
01000000
00010000
00001000
,
00000010
00000001
00001000
00000000
,
00000001
00000100
00000010
00001000
,
00000000
00002000
00000000
00000000
00003020
00000000
00000000
00000230
,
00000000
00000302
00000000
00001003
00000000
00001001
00000000
00000000
,
00001001
00000000
00000001
00001000
,
00000100
00010000
00001000
01000000
,
00010000
00000000
10000000
00000000
00100000
01000000
00000000
00010000
,
00000000
10000000
00000000
01000000
00000000
00100000
00000000
00010000
,
00000000
00000000
10000000
10000000
00000000
00010000
10000000
00010000
,
00000000
00000000
00100000
00100000
00000000
00010000
01000000
10000000
,
00000000
01000000
10000000
01000000
10000000
01000000
00100000
01000000
,
00100000
01000000
00010000
01000000
00010000
01000000
00100000
10000000
,
00010000
10000000
01000000
00010000
,
01000000
00010000
00001000
00010000
,
00001000
00000000
00000100
00000000
00001000
00000100
00000000
00000001
,
00000000
00001000
00000000
00000010
00000000
00000100
00000000
00000001
,
00000000
00000000
00001000
00001000
00000000
00000001
00001000
00000001
,
00000000
00000000
00000100
00000100
00000000
00000001
00000100
00000001
,
00000000
00000100
00001000
00000100
,
00000000
00001001
00000000
00001001
00000000
00001001
00000000
00000020
,
00000000
00000000
00000030
00000000
00000100
00000000
00000010
00000020
,
00000000
00000000
00000000
00000000
00000030
00001000
00000010
00000002
,
00000000
00000000
00000003
00000000
00000010
00000000
00001000
00000200
,
00000000
00000000
00000000
00000000
00000300
00000001
00000100
00001000
,
00000000
00000000
00001000
00001000
00000000
00000000
00010000
00010000
,
00000000
00000000
01000000
01000000
00000000
10000000
00000000
00200000
,
00000000
00000000
00000000
00300000
,
00000000
10010000
00000000
10010000
00000000
10010000
00000000
00200000
,
00000000
00000000
00300000
00000000
01000000
00000000
00100000
00200000
,
00000000
00000000
00000000
00000000
00300000
00010000
00100000
20000000
,
00000000
00000000
30000000
00000000
00100000
00000000
00010000
02000000
,
00000000
00000000
00000000
00000000
03000000
10000000
01000000
00010000
,
00000000
00000000
00010000
00010000
00000000
00001000
00000000
00000100
,
00000000
00000000
00001000
00000100
00000000
00000001
00000000
00000100
,
00000000
00001000
00001000
00000001
00000001
00000100
00000100
00000010
,
00000000
00001001
00000000
00001001
00000000
00001001
00000000
00000000
,
00000100
00000000
00001000
00000000
00000100
00000000
00001000
00020000
,
00000000
00030000
00000000
00000000
01000000
10000000
01000000
10000000
,
00000000
00000000
00010000
01000000
00000000
10000000
00000000
01000000
,
00000000
00000000
00000000
00010000
01000000
00010000
01000000
00200000
,
00000000
00300000
10000000
20000000
00000000
30000000
01000000
02000000
,
00000000
03000000
00010000
00020000
00030000
00001000
00001000
00020000
,
00000000
00030000
00001000
00001000
00000000
00000100
00000000
00001000
,
00000000
00000000
00000000
00001000
00000100
00001000
00000100
00001000
,
00000100
00000000
00000001
00000000
00000010
00000000
00000100
00002000
,
00000000
00000000
00003000
00000000
00000001
00001000
00000001
00002000
,
00000000
00003000
00000010
00000100
00000000
00000010
00000000
00000100
,
00000000
00000000
00000000
00001000
00000100
00001000
00000100
00001000
,
00000100
00000000
00000001
00000100
00000000
00001000
00000000
00000100
,
00000000
00000000
00000001
00000100
00000000
00001000
00000000
00000100
,
00000000
00000000
00000001
00000100
00000000
00001000
00000000
00000100
,
00000000
00000000
00000001
00000100
00000000
00000000
00001000
00000000
,
00002002
00000000
00000000
00003003
,
00000000
00000110
00000000
00000000
00000002
00002000
00003003
00000000
,
00001001
00000100
00001000
00010000
,
00100000
10000000
00010000
00000000
,
10000000
01000000
00100000
00010000
,
10000000
00100000
01000000
00000000
,
10000000
01000000
00010000
00001000
,
00000010
00000001
00001000
00000000
,
00000001
00000100
00000010
00001000
,
00000000
00002000
00000000
00000000
00003020
00000000
00000000
00000230
,
00000000
00000302
00000000
00001003
00000000
00001001
00000000
00000000
,
00000001
00001000
00000000
00000000
00000000
00000000
00000000
00000000
;

//---------------dance-double - ----------------
#NOTES:
     dance-double:
     :
     Hard:
     8:
     0.485,0.543,0.204,0.065,0.000: // measure 1
00000000
00000000
00000000
00000000
,  // measure 2
00000000
00000000
00000000
00000000
,  // measure 3
00000000
00000000
00000000
00000000
,  // measure 4
00000000
00000000
00000000
00000000
,  // measure 5
00000000
00000000
00000000
00000000
,  // measure 6
00000000
00000000
00000000
00000000
,  // measure 7
00000000
10000000
01000000
00010000
00001000
00000100
00000001
00000010
,  // measure 8
00000000
00000100
00000010
00000100
00000000
00000001
00000000
00000100
,  // measure 9
00000000
00000000
00001000
00001000
00000000
00000100
00000000
00000000
,  // measure 10
00001002
00000000
00000100
00000000
00000013
00000001
00000000
00001000
,  // measure 11
00000000
00000001
00000100
00001000
00010000
01000000
10000000
00100000
,  // measure 12
00000000
01000000
00100000
01000000
00000000
10010000
00000000
10000000
,  // measure 13
01000000
01000000
00100000
00100000
00010000
10000000
00010000
01000000
,  // measure 14
00000000
00100000
10000000
01000000
00000000
00000000
10000000
00100000
,  // measure 15
00000000
10000000
01000000
00010000
00001000
00000100
00000001
00000010
,  // measure 16
00000000
00000100
00000010
00000100
00000000
00001001
00000000
00000001
,  // measure 17
00000100
00000100
00000010
00000010
00001000
00000001
00001000
00000200
,  // measure 18
00000000
00000010
00000000
00000000
00000010
00000000
00000000
00000001
,  // measure 19
00000000
00000001
00000000
00000001
00000300
00001000
00000000
00000000
,  // measure 20
00001001
00000000
00000000
00000010
00001000
00000100
00000001
00000100
,  // measure 21
00000000
00001000
00000010
00000001
00000000
00000000
00000010
00000000
,  // measure 22
00000100
00000000
00001000
00020000
00000000
00001000
00000000
00000010
,  // measure 23
00000000
00000100
00000000
00031000
00000000
00010000
00100000
10000000
,  // measure 24
00000000
00000000
01000000
01000000
00000000
00010000
01000000
10000000
,  // measure 25
00000000
00000000
00100000
00100000
00000000
10000000
00010000
10000000
,  // measure 26
00000000
01000000
10000000
01000000
00100000
01000000
00010000
01000000
,  // measure 27
00100000
01000000
10000000
01000000
00100000
00000000
00010000
01000000
,  // measure 28
00000000
00000000
00000000
00100000
00010000
01000000
10000000
01000000
,  // measure 29
00000000
00010000
00100000
10000000
00000000
00000000
00100000
00000000
,  // measure 30
01000000
00000000
00010000
00002000
00000000
00010000
00000000
01000000
,  // measure 31
00000000
00100000
00000000
00013000
00000000
00001000
00000010
00000001
,  // measure 32
00000000
00000000
00000100
00000100
00000000
00001000
00000100
00000001
,  // measure 33
00000000
00000000
00000010
00000010
00000000
00000001
00001000
00000001
,  // measure 34
00000000
00000000
00000000
00000000
,  // measure 35
00000000
00001001
00000000
00001010
00000000
00010010
00000000
00011000
,  // measure 36
00000000
00000000
00000000
00000000
01000000
00000000
00100000
00100000
,  // measure 37
00000000
00000000
00000000
00000000
00000000
00010000
00001000
00000100
,  // measure 38
00000000
00000000
00000000
00000000
00000010
00000000
00001000
00010000
,  // measure 39
00000000
00000000
00000000
00000000
00000000
01000000
10000000
00100000
,  // measure 40
00000000
00000000
00010000
00001000
00000000
00000000
00000100
00000001
,  // measure 41
00000000
00000000
00000010
00001000
00000000
00010000
00000000
00100000
,  // measure 42
00000000
00000000
00000000
00000000
,  // measure 43
00000000
10010000
00000000
00110000
00000000
00101000
00000000
00011000
,  // measure 44
00000000
00000000
00000000
00000000
00000100
00000000
00000010
00000010
,  // measure 45
00000000
00000000
00000000
00000000
00000000
00001000
00010000
01000000
,  // measure 46
00000000
00000000
00000000
00000000
00100000
00000000
00010000
00001000
,  // measure 47
00000000
00000000
00000000
00000000
00000000
00000100
00000001
00000010
,  // measure 48
00000000
00000000
00001000
00010000
00000000
01000000
00000000
10000000
,  // measure 49
00000000
00000000
00100000
00010000
00000000
00001000
00000000
00010000
,  // measure 50
00000000
00100000
00010000
00001000
00000010
00001000
00010000
00100000
,  // measure 51
00000000
00110000
00000000
00011000
00000000
00001010
00000000
00000010
,  // measure 52
00001000
00010000
01000000
00010000
00001000
00000100
00001000
00010000
,  // measure 53
00000000
00000000
00000000
00000000
00100000
10000000
01000000
00010000
,  // measure 54
00000000
00000000
00001000
00000010
00000000
00000001
00000000
00000100
,  // measure 55
00000000
00000000
00000000
00001000
00000100
00000001
00000010
00001000
,  // measure 56
00000000
00000000
00000000
00010000
00001000
00000000
00001000
00010000
,  // measure 57
00000000
00000000
00010000
00001000
00000000
00010000
00100000
10000000
,  // measure 58
00000000
00000000
01000000
00010000
00000000
00001000
00000000
00010000
,  // measure 59
00000000
00000000
00000000
00100000
00010000
00001000
00000010
00001000
,  // measure 60
00010000
01000000
00010000
00001000
00000100
00001000
00010000
00001000
,  // measure 61
00000000
00000000
00000000
00000000
00000010
00010000
00001000
00100000
,  // measure 62
00000000
00000000
00001000
00010000
00000000
00000100
00000000
00010000
,  // measure 63
00000000
00000000
00000000
00000100
00001000
00000010
00010000
00000100
,  // measure 64
00001000
00000000
00000010
00010000
00000000
00001000
00000000
00001000
,  // measure 65
00000000
00000000
00100000
00001000
00000000
00010000
00000000
00010000
,  // measure 66
00000000
00000000
00000100
00010000
00000000
00001000
00000000
00001000
,  // measure 67
00000000
00000000
01000000
00001000
00000000
00000000
00010000
00000000
,  // measure 68
00022000
00000000
00000000
00033000
,  // measure 69
00000000
00011000
00000000
00000000
00000010
00000100
00000000
00000000
,  // measure 70
00000110
00000001
00000100
00001000
00010000
01000000
10000000
00100000
,  // measure 71
00000000
01000000
00100000
01000000
00000000
10010000
00000000
10000000
,  // measure 72
01000000
01000000
00100000
00100000
00010000
10000000
00010000
01000000
,  // measure 73
00000000
00100000
10000000
01000000
00000000
00000000
10000000
00100000
,  // measure 74
00000000
10000000
01000000
00010000
00001000
00000100
00000001
00000010
,  // measure 75
00000000
00000100
00000010
00000100
00000000
00001001
00000000
00000001
,  // measure 76
00000100
00000100
00000010
00000010
00001000
00000001
00001000
00000200
,  // measure 77
00000000
00000010
00000000
00000000
00000010
00000000
00000000
00000001
,  // measure 78
00000000
00000001
00000000
00000001
00000300
00001000
00000000
00000000
,  // measure 79
00011000
00011000
00000000
00000000
00000000
00000000
00000000
00000000
;

//---------------dance-double - ----------------
#NOTES:
     dance-double:
     :
     Challenge:
     10:
     0.704,0.761,0.473,0.288,0.014: // measure 1
00000000
00000000
00000000
00000000
,  // measure 2
00000000
00000000
00000000
00000000
,  // measure 3
00000000
00000000
00000000
00000000
,  // measure 4
00000000
00000000
00000000
00000000
,  // measure 5
00000000
00000000
00000000
00000000
,  // measure 6
00000000
00000000
00000000
00000000
,  // measure 7
00000000
10000000
01000000
00010000
00001000
00000100
00000001
00000020
,  // measure 8
00000000
00000130
00000010
00000100
00000000
00001001
00000000
00000110
,  // measure 9
00000000
00000000
00001001
00000110
00000000
00000110
00000000
00000000
,  // measure 10
00001002
00000000
00000100
00000000
00000013
00000001
00000000
00001001
,  // measure 11
00001000
00000001
00000100
00001000
00010000
01000000
10000000
00200000
,  // measure 12
00000000
01300000
00100000
01000000
00000000
10010000
00000000
10000000
,  // measure 13
01000000
01000000
00100000
00100000
00010000
10000000
00010000
01000000
,  // measure 14
00000000
10100000
00000000
00000000
01010000
00000000
01100000
10010000
,  // measure 15
00000000
01100000
10000000
01000000
00010000
00001000
00000100
00000001
,  // measure 16
00000010
00000100
00001000
00000001
00000000
00000110
00000000
00000001
,  // measure 17
00000100
00000100
00000010
00000010
00001000
00000001
00001000
00000200
,  // measure 18
00000000
00010000
00000000
00000000
00001000
00000000
00000000
00000001
,  // measure 19
00000000
00000010
00000000
00001000
00000300
00000110
00000000
00000000
,  // measure 20
00001001
00000000
00000000
00000010
00001000
00000100
00000001
00000200
,  // measure 21
00000000
00001300
00000010
00000002
00000000
00000000
00000023
00000000
,  // measure 22
00000230
00000000
00001300
00020000
00000000
00001000
00000000
00000010
,  // measure 23
00000000
00000100
00000000
00031000
00000000
00010000
00100000
20000000
,  // measure 24
00000000
00000000
31000000
02000000
00000000
03010000
01000000
20000000
,  // measure 25
00000000
00000000
30100000
00200000
00000000
10300000
00010000
20000000
,  // measure 26
00000000
31000000
10000000
01000000
00100000
01000000
00010000
01000000
,  // measure 27
00100000
01000000
10000000
01000000
00200000
00000000
00320000
02000000
,  // measure 28
00030000
03000000
00000000
00100000
00010000
01000000
10000000
02000000
,  // measure 29
00000000
03010000
00100000
20000000
00000000
00000000
30200000
00000000
,  // measure 30
02300000
00000000
03010000
00002000
00000000
00010000
00000000
01000000
,  // measure 31
00000000
00100000
00000000
00013000
00000000
00001000
00000010
00000002
,  // measure 32
00000000
00000000
00000103
00000200
00000000
00001300
00000100
00000002
,  // measure 33
00000000
00000000
00000013
00000020
00000000
00000031
00002000
00000002
,  // measure 34
00000000
00000000
00000000
00000000
,  // measure 35
00003003
00000110
00000000
00011000
00000000
01100000
00000000
00000000
,  // measure 36
10000000
00000000
00000000
00100000
01010000
00000000
00000000
00100000
,  // measure 37
00000000
10000000
01000000
00000000
00101000
00010000
00000000
00000000
,  // measure 38
00001000
00000000
00000000
00000100
00001001
00000000
00000001
00000001
,  // measure 39
00000000
00000000
00000010
00000000
00000000
00000000
00001000
00010000
00001000
00000000
00000010
00000000
00000000
00000000
00000000
00000000
,  // measure 40
00000001
00000000
00000000
00000100
00000000
00000000
00001000
00000000
00011000
00000000
00000000
00000000
01000000
00000000
10000000
00000000
,  // measure 41
00000000
00000000
00100000
00000000
00010000
00000000
00000000
00000000
00011000
00000000
00100000
00000000
00000000
00000000
10000000
00010000
,  // measure 42
10000000
00000000
00000000
00100000
11000000
00010000
01000000
00000000
,  // measure 43
00000000
00110000
00000000
00010010
00000000
00110000
00000000
00000000
,  // measure 44
00100000
00010000
00100000
10000000
01000000
00010000
00001000
00000010
,  // measure 45
00001000
00000001
00000100
00001000
00000001
00000100
00001000
00010000
,  // measure 46
00100000
00010000
00001000
00010000
00100000
10000000
00010000
01000000
,  // measure 47
10000000
01000000
00100000
10000000
00010000
00100000
00001000
00010000
,  // measure 48
01000000
10000000
00010000
01000000
10000000
01000000
00010000
10000000
,  // measure 49
01000000
00010000
00001000
00000010
00001000
00010000
00100000
00010000
,  // measure 50
00001000
00000010
00001000
00010000
00100000
00100000
00010000
00000010
,  // measure 51
00000000
00010010
00000000
00110000
00000000
00010010
00000000
00000010
,  // measure 52
00000100
00000001
00000100
00001000
00000001
00000010
00001000
00100000
,  // measure 53
00001000
00000010
00000100
00000001
00000100
00001000
00010000
00100000
,  // measure 54
10000000
01000000
10000000
01000000
00100000
00001000
00010000
01000000
,  // measure 55
10000000
01000000
00010000
10000000
00100000
00010000
00000010
00010000
,  // measure 56
00100000
01000000
10000000
01000000
00010000
00001000
00000010
00001000
,  // measure 57
00000010
00000001
00000100
00000010
00010000
00000100
00001000
00000100
,  // measure 58
00000001
00000100
00010000
00001000
00000100
00000010
00000100
00000001
,  // measure 59
00000100
00001000
00010000
00100000
00010000
00001000
00000010
00001000
,  // measure 60
00010000
01000000
00010000
00001000
00000010
00000001
00000100
00001000
,  // measure 61
00000100
00000001
00000010
00001000
00010000
01000000
10000000
00100000
,  // measure 62
00010000
00000100
00001000
00000100
00000010
00000001
00000100
00001000
,  // measure 63
00010000
00100000
00010000
00000100
00001000
00000010
00010000
00000100
,  // measure 64
00001000
00000100
00001100
00001000
00000100
00000010
00000011
00000001
,  // measure 65
00000100
00001000
00001100
00001000
00010000
00001000
00011000
00010000
,  // measure 66
01000000
10000000
11000000
01000000
00010000
00001000
00011000
00010000
,  // measure 67
01000000
10000000
00100000
00010000
00001000
00010000
00100000
10000000
,  // measure 68
01000000
00010000
00001000
00000010
00000001
00000010
00001000
00010000
,  // measure 69
00001000
00011000
00010000
00000100
00000110
00002002
00000000
00003003
,  // measure 70
00000110
00000001
00000100
00001000
00010000
01000000
10000000
00100000
,  // measure 71
00010000
00100000
10000000
01000000
00100000
10010000
00000000
10000000
,  // measure 72
01000000
01000000
00100000
00100000
00010000
10000000
00010000
01000000
,  // measure 73
00100000
01100000
10000000
01000000
01100000
00010000
10100000
01010000
,  // measure 74
00000000
10010000
10000000
01000000
00010000
00001000
00000100
00000001
,  // measure 75
00000010
00000100
00001000
00000001
00000100
00000110
00000000
00000001
,  // measure 76
00000100
00000100
00000010
00000010
00001000
00000001
00001000
00000200
,  // measure 77
00000000
00010000
00000000
00000000
00001000
00000000
00000000
00000001
,  // measure 78
00000000
00000010
00000000
00001300
00000000
00001001
00000000
00000000
,  // measure 79
00001010
00101000
00000000
00000000
00000000
00000000
00000000
00000000
;
