#TITLE:Power 5;
#SUBTITLE:(Shift-Mega Mix);
#ARTIST:Jondi & Spesh;
#TITLETRANSLIT:;
#SUBTITLETRANSLIT:;
#ARTISTTRANSLIT:;
#CREDIT:;
#BANNER:Power 5 (Shift-Mega Mix).png;
#BACKGROUND:Power 5 (Shift-Mega Mix)-bg.png;
#LYRICSPATH:;
#CDTITLE:./CDTITLES/Dance Dance Revolution ULTRAMIX4.png;
#MUSIC:Power 5 (Shift-Mega Mix).ogg;
#OFFSET:0.000;
#SAMPLESTART:132.285;
#SAMPLELENGTH:14.980;
#SELECTABLE:YES;
#DISPLAYBPM:75.000:300.000;
#BPMS:0.000=145.003,196.000=150.042,484.000=300.081,740.000=75.018,748.000=300.080,972.000=75.017,976.000=300.084,1040.000=150.040;
#STOPS:;
#BGCHANGES:;

//---------------dance-single - ----------------
#NOTES:
     dance-single:
     :
     Beginner:
     1:
     0.152,0.325,0.094,0.000,0.000:
0000
0000
0000
0000
,
0000
0000
0000
0000
,
0000
0000
0000
0000
,
0000
0000
0000
0000
,
0000
0000
0000
0000
,
0001
0000
0000
0000
,
1000
0000
0000
0000
,
0001
0000
0000
0000
,
1000
0000
0000
0000
,
0100
0000
0100
0000
,
0100
0000
0000
0000
,
0010
0000
0010
0000
,
0010
0000
0000
0000
,
0100
0000
0100
0000
,
0100
0000
0000
0000
,
0010
0000
0010
0000
,
0010
0000
0001
0000
,
1000
0000
0000
0000
,
0001
0000
0000
0000
,
1000
0000
0000
0000
,
0001
0000
0000
0000
,
0100
0000
0000
0000
,
0010
0000
0000
0000
,
1000
0000
0000
0000
,
0001
0000
0000
0000
,
1000
0000
0000
0000
,
0001
0000
0000
0000
,
1000
0000
0000
0000
,
0001
0000
0000
0000
,
0010
0000
0000
0000
,
0100
0000
0000
0000
,
0010
0000
0000
0000
,
0100
0000
0100
0000
,
0100
0000
0000
0000
,
1000
0000
0000
0000
,
0010
0000
0000
0000
,
0100
0000
0000
0000
,
0001
0000
0000
0000
,
0010
0000
0000
0000
,
0100
0000
0000
0000
,
1000
0000
1000
0000
,
1000
0000
0000
0000
,
0001
0000
0000
0000
,
0100
0000
0000
0000
,
0010
0000
0000
0000
,
1000
0000
0000
0000
,
0100
0000
0000
0000
,
0001
0000
0000
0000
,
0100
0000
0100
0000
,
0010
0000
0000
0000
,
0001
0000
0000
0000
,
1000
0000
0000
0000
,
0001
0000
0000
0000
,
0100
0000
0100
0000
,
0100
0000
0000
0000
,
0001
0000
0001
0000
,
0001
0000
0000
0000
,
1000
0000
0000
0000
,
0010
0000
0000
0000
,
0100
0000
0000
0000
,
0001
0000
0000
0000
,
1000
0000
0000
0000
,
0010
0000
0000
0000
,
0100
0000
0000
0000
,
0001
0000
0000
0000
,
1000
0000
0000
1000
,
1000
0000
0000
0100
,
0100
0000
0100
0000
,
0001
0000
0001
0000
,
0100
0000
0000
0000
,
1000
0000
1000
0000
,
0100
0000
0000
0000
,
0010
0000
0010
0000
,
0001
0000
0001
0000
,
1000
0000
0000
0000
,
0100
0000
0100
0000
,
0010
0000
0000
0000
,
0001
0000
0001
0000
,
1001
0000
0000
0000
,
1000
0000
1000
0000
,
1001
0000
0000
0000
,
1000
0000
1000
0000
,
0001
0000
0001
0000
,
0100
0000
0100
0000
,
0001
0000
0001
0000
,
1000
0000
1000
0000
,
0001
0000
0001
0000
,
0010
0000
0010
0000
,
0001
0000
0001
0000
,
1000
0000
1000
0000
,
1000
0000
0000
0000
,
0010
0000
0010
0000
,
0010
0000
0000
0000
,
0100
0000
0100
0000
,
0100
0000
0000
0000
,
0001
0000
0001
0000
,
0001
0000
0000
0000
,
1000
0000
0000
0000
,
0010
0000
0010
0000
,
0010
0000
0000
0000
,
0100
0000
0100
0000
,
0100
0000
0000
0000
,
0001
0000
0001
0000
,
0001
0000
0000
0000
,
1000
0000
0000
0000
,
0001
0000
0001
0000
,
1000
0000
0000
0000
,
0100
0000
0100
0000
,
0010
0000
0000
0000
,
0001
0000
0001
0000
,
1001
0000
0000
0000
,
1000
0000
1000
0000
,
1001
0000
0000
0000
,
0100
0000
0100
0000
,
0001
0000
0000
0000
,
0100
0000
0100
0000
,
1000
0000
0000
0000
,
0010
0000
1001
0000
,
0001
0000
0001
0000
,
0100
0000
1001
0000
,
1000
0000
1000
0000
,
0100
0000
0000
0000
,
0100
0000
0000
0000
,
1000
0000
0000
0000
,
0000
0000
0000
0000
,
0001
0000
0000
0000
,
0001
0000
0000
0000
,
0100
0000
0000
0000
,
0000
0000
0000
0000
,
0010
0000
0000
0000
,
0010
0000
0000
0000
,
0100
0000
0000
0000
,
0000
0000
0000
0000
,
1000
0000
0000
0000
,
1000
0000
0000
0000
,
0001
0000
0000
0000
,
0001
0000
0000
0000
,
0000
1001
0000
0000
,
0000
0000
0000
0100
,
0000
0000
0000
0000
,
0001
0000
0000
0000
,
0000
1001
0000
0000
,
0000
0000
0000
0010
,
0000
0000
0000
0000
,
0001
0000
0000
0000
,
0000
0110
0000
0000
,
0000
0000
0000
0010
,
0000
0000
0000
0000
,
0010
0000
0000
0000
,
0000
1000
0000
0000
,
0000
0000
0000
1000
,
0000
0000
0000
0000
,
0010
0000
0000
0000
,
0001
0000
0000
0000
,
0010
0000
0000
0000
,
1000
0000
0000
0000
,
0010
0000
0000
0000
,
0001
0000
0000
0000
,
1000
0000
0000
0000
,
0110
0000
0000
0000
,
0100
0000
0000
0000
,
0110
0000
0000
0000
,
0110
0000
0000
0000
,
0100
0000
0000
0000
,
0010
0000
0000
0000
,
1000
0000
0000
0000
,
0100
0000
0000
0000
,
1000
0000
0000
0000
,
0100
0000
0000
0000
,
0001
0000
0000
0000
,
0010
0000
0000
0000
,
0110
0000
0000
0000
,
0110
0000
0000
0000
,
1000
0000
0000
0000
,
0100
0000
0000
0000
,
1001
0000
0000
0000
,
0110
0000
0000
0000
,
0000
0110
0000
0000
,
0000
0000
0000
0100
,
0000
0000
0000
0000
,
1000
0000
0000
0000
,
0000
0110
0000
0000
,
0000
0000
0000
0001
,
0000
0000
0000
0000
,
0010
0000
0000
0000
,
0110
0001
0001
0100
,
0110
1000
1000
0100
,
0010
0000
0010
0000
,
0010
0000
0000
0000
,
0001
0000
0000
0000
,
1000
0000
0000
0000
,
0100
0000
0100
0000
,
0100
0000
0000
0000
,
0010
0000
0000
0000
,
0001
0000
0000
0000
,
1000
0000
1000
0000
,
1000
0000
0000
0000
,
0010
0000
0000
0000
,
0100
0000
0000
0000
,
0001
0000
0001
0000
,
0001
0000
0000
0000
,
0000
0100
0000
0000
,
0010
0000
0000
0000
,
1000
0000
1000
0000
,
0000
0000
0000
0000
,
0100
0000
0100
0000
,
0000
0000
0000
0000
,
0001
0000
0001
0000
,
0000
0000
0000
0000
,
0100
0000
0100
0000
,
0000
0000
0000
0000
,
1000
0000
1000
0000
,
0000
0000
0000
0000
,
0010
0000
0010
0000
,
0000
0000
0000
0000
,
0001
0000
0001
0000
,
0000
0000
0000
0000
,
1001
0000
0000
0000
,
0000
0000
0000
0000
,
1001
0000
0000
0000
,
0000
0000
0000
0000
,
0110
0000
0000
0000
,
0000
0000
0000
0000
,
1000
0000
0001
0000
,
1000
0000
0000
0000
,
0001
0000
1000
0000
,
0001
0000
0000
0000
,
0010
0000
0000
0000
,
0100
0000
0000
0000
,
0010
0000
0000
0000
,
0100
0000
0000
0000
,
0110
0000
0000
0000
,
1001
0000
0000
0000
,
0110
0000
0000
0000
,
1001
0000
0000
0000
,
1000
0000
0000
0000
,
1000
0000
0000
0000
,
0001
0000
0000
0000
,
0001
0000
0000
0000
,
1000
0000
1000
0000
,
1000
0000
0000
0000
,
0001
0000
0001
0000
,
0001
0000
0000
0000
,
1001
0000
0000
0000
,
1000
0000
0000
0000
,
0100
0000
0000
0000
,
0010
0000
0000
0000
,
0001
0000
0001
0000
,
0001
0000
0000
0000
,
0100
0000
0000
0000
,
0010
0000
0000
0000
,
1000
0000
1000
0000
,
1000
0000
0001
0000
,
1000
0000
0001
0000
,
1000
0000
0000
0000
,
0000
0000
0000
0000
,
0001
0000
1000
0000
,
0001
0000
1000
0000
,
0001
0000
0000
0000
,
0000
0000
0000
0000
,
1000
0000
0001
0000
,
1000
0000
0001
0000
,
1000
0000
0000
0000
,
1001
0000
0000
0000
,
0001
0000
1000
0000
,
0001
0000
1000
0000
,
0001
0000
0000
0000
,
1001
0000
0000
0000
,
1001
0000
0000
0000
;

//---------------dance-single - ----------------
#NOTES:
     dance-single:
     :
     Easy:
     6:
     0.309,0.569,0.194,0.127,0.000:
0000
0000
0000
0000
,
0000
0000
0000
0000
,
0000
0000
0000
0000
,
0000
0000
0000
0000
,
0000
0000
0000
1000
,
0100
0100
0000
0000
,
0001
0001
0000
0100
,
1000
1000
0000
0000
,
0010
0010
0000
0100
,
0002
0003
0001
0000
,
2000
3000
1000
0000
,
0200
0300
0100
0000
,
0010
0010
0010
0000
,
0002
0003
0001
0000
,
0020
0030
0010
0000
,
0100
0000
0010
0000
,
0100
0010
0100
0010
,
0220
0000
0000
0330
,
2000
0000
0000
3000
,
0200
0000
0000
0300
,
2000
0000
0000
3000
,
0002
0003
0010
0000
,
0002
0003
1000
0000
,
0020
0030
1000
0000
,
0200
0300
0010
0000
,
1001
0000
0001
0001
,
0010
0000
0100
0100
,
1000
0000
0010
0010
,
0001
0000
0010
0000
,
1001
0000
0001
0001
,
0100
0000
1000
1000
,
0100
0000
0001
0001
,
1000
0000
0001
0000
,
1001
0000
0100
0000
,
0010
0000
1000
0100
,
0002
0003
0100
0000
,
0010
0000
0001
0100
,
2000
3000
0100
0000
,
0002
0003
0010
0000
,
2000
3000
0100
0000
,
0002
0003
2000
3000
,
1001
0000
0100
0000
,
0010
0000
0100
0100
,
0001
0000
1000
1000
,
0100
0000
0010
0010
,
0010
0000
0001
0000
,
1000
0000
0010
0010
,
0100
0000
0001
0001
,
0010
0000
0100
0100
,
1000
1000
0001
0001
,
1000
0000
1000
0000
,
0100
0000
0100
0000
,
0010
0000
0010
0000
,
0001
0100
0001
0000
,
1000
0100
1000
0000
,
0001
0010
0001
0000
,
1000
0010
1000
0000
,
0001
0001
0100
0100
,
0001
0000
0001
0000
,
1000
0000
1000
0000
,
0010
0000
0010
0000
,
1000
1000
0100
0100
,
1000
0000
1000
0000
,
0001
0000
0001
0000
,
0010
0000
0010
0000
,
0100
1000
0100
0000
,
0010
0001
0010
0000
,
0100
1000
0100
0000
,
1000
0001
1000
0001
,
1000
0000
0001
0000
,
0100
0100
0001
0000
,
1000
0000
0001
0000
,
1000
1000
0100
0000
,
0001
0001
0100
0100
,
1000
1000
0100
0000
,
0010
0001
0010
0001
,
0100
0001
0100
0000
,
1000
0100
1000
0000
,
0001
0100
0001
0000
,
0010
0100
0010
0000
,
0001
0010
0001
0000
,
0001
0000
0010
0000
,
0001
0000
0010
0000
,
0100
0000
1000
0000
,
0200
0000
0300
0000
,
1000
0000
0010
0000
,
1000
0000
0010
0000
,
0100
0000
0001
0000
,
0200
0000
0300
0000
,
0001
0000
1000
0000
,
0001
0000
0001
0000
,
1000
0000
0001
0000
,
1000
0000
1000
0000
,
0100
0000
0010
0000
,
0100
0000
0010
0000
,
0200
0000
0300
0000
,
0020
0000
0030
0000
,
0001
0000
0001
0000
,
1000
0000
0001
0000
,
1000
0000
1000
0000
,
0100
0000
0010
0000
,
0100
0000
0010
0000
,
0200
0000
0300
0000
,
0020
0000
0000
0030
,
0000
0000
0000
0000
,
0001
0001
0100
0100
,
1000
1000
0100
0000
,
0010
0001
0010
0001
,
0100
0001
0100
0000
,
1000
0100
1000
0000
,
0001
0100
0001
0000
,
0010
0100
0010
0000
,
0001
0010
0001
0000
,
1000
0100
1000
0000
,
0001
0100
0001
0000
,
1000
0010
1000
0000
,
0100
0010
0100
0000
,
1000
0000
1001
0000
,
0100
0001
1001
0000
,
0010
0000
1001
0000
,
0100
0100
0000
0000
,
0100
0000
0100
0000
,
0010
0000
0010
0000
,
0100
0000
0000
0000
,
0100
0000
0000
0000
,
1000
0000
0000
0000
,
1000
0000
0000
0000
,
0001
0000
0000
0000
,
0001
0000
0000
0000
,
1000
0000
0100
0000
,
1000
0000
0000
0000
,
0001
0000
0100
0000
,
0001
0000
0000
0000
,
0010
0000
0100
0000
,
0010
0000
0000
0000
,
0001
0000
1000
0000
,
0001
0000
0000
0000
,
0000
0000
1001
0000
0000
1000
0000
0000
,
0010
0000
0000
1000
0000
0000
0100
0000
,
0000
0000
1100
0000
0000
1000
0000
0000
,
0001
0000
0000
0100
0000
0000
0010
0000
,
0000
0000
1010
0000
0000
0100
0000
0000
,
0001
0000
0000
1000
0000
0000
0010
0000
,
0000
0000
0110
0000
0000
0100
0000
0000
,
0001
0000
0000
1000
0000
0000
0100
0000
,
0000
0000
1100
0000
0000
0010
0000
0000
,
0001
0000
0000
0100
0000
0000
0010
0000
,
0000
0000
0101
0000
0000
1000
0000
0000
,
0010
0000
0000
1000
0000
0000
0001
0000
,
0000
0000
0011
0000
0000
0100
0000
0000
,
1000
0000
0000
0100
0000
0000
1000
0000
,
0000
0000
1001
0000
0000
0100
0000
0000
,
0010
0000
0000
1000
0000
0000
0000
0000
,
0001
0100
0001
0000
,
0010
1000
0010
0000
,
1000
0100
1000
0000
,
0010
0001
0010
0000
,
0001
1000
0100
0000
,
1000
0001
0100
0000
,
0101
0000
1100
0000
,
0100
1000
0010
0000
,
0110
0000
0110
0000
,
0110
0000
0110
0000
,
0100
0001
0010
0000
,
0010
0001
1000
0000
,
1000
0010
0100
0000
,
0100
0001
1000
0000
,
1000
0001
0100
0000
,
0100
0010
1000
0000
,
0001
0001
1000
1000
,
0010
0010
0100
0000
,
0101
0000
1100
0000
,
0101
0000
1100
0000
,
1000
1000
0010
0010
,
0100
0100
0001
0000
,
1010
0000
0110
0000
,
0101
0000
1001
0000
,
0000
0000
0110
0000
0000
0100
0000
0000
,
0001
0000
0000
0010
0000
0000
0100
0000
,
0000
0000
1100
0000
0000
0100
0000
0000
,
1000
0000
0000
0001
0000
0000
0100
0000
,
0000
0000
0110
0000
0000
1000
0000
0000
,
0100
0000
0000
1000
0000
0000
0001
0000
,
0000
0000
0101
0000
0000
0100
0000
0000
,
0010
0000
0000
1000
0000
0000
0100
0000
,
0110
1000
0001
0100
0001
0001
0100
0001
,
1100
0000
1000
0010
1000
0001
0100
0010
,
0110
0000
0100
0000
,
0101
0000
0001
0000
,
1001
0000
1000
0000
,
0001
0100
0001
0000
,
1010
0000
0010
0000
,
0110
0000
0100
0000
,
0101
0000
1100
0000
,
1000
0001
1000
0000
,
0010
0000
0100
0000
,
0001
0000
1000
0000
,
0100
0000
1000
0000
,
0001
0010
0100
1000
,
0010
0000
1000
0000
,
0001
0000
0100
0000
,
0010
0000
0100
0000
,
0001
1000
0010
0010
,
1000
0000
0001
0000
,
1000
0000
1100
0000
,
0001
0000
1000
0000
,
0001
0000
0101
0000
,
1000
0000
0001
0000
,
0010
0000
0110
0000
,
0001
0000
1000
0000
,
0010
0000
0110
0000
,
1000
0000
0100
0000
,
0001
0000
1001
0000
,
0001
0000
0100
0000
,
1000
0000
1001
0000
,
0010
0000
0100
0000
,
0010
0000
0100
0000
,
2002
0000
0000
3003
,
0000
0000
0000
0000
,
1001
0000
0000
0000
,
0110
0000
0000
0000
,
1001
0000
0000
0000
,
0110
0000
0000
0000
,
1000
0000
0001
0000
,
1000
0000
0100
0000
,
0001
0000
1000
0000
,
0001
0000
0100
0000
,
0010
1000
0100
0000
,
0010
0001
0100
0000
,
0010
1000
0100
0000
,
0010
0001
0100
0000
,
1100
0000
0000
0000
,
1001
0000
0000
0000
,
0101
0000
0000
0000
,
1001
0000
0000
0000
,
1000
0000
1000
0000
,
0020
0000
0030
0000
,
0001
0000
0001
0000
,
0001
0000
0100
0000
,
0001
0000
0001
0000
,
0020
0000
0030
0000
,
1000
0000
1000
0000
,
1000
0000
0100
0000
,
2002
0000
3003
0000
,
2000
0000
0000
0000
,
3000
0000
0100
0100
,
0020
0000
0000
0000
,
0030
0000
0001
0000
,
0002
0000
0000
0000
,
0003
0000
0100
0000
,
0020
0030
0000
2000
,
0000
0000
3000
0000
,
0002
0000
0000
0000
,
0003
0000
0100
0100
,
0020
0000
0000
0000
,
0030
0000
1000
0000
,
2000
0000
0000
0000
,
3000
0000
0100
0000
,
0020
0030
0000
0002
,
0000
0000
0003
0000
,
1000
0100
1000
1001
,
0001
0100
0001
1001
,
1000
0010
1000
1001
,
0001
0010
0001
1001
,
1000
1000
0100
0010
,
0001
0001
0100
0010
,
1000
1000
0010
0100
,
0001
0001
0010
0100
,
1001
0000
0000
0000
;

//---------------dance-single - ----------------
#NOTES:
     dance-single:
     :
     Medium:
     8:
     0.513,0.937,0.422,0.261,0.018:
0000
0000
0000
0000
,
0000
0000
0000
0000
,
0000
0000
0000
0000
,
0000
0000
0000
0000
,
0000
0000
0000
0100
,
0001
0010
0000
0001
0010
0000
0100
0000
,
1000
0010
0000
1000
0010
0000
1000
0000
,
0100
1000
0100
0000
0100
0000
0100
0000
,
0010
0001
0010
0000
0001
0000
0100
0000
,
0010
1000
0000
2000
0000
0000
3000
0000
,
1000
0001
0000
0002
0000
0000
0003
0000
,
0001
0010
0000
0020
0000
0000
0030
0000
,
0100
1000
0000
2000
0000
0000
3000
0100
,
1000
0100
0000
0200
0000
0000
0300
0010
,
0001
0010
0000
0020
0000
0000
0030
0001
,
1000
0000
1000
0100
0000
0100
0010
0000
,
0010
0001
0000
0001
1000
0000
0001
1000
,
0002
0000
1003
0001
,
2000
0000
3100
0010
,
0002
0000
0103
0010
,
2000
0000
3010
0100
,
0110
0000
0010
1000
,
1100
0000
0010
0001
,
0101
0000
0010
1000
,
0001
1100
1000
0101
,
0020
0000
1030
0100
,
0020
0000
0031
0100
,
2000
0000
3100
0001
,
0020
0000
0030
0000
0100
0100
0010
0010
,
0002
0000
0013
0001
,
0200
0000
0310
1000
,
0200
0000
0301
0100
,
2000
0000
0000
0000
3010
0010
0100
0100
,
0002
0000
0103
0001
,
0020
0000
0130
1000
,
0020
0000
0031
0010
,
2000
0000
0000
0000
3001
0001
1000
1000
,
0100
0110
0010
0011
,
0001
1100
1000
0101
,
0100
0110
0010
1010
,
0100
0101
0001
1100
,
2002
0000
3003
0000
1000
0001
0100
0000
,
0020
0000
0030
0000
1000
0100
0010
0000
,
0002
0000
0003
0000
0100
0001
1000
0000
,
0200
0000
0300
0000
1000
0100
0010
0100
,
2000
0000
3000
0000
0100
0010
0001
0000
,
0200
0000
0300
0000
0010
0100
0001
0000
,
0020
0000
0030
0000
0100
1000
0010
0000
,
0200
0000
0300
0000
0010
1000
0100
0010
,
0001
0100
1000
0000
0100
0000
0001
0000
,
0010
0100
1000
0100
,
1000
0100
0001
0000
0100
0000
1000
0000
,
0100
0010
0001
0100
,
0010
1000
0100
0000
0000
0000
1001
0000
,
1000
0001
0100
0000
0000
0000
0101
0000
,
0001
0010
0100
0000
0000
0000
0110
0000
,
0100
1000
0010
0000
0000
0000
1010
0000
,
1000
0010
0100
0000
0010
0100
0001
0000
,
0001
0010
0100
0000
1000
0000
0001
0000
,
0010
1000
0100
0000
0010
0001
0100
0000
,
0001
1000
0100
0000
1000
0000
0001
0000
,
0010
1000
0001
0000
1000
0000
0010
0000
,
0100
0001
1000
0001
,
0100
0010
1000
0000
0100
0000
0010
0000
,
0001
0100
1000
0100
,
0010
1000
0100
0000
1000
0000
0100
0000
,
0010
0001
1000
0000
0010
0000
0100
0000
,
0100
0001
0100
0000
0100
1000
0100
0000
,
0010
1000
0100
1000
0001
1000
0100
1000
,
1001
0000
0001
0000
,
1000
0100
1000
0000
,
0110
0000
0100
0000
,
0010
0001
1000
0000
,
0001
0001
0010
0100
,
1000
1000
0100
0010
,
1001
0001
1001
1000
,
1100
0001
0101
1000
,
1000
0100
0010
0001
,
0001
0010
0100
1000
,
1001
0001
1001
1000
,
1100
0001
0101
0100
,
0001
0000
1000
0010
0100
0000
0001
0000
,
1000
0000
0001
0010
0100
0000
1000
0000
,
0010
0000
0001
0010
0100
0000
0001
0000
,
0010
0000
1000
0010
0100
0000
1000
0000
,
0001
0000
1000
0100
0010
0000
0001
0000
,
1000
0000
0001
0100
0010
0000
1000
0000
,
0100
0000
0001
0100
0010
0000
0001
0000
,
0100
0000
1000
0100
0010
0000
1000
0000
,
0001
0000
0001
0000
0010
0001
0010
0000
,
0100
0000
0100
0000
1000
0100
1000
0000
,
0010
0000
0010
0000
1000
0001
1000
0000
,
0100
0000
0100
0000
1000
0001
1000
0000
,
0010
0000
0010
0000
0100
0001
0100
0000
,
0010
0000
0010
0000
1000
0100
1000
0000
,
0100
0000
0100
0000
0010
0001
0010
0000
,
0100
0000
0100
0000
1000
0010
1000
0000
,
0010
0000
0010
0000
0001
0010
0001
0000
,
0100
0000
0100
0000
0001
1000
0001
0000
,
0010
0000
0010
0000
0001
1000
0001
0000
,
0100
0000
0100
0000
0010
1000
0010
0000
,
0100
0000
0100
0000
0001
0010
0001
0000
,
0010
0000
0010
0000
0100
1000
0100
0000
,
0010
0000
0010
0000
0001
0100
0001
0000
,
2000
0000
0000
3000
,
0001
0001
0010
0100
,
1000
1000
0100
0010
,
1001
0001
1001
1000
,
1100
0001
0101
1000
,
1000
0100
0010
0001
,
0001
0010
0100
1000
,
1001
0001
1001
1000
,
1100
0001
0101
0100
,
0010
1000
0001
0001
,
0010
0100
1000
1000
,
0001
0100
0010
0010
,
1000
0100
0010
0010
,
0002
0003
1001
0000
,
0100
0010
0220
0330
,
2000
3000
1001
0000
,
0010
0100
0220
0330
,
1000
0010
1000
0000
,
0100
0000
0001
0000
,
0100
0000
1000
0000
,
0010
0000
0100
0000
,
0001
0010
0001
0000
,
1000
0000
0100
0000
,
0001
0000
0100
0000
,
1000
0000
0100
0000
,
0010
0001
0010
0000
,
0001
0000
0010
0000
,
0100
0000
1000
0000
,
0100
0000
1000
0000
,
0010
1000
0010
0000
,
0100
0000
0001
0000
,
0010
0000
0001
0000
,
1000
0000
0001
0000
,
0000
0000
0010
0000
0000
0001
0000
0000
,
0100
0000
0000
1000
0000
0000
1010
0000
,
0000
0000
0010
0000
0000
1000
0000
0000
,
0100
0000
0000
0001
0000
0000
0011
0000
,
0000
0000
1000
0000
0000
0010
0000
0000
,
0001
0000
0000
1000
0000
0000
0110
0000
,
0000
0000
0001
0000
0000
0100
0000
0000
,
1000
0000
0000
0001
0000
0000
0110
0000
,
0000
0000
1001
0000
0000
1100
0000
0000
,
1010
0000
0000
1001
0000
0000
1100
0000
,
0000
0000
1001
0000
0000
0101
0000
0000
,
0011
0000
0000
1001
0000
0000
0101
0000
,
0000
0000
0110
0000
0000
1100
0000
0000
,
0101
0000
0000
0110
0000
0000
1100
0000
,
0000
0000
0110
0000
0000
0011
0000
0000
,
1010
0000
0000
0110
0000
0000
0011
0000
,
1000
0100
1100
0000
,
0001
0100
0101
0000
,
1100
0000
0101
0000
,
1100
0001
0101
0000
,
0001
0100
0101
0000
,
1000
0100
1100
0000
,
0101
0000
1100
0000
,
0101
1000
1100
0000
,
1001
0000
0110
0000
,
1000
0010
1010
0000
,
1001
0000
0110
0000
,
0001
0010
0011
0000
,
0110
0000
1001
0000
,
1010
1000
1100
0000
,
0110
0000
1001
0000
,
0011
0001
0101
0000
,
0001
0100
0001
0100
,
0010
1000
0010
1000
,
0100
1000
0100
1000
,
0001
0100
0101
0001
,
1000
0100
1000
0100
,
0010
0001
0010
0001
,
0100
0001
0100
0001
,
1000
0100
1100
0000
,
2001
0000
0001
0000
0000
0010
0000
0000
,
0001
0000
0000
0100
3000
0000
1001
0000
,
0000
0000
1002
0000
0000
0010
0000
0000
,
1000
0000
0000
0100
0003
0000
1001
0000
,
0000
0000
0210
0000
0000
1000
0000
0000
,
0010
0000
0000
0001
0300
0000
0110
0000
,
0000
0000
0120
0000
0000
1000
0000
0000
,
0100
0000
0000
0001
0030
0000
0110
0000
,
0000
0000
0000
0000
0012
0000
0010
0000
1000
0000
0000
0103
0000
0000
0101
0000
0000
0000
0000
0000
2010
0000
0010
0000
0001
0000
0000
3100
0000
0000
1100
0000
,
0000
0000
0000
0000
0021
0000
0001
0000
0100
0000
0000
1030
0000
0000
0011
0000
0000
0000
0000
0000
1200
0000
1000
0000
0010
0000
0000
0301
0000
0000
1100
0000
,
2000
0000
3000
1000
0020
0000
0030
0020
,
1000
1000
1030
0000
,
0002
0000
0003
0001
0200
0000
0300
0200
,
0001
0001
0301
0000
,
2000
0000
3000
1000
0200
0000
0300
0200
,
1000
1000
1300
0000
,
0002
0000
0003
0001
0020
0000
0030
0020
,
0001
0001
0031
0000
,
1000
0001
0010
0100
,
1000
0100
0010
0001
,
1000
0001
0010
0100
,
0010
0001
1000
0100
0020
0000
0000
0000
,
0031
1000
0100
0010
,
0001
0010
0100
1000
,
0001
1000
0100
0010
,
0100
1000
0001
0010
0200
0000
0000
0000
,
1300
0001
0100
0000
,
1000
0001
0010
0000
,
0001
1000
0100
0000
,
1000
0001
0100
0000
,
0001
1000
0010
0000
,
1000
0001
0100
0000
,
0001
1000
0100
0000
,
1000
0001
0010
0000
,
0001
1000
0001
1000
,
0010
0100
0001
0000
,
1000
0001
1000
0001
,
0010
0100
1000
0000
,
0001
1000
0001
1000
,
0100
0010
0001
0000
,
1000
0001
1000
0001
,
0100
0010
1000
0000
,
0001
0001
1000
1000
,
0001
1000
0001
1000
,
0010
0010
0100
0100
,
0010
0100
0010
0100
,
0001
0010
0100
1000
,
0001
0010
0100
1000
,
0001
0001
1000
1000
,
0001
0001
1000
1000
,
0001
0000
1001
0000
,
1000
0000
1001
0000
,
0001
0000
1001
0000
,
1000
0000
1001
0000
,
0100
0100
0100
0100
,
1001
1001
1001
1001
,
0100
0100
0100
0100
,
1001
1001
1001
1001
,
1000
0001
1000
0001
,
0010
0100
0010
0000
0020
0000
0030
0000
,
0001
0100
0001
0100
0001
0000
1000
0000
,
0010
1000
0010
0100
,
0001
1000
0001
1000
,
0010
0100
0010
0000
0020
0000
0030
0000
,
1000
0100
1000
0100
1000
0000
0001
0000
,
0010
0001
0010
0100
,
2002
0000
0000
0000
0000
3003
0110
0110
,
2000
0000
0001
0000
,
3001
0000
0010
0100
,
2100
0000
0010
0010
,
3010
0000
0220
0330
,
2002
0000
0000
0000
,
0000
3003
0020
0000
,
0200
0000
0330
2002
,
0000
0000
0000
3003
,
0002
0000
1000
0000
,
1003
0000
0010
0100
,
0102
0000
0010
0010
,
0013
0000
0220
0330
,
2002
0000
0000
0000
,
0000
3003
0020
0000
,
0200
0000
0330
2002
,
0000
0000
0000
3003
,
0010
0000
1001
0000
0100
0010
0001
0100
,
0010
0000
1001
0000
0100
0010
1000
0100
,
0010
0000
0011
0000
0001
1000
0001
0100
,
0010
0000
1010
0000
1000
0001
1000
0100
,
0010
0000
0110
0000
0100
1000
0001
0100
,
0001
0000
1001
0000
0100
0001
1000
0100
,
1000
0000
0110
0000
0010
0001
0010
0100
,
1000
0000
1001
0000
1000
0001
2000
0002
,
0000
0000
3003
0000
;

//---------------dance-single - ----------------
#NOTES:
     dance-single:
     :
     Hard:
     10:
     0.742,0.978,0.467,0.428,0.144:
0000
0000
0000
0000
,
0000
0000
0000
0000
,
0000
0000
0000
0000
,
0000
0000
0000
0000
,
0000
0000
0000
0000
0000
0000
0001
0010
,
0001
0001
0000
1000
0001
0100
0010
1000
,
0100
0100
0000
0010
0001
1000
0100
0010
,
0001
0001
0000
0100
0010
1000
0001
0100
,
0010
0010
0000
1000
0010
0100
0001
1000
,
0001
0001
0000
0001
0010
0010
0100
1000
,
0100
0100
0000
0100
1000
1000
0010
0100
,
0001
0001
0000
0001
0100
0100
1000
0100
,
0010
0010
0000
0010
0100
0100
0010
1000
,
0001
0001
0000
0001
1000
1000
0001
0010
,
0001
0001
0000
0001
0010
0010
0100
1000
,
0001
0001
1000
1000
0001
0001
1000
1000
,
0001
0001
1000
1000
0010
0010
0100
0100
,
2002
0000
3000
0000
0010
0000
0103
0001
,
0020
0000
0000
0000
1000
0000
0130
1000
,
0020
0000
0000
0000
0001
0000
0130
0001
,
2000
0000
0000
0000
0100
0000
3001
0100
,
2000
0000
0000
0000
0001
0000
3100
0010
,
0002
0000
0000
0000
1000
0000
0013
1000
,
0200
0000
0000
0000
0001
0000
0310
0001
,
0200
0000
0000
0000
0010
0000
0301
0010
,
0200
0000
0000
0000
1000
1000
1000
1300
,
0002
0000
0000
0000
0010
0010
0010
0013
,
2000
0000
0000
0000
0010
0010
0010
3010
,
0002
0000
0000
0000
1000
1000
1000
1003
,
0001
0000
1100
0000
0001
0100
1000
0100
,
0010
0000
0101
0000
1000
0100
0001
0100
,
0010
0000
1010
0000
0001
0010
1000
0010
,
0100
0000
0011
0000
1000
0010
0001
0010
,
0100
0000
0001
0000
0100
0001
0010
1000
,
0001
0000
0100
0000
1000
0010
0001
1000
,
0100
0000
0001
0000
0010
1000
0001
0100
,
1000
0000
0010
0000
0001
1000
0100
0001
,
0010
0000
0100
0000
1000
0010
0001
0010
,
1000
0000
0100
0000
0001
0100
1000
0100
,
0010
0000
0001
0000
0100
1000
0100
0001
,
0010
0000
0001
0000
1000
0010
0001
0010
,
1000
0000
0101
0000
0010
1000
0100
1000
,
0001
0000
1100
0000
0010
0001
0100
0001
,
1000
0000
0011
0000
0100
1000
0010
1000
,
0001
0000
1010
0000
0100
0001
0010
0001
,
1000
1000
1100
0000
0001
0010
0100
1000
,
0001
0001
0101
0000
1000
0010
0100
0001
,
0010
0010
1001
0000
0001
0010
0100
1000
,
0010
0010
1001
0000
0100
0100
0100
0100
,
0010
0100
0010
0001
1000
0001
0001
0200
,
0000
0302
0000
2003
0000
3020
0000
0130
,
0001
1000
0001
0100
0010
0100
0001
0020
,
0000
0230
0000
2300
0000
3002
0000
0003
,
2000
0001
3002
0010
,
0023
0100
0100
0130
,
1001
1100
1001
0110
,
1100
0110
1001
0101
,
0001
1000
0010
0100
0001
1000
0100
2000
,
0000
3002
0000
2003
0000
3200
0000
0310
,
0001
1000
0100
1000
0001
0100
0001
0020
,
0000
0032
0000
2003
0000
3200
0000
1300
,
1000
0100
0000
0100
0010
0000
0001
0000
0000
0000
0001
0000
0010
0000
0100
0000
,
1000
0100
1000
0100
0020
0000
0032
0000
,
0013
0100
0000
0100
1000
0000
0001
0000
0000
0000
1000
0000
0001
0000
0100
0000
,
0010
1000
0010
1000
0020
0000
0230
0000
,
0301
1000
0000
1000
0100
0000
0010
0000
0000
0000
0001
0000
0010
0000
0100
0000
,
1000
0100
0000
0100
1000
0000
0010
0000
0000
0000
0100
0000
0001
0000
1000
0000
,
0100
1000
0000
1000
0001
0000
0000
0000
0100
0001
0000
0001
1000
0000
0000
0000
,
1000
0010
0001
0010
1000
0001
1000
0001
,
2000
0000
0000
0000
3002
0000
0000
1003
,
0100
0010
0002
0000
2003
0000
3000
0000
,
0020
0000
0000
0000
0230
0000
0000
0301
,
0010
0100
2000
0000
3002
0000
0003
0000
,
0020
0100
0031
1001
,
2000
0001
3100
0110
,
0020
0001
0130
1100
,
2000
0001
3100
1001
,
0001
0010
0100
0000
0100
1000
0001
0000
,
0001
0010
0100
0000
0100
1000
0001
0000
,
1000
0001
0100
0000
0010
1000
0100
0000
,
1000
0001
0100
0000
0010
1000
0100
0000
,
1000
0010
0000
0000
0100
0000
0010
0100
0000
0000
0001
0000
0100
0000
0000
0000
,
0001
0010
0000
0000
0100
0000
0010
0100
0000
0000
1000
0000
0100
0000
0000
0000
,
0010
0001
0000
0000
0100
0000
0001
0010
0000
0000
0100
0000
1000
0000
0000
0000
,
0010
1000
0000
0000
0100
0000
1000
0010
0000
0000
0100
0000
0001
0000
0000
0000
,
1000
0100
0000
0000
0010
0000
0100
1000
0000
0000
0010
0000
0100
0000
0000
0000
,
0001
0100
0000
0000
0010
0000
0100
0001
0000
0000
0010
0000
0100
0000
0000
0000
,
0010
0001
0000
0000
1000
0000
0100
0010
0000
0000
0001
0000
0100
0000
0000
0000
,
0010
1000
0000
0000
0001
0000
0100
0010
0000
0000
1000
0000
0100
0000
0010
0000
,
0001
1000
0000
0000
0100
0000
0000
0000
1000
0001
0000
0001
0100
0000
0000
0000
,
0010
0100
0000
0000
0001
0000
0000
0000
0100
0010
0000
0010
1000
0000
0000
0000
,
0100
1000
0000
0000
0001
0000
0000
0000
1000
0100
0000
0100
0010
0000
0000
0000
,
0001
1000
0000
0000
0010
0000
0000
0000
1000
0001
0000
0001
0010
0000
0100
0000
,
1000
0000
0001
0000
0001
0000
0000
0000
0010
0001
0000
0100
0001
0000
0010
0000
,
0100
0000
1000
0000
1000
0000
0000
0000
0010
1000
0000
0100
1000
0000
0010
0000
,
0100
0000
0001
0000
0001
0000
0000
0000
1000
0100
0000
0010
0001
0000
1000
0000
,
0010
0000
0100
0000
0100
0000
0000
0000
0001
0100
0000
0010
1000
0000
0001
0000
,
0100
0010
0000
0000
1000
0000
0000
0000
0010
0100
0000
0100
0001
0000
0000
0000
,
0010
0001
0000
0000
1000
0000
0000
0000
0001
0010
0000
0010
0100
0000
0000
0000
,
1000
0001
0000
0000
0100
0000
0000
0000
0001
1000
0000
1000
0100
0000
0010
0000
,
0001
0000
1000
0000
1000
0000
0000
0000
0100
1000
0000
0010
1000
0000
0100
0000
,
0010
0000
0001
0000
0001
0000
0000
0000
0100
0001
0000
0010
0001
0000
0100
0000
,
0010
0000
1000
0000
1000
0000
0000
0000
0001
0010
0000
0100
1000
0000
0001
0000
,
0100
0000
0010
0000
0010
0000
0000
0000
1000
0010
0000
0100
0001
0000
2000
0000
,
0002
0000
0000
3003
,
0200
0010
1300
1001
,
0002
1000
0013
0110
,
0200
1000
0310
0011
,
0002
1000
0013
1001
,
1000
0100
0010
0000
0010
0001
1000
0000
,
1000
0100
0010
0000
0010
0001
1000
0000
,
0001
1000
0010
0000
0100
0001
0010
0000
,
0001
1000
0010
0000
0100
0001
0010
0000
,
0001
0010
0011
0000
1000
0010
1010
0000
,
1001
0011
1001
1010
,
1000
0001
1001
0000
0010
0100
0110
0000
,
0101
0011
1010
0011
,
0002
0000
0000
0000
2003
0000
0000
3001
,
0010
0100
2000
0000
3002
0000
0003
0000
,
0200
0000
0000
0000
0320
0000
0000
1030
,
2000
3200
0320
0032
,
0103
0010
1000
0001
,
0010
1000
0010
0001
,
0000
1000
0000
1010
,
0000
0001
0000
0011
,
0000
1000
0000
1001
,
0000
0100
0000
0110
,
0000
0010
0000
1010
,
0000
1000
0000
0000
,
0001
1000
0000
1000
0001
0000
0010
0000
,
0000
0010
0100
1000
,
0010
0100
0000
0100
0010
0000
1000
0000
,
0000
1000
0010
0001
,
0010
1000
0000
1000
0010
0000
0100
0000
,
0000
0100
0001
1000
,
0001
0010
0000
0010
0001
0000
0001
0000
,
1000
1000
0001
0001
,
0100
0000
0020
0000
0000
1030
0000
0000
,
0002
0000
0000
0103
0000
0000
0010
0000
,
0000
0000
0200
0000
0000
0310
0000
0000
,
2000
0000
0000
3100
0000
0000
0010
0000
,
0000
0000
0200
0000
0000
0301
0000
0000
,
0200
0000
0000
1300
0000
0000
0001
0000
,
0000
0000
0200
0000
0000
1300
0000
0000
,
0200
0000
0000
0301
0000
0000
1000
0000
,
0000
0000
1001
0000
0000
1100
0000
0000
,
0101
0000
0000
1100
0000
0000
1001
0000
,
0100
0000
0110
0000
0000
0011
0000
0000
,
0101
0000
0000
0011
0000
0000
0110
0000
,
0100
0000
1001
0000
0000
0011
0000
0000
,
1010
0000
0000
0011
0000
0000
1001
0000
,
0010
0000
0110
0000
0000
1100
0000
0000
,
1010
0000
0000
1100
0000
0000
0110
0000
,
0001
1000
0100
0000
0010
0000
0100
0000
,
1000
0001
0100
0000
1001
0000
0000
0000
,
1000
0001
0010
0000
0100
0000
0010
0000
,
0001
1000
0010
0000
1001
0000
0000
0000
,
1000
0001
0100
0000
0010
0000
0100
0000
,
0001
1000
0100
0000
0010
0000
0100
0000
,
1000
0001
0010
0000
0100
0000
0010
0000
,
0001
1000
0010
0000
1001
0000
0000
0000
,
0200
1300
1100
0100
,
0020
0031
0101
0100
,
0020
1030
1010
0010
,
0200
0301
1001
1000
,
0200
0310
0110
0100
,
2000
3100
1100
1000
,
0002
0013
0011
0001
,
1001
0100
1001
0000
,
0101
0000
0010
0000
0100
0001
0200
0000
,
0301
0100
0002
0000
1003
0000
0010
0000
,
1010
0000
0100
0000
0010
1000
0020
0000
,
1030
0010
1000
0000
0010
0000
1000
0000
,
1100
0000
0010
0000
0100
1000
0200
0000
,
1300
0100
2000
0000
3100
0000
0010
0000
,
0011
0000
0100
0000
0010
0001
0020
0000
,
0031
0010
0002
0000
0013
0000
1001
0000
,
0100
1000
0100
0000
0010
0001
0010
0000
,
0001
1000
0001
0000
1000
0000
0110
0000
,
0100
0001
0100
0000
0010
1000
0010
0000
,
1000
0001
1000
0000
0001
0000
0110
0000
,
0010
0100
0001
0000
0010
0100
1000
0000
,
0010
1000
0100
0000
0010
0001
0100
0000
,
0010
1000
0100
0000
0010
0100
1000
0010
,
0100
0001
0010
0000
0100
0000
0001
1000
,
0110
0000
0000
0000
0001
0000
1000
0000
1001
0000
0000
0011
0000
0000
1100
0000
0000
0000
0000
0000
1000
0000
0001
0000
1001
0000
0000
1010
0000
0000
0101
0000
,
0000
0000
0000
0000
0010
0000
0001
0000
0101
0000
0000
1010
0000
0000
1001
0000
0000
0000
0000
0000
0010
0000
1000
0000
1100
0000
0000
0011
0000
0000
1001
0000
,
1000
0000
0001
0000
0010
0100
0000
0010
,
0200
0000
1300
0000
0010
0100
0000
0010
,
0200
0000
0301
0000
0100
0010
0000
1000
,
0020
0100
1000
0130
,
0001
0000
1000
0000
0100
0010
0000
0100
,
0020
0000
0031
0000
0100
0010
0000
0100
,
0020
0000
1030
0000
0010
0100
0000
0001
,
0200
0010
0001
0310
,
1000
0100
2000
0000
3200
0000
2300
0000
,
3010
0100
0020
0000
0230
0000
0302
0000
,
0013
0001
0020
0000
0032
0000
0203
0000
,
0310
1000
0001
0100
0010
0000
1000
0000
,
0001
0100
0002
0000
0203
0000
0302
0000
,
0013
0100
0020
0000
0230
0000
2300
0000
,
3010
1000
0020
0000
1030
0000
0200
0000
,
0310
0001
1000
0100
0010
0000
0001
0000
,
2000
0000
3002
0000
0103
0001
0000
0001
,
2000
0000
3002
0000
0013
0001
0000
0001
,
0200
0000
0320
0000
1030
0001
0000
0001
,
1000
0100
0001
0100
,
2000
0000
3002
0000
0013
0001
0000
0001
,
2000
0000
3002
0000
0103
0001
0000
0001
,
0020
0000
0230
0000
1300
0001
0000
0001
,
1000
0010
0001
0010
,
1000
0100
1000
0010
,
0200
0300
0110
0110
,
0002
0003
1001
1001
,
0200
0300
1100
1100
,
0001
0010
0001
0100
,
0020
0030
0110
0110
,
2000
3000
1001
1001
,
0020
0030
0011
0011
,
0100
1000
0100
1000
,
0001
0010
0001
0010
,
0100
1000
0100
1000
,
0010
0100
0001
1000
,
0010
1000
0010
0100
0001
0010
0100
0000
,
1000
0010
0100
0001
0100
0010
1000
0000
,
0010
1000
0010
0100
0001
0010
0100
0010
,
0001
0100
0010
1000
0100
1000
0010
0000
,
0100
0001
0010
0100
1000
0010
0100
0010
,
1000
0100
0010
0001
1000
0001
0010
0100
,
0010
0001
0100
0010
1000
0001
0010
0100
,
1000
0100
0010
0001
1000
0010
0100
0000
,
0101
1010
1100
0011
,
1001
0110
1001
0110
,
1100
0011
0101
1010
,
0110
1001
0110
1001
,
1000
0001
1000
0010
0100
0001
1000
0001
,
0010
1100
0101
0000
,
1000
0010
1000
0001
0010
0001
0100
0000
,
0010
1000
0001
0010
0000
0001
0100
0010
,
1000
0100
1000
0001
0100
0001
0010
0100
,
1000
1010
0011
0000
,
0001
0010
0100
1000
0010
0100
0001
0000
,
1000
0100
1000
0001
0000
0010
0100
1000
,
2002
0000
0000
0000
0000
0000
0000
0000
0000
0000
3003
0000
1000
1000
0001
0001
,
0220
0000
0000
0000
0330
0000
0010
0100
,
1000
0001
0010
0100
2000
0000
3001
0000
,
2002
0000
0000
0000
3003
0000
1000
0001
,
0010
0100
1000
0010
0200
0000
0300
0000
,
2002
0000
0000
0000
3003
0000
0001
1000
,
0001
0100
0010
1000
0200
0000
0300
0000
,
0022
0000
0033
1001
,
1000
0001
1000
0001
1000
0001
0100
0000
,
0010
1000
0010
0100
0001
0100
0001
0010
,
0001
0100
0010
1000
0100
1000
0001
0000
,
0011
0000
1100
0000
0010
0001
1000
0000
,
1010
0000
0101
0000
1000
0100
0010
0001
,
1000
0010
0100
0001
0100
0010
1000
0001
,
0010
0100
1000
0001
1000
0010
0100
0001
,
1000
0100
0010
0100
1000
0001
0010
0000
,
0011
1100
1001
1001
,
1001
0000
0001
0000
1000
0000
0001
0010
0100
1000
0001
0000
0110
0000
0000
0000
,
1001
0000
1000
0000
0001
0000
1000
0010
0100
0001
1000
0000
0110
0000
0001
0000
,
1000
0000
0001
0000
1000
0000
0010
1000
0001
0100
0010
0000
1001
0000
0000
0000
,
0001
0000
1000
0000
0001
0000
0010
0001
1000
0100
0010
0000
1001
0000
1000
0000
,
0100
1000
0101
0001
0100
0001
1100
1000
,
0001
0000
0100
0000
0010
1000
0010
1000
0100
0000
1000
0000
0001
0010
0001
0010
,
0100
1000
0011
0001
0100
0001
1010
1000
,
0001
0000
1000
0000
0001
0100
0010
1000
0001
0000
1000
0000
0001
0010
0100
2000
,
0000
0000
3000
0000
;

//---------------dance-double - ----------------
#NOTES:
     dance-double:
     :
     Beginner:
     1:
     0.165,0.325,0.067,0.012,0.000:
00000000
00000000
00000000
00000000
,
00000000
00000000
00000000
00000000
,
00000000
00000000
00000000
00000000
,
00000000
00000000
00000000
00000000
,
00000000
00000000
00000000
00000000
,
00001000
00000000
00010000
00000000
,
00000100
00000000
00001000
00000000
,
00000010
00000010
00000010
00000000
,
00001000
00000000
00000000
00000000
,
00000001
00000000
00000100
00000000
,
00001000
00000000
00010000
00000000
,
00100000
00000000
10000000
00000000
,
00010000
00000000
00100000
00000000
,
00001000
00001000
00000000
00010000
,
00010000
00010000
00000000
00000100
,
00000100
00000000
00010000
00000000
,
00001000
00001000
00001000
00000000
,
00011000
00000000
00000000
00000000
,
00000000
00000000
00000000
00000000
,
00000110
00000000
00000000
00000000
,
00000000
00000000
00000000
00000000
,
00000010
00000000
00001000
00000000
,
00000100
00000000
00010000
00000000
,
00001000
00000000
00100000
00000000
,
00010000
00000000
10000000
00000000
,
01000000
00000000
01000000
00000000
,
00100000
00000000
00100000
00000000
,
00001000
00000000
00010000
00010000
,
00010000
00000000
00000100
00000000
,
00001000
00000000
00000010
00000000
,
00000100
00000000
00000001
00000000
,
00001000
00001000
00001000
00000000
,
00000100
00000000
00010000
00000000
,
00001000
00000000
01000000
00000000
,
00010000
00000000
00010000
00000000
,
00100000
00000000
00100000
00000000
,
01000000
01000000
01000000
00000000
,
10000000
00000000
00010000
00000000
,
00100000
00000000
00001000
00000000
,
00010000
00000000
00000010
00000000
,
00001000
00001000
00001000
00000000
,
00000001
00000000
00000100
00000000
,
00000010
00000010
00000010
00000000
,
00001000
00000000
00000100
00000000
,
00010000
00010000
00010000
00000000
,
00001000
00000000
00100000
00000000
,
00010000
00010000
00010000
00000000
,
01000000
01000000
01000000
00000000
,
00100000
00100000
00100000
00000000
,
00010000
00000000
00000000
00000000
,
00001000
00000000
00000000
00000000
,
00010000
00000000
00000000
00000000
,
01000000
00000000
00000000
00000000
,
10000000
00000000
10000000
00000000
,
00100000
00000000
00000000
00000000
,
10000000
00000000
10000000
00000000
,
01000000
00000000
00000000
00000000
,
00010000
00000000
00000000
00000000
,
00001000
00000000
00000000
00000000
,
00000010
00000000
00000000
00000000
,
00000001
00000000
00000000
00000000
,
00001000
00000000
00000000
00000000
,
00000010
00000000
00000000
00000000
,
00000100
00000000
00000000
00000000
,
00001000
00000000
00000000
00000000
,
00010000
00000000
00000000
00001000
,
00001000
00000000
00000000
00010000
,
00010000
00000000
00010000
00000000
,
01000000
00000000
01000000
00000000
,
10000000
00000000
00000000
00000000
,
00100000
00000000
00100000
00000000
,
10000000
00000000
00000000
00000000
,
01000000
00000000
01000000
00000000
,
00010000
00000000
00010000
00000000
,
00001000
00000000
00000000
00000000
,
00001000
00000000
00001000
00000000
,
00000100
00000000
00000000
00000000
,
00000001
00000000
00000010
00000000
,
00000001
00000000
00000000
00000000
,
00000100
00000000
00001000
00000000
,
00000100
00000000
00000000
00000000
,
01000000
00000000
01000000
00000000
,
00100000
00000000
00100000
00000000
,
01000000
00000000
01000000
00000000
,
00010000
00000000
00010000
00000000
,
00001000
00000000
00001000
00000000
,
00000100
00000000
00000100
00000000
,
00000010
00000000
00000010
00000000
,
00000100
00000000
00000100
00000000
,
00000001
00000000
00000001
00000000
,
00000001
00000000
00000000
00000000
,
00001000
00000000
00001000
00000000
,
00001000
00000000
00000000
00000000
,
00000100
00000000
00000100
00000000
,
00000100
00000000
00000000
00000000
,
00010000
00000000
00010000
00000000
,
00010000
00000000
00000000
00000000
,
10000000
00000000
00000000
00000000
,
00010000
00000000
00010000
00000000
,
00010000
00000000
00000000
00000000
,
00100000
00000000
00100000
00000000
,
00100000
00000000
00000000
00000000
,
00001000
00000000
00001000
00000000
,
00001000
00000000
00000000
00000000
,
00020000
00000000
00000000
00030000
,
00001000
00000000
00001000
00000000
,
00010000
00000000
00000000
00000000
,
00010000
00000000
00010000
00000000
,
00100000
00000000
00000000
00000000
,
10000000
00000000
01000000
00000000
,
10000000
00000000
00000000
00000000
,
00100000
00000000
00010000
00000000
,
00100000
00000000
00000000
00000000
,
00001000
00000000
00001000
00000000
,
00010000
00000000
00010000
00000000
,
00001000
00000000
00001000
00000000
,
00000010
00000000
00000010
00000000
,
00000001
00000000
00000000
00000000
,
00000010
00000000
00001000
00000000
,
00010000
00000000
00000000
00000000
,
20000000
00000000
00000000
30000000
,
10000000
00000000
00000000
00000000
,
10000000
00000000
00000000
00000000
,
00100000
00000000
00000000
00000000
,
00000000
00000000
00000000
00000000
,
00010000
00000000
00000000
00000000
,
00010000
00000000
00000000
00000000
,
00001000
00000000
00000000
00000000
,
00000000
00000000
00000000
00000000
,
00000010
00000000
00000000
00000000
,
00000010
00000000
00000000
00000000
,
00000001
00000000
00000000
00000000
,
00000000
00000000
00000000
00000000
,
00000100
00000000
00000000
00000000
,
00000001
00000000
00000000
00000000
,
00000010
00000000
00000000
00000000
,
00000000
00000000
00000000
00000000
,
00000000
11000000
00000000
00000000
,
00000000
00000000
00000000
00001000
,
00000000
00000000
00000000
00000000
,
00001000
00000000
00000000
00000000
,
00000000
10010000
00000000
00000000
,
00000000
00000000
00000000
00010000
,
00000000
00000000
00000000
00000000
,
00001000
00000000
00000000
00000000
,
00000000
00001001
00000000
00000000
,
00000000
00000000
00000000
00001000
,
00000000
00000000
00000000
00000000
,
00010000
00000000
00000000
00000000
,
00000000
00101000
00000000
00000000
,
00000000
00000000
00000000
00000001
,
00000000
00000000
00000000
00000000
,
00000100
00000000
00000000
00000000
,
00100000
00000000
00000000
00000000
,
10000000
00000000
00000000
00000000
,
10000000
00000000
00000000
00000000
,
00001000
00000000
00000000
00000000
,
00000100
00000000
00000000
00000000
,
00000100
00000000
00000000
00000000
,
01000000
00000000
00000000
00000000
,
01000000
00000000
00000000
00000000
,
10000000
00000000
00000000
00000000
,
00001000
00000000
00000000
00000000
,
00001000
00000000
00000000
00000000
,
00000100
00000000
00000000
00000000
,
00000001
00000000
00000000
00000000
,
00010000
00000000
00000000
00000000
,
10000000
00000000
00000000
00000000
,
00010000
00000000
00000000
00000000
,
10000000
00000000
00000000
00000000
,
00100000
00000000
00000000
00000000
,
00010000
00000000
00000000
00000000
,
00000100
00000000
00000000
00000000
,
00001000
00000000
00000000
00000000
,
00000010
00000000
00000000
00000000
,
00010000
00000000
00000000
00000000
,
00001000
00000000
00000000
00000000
,
00010000
00000000
00000000
00000000
,
01000000
00000000
00000000
00000000
,
00100000
00000000
00000000
00000000
,
00001000
00000000
00000000
00000000
,
00000100
00000000
00000000
00000000
,
00000010
00000000
00000000
00000000
,
00000100
00000000
00000000
00000000
,
00010000
00000000
00000000
00000000
,
00100000
01000000
00001000
00000001
,
00000110
00001000
00000110
00000001
,
00000100
00000000
00000000
00000000
,
00001000
00000000
00000000
00000000
,
00010000
00000000
00000000
00000000
,
00100000
00000000
00000000
00000000
,
01000000
00000000
00000000
00000000
,
00010000
00000000
00000000
00000000
,
10000000
00000000
00000000
00000000
,
00100000
00000000
00000000
00000000
,
01000000
00000000
00000000
00000000
,
00001000
00000000
00000000
00000000
,
00010000
00000000
00000000
00000000
,
00000010
00000000
00000000
00000000
,
00000100
00000000
00000000
00000000
,
00001000
00000000
00000000
00000000
,
01000000
00000000
00000000
00000000
,
00100000
00000000
00000000
00000000
,
10000000
00000000
10000000
00000000
,
00000000
00000000
00000000
00000000
,
01000000
00000000
01000000
00000000
,
00000000
00000000
00000000
00000000
,
00010000
00000000
00010000
00000000
,
00000000
00000000
00000000
00000000
,
00001000
00000000
00001000
00000000
,
00000000
00000000
00000000
00000000
,
00000100
00000000
00000100
00000000
,
00000000
00000000
00000000
00000000
,
00000010
00000000
00000010
00000000
,
00000000
00000000
00000000
00000000
,
00010000
00000000
00010000
00000000
,
00000000
00000000
00000000
00000000
,
00011000
00000000
00000000
00000000
,
00000000
00000000
00000000
00000000
,
00011000
00000000
00000000
00000000
,
00000000
00000000
00000000
00000000
,
00011000
00000000
00000000
00000000
,
00000000
00000000
00000000
00000000
,
00001000
00000000
00010000
00000000
,
00001000
00000000
00000000
00000000
,
00010000
00000000
00001000
00000000
,
00010000
00000000
00000000
00000000
,
00000010
00000000
00000000
00000000
,
00000010
00000000
00000000
00000000
,
00000100
00000000
00000000
00000000
,
00000100
00000000
00000000
00000000
,
00000110
00000000
00000000
00000000
,
00001001
00000000
00000000
00000000
,
00001001
00000000
00000000
00000000
,
00000110
00000000
00000000
00000000
,
00000100
00000000
00000000
00000000
,
00010000
00000000
00000000
00000000
,
00001000
00000000
00000000
00000000
,
01000000
00000000
00000000
00000000
,
10000000
00000000
10000000
00000000
,
10000000
00000000
00000000
00000000
,
00010000
00000000
00010000
00000000
,
00010000
00000000
00000000
00000000
,
20020000
00000000
30030000
00000000
,
10010000
00000000
00000000
00000000
,
01000000
00000000
00000000
00000000
,
00010000
00000000
00000000
00000000
,
00001000
00000000
00001000
00000000
,
00001000
00000000
00000000
00000000
,
00000100
00000000
00000000
00000000
,
00000001
00000000
00000000
00000000
,
00001000
00000000
00001000
00000000
,
00001000
00000000
00000000
00000000
,
00000001
00000000
00000000
00000000
,
00001001
00000000
00000000
00000000
,
00000000
00000000
00000000
00000000
,
00000001
00000000
00000000
00000000
,
00001000
00000000
00000000
00000000
,
00001001
00000000
00000000
00000000
,
00000000
00000000
00000000
00000000
,
00000001
00000000
00000010
00000000
,
00001000
00000000
00010000
00000000
,
00100000
00000000
10000000
00000000
,
10010000
00000000
00000000
00000000
,
10000000
00000000
00100000
00000000
,
00010000
00000000
00001000
00000000
,
00000010
00000000
00000001
00000000
,
00001001
00000000
00000000
00000000
,
00000110
00000000
00000000
00000000
;

//---------------dance-double - ----------------
#NOTES:
     dance-double:
     :
     Easy:
     6:
     0.320,0.569,0.121,0.152,0.000:
00000000
00000000
00000000
00000000
,
00000000
00000000
00000000
00000000
,
00000000
00000000
00000000
00000000
,
00000000
00000000
00000000
00000000
,
00000000
00000000
00000000
00000010
,
00000100
00000100
00000000
00000000
,
00001000
00001000
00000000
00010000
,
00100000
00100000
00000000
00000000
,
01000000
01000000
00000000
00010000
,
10000000
00000000
20000000
30000000
,
00010000
00000000
02000000
03000000
,
00010000
00000000
00200000
00300000
,
00001000
00010000
00001000
00000000
,
00000100
00000000
00000002
00000003
,
00001000
00000000
00000200
00000300
,
00000010
00000000
00000100
00000000
,
00001000
00000001
00001000
00000001
,
00002002
00000000
00000000
00003003
,
00000200
00000000
00000000
00000300
,
00002000
00000000
00000000
00003000
,
00020000
00000000
00000000
00030000
,
00200000
00300000
01000000
00000000
,
00200000
00300000
00010000
00000000
,
00200000
00300000
10000000
00000000
,
02000000
03000000
00010000
00000000
,
00011000
00000000
00001000
00001000
,
00000100
00000000
00000010
00000010
,
00000100
00000000
00000001
00000001
,
00000100
00000000
00001000
00000000
,
00011000
00000000
00010000
00010000
,
00100000
00000000
01000000
01000000
,
00100000
00000000
10000000
10000000
,
00100000
00000000
00010000
00000000
,
00011000
00000000
00001000
00000000
,
00000010
00000000
00000001
00000010
,
00000200
00000300
00001000
00000000
,
00000010
00000000
00000001
00000010
,
00000200
00000300
00001000
00000000
,
00020000
00030000
00100000
00000000
,
20000000
30000000
01000000
00000000
,
00020000
00030000
00002000
00003000
,
00011000
00000000
00010000
00000000
,
00001000
00000000
00000100
00000100
,
00000001
00000000
00000100
00000100
,
00001000
00000000
00010000
00001000
,
00010000
00000000
01000000
00000000
,
10000000
00000000
00100000
00100000
,
01000000
00000000
00100000
00100000
,
00010000
00000000
00001000
00010000
,
00001000
00010000
01000000
00001000
,
00010000
00010000
00001000
00000100
,
00000001
00000000
00001000
00000000
,
00000001
00000000
00000010
00000000
,
00000001
00000100
00000001
00000100
,
00001000
00000000
00010000
00000000
,
00010000
01000000
00010000
01000000
,
10000000
00000000
00100000
00000000
,
10000000
00100000
00010000
00001000
,
00000010
00000001
00000100
00000001
,
00000010
00000000
00000001
00000000
,
00000010
00000000
00000010
00000000
,
00000001
00000010
00001000
00010000
,
00100000
10000000
01000000
10000000
,
00100000
00000000
10000000
00000000
,
00100000
00000000
00100000
00000000
,
10000000
01000000
00010000
00000000
,
00001000
00000100
00000001
00000000
,
00000001
00000010
00001000
00000000
,
00010000
00100000
10000000
00100000
,
20000000
30000000
02000000
03000000
,
10000000
01000000
00010000
00000000
,
00002000
00003000
00000200
00000300
,
00000001
00000100
00001000
00000000
,
00010000
00010000
01000000
01000000
,
10000000
10000000
01000000
00000000
,
00010000
00010000
00001000
00001000
,
00000100
00000100
00000001
00000000
,
00000001
00000001
00000010
00000010
,
00001000
00001000
00010000
00000000
,
00100000
00100000
10000000
10000000
,
01000000
01000000
00010000
00000000
,
00000010
00000000
00000100
00000000
,
00000001
00000000
00000010
00000000
,
00001000
00000000
00010000
00000000
,
00002000
00000000
00003000
00000000
,
00010000
00000000
00001000
00000000
,
00010000
00000000
00100000
00000000
,
10000000
00000000
01000000
00000000
,
20000000
00000000
30000000
00000000
,
01000000
00000000
00010000
00000000
,
00001000
00000000
00000100
00000000
,
00001000
00000000
00010000
00000000
,
01000000
00000000
00010000
00000000
,
00001000
00000000
00000010
00000000
,
00001000
00000000
00010000
00000000
,
00002000
00000000
00003000
00000000
,
00020000
00000000
00030000
00000000
,
00010000
00000000
00100000
00000000
,
00010000
00000000
00001000
00000000
,
00000010
00000000
00001000
00000000
,
00010000
00000000
01000000
00000000
,
00010000
00000000
00001000
00000000
,
00020000
00000000
00030000
00000000
,
00002000
00000000
00003000
00000000
,
00000000
00000000
00000000
00000000
,
00001000
00001000
00000010
00000010
,
00000001
00000001
00000010
00000000
,
00001000
00001000
00010000
00010000
,
00100000
00100000
10000000
00000000
,
10000000
10000000
01000000
01000000
,
00010000
00010000
00001000
00000000
,
00000100
00000100
00000001
00000001
,
00000010
00000010
00000001
00000000
,
00000001
00000010
00000001
00000010
,
00001000
00010000
00001000
00010000
,
00100000
00010000
00100000
10000000
,
00100000
10000000
01000000
10000000
,
00020000
00030000
20000000
30000000
,
10000000
00100000
00010000
00000000
,
00002000
00003000
00020000
00030000
,
00001000
00000010
00000001
00000010
,
00000001
00000000
00000100
00000000
,
00000010
00000000
00010000
00000000
,
00001000
00000000
00001000
00000000
,
00010000
00000000
00100000
00000000
,
10000000
00000000
00000000
00000000
,
00010000
00000000
00000000
00000000
,
10000000
00000000
00000000
00000000
,
01000000
00000000
00000000
00000000
,
10000000
00000000
00100000
00000000
,
00010000
00000000
00000000
00000000
,
00010000
00000000
00001000
00000000
,
00000010
00000000
00000000
00000000
,
00000010
00000000
00000001
00000000
,
00000100
00000000
00000000
00000000
,
00000100
00000000
00001000
00000000
,
00010000
00000000
00000000
00000000
,
00000000
00000000
11000000
00000000
00000000
10000000
00000000
00000000
,
00100000
00000000
00000000
00010000
00000000
00000000
00001000
00000000
,
00000000
00000000
00000110
00000000
00000000
00000001
00000000
00000000
,
00001000
00000000
00000000
00100000
00000000
00000000
10000000
00000000
,
00000000
00000000
10100000
00000000
00000000
10000000
00000000
00000000
,
01000000
00000000
00000000
00100000
00000000
00000000
00010000
00000000
,
00000000
00000000
10010000
00000000
00000000
00100000
00000000
00000000
,
00001000
00000000
00000000
00010000
00000000
00000000
00000100
00000000
,
00000000
00000000
00001001
00000000
00000000
00000100
00000000
00000000
,
00000001
00000000
00000000
00000010
00000000
00000000
00001000
00000000
,
00000000
00000000
00011000
00000000
00000000
01000000
00000000
00000000
,
00010000
00000000
00000000
00100000
00000000
00000000
00010000
00000000
,
00000000
00000000
00101000
00000000
00000000
00010000
00000000
00000000
,
00000100
00000000
00000000
00000010
00000000
00000000
00000001
00000000
,
00000000
00000000
00000110
00000000
00000000
00000001
00000000
00000000
,
00000100
00000000
00000000
00001000
00000000
00000000
01000000
00000000
,
00100000
01000000
00100000
00000000
,
10000000
00010000
10000000
00000000
,
10000000
01000000
00010000
00000000
,
00001000
00000100
00000001
00000000
,
00000100
00000010
00000001
00000000
,
00000100
00001000
00010000
00000000
,
01000000
10000000
00100000
00000000
,
01000000
00010000
10000000
00000000
,
10000000
01000000
00100000
00000000
,
00001000
00010000
00000010
00000000
,
00001000
00000001
00000010
00000000
,
00000100
00001000
00000001
00000000
,
00000001
00000010
00001000
00000000
,
00010000
00100000
10000000
00000000
,
10000000
01000000
10000000
00100000
,
00010000
00001000
00010000
01000000
,
10000000
01000000
10000000
00000000
,
00100000
00010000
00100000
00000000
,
00010000
00001000
00010000
00000000
,
00000100
00000010
00000100
00000000
,
00001000
00000001
00001000
00000000
,
00000010
00010000
00000010
00000000
,
00010000
00000100
00010000
00000000
,
00001000
01000000
00001000
00000000
,
00010000
01000000
00010000
00000000
,
01000000
00100000
01000000
00000000
,
00100000
00001000
00100000
00000000
,
00001000
00010000
00001000
00000000
,
00000100
00000001
00000100
00000000
,
00000010
00001000
00000010
00000000
,
00000100
00000001
00000100
00001000
,
00010000
01000000
10000000
00100000
,
00100000
10000000
01000000
00010000
00001000
00000100
00000001
00000010
,
00001100
00000100
00001000
00000000
00000101
00000100
00000001
00000000
,
00000100
00001000
00010000
00000000
,
00001000
00010000
00100000
00000000
,
00010000
00100000
01000000
00000000
,
00100000
01000000
00010000
00000000
,
01000000
00010000
10000000
00000000
,
00010000
10000000
00100000
00000000
,
10000000
00100000
01000000
00000000
,
00100000
01000000
00001000
00000000
,
01000000
00001000
00010000
00000000
,
00001000
00010000
00000010
00000000
,
00010000
00000010
00000100
00000000
,
00000010
00000100
00001000
00000000
,
00000100
00001000
00010000
00000000
,
00001000
00010000
01000000
00000000
,
01000000
00010000
00001000
00010000
,
00100000
10000000
01000000
10000000
,
00010000
00000000
10000000
00000000
,
01000000
00000000
11000000
00000000
,
00010000
00000000
00001000
00000000
,
00010000
00000000
00011000
00000000
,
00001000
00000000
00000100
00000000
,
00000001
00000000
00000101
00000000
,
00001000
00000000
00000100
00000000
,
00000010
00000000
00000110
00000000
,
00010000
00000000
00001000
00000000
,
01000000
00000000
01010000
00000000
,
00010000
00000000
01000000
00000000
,
00100000
00000000
10010000
00000000
,
01000000
00000000
00100000
00000000
,
00001000
00000000
00010000
00000000
,
00022000
00000000
00000000
00033000
,
00000000
00000000
00000000
00000000
,
00001001
00000000
00000000
00000000
,
00000110
00000000
00000000
00000000
,
00001001
00000000
00000000
00000000
,
00000110
00000000
00000000
00000000
,
00001000
00000000
00000100
00000000
,
00000001
00000000
00000001
00000000
,
00000100
00000000
00010000
00000000
,
00001000
00000000
00001000
00000000
,
00100000
00000000
00010000
00000000
,
10000000
00000000
01000000
00000000
,
00100000
00000000
00010000
00000000
,
10000000
00000000
01000000
00000000
,
11000000
00000000
00000000
00000000
,
01010000
00000000
00000000
00000000
,
00001100
00000000
00000000
00000000
,
00000101
00000000
00000000
00000000
,
00000001
00000000
00000100
00000000
,
00001000
00001000
00002000
00003000
,
00010000
00000000
01000000
00000000
,
10000000
00000000
00100000
00000000
,
10000000
00000000
01000000
00000000
,
00010000
00010000
00020000
00030000
,
00001000
00000000
00000100
00000000
,
00000001
00000000
00000001
00000000
,
00002002
00000000
00003003
00000000
,
00000002
00000000
00000000
00000000
,
00000003
00000000
00000100
00000100
,
00000020
00000000
00000000
00000000
,
00000030
00000000
00010000
00000000
,
00002000
00000000
00000000
00000000
,
00003000
00000000
00000010
00000000
,
00002000
00003000
00000000
00020000
,
00000000
00000000
00030000
00000000
,
20000000
00000000
00000000
00000000
,
30000000
00000000
01000000
01000000
,
00200000
00000000
00000000
00000000
,
00300000
00000000
00001000
00000000
,
00020000
00000000
00000000
00000000
,
00030000
00000000
00100000
00000000
,
00020000
00030000
00000000
00002000
,
00000000
00000000
00003000
00000000
,
00000001
00000010
00000100
00010100
,
00001000
00100000
01000000
11000000
,
10000000
00100000
01000000
01001000
,
00010000
00000010
00000100
00000101
,
00000001
00000100
00000010
00010010
,
00001000
01000000
00100000
10100000
,
10000000
01000000
00100000
00101000
,
00010000
00000100
00000010
00000011
,
00001001
00000000
00000000
00000000
;

//---------------dance-double - ----------------
#NOTES:
     dance-double:
     :
     Medium:
     8:
     0.492,0.610,0.307,0.231,0.018:
00000000
00000000
00000000
00000000
,
00000000
00000000
00000000
00000000
,
00000000
00000000
00000000
00000000
,
00000000
00000000
00000000
00000000
,
00000000
00000000
00000000
00100000
,
00001000
00010000
00000000
00010000
00001000
00000000
00000100
00000000
,
00000010
00000100
00000000
00000100
00000010
00000000
00001000
00000000
,
00000010
00000100
00000001
00000000
00000100
00000000
00000001
00000000
,
00000010
00000100
00001000
00000000
00000100
00000000
00001000
00000000
,
00000100
00010000
00000000
00002000
00000000
00000000
00003000
00000000
,
01000000
00010000
00000000
20000000
00000000
00000000
30000000
00000000
,
00100000
01000000
00000000
00020000
00000000
00000000
00030000
00000000
,
00100000
00001000
00000000
00020000
00000000
00000000
00030000
00001000
,
00010000
00001000
00000000
00000200
00000000
00000000
00000300
00000001
,
00000100
00000001
00000000
00000020
00000000
00000000
00000030
00000100
,
00010000
00000000
00001000
00010000
00000000
00001000
00100000
00000000
,
00010000
01000000
00000000
00100000
10000000
00000000
01000000
00100000
,
02000000
00000000
03000000
10010000
,
00200000
00000000
00300000
00011000
,
00002000
00000000
00003000
00000110
,
00000002
00000000
00001003
00001001
,
00000001
00000011
00000010
00001010
,
00001000
00011000
00010000
00110000
,
00100000
10100000
10000000
11000000
,
01000000
01100000
00100000
00110000
,
00020000
00000000
10030000
00100000
,
00020000
00000000
00130000
00010000
,
00002000
00000000
00013000
00001000
,
00000200
00000000
00000300
00000000
00000001
00000001
00001000
00001000
,
00000200
00000000
00000310
00000001
,
00000200
00000000
00000301
00000100
,
00002000
00000000
00003100
00001000
,
00020000
00000000
00000000
00000000
00031000
00001000
00010000
00010000
,
00200000
00000000
10300000
01000000
,
00200000
00000000
00310000
01000000
,
00002000
00000000
00013000
00000100
,
00002000
00000000
00003000
00000000
00000010
00000010
00000100
00000100
,
00000001
00000011
00000010
00000110
,
00000100
00011000
00000100
00011000
,
00010000
01010000
01000000
11000000
,
10000000
00110000
10000000
00110000
,
20020000
00000000
30030000
00000000
00100000
00010000
01000000
00000000
,
20000000
00000000
30000000
00000000
01000000
00010000
00100000
00000000
,
00002000
00000000
00003000
00000000
00010000
00000100
00001000
00000000
,
00000020
00000000
00000030
00000000
00000100
00000001
00000010
00000001
,
00000200
00000000
00000300
00000000
00000010
00001000
00000100
00000000
,
00000002
00000000
00000003
00000000
00000100
00001000
00000010
00000000
,
00020000
00000000
00030000
00000000
00001000
01000000
00010000
00000000
,
00200000
00000000
00300000
00000000
00001000
00010000
00000100
00000010
,
00000001
00000100
00000001
00001000
00000000
00000001
00000000
00000100
,
00000000
00001000
00000000
00010000
00000000
01000000
00000000
10000000
,
00000000
00100000
00000000
00010000
00000000
00001000
00000000
00000010
,
00000000
00001000
00000000
00010000
00000000
00100000
00000000
10000000
,
01000000
00010000
00001000
00000000
00010000
00000000
00011000
00000000
,
00001000
00000100
00000001
00000000
00000010
00000000
00000110
00000000
,
00000010
00000001
00000100
00000000
00001000
00000000
00011000
00000000
,
00010000
01000000
10000000
00000000
00100000
00000000
01100000
00000000
,
00100000
10000000
00010000
10000000
00000000
01000000
00000000
00010000
,
00000000
00001000
00000000
00000100
00000000
00000001
00000000
00000010
,
00000000
00001000
00000000
00010000
00000000
00100000
00000000
10000000
,
00000000
01000000
00000000
10000000
00000000
00010000
00000000
00100000
,
01000000
10000000
10000000
00000000
00010000
00000000
00100000
00000000
,
00001000
00010000
00001000
00000100
,
00000001
00000010
00000001
00000000
00001000
00000000
00000001
00000000
,
00000100
00000010
00001000
00000100
,
00010000
00001000
00010000
00000000
01000000
00000000
10000000
00000000
,
00100000
10000000
01000000
00000000
00010000
00000000
00001000
00000000
,
00010000
00001000
00000100
00000000
00001000
00000100
00000001
00000000
,
00000001
00000010
00000001
00000100
00001000
00000100
00001000
00010000
,
00011000
00000000
00020000
00000000
,
00032000
00023000
02030000
03000000
,
10010000
00000000
20000000
00000000
,
30200000
20300000
32000000
03000000
,
10000000
01000000
00010000
00001000
,
00010000
01000000
00010000
00001000
,
00000010
00001000
00010000
00001000
,
00000010
00001001
00000100
00001001
,
00000100
00001000
00010000
00001000
,
00000100
00001000
00010000
00100000
,
10000000
11000000
00010000
01010000
,
00001000
00011000
00000100
00001100
,
00011000
00000000
00001000
00000100
00001000
00000000
00010000
00000000
,
01000000
00000000
10000000
00100000
10000000
00000000
01000000
00000000
,
00010000
00000000
00001000
00000010
00001000
00000000
00010000
00000000
,
00001000
00000000
00000100
00000001
00000100
00000000
00001000
00000000
,
00011000
00000000
00010000
00100000
00010000
00000000
00001000
00000000
,
00000010
00000000
00000001
00000100
00000001
00000000
00000010
00000000
,
00001000
00000000
00010000
01000000
00010000
00000000
00001000
00000000
,
00010000
00000000
00100000
10000000
00100000
00000000
00010000
00000000
,
00011000
00001000
00000100
00000010
,
00001000
00000001
00001000
00000000
00000100
00000010
00000100
00000000
,
00000010
00001000
00010000
01000000
,
10000000
00010000
10000000
00000000
00100000
01000000
00100000
00000000
,
10000000
01000000
00010000
00001000
,
00000100
00000001
00000100
00000000
00000010
00001000
00000010
00000000
,
00001000
00000100
00010000
00001000
,
00100000
00010000
00100000
00000000
01000000
10000000
01000000
00000000
,
00010000
10000000
00010000
00000000
00100000
01000000
00100000
00000000
,
01000000
00010000
00001000
00000010
,
00000001
00001000
00000001
00000000
00000100
00000010
00000100
00000000
,
00000001
00000010
00001000
00010000
,
00100000
10000000
00100000
00000000
01000000
00010000
01000000
00000000
,
00010000
00100000
00001000
00010000
,
00000100
00001000
00000100
00000000
00000010
00000001
00000010
00000000
,
00002002
00000000
00000000
00003003
,
00000001
00000010
00001000
00010000
,
00001000
00000010
00001000
00010000
,
01000000
00010000
00001000
00010000
,
01000000
10010000
00100000
10010000
,
00100000
00010000
00001000
00010000
,
00100000
00010000
00001000
00000100
,
00000001
00000011
00001000
00001010
,
00010000
00011000
00100000
00110000
,
10010000
10000000
00010000
10000000
,
00010000
00100000
00001000
00010000
,
00011000
00000100
00000001
00000010
,
00001000
00010000
00001000
00000010
,
00000110
00000000
00000200
00000000
,
00020300
00032000
00023000
00030000
,
00011000
00000000
00020000
00000000
,
00130000
00010000
00001000
00000100
,
00000001
00000010
00001000
00010000
,
00000000
00001000
00000000
00010000
,
00000000
00100000
00000000
10000000
,
00000000
01000000
00000000
00010000
,
00000000
00001000
00000000
00010000
,
00000000
00001000
00000000
00000100
,
00000000
00000001
00000000
00000010
,
00000000
00000001
00000000
00000010
,
00001000
00010000
00001000
00000000
,
00010000
00000000
00100000
00000000
,
10000000
00010000
10000000
00000000
,
00010000
00000000
00100000
00000000
,
01000000
10000000
01000000
00000000
,
10000000
00000000
00100000
00000000
,
00010000
00001000
00010000
00000000
,
00001000
00000000
00010000
00000000
,
00000000
00000000
12000000
00000000
00000000
10000000
00000000
00000000
,
03100000
00000000
00000000
00001000
00000000
00000000
00010000
00000000
,
00000000
00000000
00002010
00000000
00000000
00000001
00000000
00000000
,
00003100
00000000
00000000
00010000
00000000
00000000
00001000
00000000
,
00000000
00000000
00120000
00000000
00000000
10000000
00000000
00000000
,
01030000
00000000
00000000
00100000
00000000
00000000
01000000
00000000
,
00000000
00000000
20100000
00000000
00000000
01000000
00000000
00000000
,
30010000
00000000
00000000
01000000
00000000
00000000
00001000
00000000
,
00000000
00000000
00010020
00000000
00000000
00001000
00000000
00000000
,
00000130
00000000
00000000
00000010
00000000
00000000
00000100
00000000
,
00000000
00000000
00000201
00000000
00000000
00000010
00000000
00000000
,
00001300
00000000
00000000
00010000
00000000
00000000
00100000
00000000
,
00000000
00000000
21000000
00000000
00000000
00100000
00000000
00000000
,
30010000
00000000
00000000
00100000
00000000
00000000
00001000
00000000
,
00000000
00000000
00020100
00000000
00000000
00001000
00000000
00000000
,
00030010
00000000
00000000
00000100
00000000
00000000
00001000
00000000
,
01000000
00100000
01000000
00000000
,
10000000
00010000
10000000
00000000
,
10000000
01000000
00010000
00001000
,
00000100
00000001
00000010
00000000
,
00000100
00001000
00000010
00000000
,
00001000
00000001
00000100
00000000
,
00000010
00010000
00001000
00010000
,
00100000
00010000
00001000
00000000
,
00010000
01000000
10000000
00000000
,
10000000
01000000
00100000
00000000
,
10000000
01000000
00100000
00010000
,
01000000
00010000
10000000
00000000
,
00100000
00010000
00001000
00000000
,
00010000
00001000
00000100
00000000
,
00000100
00001000
00000010
00001000
,
00010000
00001000
00010000
01000000
,
00010000
01000000
01010000
00000000
,
00100000
00010000
00110000
00000000
,
00001000
00010000
00011000
00000000
,
00000100
00000010
00000110
00000000
,
00000001
00001000
00001001
00000000
,
00000010
00010000
00010010
00000000
,
00010000
00000100
00010100
00000000
,
00001000
01000000
01001000
00000000
,
00010000
10000000
10010000
00000000
,
01000000
00100000
01100000
00000000
,
00100000
00001000
00101000
00000000
,
00010000
00000100
00010100
00000000
,
00001000
00000100
00001100
00000000
,
00000001
00000100
00000101
00000000
,
00000010
00000001
00000100
00001000
,
00010000
01000000
10000000
00100000
,
00100000
00000000
00000000
00000000
10000000
00000000
10000000
00000000
01000000
00000000
00000000
00010000
00000000
00000000
00000000
00001000
00000000
00000000
00000000
00000000
00000100
00000000
00000100
00000000
00000001
00000000
00000000
00000010
00000000
00000000
00000000
00001000
,
00000000
00000000
00000000
00000000
00010000
00000000
00010000
00000000
00100000
00000000
00000000
10000000
00000000
00000000
00000000
01000000
00000000
00000000
00000000
00000000
00010000
00000000
00010000
00000000
00001000
00000000
00000000
00000010
00000000
00000000
00000000
00000010
,
00000001
00000000
00000001
00000000
00000001
00000100
00000000
00000000
,
00000001
00000000
00000001
00000000
00000001
00000010
00000000
00000000
,
00000100
00000000
00000100
00000000
00000100
00001000
00000000
00000000
,
00000010
00010000
00010000
00000000
,
00001000
00000000
00001000
00000000
00001000
00010000
00000000
00000000
,
01000000
00000000
01000000
00000000
01000000
00100000
00000000
00000000
,
00010000
00000000
00010000
00000000
00010000
01000000
00000000
00000000
,
10000000
10000000
10000000
00000000
,
10000000
00100000
00010000
00001000
,
00010000
01000000
10000000
00000000
,
00100000
00001000
00010000
00001000
,
00000010
00000001
00001000
00000000
,
00000001
00000100
00000010
00001000
,
00000100
00010000
00001000
00000000
,
00000100
00010000
00001000
00000100
,
00000001
00001000
00000010
00000000
,
00001000
00000001
00000100
00000000
,
00000001
00001000
00000010
00000000
,
00010000
00001000
01000000
00000000
,
00010000
01000000
00100000
00000000
,
10000000
00010000
00100000
00000000
,
00010000
10000000
01000000
00000000
,
00010000
00001000
00000010
00000000
,
00000001
00001000
00000100
00000000
,
00001000
00000001
00001000
00000001
,
00000100
00001000
00010000
00000000
,
01000000
10000000
00010000
10000000
,
00100000
01000000
00010000
00000000
,
10000000
00010000
10000000
00010000
,
01000000
00001000
00010000
00000000
,
00001000
00000100
00000001
00001000
,
00000001
00000100
00000010
00000000
,
00000010
00000010
00010000
00010000
,
00001000
00010000
00001000
00010000
,
00100000
00100000
01000000
01000000
,
00010000
10000000
00010000
10000000
,
00100000
01000000
00001000
00100000
,
00001000
00010000
00000100
00000010
,
00000001
00000100
00000010
00001000
,
00000100
00010000
00001000
00100000
,
00001000
00000000
00001100
00000000
,
00000100
00000000
00000101
00000000
,
00000001
00000000
00000011
00000000
,
00000010
00000000
00000110
00000000
,
00000001
00001001
00001000
00001001
,
00000010
00010000
00001000
00100000
,
00010000
10010000
10000000
10010000
,
01100000
01100000
10010000
10010000
,
01000000
00000000
01000000
00000000
01000000
00000000
00100000
00010000
,
00100000
00101000
00011000
00000000
,
00001000
00000100
00000001
00000010
,
00000100
00010000
00001000
01000000
,
00100000
00000000
00100000
00000000
00100000
00000000
10000000
01000000
,
10000000
11000000
10010000
00000000
,
10000000
00100000
00010000
00001000
,
00000010
00000001
00000100
00000010
,
00002002
00000000
00000000
00003003
,
00000002
00000000
00000100
00000000
,
00000103
00000000
00001000
00010000
,
00012000
00000000
00100000
00100000
,
00103000
00000000
02200000
03300000
,
20020000
00000000
00000000
00000000
,
00000000
30030000
20000000
00000000
,
02000000
00000000
33000000
00220000
,
00000000
00000000
00000000
00330000
,
20000000
00000000
01000000
00000000
,
31000000
00000000
00010000
00001000
,
00012000
00000000
00000010
00000010
,
00003010
00000000
00000220
00000330
,
00002002
00000000
00000000
00000000
,
00000000
00003003
00000002
00000000
,
00000200
00000000
00000303
00002020
,
00000000
00000000
00000000
00003030
,
00001000
00000000
00001001
00000000
00000001
00000100
00001000
00000000
,
00010000
00000000
00011000
00000000
00010000
01000000
10000000
00000000
,
00100000
00000000
01100000
00000000
01000000
00001000
00010000
00000000
,
00001000
00000000
00011000
00000000
00001000
00000100
00000001
00000000
,
00000010
00000000
00000110
00000000
00000100
00010000
00001000
00000000
,
00010000
00000000
00011000
00000000
00010000
01000000
10000000
00000000
,
00100000
01000000
00010000
00000000
00100000
01000000
10000000
00000000
,
01000000
00010000
00001000
00000000
00010000
00001000
00000100
00000000
,
00001001
00000000
00000000
00000000
;

//---------------dance-double - ----------------
#NOTES:
     dance-double:
     :
     Hard:
     10:
     0.734,0.976,0.501,0.276,0.161:
00000000
00000000
00000000
00000000
,
00000000
00000000
00000000
00000000
,
00000000
00000000
00000000
00000000
,
00000000
00000000
00000000
00000000
,
00000000
00000000
00000000
00000000
00000000
00000000
00010000
00001000
,
00010000
00010000
00000000
00000100
00001000
00000010
00000100
00000001
,
00001000
00001000
00000000
00000001
00000100
00000010
00001000
00000100
,
00001000
00001000
00000000
00000100
00010000
00001000
00100000
00010000
,
00100000
00100000
00000000
01000000
00100000
01000000
00010000
00001000
,
00010000
00010000
00000000
00001000
00000100
00000100
00000001
00000100
,
00000010
00000010
00000000
00001000
00000010
00000010
00001000
00000100
,
00010000
00010000
00000000
00001000
01000000
01000000
00100000
10000000
,
00100000
00100000
00000000
10000000
01000000
01000000
00100000
00010000
,
00100000
00100000
00000000
00001000
00010000
00010000
00000010
00000100
,
00000010
00000010
00000000
00001000
00000001
00000001
00000100
00000010
,
00001000
00001000
00000100
00000100
00010000
00010000
00001000
00001000
,
01000000
01000000
00100000
00100000
10000000
10000000
01000000
00100000
,
10010000
00000000
01000000
00000000
10010000
00000000
00100000
00010000
,
02000000
00000000
00100000
00000000
03010000
00000000
01000000
00001000
,
00011000
00000000
00100000
00000000
00011000
00000000
00000100
00001000
,
00000020
00000000
00000100
00000000
00001030
00000000
00000010
00010000
,
00011000
00000000
00000010
00000000
00011000
00000000
01000000
00100000
,
00010000
00000000
10010000
00000000
01000000
00000000
00100000
10000000
,
01000000
00000000
00110000
00000000
01000000
00000000
00010000
00001000
,
00000100
00000000
00000101
00000000
00001000
00000000
00000001
00000010
,
00002000
00000000
00000000
00003000
00010000
00001000
00010000
00001000
,
02000000
00000000
00000000
03000000
00100000
01000000
00100000
01000000
,
00002000
00000000
00000000
00003000
00010000
00001000
00010000
00001000
,
00000200
00000000
00000000
00000300
00000010
00000100
00000010
00000100
,
00000002
00000000
00002003
00000000
00003010
00001000
00000100
00000010
,
00002000
00000000
00023000
00000000
00031000
00010000
00100000
01000000
,
00020000
00000000
20030000
00000000
31000000
10000000
00100000
01000000
,
20000000
00000000
32000000
00000000
03100000
00010000
00001000
00000100
,
00000020
00000000
00000032
00000000
00000013
00001000
00000100
00000010
,
00000001
00000000
00000000
00000000
00000100
00001000
00010000
00100000
,
10000000
00000000
00000000
00000000
00001000
00010000
00100000
01000000
,
10000000
00000000
00000000
00000000
01000000
00010000
00001000
00000010
,
00000001
00000000
00001000
00000000
00010000
00001000
00000010
00000100
,
00000001
00000000
00001000
00000000
00000100
00001000
00010000
01000000
,
10000000
00000000
00010000
00000000
00001000
00010000
00100000
01000000
,
10000000
00000000
00010000
00000000
01000000
00100000
00010000
00001000
,
00000100
00000000
00000101
00000000
00000010
00000100
00000001
00000010
,
00000100
00000000
00001100
00000000
00010000
00001000
00100000
00010000
,
01000000
00000000
10100000
00000000
01000000
00010000
00100000
01000000
,
10000000
00000000
11000000
00000000
00100000
00010000
01000000
00001000
,
00010000
00010000
00010000
00000000
00001000
00010000
00000100
00001000
,
00000010
00000010
00001001
00000000
00000001
00000010
00000001
00000100
,
00001000
00001000
00001000
00000000
00010000
00001000
00100000
00010000
,
01000000
01000000
10010000
00000000
00001000
00010000
00000100
00000010
,
00000001
00001000
00000100
00000010
00001000
00010000
00001000
00000020
,
00000000
00000032
00000000
00000203
00000000
00002300
00000000
00013000
,
00001000
01000000
00010000
00100000
01000000
00010000
01000000
20000000
,
00000000
30200000
00000000
00320000
00000000
00032000
00000000
00003000
,
00000010
00000001
00000100
00001000
,
00010000
00100000
10000000
01000000
,
00010000
00011000
00001000
00001100
,
00000100
00000110
00000010
00000011
,
00000010
00001000
00000100
00010000
00001000
00100000
01000000
20000000
,
00000000
30200000
00000000
02300000
00000000
03020000
00000000
10030000
,
01000000
00010000
00000100
00000010
00000001
00000100
00000010
00002000
,
00000000
00003200
00000000
00020300
00000000
00032000
00000000
00013000
,
00001000
00010000
00000000
00010000
00001000
00000000
00001000
01000000
00000000
01000000
00010000
00000000
00100000
00000000
01000000
00000000
,
10000000
01000000
00010000
01000000
20000000
00000000
30100000
00000000
,
01000000
00010000
00000000
00010000
01000000
00000000
01000000
00001000
00000000
00001000
00010000
00000000
00001000
00000000
00010000
00000000
,
00001000
00000100
00000001
00000100
00002000
00000000
00003100
00000000
,
00000001
00001000
00000000
00001000
00000001
00000000
00000001
00000100
00000000
00000100
00001000
00000000
00000100
00000000
00000001
00000000
,
00001000
00000100
00000000
00000100
00001000
00000000
00001000
00000001
00000000
00000001
00000010
00000000
00000001
00000000
00000010
00000000
,
00000001
00001000
00000000
00001000
00000001
00000000
00000000
00000000
00001000
00000100
00000000
00000100
00001000
00000000
00000000
00000000
,
00000100
00010000
00000000
00001000
00010000
00001000
00000000
00010000
00000010
00010000
00000000
00001000
01000000
00001000
00000000
00010000
,
00002000
00000000
00000000
00000000
00023000
00000000
00000000
01030000
,
10000000
00010000
10000000
00000000
10010000
00000000
00000000
00000000
,
00020000
00000000
00000000
00000000
20030000
00000000
00000000
30010000
,
00100000
01000000
00100000
00000000
01100000
00000000
00000000
00000000
,
00010000
00000000
10000000
01000000
00000000
00000000
00010000
00001000
,
00000000
00000000
00000100
00000001
00000000
00000000
00000010
00000100
,
00000000
00000000
00010000
00001000
00000000
00000000
01000000
00100000
,
00000000
00000000
00010000
00001000
00000000
00000000
00000010
00000001
,
00000100
00001000
00010000
00000000
00010000
00001000
00100000
00000000
,
00001000
00010000
00000100
00000000
00001000
00000010
00010000
00000000
,
00001000
00010000
00000010
00000000
00010000
00001000
01000000
00000000
,
00010000
00100000
00001000
00000000
00010000
00001000
01000000
00000000
,
10010000
00000000
00000000
00000000
01000000
00000000
00010000
10000000
00000000
00000000
00010000
00000000
01000000
00000000
00100000
00000000
,
10000000
00000000
00000000
00000000
01000000
00000000
10000000
00010000
00000000
00000000
10000000
00000000
01000000
00000000
00100000
00000000
,
00010000
00000000
00000000
00000000
00100000
00000000
00001000
00010000
00000000
00000000
00000100
00000000
00001000
00000000
00000010
00000000
,
00000100
00000000
00000000
00000000
00000001
00000000
00001000
00000001
00000000
00000000
00000010
00000000
00000100
00000000
00001000
00000000
,
00000010
00000100
00000000
00000000
00001000
00000000
00000001
00001000
00000000
00000000
00000100
00000000
00000010
00000000
00001000
00000000
,
00010000
00000010
00000000
00000000
00001000
00000000
00100000
00010000
00000000
00000000
10000000
00000000
00100000
00000000
01000000
00000000
,
00010000
00100000
00000000
00000000
10000000
00000000
01000000
00100000
00000000
00000000
01000000
00000000
10000000
00000000
00100000
00000000
,
01000000
00010000
00000000
00000000
00100000
00000000
00010000
00001000
00000000
00000000
00000100
00000000
00000001
00000000
00000000
00000000
,
00000101
00000000
00000000
00000000
00000011
00000000
00000000
00000000
00000001
00000100
00000000
00000001
00000010
00000000
00000000
00000000
,
00001010
00000000
00000000
00000000
00011000
00000000
00000000
00000000
00001000
00000010
00000000
00001000
00010000
00000000
00000000
00000000
,
01010000
00000000
00000000
00000000
11000000
00000000
00000000
00000000
01000000
00010000
00000000
01000000
10000000
00000000
00000000
00000000
,
10100000
00000000
00000000
00000000
00110000
00000000
00000000
00000000
00100000
10000000
00000000
00100000
00010000
00000000
00001000
00000000
,
00010000
00000000
00000100
00000000
00001000
00000000
00000000
00000000
00000010
00000001
00000000
00000010
00001000
00000000
00000100
00000000
,
00000010
00000000
00000001
00000000
00000001
00000000
00000000
00000000
00000100
00001000
00000000
00000100
00000001
00000000
00001000
00000000
,
00000100
00000000
00010000
00000000
00001000
00000000
00000000
00000000
00100000
10000000
00000000
00100000
00010000
00000000
01000000
00000000
,
00100000
00000000
10000000
00000000
10000000
00000000
00000000
00000000
01000000
00010000
00000000
01000000
10000000
00000000
00010000
00000000
,
01010000
00000000
00000000
00000000
00011000
00000000
00000000
00000000
00010000
01000000
00000000
00010000
00001000
00000000
00000010
00000000
,
00001010
00000000
00000000
00000000
00000011
00000000
00000000
00000000
00000010
00001000
00000000
00000010
00000001
00000000
00000100
00000000
,
00000101
00000000
00000000
00000000
00001100
00000000
00000000
00000000
00000100
00000001
00000000
00000100
00001000
00000000
00010000
00000000
,
00001000
00000000
00100000
00000000
00010000
00000000
00000000
00000000
01000000
10000000
00000000
01000000
00010000
00000000
00100000
00000000
,
01000000
00000000
10000000
00000000
10000000
00000000
00000000
00000000
00100000
00010000
00000000
00100000
10000000
00000000
00010000
00000000
,
00100000
00000000
00001000
00000000
00010000
00000000
00000000
00000000
00000100
00000001
00000000
00000100
00001000
00000000
00000010
00000000
,
00000100
00000000
00000001
00000000
00000001
00000000
00000000
00000000
00000010
00001000
00000000
00000010
00000001
00000000
00002000
00000000
,
00000002
00000000
00000000
00003003
,
00001000
00000000
00000001
00000010
00000000
00000000
00001000
00010000
,
00000000
00000000
00100000
10000000
00000000
00000000
01000000
00100000
,
00000000
00000000
00001000
00010000
00000000
00000000
00000010
00000100
,
00000000
00000000
00001000
00010000
00000000
00000000
01000000
10000000
,
00100000
00010000
00001000
00000000
00001000
00010000
00000100
00000000
,
00010000
00001000
00100000
00000000
00010000
01000000
00001000
00000000
,
00010000
00001000
01000000
00000000
00001000
00010000
00000010
00000000
,
00001000
00000100
00010000
00000000
00001000
00010000
00000010
00000000
,
00001000
00000100
00000010
00000001
00000010
00000100
00001000
00000010
,
00010000
00000100
00010000
01000000
10000000
01000000
10000000
00000000
,
00010000
00100000
01000000
10000000
01000000
00100000
00010000
01000000
,
00001000
00100000
00001000
00000010
00000001
00000010
00000001
00000000
,
00002000
00000000
00000000
00000000
00003002
00000000
00000003
00000010
,
00001000
00010000
00011000
00000000
,
00002000
00000000
00000000
00000000
00023000
00000000
00000000
00130000
,
20000000
32000000
03200000
00320000
,
00130000
00001000
00010000
00001000
,
00010000
00000010
00001000
00000100
,
00000000
00000010
00000000
00001001
,
00000000
00000010
00000000
00000110
,
00000000
00000100
00000000
00010100
,
00000000
00010000
00000000
00101000
,
00000000
00100000
00000000
01100000
,
00000000
01000000
00000000
00000000
,
10000000
00010000
00000000
00010000
01000000
00000000
01000000
00010000
,
00000000
10000000
00010000
00000000
00100000
00000000
01000000
00000000
,
10000000
00100000
00000000
00100000
01000000
00000000
00010000
10000000
,
00000000
00010000
10000000
00000000
00100000
00000000
00010000
00000000
,
00001000
00010000
00000000
00010000
00001000
00000000
00001000
01000000
,
00000000
01000000
00001000
00000000
00000010
00000000
00000001
00000000
,
00000100
00000001
00000000
00000001
00000010
00000000
00000010
00000100
,
00000000
00000100
00001000
00000000
00000001
00000000
00001000
00000000
,
00000000
00000000
00001100
00000000
00000000
00001001
00000000
00000000
,
00000101
00000000
00000000
00001001
00000000
00000000
00001001
00000000
,
00000000
00000000
00000110
00000000
00000000
00001001
00000000
00000000
,
00000011
00000000
00000000
00001010
00000000
00000000
00011000
00000000
,
00000000
00000000
00011000
00000000
00000000
00110000
00000000
00000000
,
10100000
00000000
00000000
10010000
00000000
00000000
01100000
00000000
,
00000000
00000000
10010000
00000000
00000000
10010000
00000000
00000000
,
11000000
00000000
00000000
10010000
00000000
00000000
01010000
00000000
,
00000000
00000000
01010000
00000000
00000000
10010000
00000000
00000000
,
11000000
00000000
00000000
10010000
00000000
00000000
10010000
00000000
,
00000000
00000000
01100000
00000000
00000000
10010000
00000000
00000000
,
10100000
00000000
00000000
00110000
00000000
00000000
00011000
00000000
,
00000000
00000000
00011000
00000000
00000000
00001010
00000000
00000000
,
00000011
00000000
00000000
00001001
00000000
00000000
00000110
00000000
,
00000000
00000000
00001001
00000000
00000000
00001001
00000000
00000000
,
00000101
00000000
00000000
00001001
00000000
00000000
00001100
00000000
,
00001000
00000001
00000101
00000001
,
00000010
00000100
00001100
00001000
,
00000100
00010000
00011000
00001000
,
01000000
00010000
01010000
01000000
,
00100000
10000000
10100000
00100000
,
01000000
00010000
01010000
01000000
,
00001000
00010000
00011000
00001000
,
00010000
00000100
00001100
00001000
,
00001001
00000000
00000100
00000000
00000010
00000001
00000010
00000000
,
00000100
00000000
00001000
00000000
00000010
00001000
00000010
00000000
,
00001000
00000000
00000100
00000000
00010000
00001000
00010000
00000000
,
00001000
00000000
01000000
00000000
00010000
00100000
00010000
00000000
,
10000000
01000000
10000000
00000000
00010000
01000000
00010000
00000000
,
10000000
00100000
10000000
00000000
00010000
00100000
00010000
00000000
,
00100000
01000000
00100000
00000000
00001000
00010000
00001000
00000000
,
00010000
00001000
00010000
00000000
00000010
00000100
00000010
00000100
,
00000001
00001000
00001001
00000001
,
00000100
00000000
00001000
00000000
00010000
00001000
00010000
00000000
,
01000000
00100000
10010000
10000000
,
01000000
00000000
00010000
00000000
00001000
00010000
00001000
00000000
,
00000100
00000010
00001001
00000001
,
00000010
00000000
00001000
00000000
00010000
00001000
00010000
00000000
,
01000000
00100000
10010000
10000000
,
00100000
00000000
00010000
00000000
00001000
00010000
00001000
00000000
,
00000000
00000000
00011000
00000000
00010000
01000000
00000000
01000000
,
10000000
00000000
10000000
00100000
00000000
00000000
20020000
00000000
,
30030000
00000000
10010000
00000000
00100000
00010000
00000000
00010000
,
00001000
00000000
00001000
00010000
00000000
00000000
00022000
00000000
,
00033000
00000000
00011000
00000000
00001000
00010000
00000000
00010000
,
00001000
00000000
00001000
00000010
00000000
00000000
00002002
00000000
,
00003003
00000000
00001001
00000000
00000010
00000001
00000000
00000001
,
00000100
00000000
00000100
00001000
00000000
00000000
00011000
00000000
,
00000000
00000000
00000000
00000000
00010000
00000000
01000000
00000000
11000000
00000000
00000000
10100000
00000000
00000000
00110000
00000000
00000000
00000000
00000000
00000000
00010000
00000000
00100000
00000000
10100000
00000000
00000000
11000000
00000000
00000000
01010000
00000000
,
00000000
00000000
00000000
00000000
00001000
00000000
00000100
00000000
00000101
00000000
00000000
00000011
00000000
00000000
00001010
00000000
00000000
00000000
00000000
00000000
00001000
00000000
00000010
00000000
00000011
00000000
00000000
00000101
00000000
00000000
00001100
00000000
,
00001001
00000000
00000000
00000001
00000100
00000000
00000000
00000100
,
00000001
00000101
00002002
00003003
,
00001001
00000000
00000000
00001000
00000100
00000000
00000000
00000100
,
00001000
00001100
00022000
00033000
,
00011000
00000000
00000000
00010000
01000000
00000000
00000000
01000000
,
00010000
01010000
20020000
30030000
,
10010000
00000000
00000000
10000000
01000000
00000000
00000000
01000000
,
10000000
11000000
20020000
30030000
,
10000000
00000000
01000000
00000000
00100000
00010000
00100000
00000000
,
00010000
00000000
01000000
00000000
00100000
10000000
00100000
00000000
,
10000000
00000000
00010000
00000000
10000000
01000000
10000000
00010000
,
01000000
00001000
00010000
00001000
00000200
00000000
00000300
00000000
,
00000001
00000000
00000100
00000000
00000010
00001000
00000010
00000000
,
00001000
00000000
00000100
00000000
00000010
00000001
00000010
00000000
,
00000001
00000000
00001000
00000000
00000001
00000100
00000001
00001000
,
00000100
00010000
00001000
00010000
02000000
00000000
03000000
00000000
,
20000000
00000000
30020000
00000000
00130000
00010000
00000000
00010000
,
20000000
00000000
32000000
00000000
03010000
00001000
00000000
00001000
,
00020000
00000000
00030020
00000000
00001030
00000001
00000000
00000001
,
00000100
00001000
00010000
00100000
,
20000000
00000000
32000000
00000000
03100000
00010000
00000000
00010000
,
20000000
00000000
32000000
00000000
03100000
00001000
00000000
00001000
,
00020000
00000000
00030020
00000000
00000130
00000001
00000000
00000001
,
00000010
00001000
00010000
01000000
,
10000000
00100000
01000000
00010000
,
20000000
30000000
11000000
11000000
,
02000000
03000000
01010000
01010000
,
00020000
00030000
00011000
00011000
,
00000010
00001000
00000100
00001000
,
00000020
00000030
00000101
00000101
,
00002000
00003000
00011000
00011000
,
02000000
03000000
11000000
11000000
,
00100000
10000000
01000000
00100000
,
00001000
00010000
00000100
00000010
,
00000001
00000100
00000010
00010000
,
00001000
01000000
00010000
10000000
,
00010000
00100000
00010000
00000000
10000000
01000000
10000000
00000000
,
00100000
10000000
00100000
00000000
01000000
00001000
01000000
00000000
,
00010000
00100000
01000000
00100000
00001000
00010000
00001000
01000000
,
00010000
00100000
00010000
01000000
00001000
00010000
00001000
00000000
,
00100000
00010000
00100000
01000000
10000000
01000000
00100000
00001000
,
00010000
00001000
00010000
00000010
00001000
00000010
00000100
00000001
,
00000100
00000010
00001000
00000100
00001000
00000100
00010000
00001000
,
00010000
00000010
00001000
00000001
00001000
00000010
00000100
00000000
,
00000101
00001001
00001100
00001001
,
00000100
00010000
00001000
01000000
,
01010000
10010000
11000000
10010000
,
01000000
00001000
00011000
00011000
,
00010000
00001000
00010000
00000100
00001000
00000010
00001000
00000001
,
00000010
00000011
00001001
00000000
,
00000001
00000100
00000001
00001000
00000100
00010000
00001000
00000000
,
00100000
00010000
00100000
01000000
00000000
10000000
01000000
00100000
,
00010000
00100000
01000000
10000000
00010000
00100000
01000000
10000000
,
00100000
10100000
10010000
00000000
,
10000000
00010000
10000000
00010000
01000000
00001000
00010000
00000000
,
00001000
00010000
00000010
00001000
00000000
00000100
00001000
00000001
,
00002002
00000000
00000000
00003003
,
10010000
00000000
00100000
00010000
10000000
00000000
00100000
10000000
,
00010000
10000000
01000000
00000000
11000000
00000000
01010000
00000000
,
10010000
00000000
00010000
01000000
00010000
00000000
00100000
00001000
,
00100000
00001000
00010000
00000000
00022000
00000000
00033000
00000000
,
00011000
00000000
00010000
00000100
00010000
00000000
00000010
00001000
,
00000010
00001000
00000100
00000000
00000101
00000000
00001100
00000000
,
00001001
00000000
00001000
00000001
00001000
00000000
00002002
00000000
,
00000000
00000000
00000000
00003003
,
00000001
00000100
00000001
00000010
00000001
00001000
00000010
00001000
,
00000100
00010000
00000010
00001000
00000010
00010000
00001000
00010000
,
00001000
01000000
00010000
00100000
00010000
10000000
00100000
10000000
,
00010000
10000000
00100000
01000000
00010000
00100000
01000000
10000000
,
01000000
00100000
00010000
00100000
00001000
00100000
01000000
10000000
,
00100000
01000000
00001000
00010000
00000010
00010000
00000100
00010000
,
00000010
00000100
00000001
00000010
00000001
00001000
00000100
00001000
,
00000001
00000010
00000100
00001000
00000001
00000010
00000100
00001000
,
00001001
00000000
00000001
00000000
00000100
00000000
00000001
00001000
00000001
00001000
00000100
00000000
00020000
00000000
00000000
00000000
,
01030000
00000000
10000000
00000000
00100000
10000000
00100000
10000000
01000000
00000000
01000000
00000000
00100000
00010000
00100000
00010000
,
01000000
00000000
00001000
00000000
00010000
00000000
01000000
10000000
01000000
10000000
00100000
00000000
00020000
00000000
00000000
00000000
,
00031000
00000000
00000010
00000000
00000001
00000100
00000001
00000100
00000010
00000000
00000010
00000000
00001000
00000100
00001000
00000100
,
00000010
00000000
00000001
00000000
00000100
00000000
00001000
00010000
00001000
00010000
00000100
00000000
00002000
00000000
00000000
00000000
,
00003001
00000000
00000010
00000000
00000100
00010000
00000100
00010000
00001000
00000000
00001000
00000000
01000000
00010000
01000000
00010000
,
00100000
00000000
00100000
00000000
00010000
10000000
00010000
10000000
00100000
00000000
00100000
00000000
01000000
00001000
01000000
00001000
,
00010000
00000000
00010000
00000000
00000010
00001000
00000010
00001000
00000001
00000000
00000010
00000000
00000100
00000000
00001000
00000000
;

//---------------dance-single - ----------------
#NOTES:
     dance-single:
     :
     Challenge:
     10:
     0.741,1.000,0.495,0.337,0.150:
0000
0000
0000
0000
,
0000
0000
0000
0000
,
0000
0000
0000
0000
,
0000
0000
0000
0000
,
0000
0000
0000
0000
0000
0000
0001
0010
,
0001
0001
0000
1000
0001
0100
0010
1000
,
0100
0100
0000
0010
0001
1000
0100
0010
,
0001
0001
0000
0100
0010
1000
0001
0100
,
0010
0010
0000
1000
0010
0100
0001
1000
,
0001
0001
0000
0001
0010
0010
0100
1000
,
0100
0100
0000
0100
1000
1000
0010
0100
,
0001
0001
0000
0001
0100
0100
1000
0100
,
0010
0010
0000
0010
0100
0100
0010
1000
,
0001
0001
0000
0001
1000
1000
0001
0010
,
0001
0001
0000
0001
0010
0010
0100
1000
,
0001
0001
1000
1000
0001
0001
1000
1000
,
0001
0001
1000
1000
0010
0010
0100
0100
,
2002
0000
3000
0000
0010
0000
0103
0001
,
0020
0000
0000
0000
1000
0000
0130
1000
,
0020
0000
0000
0000
0001
0000
0130
0001
,
2000
0000
0000
0000
0100
0000
3001
0100
,
2000
0000
0000
0000
0001
0000
3100
0010
,
0002
0000
0000
0000
1000
0000
0013
1000
,
0200
0000
0000
0000
0001
0000
0310
0001
,
0200
0000
0000
0000
0010
0000
0301
0010
,
0200
0000
0000
0000
1000
1000
1000
1300
,
0002
0000
0000
0000
0010
0010
0010
0013
,
2000
0000
0000
0000
0010
0010
0010
3010
,
0002
0000
0000
0000
1000
1000
1000
1003
,
0001
0000
1100
0000
0001
0100
1000
0100
,
0010
0000
0101
0000
1000
0100
0001
0100
,
0010
0000
1010
0000
0001
0010
1000
0010
,
0100
0000
0011
0000
1000
0010
0001
0010
,
0100
0000
0001
0000
0100
0001
0010
1000
,
0001
0000
0100
0000
1000
0010
0001
1000
,
0100
0000
0001
0000
0010
1000
0001
0100
,
1000
0000
0010
0000
0001
1000
0100
0001
,
0010
0000
0100
0000
1000
0010
0001
0010
,
1000
0000
0100
0000
0001
0100
1000
0100
,
0010
0000
0001
0000
0100
1000
0100
0001
,
0010
0000
0001
0000
1000
0010
0001
0010
,
1000
0000
0101
0000
0010
1000
0100
1000
,
0001
0000
1100
0000
0010
0001
0100
0001
,
1000
0000
0011
0000
0100
1000
0010
1000
,
0001
0000
1010
0000
0100
0001
0010
0001
,
1000
1000
1100
0000
0001
0010
0100
1000
,
0001
0001
0101
0000
1000
0010
0100
0001
,
0010
0010
1001
0000
0001
0010
0100
1000
,
0010
0010
1001
0000
0100
0100
0100
0100
,
0010
0100
0010
0001
1000
0001
0001
0200
,
0000
0302
0000
2003
0000
3020
0000
0130
,
0001
1000
0001
0100
0010
0100
0001
0020
,
0000
0230
0000
2300
0000
3002
0000
0003
,
2000
0001
3002
0010
,
0023
0100
0100
0130
,
1001
1100
1001
0110
,
1100
0110
1001
0101
,
0001
1000
0010
0100
0001
1000
0100
2000
,
0000
3002
0000
2003
0000
3200
0000
0310
,
0001
1000
0100
1000
0001
0100
0001
0020
,
0000
0032
0000
2003
0000
3200
0000
1300
,
1000
0100
0000
0100
0010
0000
0001
0000
0000
0000
0001
0000
0010
0000
0100
0000
,
1000
0100
1000
0100
0020
0000
0032
0000
,
0013
0100
0000
0100
1000
0000
0001
0000
0000
0000
1000
0000
0001
0000
0100
0000
,
0010
1000
0010
1000
0020
0000
0230
0000
,
0301
1000
0000
1000
0100
0000
0010
0000
0000
0000
0001
0000
0010
0000
0100
0000
,
1000
0100
0000
0100
1000
0000
0010
0000
0000
0000
0100
0000
0001
0000
1000
0000
,
0100
1000
0000
1000
0001
0000
0000
0000
0100
0001
0000
0001
1000
0000
0000
0000
,
1000
0010
0001
0010
1000
0001
1000
0001
,
2000
0000
0000
0000
3002
0000
0000
1003
,
0100
0010
0002
0000
2003
0000
3000
0000
,
0020
0000
0000
0000
0230
0000
0000
0301
,
0010
0100
2000
0000
3002
0000
0003
0000
,
0020
0100
0031
1001
,
2000
0001
3100
0110
,
0020
0001
0130
1100
,
2000
0001
3100
1001
,
0001
0010
0100
0000
0100
1000
0001
0000
,
0001
0010
0100
0000
0100
1000
0001
0000
,
1000
0001
0100
0000
0010
1000
0100
0000
,
1000
0001
0100
0000
0010
1000
0100
0000
,
1000
0010
0000
0000
0100
0000
0010
0100
0000
0000
0001
0000
0100
0000
0000
0000
,
0001
0010
0000
0000
0100
0000
0010
0100
0000
0000
1000
0000
0100
0000
0000
0000
,
0010
0001
0000
0000
0100
0000
0001
0010
0000
0000
0100
0000
1000
0000
0000
0000
,
0010
1000
0000
0000
0100
0000
1000
0010
0000
0000
0100
0000
0001
0000
0000
0000
,
1000
0100
0000
0000
0010
0000
0100
1000
0000
0000
0010
0000
0100
0000
0000
0000
,
0001
0100
0000
0000
0010
0000
0100
0001
0000
0000
0010
0000
0100
0000
0000
0000
,
0010
0001
0000
0000
1000
0000
0100
0010
0000
0000
0001
0000
0100
0000
0000
0000
,
0010
1000
0000
0000
0001
0000
0100
0010
0000
0000
1000
0000
0100
0000
0010
0000
,
0001
1000
0000
0000
0100
0000
0000
0000
1000
0001
0000
0001
0100
0000
0000
0000
,
0010
0100
0000
0000
0001
0000
0000
0000
0100
0010
0000
0010
1000
0000
0000
0000
,
0100
1000
0000
0000
0001
0000
0000
0000
1000
0100
0000
0100
0010
0000
0000
0000
,
0001
1000
0000
0000
0010
0000
0000
0000
1000
0001
0000
0001
0010
0000
0100
0000
,
1000
0000
0001
0000
0001
0000
0000
0000
0010
0001
0000
0100
0001
0000
0010
0000
,
0100
0000
1000
0000
1000
0000
0000
0000
0010
1000
0000
0100
1000
0000
0010
0000
,
0100
0000
0001
0000
0001
0000
0000
0000
1000
0100
0000
0010
0001
0000
1000
0000
,
0010
0000
0100
0000
0100
0000
0000
0000
0001
0100
0000
0010
1000
0000
0001
0000
,
0100
0010
0000
0000
1000
0000
0000
0000
0010
0100
0000
0100
0001
0000
0000
0000
,
0010
0001
0000
0000
1000
0000
0000
0000
0001
0010
0000
0010
0100
0000
0000
0000
,
1000
0001
0000
0000
0100
0000
0000
0000
0001
1000
0000
1000
0100
0000
0010
0000
,
0001
0000
1000
0000
1000
0000
0000
0000
0100
1000
0000
0010
1000
0000
0100
0000
,
0010
0000
0001
0000
0001
0000
0000
0000
0100
0001
0000
0010
0001
0000
0100
0000
,
0010
0000
1000
0000
1000
0000
0000
0000
0001
0010
0000
0100
1000
0000
0001
0000
,
0100
0000
0010
0000
0010
0000
0000
0000
1000
0010
0000
0100
0001
0000
2000
0000
,
0002
0000
0000
3003
,
0200
0010
1300
1001
,
0002
1000
0013
0110
,
0200
1000
0310
0011
,
0002
1000
0013
1001
,
1000
0100
0010
0000
0010
0001
1000
0000
,
1000
0100
0010
0000
0010
0001
1000
0000
,
0001
1000
0010
0000
0100
0001
0010
0000
,
0001
1000
0010
0000
0100
0001
0010
0000
,
0001
0010
0011
0000
1000
0010
1010
0000
,
1001
0011
1001
1010
,
1000
0001
1001
0000
0010
0100
0110
0000
,
0101
0011
1010
0011
,
0002
0000
0000
0000
2003
0000
0000
3001
,
0010
0100
2000
0000
3002
0000
0003
0000
,
0200
0000
0000
0000
0320
0000
0000
1030
,
2000
3200
0320
0032
,
0103
0010
1000
0001
,
0010
1000
0010
0001
,
0000
1000
0000
1010
,
0000
0001
0000
0011
,
0000
1000
0000
1001
,
0000
0100
0000
0110
,
0000
0010
0000
1010
,
0000
1000
0000
0000
,
0001
1000
0000
1000
0001
0000
0010
0000
,
0000
0010
0100
1000
,
0010
0100
0000
0100
0010
0000
1000
0000
,
0000
1000
0010
0001
,
0010
1000
0000
1000
0010
0000
0100
0000
,
0000
0100
0001
1000
,
0001
0010
0000
0010
0001
0000
0001
0000
,
1000
1000
0001
0001
,
0100
0000
0020
0000
0000
0130
0000
0000
,
2000
0000
0000
3100
0000
0000
0001
0000
,
1000
0000
0200
0000
0000
0310
0000
0000
,
2000
0000
0000
3100
0000
0000
0010
0000
,
0010
0000
1001
0000
0000
1100
0000
0000
,
0101
0000
0000
1100
0000
0000
1001
0000
,
0100
0000
0110
0000
0000
0011
0000
0000
,
0101
0000
0000
0011
0000
0000
0110
0000
,
1000
0000
0020
0000
0000
0130
0000
0000
,
0002
0000
0000
0103
0000
0000
1000
0000
,
0001
0000
0200
0000
0000
0310
0000
0000
,
0002
0000
0000
0103
0000
0000
0010
0000
,
0010
0000
1001
0000
0000
0101
0000
0000
,
1100
0000
0000
0101
0000
0000
1001
0000
,
0100
0000
0110
0000
0000
1010
0000
0000
,
0010
0000
0000
0010
0000
0000
0010
0000
,
0001
1000
0001
0100
0010
1000
0100
1000
,
0001
0100
0001
0000
,
1000
0001
1000
0010
0100
0001
0010
0001
,
1000
0010
1000
0000
,
1000
0001
1000
0100
0010
0001
0100
0001
,
1000
0100
1000
0000
,
0001
1000
0001
0010
0100
1000
0010
1000
,
0001
0010
0001
0000
,
0010
0001
0000
0000
0001
0100
0000
0000
,
0100
1000
0000
0000
1000
0010
0000
0000
,
0010
1000
0000
0000
1000
0100
0000
0000
,
0100
0001
0000
0000
0001
0010
0000
0000
,
0010
0001
0000
0000
1000
0001
0000
0000
,
0010
0001
0000
0000
1000
0010
0000
0000
,
0100
0001
0000
0000
1000
0010
0000
0000
,
1000
0001
0000
0000
0001
0100
0000
0000
,
0101
0101
1100
1100
,
0101
0101
1100
1100
,
1010
0101
0011
1100
,
1001
0110
0101
1100
,
0001
0100
0001
0000
1000
0100
1000
0000
,
0001
1000
0001
0000
1000
0001
1000
0000
,
1010
0101
0011
1100
,
1001
0110
0101
1100
,
1000
1000
0001
0001
,
1000
1000
0001
0001
,
0011
1100
1010
0101
,
1001
0110
1100
0101
,
1000
0100
1000
0000
0001
0100
0001
0000
,
1000
0001
1000
0000
0001
1000
0001
0000
,
0011
1100
0011
1100
,
1001
0101
1100
0101
,
0010
1000
0001
0100
0010
0001
1000
0100
1000
0001
0010
0100
0001
1000
0100
0010
,
0001
0010
0100
1000
0100
0010
0100
0001
0100
1000
0100
1000
0001
0100
0001
0100
,
1000
0000
1000
0000
0010
0100
0000
0010
,
0200
0000
0301
0000
0010
0100
0000
0010
,
0200
0000
0301
0000
0100
0010
0000
1000
,
0020
0100
1000
0130
,
0001
0000
0001
0000
0100
0010
0000
0100
,
0020
0000
1030
0000
0100
0010
0000
0100
,
0020
0000
1030
0000
0010
0100
0000
0001
,
0200
0010
0001
0310
,
0001
0000
0001
0000
1000
0100
1000
0000
,
0001
0100
0001
1000
0100
1000
0001
0001
,
1000
0000
1000
0000
0001
1000
0001
0000
,
0100
0010
0100
0001
0100
1000
0100
0001
,
1000
0000
1000
0000
0001
0100
0001
0000
,
1000
0100
1000
0001
0100
0001
1000
1000
,
0001
0000
0001
0000
1000
0001
1000
0000
,
0100
0010
0100
1000
0100
0001
0100
0001
,
2000
0000
3002
0000
0103
1000
0000
1000
,
0002
0000
0203
0000
0310
0100
0000
0100
,
2000
0000
3200
0000
0310
0001
0000
0001
,
1000
0001
0100
0010
,
0002
0000
2003
0000
3100
0001
0000
0001
,
2000
0000
3200
0000
0310
0100
0000
0100
,
0002
0000
0203
0000
0310
1000
0000
1000
,
0001
1000
0100
0010
,
0100
0001
1000
0100
,
2000
3000
0110
0110
,
0002
0003
1001
1001
,
0200
0300
1100
1100
,
0001
0010
0001
0100
,
0020
0030
0110
0110
,
2000
3000
1001
1001
,
0020
0030
0011
0011
,
0100
1000
0100
1000
,
0001
0010
0001
0010
,
0100
1000
0100
1000
,
0010
0100
0001
1000
,
0010
1000
0010
0100
0001
0010
0100
0000
,
1000
0010
0100
0001
0100
0010
1000
0000
,
0010
1000
0010
0100
0001
0010
0100
0010
,
0001
0100
0010
1000
0100
1000
0010
0000
,
0100
0001
0010
0100
1000
0010
0100
0010
,
1000
0100
0010
0001
1000
0001
0010
0100
,
0010
0001
0100
0010
1000
0001
0010
0100
,
1000
0100
0010
0001
1000
0010
0100
0000
,
0101
1010
1100
0011
,
1001
0110
1001
0110
,
1100
0011
0101
1010
,
0110
1001
0110
1001
,
1000
0001
1000
0010
0100
0001
1000
0001
,
0010
1100
0101
0000
,
1000
0010
1000
0001
0010
0001
0100
0000
,
0010
1000
0001
0010
0000
0001
0100
0010
,
1000
0100
1000
0001
0100
0001
0010
0100
,
1000
1010
0011
0000
,
0001
0010
0100
1000
0010
0100
0001
0000
,
1000
0100
1000
0001
0000
0010
0100
1000
,
2002
0000
0000
0000
0000
0000
0000
0000
0000
0000
3003
0000
1000
1000
0001
0001
,
0220
0000
0000
0000
0330
0000
0010
0100
,
1000
0001
0010
0100
1100
0000
0101
0000
,
2002
0000
0000
0000
3003
0000
1000
0001
,
0010
0100
1000
0010
0220
0000
0330
0000
,
2002
0000
0000
0000
3003
0000
0001
1000
,
0001
0100
0010
1000
2020
0000
3030
0000
,
0022
0000
0033
1001
,
1000
0001
1000
0001
1000
0001
0100
0000
,
0010
1000
0010
0100
0001
0100
0001
0010
,
0001
0100
0010
1000
0100
1000
0001
0000
,
0011
0000
1100
0100
0010
0001
1000
0000
,
1010
0000
0101
0001
1000
0100
0010
0001
,
1000
0010
0100
0001
0100
0010
1000
0001
,
0010
0100
1000
0001
1000
0010
0100
0001
,
1000
0100
0010
0100
1000
0001
0010
0000
,
0011
1100
1001
1001
,
1001
0000
0001
0000
1000
0000
0001
0010
0100
1000
0001
0000
0110
0000
0000
0000
,
1001
0000
1000
0000
0001
0000
1000
0010
0100
0001
1000
0000
0110
0000
0001
0000
,
1000
0000
0001
0000
1000
0000
0010
1000
0001
0100
0010
0000
1001
0000
0000
0000
,
0001
0000
1000
0000
0001
0000
0010
0001
1000
0100
0010
0000
1001
0000
1000
0000
,
0100
1000
0101
0001
0100
0001
1100
1000
,
0001
0000
0100
0000
0010
1000
0010
1000
0100
0000
1000
0000
0001
0010
0001
0010
,
0100
1000
0011
0001
0100
0001
1010
1000
,
0001
0000
1000
0000
0001
0100
0010
1000
0001
0000
1000
0000
0001
0010
0100
2000
,
0000
0000
3000
0000
;

//---------------dance-double - ----------------
#NOTES:
     dance-double:
     :
     Challenge:
     10:
     0.782,0.976,0.404,0.613,0.167: // measure 1
00000000
00000000
00000000
00000000
,  // measure 2
00000000
00000000
00000000
00000000
,  // measure 3
00000000
00000000
00000000
00000000
,  // measure 4
00000000
00000000
00000000
00000000
,  // measure 5
00000000
00000000
00000000
00000000
00000000
00000000
00010000
00001000
,  // measure 6
00010000
00010000
00000000
00000100
00001000
00000010
00000100
00000001
,  // measure 7
00001000
00001000
00000000
00000001
00000100
00000010
00001000
00000100
,  // measure 8
00001000
00001000
00000000
00000100
00010000
00001000
00100000
00010000
,  // measure 9
00100000
00100000
00000000
01000000
00100000
01000000
00010000
00001000
,  // measure 10
00010000
00010000
00000000
00001000
00000100
00000100
00000001
00000100
,  // measure 11
00000010
00000010
00000000
00001000
00000010
00000010
00001000
00000100
,  // measure 12
00010000
00010000
00000000
00001000
01000000
01000000
00100000
10000000
,  // measure 13
00100000
00100000
00000000
10000000
01000000
01000000
00100000
00010000
,  // measure 14
00100000
00100000
00000000
00001000
00010000
00010000
00000010
00000100
,  // measure 15
00000010
00000010
00000000
00001000
00000001
00000001
00000100
00000010
,  // measure 16
00001000
00001000
00000100
00000100
00010000
00010000
00001000
00001000
,  // measure 17
01000000
01000000
00100000
00100000
10000000
10000000
01000000
00100000
,  // measure 18
10010000
00000000
01000000
00000000
10010000
00000000
00100000
00010000
,  // measure 19
02000000
00000000
00100000
00000000
03010000
00000000
01000000
00001000
,  // measure 20
00011000
00000000
00100000
00000000
00011000
00000000
00000100
00001000
,  // measure 21
00000020
00000000
00000100
00000000
00001030
00000000
00000010
00010000
,  // measure 22
00011000
00000000
00000010
00000000
00011000
00000000
01000000
00100000
,  // measure 23
00010000
00000000
10010000
00000000
01000000
00000000
00100000
10000000
,  // measure 24
01000000
00000000
00110000
00000000
01000000
00000000
00010000
00001000
,  // measure 25
00000100
00000000
00000101
00000000
00001000
00000000
00000001
00000010
,  // measure 26
00002000
00000000
00000000
00003000
00010000
00001000
00010000
00001000
,  // measure 27
02000000
00000000
00000000
03000000
00100000
01000000
00100000
01000000
,  // measure 28
00002000
00000000
00000000
00003000
00010000
00001000
00010000
00001000
,  // measure 29
00000200
00000000
00000000
00000300
00000010
00000100
00000010
00000100
,  // measure 30
00000002
00000000
00002003
00000000
00003010
00001000
00000100
00000010
,  // measure 31
00002000
00000000
00023000
00000000
00031000
00010000
00100000
01000000
,  // measure 32
00020000
00000000
20030000
00000000
31000000
10000000
00100000
01000000
,  // measure 33
20000000
00000000
32000000
00000000
03100000
00010000
00001000
00000100
,  // measure 34
00000020
00000000
00000032
00000000
00000013
00001000
00000100
00000010
,  // measure 35
00000001
00000000
00000000
00000000
00000100
00001000
00010000
00100000
,  // measure 36
10000000
00000000
00000000
00000000
00001000
00010000
00100000
01000000
,  // measure 37
10000000
00000000
00000000
00000000
01000000
00010000
00001000
00000010
,  // measure 38
00000001
00000000
00001000
00000000
00010000
00001000
00000010
00000100
,  // measure 39
00000001
00000000
00001000
00000000
00000100
00001000
00010000
01000000
,  // measure 40
10000000
00000000
00010000
00000000
00001000
00010000
00100000
01000000
,  // measure 41
10000000
00000000
00010000
00000000
01000000
00100000
00010000
00001000
,  // measure 42
00000100
00000000
00000101
00000000
00000010
00000100
00000001
00000010
,  // measure 43
00000100
00000000
00001100
00000000
00010000
00001000
00100000
00010000
,  // measure 44
01000000
00000000
10100000
00000000
01000000
00010000
00100000
01000000
,  // measure 45
10000000
00000000
11000000
00000000
00100000
00010000
01000000
00001000
,  // measure 46
00010000
00010000
00010000
00000000
00001000
00010000
00000100
00001000
,  // measure 47
00000010
00000010
00001001
00000000
00000001
00000010
00000001
00000100
,  // measure 48
00001000
00001000
00001000
00000000
00010000
00001000
00100000
00010000
,  // measure 49
01000000
01000000
10010000
00000000
00001000
00010000
00000100
00000010
,  // measure 50
00000001
00001000
00000100
00000010
00001000
00010000
00001000
00000020
,  // measure 51
00000000
00000032
00000000
00000203
00000000
00002300
00000000
00013000
,  // measure 52
00001000
01000000
00010000
00100000
01000000
00010000
01000000
20000000
,  // measure 53
00000000
30200000
00000000
00320000
00000000
00032000
00000000
00003000
,  // measure 54
00000010
00000001
00000100
00001000
,  // measure 55
00010000
00100000
10000000
01000000
,  // measure 56
00010000
00011000
00001000
00001100
,  // measure 57
00000100
00000110
00000010
00000011
,  // measure 58
00000010
00001000
00000100
00010000
00001000
00100000
01000000
20000000
,  // measure 59
00000000
30200000
00000000
02300000
00000000
03020000
00000000
10030000
,  // measure 60
01000000
00010000
00000100
00000010
00000001
00000100
00000010
00002000
,  // measure 61
00000000
00003200
00000000
00020300
00000000
00032000
00000000
00013000
,  // measure 62
00001000
00010000
00000000
00010000
00001000
00000000
00001000
01000000
00000000
01000000
00010000
00000000
00100000
00000000
01000000
00000000
,  // measure 63
10000000
01000000
00010000
01000000
20000000
00000000
30100000
00000000
,  // measure 64
01000000
00010000
00000000
00010000
01000000
00000000
01000000
00001000
00000000
00001000
00010000
00000000
00001000
00000000
00010000
00000000
,  // measure 65
00001000
00000100
00000001
00000100
00002000
00000000
00003100
00000000
,  // measure 66
00000001
00001000
00000000
00001000
00000001
00000000
00000001
00000100
00000000
00000100
00001000
00000000
00000100
00000000
00000001
00000000
,  // measure 67
00001000
00000100
00000000
00000100
00001000
00000000
00001000
00000001
00000000
00000001
00000010
00000000
00000001
00000000
00000010
00000000
,  // measure 68
00000001
00001000
00000000
00001000
00000001
00000000
00000000
00000000
00001000
00000100
00000000
00000100
00001000
00000000
00000000
00000000
,  // measure 69
00000100
00010000
00000000
00001000
00010000
00001000
00000000
00010000
00000010
00010000
00000000
00001000
01000000
00001000
00000000
00010000
,  // measure 70
00002000
00000000
00000000
00000000
00023000
00000000
00000000
01030000
,  // measure 71
10000000
00010000
10000000
00000000
10010000
00000000
00000000
00000000
,  // measure 72
00020000
00000000
00000000
00000000
20030000
00000000
00000000
30010000
,  // measure 73
00100000
01000000
00100000
00000000
01100000
00000000
00000000
00000000
,  // measure 74
00010000
00000000
20000000
01000000
30000000
00000000
00020000
00001000
,  // measure 75
00030000
00000000
00000200
00000001
00000300
00000000
00000020
00000100
,  // measure 76
00000030
00000000
00020000
00001000
00030000
00000000
02000000
00100000
,  // measure 77
03000000
00000000
00020000
00001000
00030000
00000000
00000010
00000001
,  // measure 78
00000100
00001000
00010000
00000000
00010000
00001000
00100000
00000000
,  // measure 79
00001000
00010000
00000100
00000000
00001000
00000010
00010000
00000000
,  // measure 80
00001000
00010000
00000010
00000000
00010000
00001000
01000000
00000000
,  // measure 81
00010000
00100000
00001000
00000000
00010000
00001000
01000000
00000000
,  // measure 82
10010000
00000000
00000000
00000000
01000000
00000000
00010000
10000000
00000000
00000000
00010000
00000000
01000000
00000000
00100000
00000000
,  // measure 83
10000000
00000000
00000000
00000000
01000000
00000000
10000000
00010000
00000000
00000000
10000000
00000000
01000000
00000000
00100000
00000000
,  // measure 84
00010000
00000000
00000000
00000000
00100000
00000000
00001000
00010000
00000000
00000000
00000100
00000000
00001000
00000000
00000010
00000000
,  // measure 85
00000100
00000000
00000000
00000000
00000001
00000000
00001000
00000001
00000000
00000000
00000010
00000000
00000100
00000000
00001000
00000000
,  // measure 86
00000010
00000100
00000000
00000000
00001000
00000000
00000001
00001000
00000000
00000000
00000100
00000000
00000010
00000000
00001000
00000000
,  // measure 87
00010000
00000010
00000000
00000000
00001000
00000000
00100000
00010000
00000000
00000000
10000000
00000000
00100000
00000000
01000000
00000000
,  // measure 88
00010000
00100000
00000000
00000000
10000000
00000000
01000000
00100000
00000000
00000000
01000000
00000000
10000000
00000000
00100000
00000000
,  // measure 89
01000000
00010000
00000000
00000000
00100000
00000000
00010000
00001000
00000000
00000000
00000100
00000000
00000001
00000000
00000000
00000000
,  // measure 90
00000101
00000000
00000000
00000000
00000011
00000000
00000000
00000000
00000001
00000100
00000000
00000001
00000010
00000000
00000000
00000000
,  // measure 91
00001010
00000000
00000000
00000000
00011000
00000000
00000000
00000000
00001000
00000010
00000000
00001000
00010000
00000000
00000000
00000000
,  // measure 92
01010000
00000000
00000000
00000000
11000000
00000000
00000000
00000000
01000000
00010000
00000000
01000000
10000000
00000000
00000000
00000000
,  // measure 93
10100000
00000000
00000000
00000000
00110000
00000000
00000000
00000000
00100000
10000000
00000000
00100000
00010000
00000000
00001000
00000000
,  // measure 94
00010000
00000000
00000100
00000000
00001000
00000000
00000000
00000000
00000010
00000001
00000000
00000010
00001000
00000000
00000100
00000000
,  // measure 95
00000010
00000000
00000001
00000000
00000001
00000000
00000000
00000000
00000100
00001000
00000000
00000100
00000001
00000000
00001000
00000000
,  // measure 96
00000100
00000000
00010000
00000000
00001000
00000000
00000000
00000000
00100000
10000000
00000000
00100000
00010000
00000000
01000000
00000000
,  // measure 97
00100000
00000000
10000000
00000000
10000000
00000000
00000000
00000000
01000000
00010000
00000000
01000000
10000000
00000000
00010000
00000000
,  // measure 98
01010000
00000000
00000000
00000000
00011000
00000000
00000000
00000000
00010000
01000000
00000000
00010000
00001000
00000000
00000010
00000000
,  // measure 99
00001010
00000000
00000000
00000000
00000011
00000000
00000000
00000000
00000010
00001000
00000000
00000010
00000001
00000000
00000100
00000000
,  // measure 100
00000101
00000000
00000000
00000000
00001100
00000000
00000000
00000000
00000100
00000001
00000000
00000100
00001000
00000000
00010000
00000000
,  // measure 101
00001000
00000000
00100000
00000000
00010000
00000000
00000000
00000000
01000000
10000000
00000000
01000000
00010000
00000000
00100000
00000000
,  // measure 102
01000000
00000000
10000000
00000000
10000000
00000000
00000000
00000000
00100000
00010000
00000000
00100000
10000000
00000000
00010000
00000000
,  // measure 103
00100000
00000000
00001000
00000000
00010000
00000000
00000000
00000000
00000100
00000001
00000000
00000100
00001000
00000000
00000010
00000000
,  // measure 104
00000100
00000000
00000001
00000000
00000001
00000000
00000000
00000000
00000010
00001000
00000000
00000010
00000001
00000000
00002000
00000000
,  // measure 105
00000002
00000000
00000000
00003003
,  // measure 106
00001000
00000000
00000002
00000010
00000003
00000000
00002000
00010000
,  // measure 107
00003000
00000000
00200000
10000000
00300000
00000000
02000000
00100000
,  // measure 108
03000000
00000000
00002000
00010000
00003000
00000000
00000020
00000100
,  // measure 109
00000030
00000000
00002000
00010000
00003000
00000000
01000000
10000000
,  // measure 110
00100000
00010000
00001000
00000000
00001000
00010000
00000100
00000000
,  // measure 111
00010000
00001000
00100000
00000000
00010000
01000000
00001000
00000000
,  // measure 112
00010000
00001000
01000000
00000000
00001000
00010000
00000010
00000000
,  // measure 113
00001000
00000100
00010000
00000000
00001000
00010000
00000010
00000000
,  // measure 114
00001000
00000100
00000010
00000001
00000010
00000100
00001000
00000010
,  // measure 115
00010000
00000100
00010000
01000000
10000000
01000000
10000000
00000000
,  // measure 116
00010000
00100000
01000000
10000000
01000000
00100000
00010000
01000000
,  // measure 117
00001000
00100000
00001000
00000010
00000001
00000010
00000001
00000000
,  // measure 118
00002000
00000000
00000000
00000000
00003002
00000000
00000003
00000010
,  // measure 119
00001000
00010000
00011000
00000000
,  // measure 120
00002000
00000000
00000000
00000000
00023000
00000000
00000000
00130000
,  // measure 121
20000000
32000000
03200000
00320000
,  // measure 122
00130000
00001000
00010000
00001000
,  // measure 123
00010000
00000010
00001000
00000100
,  // measure 124
00000000
00000010
00000000
00001001
,  // measure 125
00000000
00000010
00000000
00000110
,  // measure 126
00000000
00000100
00000000
00010100
,  // measure 127
00000000
00010000
00000000
00101000
,  // measure 128
00000000
00100000
00000000
01100000
,  // measure 129
00000000
01000000
00000000
00000000
,  // measure 130
10000000
00010000
00000000
00010000
01000000
00000000
01000000
00010000
,  // measure 131
00000000
10000000
00010000
00000000
00100000
00000000
01000000
00000000
,  // measure 132
10000000
00100000
00000000
00100000
01000000
00000000
00010000
10000000
,  // measure 133
00000000
00010000
10000000
00000000
00100000
00000000
00010000
00000000
,  // measure 134
00001000
00010000
00000000
00010000
00001000
00000000
00001000
01000000
,  // measure 135
00000000
01000000
00001000
00000000
00000010
00000000
00000001
00000000
,  // measure 136
00000100
00000001
00000000
00000001
00000010
00000000
00000010
00000100
,  // measure 137
00000000
00000100
00001000
00000000
00000001
00000000
00001000
00000000
,  // measure 138
00000002
00000000
00000023
00000000
00000030
00000200
00000000
00000300
,  // measure 139
00002000
00000000
00003000
00020000
00000000
00030000
02000000
00000000
,  // measure 140
23000000
00000000
32000000
00000000
03000000
00200000
00000000
00300000
,  // measure 141
20000000
00000000
30000000
02000000
00000000
03000000
00200000
00000000
,  // measure 142
10300000
00000000
00220000
00000000
00330000
02020000
00000000
03030000
,  // measure 143
00022000
00000000
00033000
00002020
00000000
00003030
00000011
00000000
,  // measure 144
00000001
00000000
00000220
00000000
00000330
00002200
00000000
00003300
,  // measure 145
00022000
00000000
00033000
00220000
00000000
00330000
01200000
00000000
,  // measure 146
20300000
00000000
30200000
00000000
00300000
02000000
00000000
03000000
,  // measure 147
00020000
00000000
00030000
00002000
00000000
00003000
00000200
00000000
,  // measure 148
00000302
00000000
00000203
00000000
00000300
00000020
00000000
00000030
,  // measure 149
00000002
00000000
00000003
00000200
00000000
00000300
00000020
00000000
,  // measure 150
00000031
00000000
00002020
00000000
00003030
00002200
00000000
00003300
,  // measure 151
00022000
00000000
00033000
00220000
00000000
00330000
10100000
00000000
,  // measure 152
10000000
00000000
02200000
00000000
03300000
02020000
00000000
03030000
,  // measure 153
00022000
00000000
00033000
00002020
00000000
00003030
00000110
00000000
,  // measure 154
00001000
00000100
00001000
00010000
02000000
00000000
23000000
00000000
,  // measure 155
30020000
02030000
23000000
30000000
,  // measure 156
10000000
00010000
10000000
00100000
01000000
00010000
01000000
00010000
,  // measure 157
00000200
00002300
00023000
00030000
,  // measure 158
00010000
01000000
00010000
00001000
00000200
00000000
00000302
00000000
,  // measure 159
00002003
00003200
00000302
00000003
,  // measure 160
00000001
00001000
00000001
00000010
00000100
00001000
00000100
00001000
,  // measure 161
02000000
03020000
00032000
00003000
,  // measure 162
00200000
10000000
00300000
00000000
00020000
01000000
00030000
00000000
,  // measure 163
00002000
00010000
00003000
00000000
00000020
00001000
00000030
00000000
,  // measure 164
00000002
00000010
00000003
00000000
00000002
00000100
00000003
00000000
,  // measure 165
00000200
00001000
00000300
00000000
00002000
00010000
00003000
00000000
,  // measure 166
00020000
00100000
00030000
00000000
20000000
00100000
30000000
00000000
,  // measure 167
00200000
00010000
00300000
00000000
02000000
00100000
03000000
00000000
,  // measure 168
02000000
00010000
03000000
00000000
00002000
00100000
00003000
00000000
,  // measure 169
00002000
00010000
00003000
00000000
00020000
00000010
00030000
00000000
,  // measure 170
00000101
00000101
00001100
00001100
,  // measure 171
00011000
00011000
01010000
01010000
,  // measure 172
10100000
01010000
00011000
01001000
,  // measure 173
01010000
00101000
00010010
00010010
,  // measure 174
00020000
00032000
00003200
00000302
,  // measure 175
00000103
00000001
00000100
00000000
00000001
00000100
00000001
00000000
,  // measure 176
00000002
00000203
00002300
00023000
,  // measure 177
02030000
00000000
23000000
00000000
31000000
10000000
01000000
00000000
,  // measure 178
11000000
11000000
01010000
01010000
,  // measure 179
00011000
00011000
00001100
00001100
,  // measure 180
00000011
00001100
00011000
00010100
,  // measure 181
00001100
00010010
00101000
00101000
,  // measure 182
00002000
00023000
02030000
13000000
,  // measure 183
01000000
10000000
01000000
00000000
10000000
01000000
10000000
00000000
,  // measure 184
20000000
32000000
03020000
00032000
,  // measure 185
00003200
00000301
00000101
00000000
,  // measure 186
00000001
00000000
00000100
00000000
00001000
00000000
00010000
00000000
01000000
00000000
10000000
00000000
00100000
00000000
01000000
00000000
10000000
00000000
01000000
00000000
10000000
00000000
10000000
00000000
01000000
00000000
00000000
00010000
00000000
00000000
01000000
00000000
,  // measure 187
10000000
00000000
01000000
00000000
00010000
00000000
00001000
00000000
00000100
00000000
00000001
00000000
00000010
00000000
00000100
00000000
00000001
00000000
00000100
00000000
00000001
00000000
00000001
00000000
00000100
00000000
00000000
00001000
00000000
00000000
00000100
00000000
,  // measure 188
00000001
00000000
00000001
00000000
00000100
00001000
00000000
00010000
,  // measure 189
00200000
00000000
10300000
00000000
00100000
01000000
00000000
00100000
,  // measure 190
02000000
00000000
03001000
00000000
00010000
00001000
00000000
01000000
,  // measure 191
00200000
10300000
10000000
00000000
,  // measure 192
10000000
00000000
10000000
00000000
01000000
00010000
00000000
00001000
,  // measure 193
00000020
00000000
00000031
00000000
00000010
00000100
00000000
00000010
,  // measure 194
00000200
00000000
00010300
00000000
00001000
00010000
00000000
00000100
,  // measure 195
00000020
00000031
00000001
00000000
,  // measure 196
00000001
00000000
00000001
00000000
00000001
00000100
00001000
00000000
,  // measure 197
00010000
01000000
10000000
00010000
01000000
10000000
00010000
00010000
,  // measure 198
10000000
00000000
10000000
00000000
10000000
01000000
00010000
00000000
,  // measure 199
00100000
00001000
00010000
00001000
00010000
01000000
10000000
01000000
,  // measure 200
10000000
00000000
10000000
00000000
10000000
01000000
00010000
00000000
,  // measure 201
00001000
00000100
00000001
00001000
00000100
00000001
00001000
00001000
,  // measure 202
00000001
00000000
00000001
00000000
00000001
00000100
00001000
00000000
,  // measure 203
00000010
00010000
00001000
00010000
00001000
00000100
00000001
00000100
,  // measure 204
00002000
00000000
00023000
00000000
00130000
01000000
00000000
01000000
,  // measure 205
00020000
00000000
20030000
00000000
31000000
00010000
00000000
00010000
,  // measure 206
00002000
00000000
00003020
00000000
00000031
00001000
00000000
00001000
,  // measure 207
00000100
00010000
00001000
00100000
,  // measure 208
00020000
00000000
20030000
00000000
31000000
00010000
00000000
00010000
,  // measure 209
00002000
00000000
02003000
00000000
03100000
00010000
00000000
00010000
,  // measure 210
00002000
00000000
00003020
00000000
00000031
00001000
00000000
00001000
,  // measure 211
00000010
00000100
00010000
00100000
,  // measure 212
01000000
10000000
00010000
00100000
,  // measure 213
02000000
03000000
11000000
11000000
,  // measure 214
02000000
03000000
01010000
01010000
,  // measure 215
00020000
00030000
00011000
00011000
,  // measure 216
00000010
00001000
00000100
00001000
,  // measure 217
00000020
00000030
00000101
00000101
,  // measure 218
00002000
00003000
00011000
00011000
,  // measure 219
02000000
03000000
11000000
11000000
,  // measure 220
00100000
10000000
01000000
00100000
,  // measure 221
00001000
00010000
00000100
00000010
,  // measure 222
00000001
00000100
00000010
00010000
,  // measure 223
00001000
01000000
00010000
10000000
,  // measure 224
00010000
00100000
00010000
00000000
10000000
01000000
10000000
00000000
,  // measure 225
00100000
10000000
00100000
00000000
01000000
00001000
01000000
00000000
,  // measure 226
00010000
00100000
01000000
00100000
00001000
00010000
00001000
01000000
,  // measure 227
00010000
00100000
00010000
01000000
00001000
00010000
00001000
00000000
,  // measure 228
00100000
00010000
00100000
01000000
10000000
01000000
00100000
00001000
,  // measure 229
00010000
00001000
00010000
00000010
00001000
00000010
00000100
00000001
,  // measure 230
00000100
00000010
00001000
00000100
00001000
00000100
00010000
00001000
,  // measure 231
00010000
00000010
00001000
00000001
00001000
00000010
00000100
00000000
,  // measure 232
00000101
00001001
00001100
00001001
,  // measure 233
00000100
00010000
00001000
01000000
,  // measure 234
01010000
10010000
11000000
10010000
,  // measure 235
01000000
00001000
00011000
00011000
,  // measure 236
00010000
00001000
00010000
00000100
00001000
00000010
00001000
00000001
,  // measure 237
00000010
00000011
00001001
00000000
,  // measure 238
00000001
00000100
00000001
00001000
00000100
00010000
00001000
00000000
,  // measure 239
00100000
00010000
00100000
01000000
00000000
10000000
01000000
00100000
,  // measure 240
00010000
00100000
01000000
10000000
00010000
00100000
01000000
10000000
,  // measure 241
00100000
10100000
10010000
00000000
,  // measure 242
10000000
00010000
10000000
00010000
01000000
00001000
00010000
00000000
,  // measure 243
00001000
00010000
00000010
00001000
00000000
00000100
00001000
00000001
,  // measure 244
00002002
00000000
00000000
00003003
,  // measure 245
10010000
00000000
00100000
00010000
10000000
00000000
00100000
10000000
,  // measure 246
00010000
10000000
01000000
00000000
11000000
00000000
01010000
00000000
,  // measure 247
10010000
00000000
00010000
01000000
00010000
00000000
00100000
00001000
,  // measure 248
00100000
00001000
00010000
00000000
00022000
00000000
00033000
00000000
,  // measure 249
00011000
00000000
00010000
00000100
00010000
00000000
00000010
00001000
,  // measure 250
00000010
00001000
00000100
00000000
00000101
00000000
00001100
00000000
,  // measure 251
00001001
00000000
00001000
00000001
00001000
00000000
00002002
00000000
,  // measure 252
00000000
00000000
00000000
00003003
,  // measure 253
00000001
00000100
00000001
00000010
00000001
00001000
00000010
00001000
,  // measure 254
00000100
00010000
00000010
00001000
00000010
00010000
00001000
00010000
,  // measure 255
00001000
01000000
00010000
00100000
00010000
10000000
00100000
10000000
,  // measure 256
00010000
10000000
00100000
01000000
00010000
00100000
01000000
10000000
,  // measure 257
01000000
00100000
00010000
00100000
00001000
00100000
01000000
10000000
,  // measure 258
00100000
01000000
00001000
00010000
00000010
00010000
00000100
00010000
,  // measure 259
00000010
00000100
00000001
00000010
00000001
00001000
00000100
00001000
,  // measure 260
00000001
00000010
00000100
00001000
00000001
00000010
00000100
00001000
,  // measure 261
00001001
00000000
00000001
00000000
00000100
00000000
00000001
00001000
00000001
00001000
00000100
00000000
00020000
00000000
00000000
00000000
,  // measure 262
01030000
00000000
10000000
00000000
00100000
10000000
00100000
10000000
01000000
00000000
01000000
00000000
00100000
00010000
00100000
00010000
,  // measure 263
01000000
00000000
00001000
00000000
00010000
00000000
01000000
10000000
01000000
10000000
00100000
00000000
00020000
00000000
00000000
00000000
,  // measure 264
00031000
00000000
00000010
00000000
00000001
00000100
00000001
00000100
00000010
00000000
00000010
00000000
00001000
00000100
00001000
00000100
,  // measure 265
00000010
00000000
00000001
00000000
00000100
00000000
00001000
00010000
00001000
00010000
00000100
00000000
00002000
00000000
00000000
00000000
,  // measure 266
00003001
00000000
00000010
00000000
00000100
00010000
00000100
00010000
00001000
00000000
00001000
00000000
01000000
00010000
01000000
00010000
,  // measure 267
00100000
00000000
00100000
00000000
00010000
10000000
00010000
10000000
00100000
00000000
00100000
00000000
01000000
00001000
01000000
00001000
,  // measure 268
00010000
00000000
00010000
00000000
00000010
00001000
00000010
00001000
00000001
00000000
00000010
00000000
00000100
00000000
00001000
00000000
;
