#TITLE:Power 4(Audiolab Mix);
#SUBTITLE:(Audiolab Mix);
#ARTIST:DJ Konception;
#TITLETRANSLIT:;
#SUBTITLETRANSLIT:;
#ARTISTTRANSLIT:;
#CREDIT:;
#BANNER:Power 4 (Audiolab Mix).png;
#BACKGROUND:Power 4 (Audiolab Mix)-bg.png;
#LYRICSPATH:;
#CDTITLE:./CDTITLES/Dance Dance Revolution ULTRAMIX4.png;
#MUSIC:Power 4 (Audiolab Mix).ogg;
#OFFSET:0.000;
#SAMPLESTART:97.331;
#SAMPLELENGTH:15.000;
#SELECTABLE:YES;
#DISPLAYBPM:143.000:224.000;
#BPMS:0.000=143.009,229.000=180.905,233.000=180.000,245.000=177.340,249.000=183.005,316.000=163.636,317.000=180.000,444.000=187.500,445.000=189.996,621.000=225.000,622.000=182.987,709.000=182.874,737.000=183.299,757.000=183.986,769.000=190.003;
#STOPS:;
#BGCHANGES:;

//---------------dance-single - ----------------
#NOTES:
     dance-single:
     :
     Beginner:
     1:
     0.165,0.250,0.045,0.006,0.000:
0000
0000
0000
0000
,
0000
0000
0000
0000
,
0000
0000
0000
0000
,
0000
0000
0000
0000
,
0000
0000
0000
0000
,
0000
0100
0000
0000
,
0000
0001
0000
0000
,
0000
1000
0000
0000
,
0000
0010
0000
0100
,
0100
0000
0001
0000
,
1000
0000
0100
0000
,
0010
0010
0010
0000
,
0100
0000
0001
0000
,
1000
1000
1000
0000
,
0010
0000
0100
0000
,
0001
0001
0001
0000
,
0100
0000
0010
0000
,
1000
1000
1000
1000
,
1000
0000
0100
0000
,
0010
0010
0010
0010
,
0010
0000
0001
0000
,
0001
0001
0001
0000
,
1000
1000
1000
0000
,
0100
0100
0100
0100
,
0000
0110
0000
0010
,
0010
0010
0000
0100
,
0100
0100
0000
1000
,
1000
1000
0000
0001
,
0001
0001
0000
0100
,
0000
0010
0010
0000
,
1000
0000
0001
0000
,
0100
0000
1000
0000
,
0100
0000
0001
0000
,
0110
0110
0000
1000
,
0000
1001
0000
0010
,
0000
0110
0000
0001
,
0000
1001
0000
0100
,
0000
0010
0010
0000
,
1000
1000
1000
0000
,
0100
0100
0100
0000
,
0001
0001
0000
1000
,
0000
0100
0000
0010
,
0000
0100
0000
0010
,
0000
1000
0000
0001
,
0000
1000
0000
0001
,
0000
0100
0100
0000
,
0001
0001
0001
0000
,
1000
1000
1000
0000
,
0010
0010
0010
0010
,
0010
0010
0000
0100
,
0000
0001
0000
0100
,
0000
1000
0000
0100
,
0000
0010
0000
1000
,
1000
1000
0000
0001
,
0001
0001
0000
0100
,
0100
0100
0000
0010
,
0000
1000
0000
0001
,
0000
0100
0000
0000
,
0000
0002
0000
0000
,
0003
0001
0000
0001
,
0000
2000
0000
0000
,
3000
1000
0000
1000
,
0000
0100
0000
0000
,
0000
0010
0000
0000
,
0000
1000
0000
1000
,
0000
0001
0000
0001
,
0000
0010
0000
0000
,
0000
0100
0000
0000
,
0000
1000
0000
1000
,
0000
0001
0000
0001
,
0000
0100
0000
0000
,
0000
0100
0000
0000
,
0000
0010
0000
0000
,
0000
0010
0000
0000
,
0000
1000
0000
0000
,
0000
0100
0000
0010
,
0000
0100
0000
0010
,
0000
0100
0000
0010
,
0000
0100
0000
0000
,
0000
1000
0000
0000
,
0000
1000
0000
0000
,
0000
0010
0000
0000
,
0000
0100
0000
0000
,
0000
0001
0000
0000
,
0000
0001
0000
0000
,
0000
0010
0000
0000
,
0000
0100
0000
0000
,
0000
1000
0000
1000
,
0000
1000
0000
0000
,
0000
0001
0000
0001
,
0000
0001
0000
0000
,
0000
0010
0000
0000
,
0000
0010
0000
0000
,
0000
0100
0000
0000
,
0000
0100
0000
0000
,
0000
1000
0000
0000
,
0000
1001
0000
0000
,
0000
0001
0000
0000
,
0000
1001
0000
0000
,
0000
0010
0000
0000
,
0000
0110
0000
0000
,
0000
0100
0000
0000
,
0000
0110
0000
0000
,
0000
1000
0000
1000
,
0000
1000
0000
1000
,
0000
1000
0000
1000
,
0000
1000
0000
0000
,
0000
0001
0000
0001
,
0000
0001
0000
0001
,
0000
0001
0000
0000
,
0000
0100
0000
0000
,
0000
0001
0000
0000
,
0000
0001
0000
0000
,
0000
1000
0000
0000
,
0000
1000
0000
0000
,
0000
0001
0000
0000
,
0000
0001
0000
0000
,
0000
0010
0000
0000
,
0000
0100
0000
0000
,
0000
1000
0000
1000
,
0000
1000
0000
0000
,
0000
0001
0000
0001
,
0000
0001
0000
0000
,
0000
0100
0000
0100
,
0000
0100
0000
0000
,
0000
0010
0000
0000
,
0000
0100
0000
0000
,
0000
0001
0000
0000
,
0000
1000
0000
0000
,
0000
0001
0000
0000
,
0000
1000
0000
0000
,
0000
0100
0000
0000
,
0000
0100
0000
0000
,
0000
0010
0000
0000
,
0000
0010
0000
0000
,
0000
0001
0000
0001
,
0000
1000
0000
1000
,
0000
0010
0000
0010
,
0000
0100
0000
0100
,
0000
0001
0000
0000
,
0000
1000
0000
0000
,
0000
0100
0000
0000
,
0000
0010
0000
0000
,
0000
0001
0000
0000
,
0000
0100
0000
0000
,
0000
0010
0000
0000
,
0000
1000
0000
0000
,
0000
0001
0000
0001
,
0000
1000
0000
1000
,
0000
0010
0000
0000
,
0000
0100
0000
0000
,
0000
0001
0000
0001
,
0000
1000
0000
1000
,
0000
0100
0000
0000
,
0000
0010
0000
0000
,
0000
1001
0000
0000
,
0000
0000
0000
0000
,
0000
0110
0000
0000
,
0000
1001
0000
0000
,
0000
0000
1000
0000
,
1000
0000
0000
0000
,
0000
0000
0000
0000
,
0100
0000
0100
0000
,
0000
0000
0000
0000
,
0000
0000
0010
0000
,
0010
0000
0000
0000
,
0000
0000
0000
0000
,
0001
0000
0001
0000
,
0000
1000
0000
0001
,
0000
0100
0000
0100
,
0000
0100
0000
0100
,
0000
0010
0000
0010
,
0000
0010
0000
0010
,
0000
1000
0000
1000
,
0000
1000
0000
1000
,
0000
0001
0000
0001
,
0000
1000
0000
1000
,
0000
0100
0000
0000
,
0000
0100
0000
0000
,
0000
0010
0000
0010
,
0000
0001
0000
1000
,
0000
0010
0000
0000
,
0000
0010
0000
0000
,
0000
0100
0000
0100
,
0000
0001
0000
1000
,
0000
0001
0000
0000
,
0000
0010
0000
0000
,
0000
0100
0000
0100
,
0000
1000
0000
1000
,
0000
0001
0000
0000
,
0000
1000
0000
0000
,
0000
0001
0000
0000
,
0000
1001
0000
0000
,
0000
0010
0000
0000
,
0000
1000
0000
0000
,
0000
1000
0000
0000
,
0000
0001
0000
0000
,
0000
0001
0000
0000
,
0000
0010
0000
0000
,
0000
0010
0000
0000
,
0000
0100
0000
0000
,
0000
0100
0000
0000
,
0000
0000
0001
0000
,
0001
0000
1000
0000
,
0000
0000
0010
0000
,
0010
0000
0100
0000
,
0000
0000
0001
0000
,
0001
0000
0010
0000
,
0000
0000
0100
0000
,
0100
0000
0010
0000
,
0010
0000
0001
0000
,
0001
0000
0100
0000
,
0000
0000
0010
0000
,
0010
0000
1000
0000
,
0000
0000
0100
0000
,
0100
0000
0010
0000
,
0000
0000
0001
0000
,
1000
0000
0001
0000
,
0000
0000
0100
0000
,
0010
0000
0100
0000
,
0000
0001
0000
0000
,
0000
1000
0000
0000
,
0000
0001
0000
0000
,
0000
0010
0000
0000
,
0100
0000
0000
0000
;

//---------------dance-single - ----------------
#NOTES:
     dance-single:
     :
     Easy:
     5:
     0.293,0.392,0.092,0.156,0.000:
0000
0000
0000
0000
,
0000
0000
0000
0000
,
0000
0000
0000
0000
,
0000
0000
0000
0000
,
0000
0000
0000
0000
,
0000
1000
0100
0010
,
0100
0001
0100
0010
,
0100
0010
1000
0001
,
1000
0001
0100
0010
,
1001
0100
0000
0010
,
0001
1000
0100
0010
,
0001
0100
0000
0010
,
1000
0001
0010
0100
,
1000
0010
0000
0100
,
0001
1000
0010
0100
,
0001
0010
0000
0100
,
1000
0001
0100
0010
,
1000
0001
1001
1000
,
0100
0010
0100
1000
,
0001
1000
1001
0001
,
0100
0010
0100
0001
,
1000
0100
0110
0010
,
0001
1000
0100
0010
,
0001
0100
0110
0010
,
1000
1001
0200
0000
,
0310
1000
1100
0010
,
0001
0100
0010
1000
,
0001
0010
0100
1000
,
0010
0100
0000
0001
,
0011
0001
0101
0010
,
1000
0100
0010
0001
,
1000
0010
0100
0001
,
0010
0110
0000
0100
,
0100
0020
0000
0000
,
0031
0002
0000
0000
,
1003
2000
0000
0000
,
3100
0200
0000
0000
,
0310
0020
0000
0100
,
0031
0002
0000
0100
,
1003
2000
0000
0001
,
3100
0200
0000
0010
,
1300
0001
0100
0000
,
0010
0000
1000
0000
,
0001
0000
0010
0000
,
0100
0000
1000
0000
,
0001
0100
0101
0000
,
0010
0100
1100
0000
,
0010
0001
1001
0000
,
1000
0010
0100
0001
,
1000
0100
0010
0000
,
0001
0010
1000
0000
,
0010
0001
0100
0000
,
1000
0100
0001
0010
,
0100
1000
0100
0010
,
0010
0001
0100
0010
,
0010
1000
0100
0001
,
0100
1000
1000
0001
,
0001
0100
0000
0000
,
0000
0001
0000
1000
,
0000
0001
0100
0010
,
0000
1000
0000
0001
,
0000
1000
0010
0100
,
0000
0100
0000
0000
,
0000
0010
0000
0000
,
0000
0100
0000
0000
,
0000
0001
0000
0000
,
0000
1000
0000
0100
,
0000
0010
0000
0100
,
0000
1000
0000
0100
,
0000
0001
0000
0100
,
0000
0010
0000
0001
,
0000
0010
0000
0100
,
0000
1000
0000
0001
,
0000
0100
0000
0010
,
0000
0001
1000
0100
,
0000
0001
1000
0001
,
1000
0001
1000
0001
,
1000
0001
1000
0001
,
1000
1001
0000
0000
,
0000
1000
0100
0010
,
0001
0010
0100
1000
,
0000
0001
0010
0100
,
1000
0100
0010
0001
,
0000
1000
0010
0100
,
0001
0100
0010
1000
,
0000
0001
0100
0010
,
1000
0010
0100
0001
,
0000
1000
0010
2000
,
0000
3001
0010
0002
,
0000
1003
0001
0200
,
0000
0301
1000
0200
,
0000
0310
0001
0200
,
0000
0310
1000
0200
,
0000
0310
0010
0020
,
0000
0230
0000
0000
,
0300
1000
0010
0001
,
0100
2002
0000
0000
,
3003
0001
0010
1000
,
0100
2002
0000
0000
,
3003
1000
0001
1000
,
0001
0220
0000
0000
,
0330
0001
1000
0001
,
1000
0220
0000
0000
,
0330
0010
1000
0001
,
1000
0010
0100
1001
,
1001
0010
0001
1000
,
0001
0010
0100
1001
,
1001
0001
0001
1000
,
1000
0001
0001
1000
,
1000
0220
0000
0000
,
0330
1000
0001
1001
,
0000
1000
0000
0100
,
0000
1000
1000
1000
,
0000
0001
0000
0010
,
0000
0001
0001
0001
,
0000
0100
0000
0010
,
0000
0100
0100
0100
,
0000
0000
0002
0000
,
0003
0000
2000
0000
,
3000
0001
0000
0100
,
0000
0001
0001
0001
,
0000
1000
0000
0010
,
0000
1000
1000
1000
,
0000
0100
0000
0010
,
0000
0100
0100
0100
,
0000
0000
2000
0000
,
3000
0000
0002
0000
,
0003
0000
0100
0000
,
0100
0000
0100
0000
,
0100
0000
0010
0000
,
0010
0000
0010
0000
,
0010
0000
1000
0000
,
1000
0000
0001
0000
,
0001
0000
0010
0000
,
0010
0000
0100
0000
,
0110
0010
0000
0001
,
0000
0100
0000
1000
,
0000
0100
0000
0001
,
0000
0010
0000
0100
,
1000
0001
0000
0100
,
0000
0010
0010
0010
,
0000
1000
0000
0100
,
0000
0010
0010
0010
,
0000
0001
0000
1000
,
0000
0100
0100
0100
,
0000
0000
0020
0000
,
0030
0000
0002
0000
,
0003
1000
0000
0010
,
0000
0100
0100
0100
,
0000
0001
0000
0010
,
0000
0100
0100
0100
,
0000
1000
0000
0001
,
0000
1000
1000
1000
,
0000
0000
0020
0000
,
0030
0000
0200
0000
,
0300
0220
0000
0000
,
0000
0330
0000
0000
,
0000
0001
0010
0100
,
1000
2002
0000
0000
,
3003
0001
1000
0200
,
0000
0000
0000
0000
,
0300
0100
0000
0010
,
0000
0002
0000
0000
,
0000
0003
0001
0000
,
1000
0000
0010
0020
,
0000
0000
0030
0100
,
0000
0001
0000
0100
,
1000
0200
0000
0000
,
0300
0100
0001
0100
,
0000
0010
0000
1000
,
0000
0001
1000
0001
,
0000
1000
0001
1000
,
0000
0100
0000
0010
,
0000
0001
1000
0001
,
0000
1000
0001
1000
,
0000
0010
1000
0100
,
0000
0010
0001
0100
,
0001
0010
0000
0100
,
0000
1000
0100
0010
,
0100
1000
0000
0001
,
0000
0100
0010
1000
,
0010
0100
0000
0010
,
0000
1000
0100
0001
,
0100
1000
0000
0010
,
0000
0100
0001
0010
,
0000
0100
1000
0010
,
0000
0001
1000
0100
,
0000
0001
1000
0100
,
0000
0010
0001
0010
,
0000
0100
1000
0100
,
0000
0010
0001
1000
,
0100
0200
0000
0000
,
0300
0020
0000
0000
,
0030
1001
0000
0000
,
0000
0100
0000
0100
,
0000
0001
0000
0001
,
0000
0010
0000
0010
,
0000
0001
0000
1000
,
0000
0010
0000
0010
,
0000
0100
0000
0100
,
0000
0001
0000
0001
,
0000
0010
0000
0100
,
0000
0000
1000
0000
,
0001
0000
0010
0000
,
0100
0000
1000
0000
,
0001
0000
0100
0000
,
0010
0000
1000
0000
,
0001
0000
0100
0000
,
0010
1000
0000
0100
,
0000
0010
0010
0010
,
0000
0100
0000
1000
,
0000
0010
0010
0010
,
0000
0100
0000
0001
,
0000
0010
0010
0010
,
0000
0000
0002
0000
,
0003
0000
2000
0000
,
3000
0000
0010
0000
,
0010
0000
0200
0000
,
0300
0000
0001
0000
,
0001
0000
2000
0000
,
3000
0100
0000
0100
,
0000
0010
0000
0010
,
0000
0001
0000
0001
,
0000
1000
0000
0001
,
1001
0000
0000
0000
;

//---------------dance-single - ----------------
#NOTES:
     dance-single:
     :
     Medium:
     7:
     0.464,0.642,0.369,0.178,0.000:
0000
0000
0000
0000
,
0000
0000
0000
0000
,
0000
0000
0000
0000
,
0000
0000
0000
0000
,
0000
0000
0000
0000
,
0000
0000
1000
0001
1000
0000
0001
0100
,
0001
0000
1000
0010
1000
0000
0001
1000
,
0001
0000
0100
0010
0100
0010
1000
0001
,
1000
0001
1000
0000
0100
0000
0010
0000
,
0001
0000
1000
0100
0001
0000
0100
0000
,
1000
0010
0100
0010
,
0001
0010
1000
0100
,
0010
0001
0100
0010
,
1000
0000
0100
0010
1000
0000
0010
0000
,
0001
0100
0010
1000
,
0100
0010
0001
0100
,
0010
0000
1000
0100
1000
0001
0100
0000
,
0110
0000
0001
0100
1000
0000
0100
0000
,
0001
0010
0100
0010
,
1000
0010
0001
0100
,
0010
1000
0100
0010
,
0001
0000
0100
0010
0001
0000
0010
0000
,
1000
0000
0100
0010
0001
0000
0100
0000
,
0010
0000
1000
0100
0010
0000
0001
0100
,
0010
1000
1001
0000
0010
0000
0100
0000
,
1000
0000
0010
0100
0001
0000
0010
0100
,
1000
0100
0010
0001
,
0100
0000
0010
1000
0100
0000
0010
0001
,
0100
0000
0010
0000
0100
0000
0001
1000
,
0001
0010
1010
0010
,
0011
0100
1100
0100
,
0101
0000
0010
0000
1000
0001
0010
0000
,
0100
1001
0100
0010
,
0100
2000
0000
0100
,
3001
0002
0000
1000
,
0103
0200
0000
0001
,
0310
0020
0000
0100
,
1030
0000
0001
0100
0001
0000
1000
0000
,
1010
0000
1000
0100
1000
0000
0001
0000
,
0011
0000
0100
0010
0100
0000
1000
0000
,
1001
0000
0100
0010
0100
0000
0001
0000
,
1001
0020
0000
0100
,
0100
0100
0130
0010
,
0001
1000
0100
0000
0010
0100
0001
0000
,
0100
0010
1000
0000
0010
0100
0001
0100
,
0010
1000
0010
0000
0011
0000
0000
0000
,
1000
0100
1100
0000
,
0001
0100
1001
0000
,
0010
0001
0100
0010
,
1000
0000
0100
0010
0001
0000
0100
0000
,
0010
0000
0100
0010
1000
0000
0100
0000
,
0010
0000
0001
0100
0001
1000
0100
0000
,
0100
0000
1000
0010
1000
0001
0010
0100
,
0010
0000
0001
0100
0010
0100
0001
0000
,
1001
0000
1000
0100
0010
0100
1000
0000
,
1001
0000
0100
0000
0001
0001
0000
1000
,
0000
1000
0000
0100
0010
0100
1000
0001
,
1000
0100
0000
0000
,
0000
0000
0001
1000
0000
0001
0000
0010
,
0000
0100
0000
0010
0000
0110
0000
0000
,
0000
0000
1000
0010
0000
1000
0000
0001
,
0000
1000
0000
0010
0000
0110
0000
0000
,
0000
1000
1000
0001
,
0001
0000
0100
0000
0010
0100
0000
0000
,
0000
0001
0001
1000
,
1000
0000
0100
0000
0010
0100
0000
0000
,
0000
0010
0001
0010
,
0001
0000
1000
0000
0100
0010
0000
0000
,
0001
0100
0001
0100
,
0001
0000
0010
0000
0100
0000
1000
0001
,
1000
0001
1000
0010
,
0100
0000
0001
0000
0100
0001
0000
0000
,
0010
1000
0100
0010
,
0001
0000
1000
0000
0010
0100
0000
0000
,
1000
0001
0010
0100
,
1000
0011
1100
0011
,
1100
1010
0101
1010
,
0101
0011
1100
0011
,
1100
2002
0000
3003
,
0000
0000
0100
0100
0002
0000
0000
1003
,
0000
0000
0100
0100
2000
0000
0000
3001
,
0000
0000
0010
0010
0002
0000
0000
1003
,
0000
0000
0010
0010
2000
0000
0000
3001
,
0000
0000
0010
0100
2000
0000
0000
3001
,
0000
0000
1000
0001
2000
0000
0000
3100
,
0000
0000
0010
0100
2000
0000
0000
3001
,
0000
0000
1000
0001
2000
0000
0000
3100
,
0000
0000
1000
0000
0000
1001
0000
0000
,
0000
0000
0001
0000
0000
1001
0000
0000
,
0000
0000
0010
0000
0000
1100
0000
0000
,
0000
0000
0010
0000
0000
0101
0000
0000
,
0000
0000
1001
0000
0000
1010
0000
0000
,
0000
0000
1001
0000
0000
0011
0000
0000
,
0000
0000
1001
0000
0000
0110
0000
0000
,
0000
0200
0300
2002
,
3003
0000
1000
0000
1100
0000
0010
0001
,
0100
0002
0000
0000
1000
0000
0000
1003
,
0000
0000
0001
0000
0101
0000
0010
1000
,
0000
2001
0000
0000
0001
0000
0000
3001
,
0000
0000
1000
0000
1010
0000
0100
0001
,
0010
0002
0000
0000
0100
0000
0000
0103
,
0000
0000
0001
0000
0011
0000
0100
1000
,
0000
2001
0000
0000
0100
0000
0000
3100
,
0000
0000
1001
0000
0000
0110
0000
0000
,
1001
0000
0000
0110
0000
0000
1100
0000
,
0101
0000
1001
0000
0000
0110
0000
0000
,
1001
0000
0000
0110
0000
0000
1010
0000
,
0011
0000
1000
1000
0000
0001
0001
0000
,
0010
0010
0000
0100
0100
0000
1000
0000
,
0001
2002
0000
0000
,
3003
0200
0300
2002
,
3003
1000
0010
0100
,
0001
1000
1100
0101
,
0000
0001
0010
0100
,
1000
0001
0101
1100
,
0000
0010
0001
0010
,
0100
1000
1010
0101
,
0000
0000
0000
0100
0001
0100
0002
0000
,
0003
0000
0000
1000
0100
1000
0200
0000
,
0300
0001
0100
0010
,
1000
0001
0011
1010
,
0000
1000
0100
0010
,
0001
1000
1010
0011
,
0000
0100
1000
0100
,
0010
0001
0101
1010
,
0000
0000
0000
0010
1000
0010
2000
0000
,
3000
0000
0000
0001
0010
0001
0020
0000
,
0030
0100
1000
0100
,
1000
0001
0100
0010
,
1000
0100
1000
0100
,
1000
0001
0100
0010
,
1000
0100
1100
0001
,
0101
0010
1000
0010
,
1000
0001
0011
1000
,
1010
0100
0001
1000
,
1001
0001
0001
0010
,
0010
0100
1000
0001
,
0100
0010
0010
1000
,
1000
0001
0100
0010
,
1001
1000
0010
0100
,
0001
1000
1100
0101
,
0000
0001
0010
0100
,
1000
0001
0101
1100
,
0000
0010
0001
0010
,
0100
1000
1010
0101
,
0000
0000
0000
0100
0001
0100
0002
0000
,
0003
0000
0000
1000
0100
1000
0200
0000
,
0300
0001
0100
0010
,
1000
0001
0011
1010
,
0000
1000
0100
0010
,
0001
1000
1010
0011
,
0000
0100
1000
0100
,
0010
0001
0101
1010
,
0000
0000
0000
0010
1000
0010
2000
0000
,
3000
0000
0000
0001
0010
0001
0020
0000
,
0030
2200
0000
0000
,
0000
0000
0000
0000
,
3300
0000
0001
1000
0001
1000
0001
1000
,
0001
0220
0000
0000
,
0330
0000
0000
0000
1010
0000
0000
0101
,
0000
0020
0000
0000
,
0030
1000
0001
0010
,
0011
0000
0000
2200
0000
0000
0000
0000
,
3300
0010
1000
0100
,
0010
0000
0001
0000
0101
0000
0000
2020
,
0000
0000
0000
3030
,
0100
0001
0010
0100
,
1100
0000
0000
0022
0000
0000
0000
0000
,
0033
0001
1000
0001
,
1000
0010
0100
0010
,
0100
0001
0001
1000
,
1000
0000
0001
1000
0001
0000
0010
0000
,
0100
0000
0010
0100
0010
0000
1000
0000
,
0001
0000
1000
0001
1000
0000
0100
0000
,
0010
0000
0001
0100
0001
0100
0000
0000
,
0010
1000
0100
0010
,
0001
0000
1000
0001
0100
0002
0000
0000
,
0000
1003
0010
0100
,
0001
0000
0010
0001
1000
0002
0000
0000
,
0000
0013
1000
0100
,
0010
0000
0100
0001
0100
2000
0000
0000
,
0000
3010
0100
0001
,
0010
0000
0100
1000
0100
0002
0000
0000
,
0000
0103
0010
0001
,
1000
0010
0100
0010
,
0001
0000
0100
0000
0010
0100
0000
0100
,
0010
0001
1000
0001
,
0100
0000
1000
0000
0010
1000
0000
1000
,
0010
0100
0001
0010
,
0100
0000
1000
0000
0001
0010
0000
0010
,
0001
0100
0010
1000
,
0100
0000
0010
0000
0001
1000
0000
1000
,
0001
0220
0000
0000
,
0330
2002
0000
0000
,
3003
0010
0001
0100
,
1000
0100
0001
1000
,
0010
0001
0010
0100
,
0001
1000
1100
0001
,
0101
0100
1000
0010
,
0001
0010
1000
0001
,
0100
1000
0100
0010
,
1000
0001
0011
1000
,
1010
0100
0001
0010
,
1000
0001
0100
1000
,
0010
0100
0001
0010
,
0100
1000
0100
0010
,
0001
1000
0010
0100
,
0001
1000
0010
0100
,
0110
1000
0010
0100
,
0001
1000
1100
0101
,
0000
0001
0010
0100
,
1000
0001
0101
1100
,
0000
0010
0001
0010
,
0100
1000
1010
0101
,
0000
0000
0000
0100
0001
0100
0002
0000
,
0003
0000
0000
1000
0100
1000
0200
0000
,
0300
0010
0001
0100
,
1000
0100
0001
1000
,
0010
0001
0010
0100
,
0001
1000
1000
0001
,
0001
0100
0100
0010
,
0010
1000
0100
0010
,
0001
0010
1000
0001
,
0100
1000
0010
0100
,
0110
0000
0000
0000
;

//---------------dance-single - ----------------
#NOTES:
     dance-single:
     :
     Hard:
     9:
     0.696,0.713,0.427,0.156,0.127:
0000
0000
0000
0000
,
0000
0000
0000
0000
,
0000
0000
0000
0000
,
0000
0000
0000
0000
,
0000
0000
0000
0000
,
0000
0000
1000
0010
1000
0000
0001
1000
,
0001
0000
1000
0001
1000
0000
0001
0100
,
0001
0000
1000
0100
0001
0000
0001
0100
,
1000
0000
0000
0000
0010
0000
0100
0000
0001
0000
0000
0000
0001
0000
0000
1000
,
0000
1000
0010
0100
0001
0010
1000
0010
,
0001
0000
0100
0010
1000
0100
0001
0100
,
1000
0000
0001
0100
0010
0100
0001
1000
,
0100
0000
1000
0010
0100
0010
1000
0001
,
0010
0000
0100
0010
0100
0001
1000
0010
,
0100
0000
0010
0100
0010
1000
0001
0100
,
0010
0000
0001
0100
1000
0100
0010
1000
,
0010
0001
1000
0100
0010
1000
0100
0010
,
1001
0000
0000
0000
0001
0000
0100
0000
0001
1000
0000
0100
0000
0000
0010
0000
,
0000
0001
0000
0000
1000
0000
0100
0000
1000
0001
0000
0100
0000
0000
0010
0000
,
0000
1000
0000
0000
0010
0000
0100
0000
0010
1000
0000
0001
0000
0000
0100
0000
,
0000
0010
0000
0000
0100
0000
0010
0000
0100
0001
0000
1000
0000
0000
0100
0000
,
0000
0010
0000
0000
0100
0000
1000
0000
0100
0010
0000
0001
0100
0000
0001
0000
,
0100
0010
0000
1000
0001
0000
0100
0000
0001
0010
0000
0100
0001
0000
0100
0000
,
0000
0010
0100
0000
1000
0000
0100
0000
1000
0010
0000
0100
1000
0000
0100
0000
,
0010
0100
1001
0000
0100
0000
1000
0000
,
0001
0000
0100
1000
0100
0001
0010
0001
,
0100
0010
1000
0100
0001
0100
1000
0010
,
1010
0000
0100
0001
0100
1000
0010
1000
,
0100
0010
0001
0100
1000
0100
0001
0010
,
0011
0000
1000
0100
1000
0010
0000
0100
,
0001
1000
0001
0100
0001
0010
0000
0100
,
1000
0001
0100
0000
0010
1000
0000
0001
,
0010
0000
0100
0000
0010
0000
1000
0000
0010
0100
0000
0100
0010
0000
0001
0000
,
0010
0100
0000
0100
2000
0000
0000
0001
0000
0000
0010
0000
0000
0001
0000
0000
,
3010
0000
0100
0000
0002
0000
0000
1000
0000
0000
0010
0000
0000
1000
0000
0000
,
0013
0000
0100
0000
0020
0000
0000
1000
0000
0000
0100
0000
0000
0001
0000
0000
,
0130
0000
1000
0000
0001
0000
0000
0001
0000
0000
0001
0000
1000
0000
0000
1000
,
0000
0000
1000
0000
0100
0000
0010
0000
0100
1000
0000
0001
0000
0000
0100
0000
,
0010
0000
1000
0000
0010
0000
0100
0000
0010
1000
0000
0001
0000
0000
0010
0000
,
0100
0000
1000
0000
0100
0000
0010
0000
0100
0001
0000
1000
0000
0000
0010
0000
,
0100
0000
0010
0000
0001
0000
0000
0100
0000
0000
0101
0000
0010
0000
0000
1000
,
0000
1010
0200
0000
0010
0000
1000
0000
,
0010
0000
0000
0000
0001
0000
0000
0000
0310
0000
0001
1000
0001
0000
0000
0100
,
0000
0000
0100
0000
0010
0000
0000
0000
1000
0000
0001
0000
0100
0000
0000
1000
,
0000
0000
0100
0000
0010
0000
0000
0001
0000
0000
0010
0000
1000
0000
0000
0100
,
0000
0010
0210
0000
0001
0000
0000
0000
,
1300
0120
0001
0000
,
1030
0110
1001
0000
,
0100
0000
1010
0000
1001
0000
0001
0100
,
0010
1000
0001
0000
0100
0000
1000
0000
0100
0000
0001
0000
0010
0000
0001
0000
,
1100
0000
0100
0001
0100
1000
0010
1000
,
0101
0000
0010
0100
1000
0100
0001
0010
,
1000
0010
0100
1000
0100
0001
0100
0010
,
0110
0000
0000
0000
1000
0000
0100
0000
0010
0100
0000
0000
1000
0000
0100
0000
,
0010
0000
0001
0000
0001
0000
0100
0000
0010
0100
0000
0000
0001
0000
0100
0000
,
0010
0000
1000
0000
0100
0010
0100
0000
1000
0000
0001
0000
0100
0010
0100
0000
,
0001
0000
1000
0000
0100
0000
0010
0000
0100
1000
0000
0010
0100
0000
0010
0000
,
0100
0001
0000
0010
0200
0000
0000
0000
0000
0000
0000
0000
0300
0000
0000
0000
,
0000
0000
1000
0010
0000
0101
0000
0010
,
0000
1001
0000
1001
0000
1001
0000
0000
,
0000
0000
0001
0010
0000
1100
0000
0010
,
0000
1001
0000
0101
0000
1100
0000
0000
,
0000
0000
0100
1000
0010
1000
0100
0010
,
1000
0000
0010
0001
0100
0010
0000
0010
,
0100
0001
1000
0010
0100
0001
0010
0001
,
0100
0000
0010
0100
0001
0000
0010
0100
,
2000
0000
3001
1000
0010
1000
0100
0010
,
1000
0000
0010
0001
1000
0010
0000
0010
,
1000
0100
0010
0001
1000
0001
0100
1000
,
0010
0001
0100
1000
0100
0001
1000
0000
,
1001
0000
0010
0100
0001
1000
0100
0010
,
0001
0000
1100
0000
0010
0100
1000
0001
,
1000
0000
0101
0000
0010
0100
0001
1000
,
0001
0000
1100
0000
0010
0100
1000
0001
,
0100
0000
0100
0010
1000
0001
0010
0100
,
1000
0000
0001
0100
1000
0100
0001
0010
,
1000
0010
0001
0100
1000
0100
0001
0010
,
1000
0010
0001
0100
1000
0100
0001
0010
,
1000
0010
0002
0000
0000
0000
1003
0000
,
1001
0000
0100
1000
0001
0000
1000
0001
,
0000
0010
0100
1000
0100
0000
0010
0001
,
0000
1000
0001
1000
0010
0000
0100
0001
,
0000
1000
0100
1000
0010
0000
1000
0001
,
0000
1000
0001
1000
0010
0000
0100
0010
,
0000
1000
0001
0100
0010
0000
0100
0001
,
0000
0010
0001
0010
0100
0000
1000
0010
,
0000
0100
0001
0100
0010
0000
1000
0001
,
1000
0001
1001
0000
0000
1001
0000
0001
,
0010
0100
1100
0000
0000
0101
0000
1000
,
0010
0100
0101
0000
0000
1100
0000
0001
,
0100
0010
1010
0000
0000
0011
0000
1000
,
0100
0010
0011
0000
0000
1010
0000
0010
,
1000
0100
0110
0000
0000
0110
0000
0010
,
0001
0100
0110
0000
0000
0110
0000
0010
,
1000
0000
0001
0000
2002
0000
0000
0000
0000
0000
3003
0000
0001
1000
0001
1000
,
0001
0100
0010
1000
0010
0100
0001
0010
,
0100
2000
0000
0000
3001
0000
1001
1001
,
0000
0000
0001
0010
0001
1000
0010
0100
,
0001
0020
0000
0000
0130
0000
0110
0110
,
0000
0000
0010
0001
0100
0010
1000
0100
,
0010
0002
0000
0000
0103
0000
0101
1001
,
0000
0000
0010
1000
0100
0010
0001
0100
,
0010
2000
0000
0000
3100
0000
1100
1001
,
0000
0000
1001
0000
1000
1100
0000
0001
,
0101
0000
0010
1001
0000
0000
1010
0000
,
0011
0000
1001
0000
1000
1100
0000
0001
,
0101
0000
0010
1001
0000
0000
0110
0000
,
1001
0000
1100
1100
0000
0101
0101
0000
,
1001
1001
0000
1001
1001
0000
0110
0000
,
1001
0110
1001
1100
,
0101
0000
0000
0000
0001
0000
0010
0000
0100
0000
1000
0000
0001
0100
0001
0100
,
0001
1000
0010
1000
0000
0001
0100
0010
,
0100
0001
1000
0100
1000
0100
0020
0000
,
0030
0000
0001
0010
0000
0100
1000
0100
,
0010
0001
0100
0100
0010
1000
0020
0000
,
1030
0000
0001
0100
0000
0010
0100
0001
,
0010
0001
1000
0100
1000
0001
0100
0001
,
1000
0000
0010
0000
0000
0000
0100
0001
0100
0000
0010
0000
2000
0000
0000
0000
,
0000
0000
0000
0000
3000
0000
0100
1000
0100
0000
0010
0000
0002
0000
0000
0000
,
0000
0003
0100
0001
0000
1000
0010
0100
,
0010
1000
0001
0010
0001
0010
0200
0000
,
0300
0000
1000
0100
0000
0010
0001
0010
,
0100
1000
0010
0010
0100
0001
0200
0000
,
0301
0000
1000
0010
0000
0100
0010
1000
,
0100
1000
0001
0010
0001
1000
0010
1000
,
0001
0000
0100
0000
0000
0000
0010
1000
0010
0000
0100
0000
0002
0000
0000
0000
,
0000
0000
0000
0000
0003
0000
0010
0001
0010
0000
0100
0000
2000
0000
0000
0000
,
0000
0000
3001
0001
0001
1000
0010
0010
,
0010
0100
0001
0001
1000
1000
0010
0010
,
0100
0100
0001
0001
0001
0010
0100
0100
,
0100
1000
0001
0001
0010
0010
0100
0100
,
1000
1000
0001
1000
0000
0010
0100
0001
,
0001
0000
0100
0010
0000
0100
0001
0010
,
0100
1000
0000
0010
0000
0100
0010
1000
,
0100
0000
0010
0100
1000
0001
1100
0000
,
0101
0000
0010
1000
0100
0010
1000
0010
,
0100
1000
0010
0100
1000
0100
0010
1000
,
0010
0000
0001
0010
0100
0001
0100
0010
,
0001
0100
0010
0001
0010
0100
0011
0000
,
1010
0000
0010
1000
0000
0001
0100
0010
,
0100
0001
1000
0100
1000
0100
0020
0000
,
0030
0000
0001
0010
0000
0100
1000
0100
,
0010
0001
0100
0100
0010
1000
0020
0000
,
1030
0000
0001
0100
0000
0010
0100
0001
,
0010
0001
1000
0100
1000
0001
0100
0001
,
1000
0000
0010
0000
0000
0000
0100
0001
0100
0000
0010
0000
2000
0000
0000
0000
,
0000
0000
0000
0000
3000
0000
0100
1000
0100
0000
0010
0000
0002
0000
0000
0000
,
0000
0003
0100
0001
0000
1000
0010
0100
,
0010
1000
0001
0010
0001
0010
0200
0000
,
0300
0000
1000
0100
0000
0010
0001
0010
,
0100
1000
0010
0010
0100
0001
0200
0000
,
0301
0000
1000
0010
0000
0100
0010
1000
,
0100
1000
0001
0010
0001
1000
0010
1000
,
0001
0000
0100
0000
0000
0000
0010
1000
0010
0000
0100
0000
0002
0000
0000
0000
,
0000
0000
0000
0000
0003
0000
0010
0001
0010
0000
0100
0000
2000
0000
0000
0000
,
3000
2002
0000
0000
,
0000
0000
0000
0000
,
3003
0000
0001
0010
0001
0010
0100
1000
,
0100
1000
2002
0000
0000
0000
0000
0000
,
3003
0000
0001
0010
1001
0100
0010
2002
,
0000
0000
0000
0000
3003
0000
0000
0000
0000
0100
0000
0000
0000
0000
0000
0000
0000
0000
0000
0000
0000
0000
0000
0000
0001
0000
0010
0000
0001
0000
0010
0000
,
0001
0000
1000
0000
0200
0000
0000
0000
0000
0301
0000
0000
0100
0000
0010
0000
,
1001
0100
0010
2002
0000
0000
0000
0000
,
3003
0000
0000
0000
1000
0100
1000
0100
1000
0000
0010
0000
0200
0000
0000
0000
,
0000
0301
0000
0000
1000
0000
0010
0000
0110
0000
0001
0000
1000
0000
0210
0000
,
0000
0000
0000
0000
0000
0000
0000
0000
0300
0000
0000
0000
0001
0100
0001
0100
,
0001
0000
0010
0000
0100
0000
0000
0000
0000
0100
0000
0000
1000
0000
0001
0000
,
0110
1000
0001
0120
0000
0000
0030
2000
,
0000
0000
3001
0000
0010
1000
0010
0001
,
0100
1000
0100
0000
0001
1000
0000
1000
,
0001
0000
1000
0010
1000
0100
0010
0000
,
1000
0010
0001
0000
0100
0001
0000
0001
,
0100
0000
0010
1000
0100
1000
0001
0000
,
0010
0001
0100
0000
0010
1000
0000
1000
,
0010
0000
0100
0001
1000
0000
0100
0010
,
0100
1000
0010
0000
0100
0010
1000
0010
,
1000
0010
0100
0000
0011
0000
0001
0010
,
0001
0010
0100
0000
1100
0000
0100
1000
,
0100
1000
0001
0000
0101
0000
0100
0010
,
0100
0010
1000
0000
1010
0010
0100
0010
,
0100
0010
0100
0001
0010
0000
0100
1000
,
0100
1000
0001
0100
0010
0100
0000
0010
,
1000
0000
0001
1000
0001
1000
0010
1000
,
0100
0010
0001
0100
0001
0010
0000
0100
,
0010
0100
1000
0000
1001
0000
0100
1000
,
0010
0100
0001
0010
0001
0100
0000
0010
,
0100
0010
1000
0000
1001
0000
0010
0001
,
0100
0010
1000
0100
0010
0100
0000
0001
,
0010
0100
1000
0000
0011
0000
0100
1000
,
0010
0100
0001
0010
0100
0010
0000
1000
,
0010
0100
0001
0000
1100
0000
0010
0001
,
0100
0001
0010
0100
1000
0010
1000
0100
,
0001
0010
2002
0000
0000
0000
0000
0000
,
0000
0000
0000
0000
,
3003
0011
0110
0011
,
0110
0000
0001
0010
0100
0010
0001
0010
,
0100
0110
1100
0110
,
1100
0000
0010
0100
1000
0100
0010
0100
,
1000
0011
0101
0011
,
0101
0000
0010
0001
0100
0001
0010
0001
,
0100
1010
1100
1010
,
1100
0000
0010
1000
0100
1000
0010
1000
,
0100
0000
0010
0001
0010
0100
1000
0010
,
1000
0001
0100
0001
0010
0100
1000
0100
,
0010
0011
1100
0011
,
1100
1010
0101
1010
,
0101
0000
0010
1000
0010
0100
0001
0010
,
0001
1000
0100
1000
0010
0100
0001
0100
,
0010
1010
0101
1010
,
0101
0011
1100
0011
,
1100
0000
1000
0100
0000
0010
0001
0010
,
0100
1000
0010
0010
0100
0001
0200
0000
,
0310
0000
1000
0001
0000
0100
0010
1000
,
0001
1000
0100
0010
0001
1000
0100
1000
,
0001
0000
0100
0000
0000
0000
0010
0100
0010
0000
1000
0000
0002
0000
0000
0000
,
0000
0000
0000
0000
0003
0000
0010
0100
0010
0000
0001
0000
2000
0000
0000
0000
,
0000
0000
3001
0001
0001
0000
1000
1000
,
1000
0000
0001
0001
1000
1000
0010
0010
,
0100
0000
0001
0001
0001
0000
0010
0010
,
0010
0000
0100
0100
1000
1000
0010
0010
,
0100
0000
0001
0001
0100
0010
1000
1000
,
0100
0000
0010
0010
0001
0100
0001
0001
,
1000
0000
0010
0010
1000
0001
0100
0100
,
0010
0000
1000
1000
0001
0010
1100
0000
,
0101
0000
0000
0000
;

//---------------dance-double - ----------------
#NOTES:
     dance-double:
     :
     Easy:
     5:
     0.286,0.428,0.096,0.159,0.000: // measure 1
00000000
00000000
00000000
00000000
,  // measure 2
00000000
00000000
00000000
00000000
,  // measure 3
00000000
00000000
00000000
00000000
,  // measure 4
00000000
00000000
00000000
00000000
,  // measure 5
00000000
00000000
00000000
00000000
,  // measure 6
00000000
00000010
00000001
00001000
,  // measure 7
00000100
00010000
00001000
00100000
,  // measure 8
00010000
10000000
01000000
00100000
,  // measure 9
00010000
00011000
00000100
00000010
,  // measure 10
00000001
00000100
00000010
00000000
,  // measure 11
00001000
00000100
00010000
00000000
,  // measure 12
00001000
00010000
01000000
00000000
,  // measure 13
00100000
01000000
10000000
00000000
,  // measure 14
00010000
01000000
00100000
00000000
,  // measure 15
10000000
01000000
00100000
00000000
,  // measure 16
00010000
01000000
00001000
00000000
,  // measure 17
00010000
00001000
00000010
00000100
,  // measure 18
00001000
00000010
00000100
00000000
,  // measure 19
00001000
00000010
00010000
00000000
,  // measure 20
00001000
00010000
00100000
00000000
,  // measure 21
01000000
00100000
10000000
00000000
,  // measure 22
00010000
00100000
01000000
00000000
,  // measure 23
10000000
00100000
01000000
00000000
,  // measure 24
00010000
00100000
00001000
00000000
,  // measure 25
00010000
00011000
00000200
00000000
,  // measure 26
00000310
00001000
00001100
00000001
,  // measure 27
00000100
00000010
00010000
00001000
,  // measure 28
00100000
01000000
11000000
00010000
,  // measure 29
00100000
00001000
00010000
00000100
,  // measure 30
00000010
00000001
00000101
00001000
,  // measure 31
00001010
00000100
00010100
00001000
,  // measure 32
00110000
01000000
10000000
00100000
,  // measure 33
00010000
00001000
00011000
00010000
,  // measure 34
00011000
00000020
00000000
00000000
,  // measure 35
00010030
00002000
00000000
00000000
,  // measure 36
01003000
00020000
00000000
00000000
,  // measure 37
00130000
02000000
00000000
00000000
,  // measure 38
13000000
00010000
10010000
00000000
,  // measure 39
01010000
00001000
00011000
00000000
,  // measure 40
00010100
00000010
00000110
00000000
,  // measure 41
00000011
00001000
00001000
00000001
,  // measure 42
00001001
00000200
00000000
00000001
,  // measure 43
00000010
00000001
00000301
00000100
,  // measure 44
00001000
00020000
00031000
00002000
,  // measure 45
01003000
00200000
10300000
20000000
,  // measure 46
30010000
01000000
01010000
00000000
,  // measure 47
01000000
00001000
00011000
00000000
,  // measure 48
00010000
00000100
00001100
00000000
,  // measure 49
00001000
00000001
00000100
00001000
,  // measure 50
00010000
00100000
10000000
00000000
,  // measure 51
00010000
10000000
01000000
00000000
,  // measure 52
00010000
00001000
00010000
00000000
,  // measure 53
00000100
00000010
00000001
00000000
,  // measure 54
00000100
00001000
00010000
01000000
,  // measure 55
00100000
00001000
00010000
00000100
,  // measure 56
00000010
00000001
00000100
00001000
,  // measure 57
00010000
01000000
10000000
00100000
,  // measure 58
10000000
01000000
00000000
00000000
,  // measure 59
00000000
00010000
00000000
10000000
,  // measure 60
00000000
00010000
01000000
00100000
,  // measure 61
00000000
00001000
00000000
00000001
,  // measure 62
00000000
00001000
00000010
00000100
,  // measure 63
00000000
00000001
00000000
00000000
,  // measure 64
00000000
00000100
00000000
00000000
,  // measure 65
00000000
00001000
00000000
00000000
,  // measure 66
00000000
00010000
00000000
00000000
,  // measure 67
00000000
01000000
00000000
01000000
,  // measure 68
00000000
10000000
00000000
10000000
,  // measure 69
00000000
00100000
00000000
00100000
,  // measure 70
00000000
01000000
00000000
00100000
,  // measure 71
00000000
10000000
00000000
10000000
,  // measure 72
00000000
01000000
00000000
01000000
,  // measure 73
00000000
00010000
00000000
00010000
,  // measure 74
00000000
00001000
00000000
00001000
,  // measure 75
00000000
00000100
00000001
00000100
,  // measure 76
00000000
00000010
00001000
00000010
,  // measure 77
00001000
00000010
00001000
00000010
,  // measure 78
00001000
00000010
00001000
00000010
,  // measure 79
00001000
00000100
00000000
00000000
,  // measure 80
00000000
00000001
00000000
00000100
,  // measure 81
00000000
00001000
00010000
00100000
,  // measure 82
00000000
10000000
00000000
01000000
,  // measure 83
00000000
00010000
00001000
00000010
,  // measure 84
00000000
00000001
00000000
00000100
,  // measure 85
00000000
00001000
00010000
00100000
,  // measure 86
00000000
10000000
00000000
01000000
,  // measure 87
00000000
00010000
00001000
00000010
,  // measure 88
00000000
00000002
00000000
00000103
,  // measure 89
00000000
00002000
00000000
00013000
,  // measure 90
00000000
00200000
00000000
10300000
,  // measure 91
00000000
02000000
00000000
03010000
,  // measure 92
00000000
00002000
00000000
00003010
,  // measure 93
00000000
00000002
00000000
00000103
,  // measure 94
00000000
00002000
00000000
00013000
,  // measure 95
00000000
02000000
00000000
00000000
,  // measure 96
03000000
10000000
00100000
10000000
,  // measure 97
00100000
02000000
00000000
00000000
,  // measure 98
03000000
00010000
00100000
00010000
,  // measure 99
00100000
00002000
00000000
00000000
,  // measure 100
00003000
00010000
00000010
00010000
,  // measure 101
00000010
00002000
00000000
00000000
,  // measure 102
00003000
00000001
00000010
00000001
,  // measure 103
00000010
00000200
00000000
00000000
,  // measure 104
00000300
00001000
00000001
00001000
,  // measure 105
00000001
00000100
00000100
00001001
,  // measure 106
00001001
00000100
00010000
00001000
,  // measure 107
01000000
00100000
00100000
10010000
,  // measure 108
10010000
20000000
00000000
30020000
,  // measure 109
00000000
20030000
00000000
30010000
,  // measure 110
10000000
20020000
00000000
00000000
,  // measure 111
30030000
10000000
00010000
20020000
,  // measure 112
30030000
10000000
00000000
01000000
,  // measure 113
00000000
10000000
10000000
10000000
,  // measure 114
00000000
00010000
00000000
00100000
,  // measure 115
00000000
00010000
00010000
00010000
,  // measure 116
00000000
00001000
00000000
00010000
,  // measure 117
00000000
00001000
00001000
00001000
,  // measure 118
00000000
00000000
00000200
00000000
,  // measure 119
00000300
00000000
00000020
00000000
,  // measure 120
00000030
00001000
00000000
00000100
,  // measure 121
00000000
00001000
00001000
00001000
,  // measure 122
00000000
00000001
00000000
00000010
,  // measure 123
00000000
00000001
00000001
00000001
,  // measure 124
00000000
00000100
00000000
00001000
,  // measure 125
00000000
00010000
00010000
00010000
,  // measure 126
00000000
00000000
00002000
00000000
,  // measure 127
00003000
00000000
00020000
00000000
,  // measure 128
00030000
00000000
01000000
00000000
,  // measure 129
01000000
00000000
01000000
00000000
,  // measure 130
01000000
00000000
00100000
00000000
,  // measure 131
00100000
00000000
00100000
00000000
,  // measure 132
00100000
00000000
00001000
00000000
,  // measure 133
00001000
00000000
00010000
00000000
,  // measure 134
00010000
00000000
00000100
00000000
,  // measure 135
00000100
00000000
00001000
00000000
,  // measure 136
00001001
00000001
00000000
00000100
,  // measure 137
00000000
00000001
00000000
00000010
,  // measure 138
00000000
00001000
00000000
00010000
,  // measure 139
00000000
01000000
00000000
10000000
,  // measure 140
00010000
10000000
00000000
00100000
,  // measure 141
00000000
10000000
10000000
10000000
,  // measure 142
00000000
00010000
00000000
01000000
,  // measure 143
00000000
00010000
00010000
00010000
,  // measure 144
00000000
00001000
00000000
00010000
,  // measure 145
00000000
00001000
00001000
00001000
,  // measure 146
00000000
00000000
00000020
00000000
,  // measure 147
00000030
00000000
00000200
00000000
,  // measure 148
00000300
00001000
00000000
00000010
,  // measure 149
00000000
00001000
00001000
00001000
,  // measure 150
00000000
00000001
00000000
00000100
,  // measure 151
00000000
00000001
00000001
00000001
,  // measure 152
00000000
00000010
00000000
00001000
,  // measure 153
00000000
00010000
00010000
00010000
,  // measure 154
00000000
00000000
00002000
00000000
,  // measure 155
00003000
00000000
00020000
00000000
,  // measure 156
00030000
00011000
00000000
00000000
,  // measure 157
00000000
00002000
00000000
00000000
,  // measure 158
00003000
00000100
00000001
00000100
,  // measure 159
00000001
00000200
00000300
00000020
,  // measure 160
00000030
00001000
00000001
00000200
,  // measure 161
00000000
00000000
00000000
00000300
,  // measure 162
00000000
00001000
00000000
00010000
,  // measure 163
00000000
00002000
00000000
00000000
,  // measure 164
00003000
00000000
00010000
00000000
,  // measure 165
01000000
00000000
10000000
20000000
,  // measure 166
00000000
00000000
30000000
00100000
,  // measure 167
00000000
01000000
00000000
00010000
,  // measure 168
10000000
02000000
00000000
00000000
,  // measure 169
03000000
01000000
00010000
00001000
,  // measure 170
00000000
00000100
00000000
00000001
,  // measure 171
00000000
00000010
00000001
00001000
,  // measure 172
00000000
00000010
00000001
00001000
,  // measure 173
00000000
00000100
00000000
00010000
,  // measure 174
00000000
00001000
00010000
00001000
,  // measure 175
00000000
00010000
00001000
00010000
,  // measure 176
00000000
01000000
10000000
00100000
,  // measure 177
00000000
10000000
00010000
10000000
,  // measure 178
00010000
10000000
00000000
01000000
,  // measure 179
00000000
00010000
00001000
00010000
,  // measure 180
00001000
00010000
00000000
00000100
,  // measure 181
00000000
00000010
00000100
00000010
,  // measure 182
00000100
00000010
00000000
00000001
,  // measure 183
00000000
00000100
00001000
00000100
,  // measure 184
00001000
00000100
00000000
00001000
,  // measure 185
00000000
00010000
01000000
00010000
,  // measure 186
00000000
10000000
01000000
10000000
,  // measure 187
00000000
00100000
01000000
00100000
,  // measure 188
00000000
01000000
00010000
01000000
,  // measure 189
00000000
00001000
00010000
00001000
,  // measure 190
00000000
00000100
00000001
00000100
,  // measure 191
00000000
00001000
00010000
00001000
,  // measure 192
00010000
00002000
00000000
00000000
,  // measure 193
00003000
00200000
00000000
00000000
,  // measure 194
00300000
10010000
00000000
00000000
,  // measure 195
00000000
01000000
00000000
01000000
,  // measure 196
00000000
10000000
00000000
10000000
,  // measure 197
00000000
00100000
00000000
00100000
,  // measure 198
00000000
00010000
00000000
00001000
,  // measure 199
00000000
00010000
00000000
00010000
,  // measure 200
00000000
00001000
00000000
00001000
,  // measure 201
00000000
00000100
00000000
00000100
,  // measure 202
00000000
00000001
00000000
00001000
,  // measure 203
00000000
00000000
00000001
00000000
,  // measure 204
00000100
00000000
00001000
00000000
,  // measure 205
00010000
00000000
01000000
00000000
,  // measure 206
10000000
00000000
00100000
00000000
,  // measure 207
00010000
00000000
00001000
00000000
,  // measure 208
00000010
00000000
00000001
00000000
,  // measure 209
00000100
00000001
00000000
00000100
,  // measure 210
00000000
00000001
00000001
00000001
,  // measure 211
00000000
00001000
00000000
00000100
,  // measure 212
00000000
00001000
00001000
00001000
,  // measure 213
00000000
00010000
00000000
00001000
,  // measure 214
00000000
00010000
00010000
00010000
,  // measure 215
00000000
00000000
00200000
00000000
,  // measure 216
00300000
00000000
02000000
00000000
,  // measure 217
03000000
00000000
00010000
00000000
,  // measure 218
10000000
00000000
02000000
00000000
,  // measure 219
03000000
00000000
00010000
00000000
,  // measure 220
00001000
00000000
00000200
00000000
,  // measure 221
00000300
00000001
00000000
00000001
,  // measure 222
00000000
00001000
00000000
00001000
,  // measure 223
00000000
00000100
00000000
00000100
,  // measure 224
00000000
00010000
00000000
00001000
,  // measure 225
00011000
00000000
00000000
00000000
;

//---------------dance-double - ----------------
#NOTES:
     dance-double:
     :
     Medium:
     7:
     0.464,0.642,0.360,0.169,0.000: // measure 1
00000000
00000000
00000000
00000000
,  // measure 2
00000000
00000000
00000000
00000000
,  // measure 3
00000000
00000000
00000000
00000000
,  // measure 4
00000000
00000000
00000000
00000000
,  // measure 5
00000000
00000000
00000000
00000000
,  // measure 6
00000000
00000000
00000001
00000000
00000010
00000000
00000100
00010000
,  // measure 7
00001000
00000000
00100000
00000000
01000000
00000000
10000000
00010000
,  // measure 8
01000000
00000000
00100000
00000000
10000000
00000000
01000000
00100000
,  // measure 9
00001000
00010000
00001000
00000100
,  // measure 10
00000010
00000000
00001000
00000100
00001000
00000000
00000001
00000000
,  // measure 11
00000100
00000000
00001000
00010000
00001000
00000000
01000000
00000000
,  // measure 12
00100000
00000000
10000000
01000000
10000000
00000000
00100000
00000000
,  // measure 13
01000000
00000000
00001000
00010000
00001000
00000000
00000100
00000010
,  // measure 14
00001000
00000001
00000100
00000010
00010000
00000000
00001000
00000000
,  // measure 15
00100000
00000000
01000000
00100000
00001000
00000000
00010000
00000000
,  // measure 16
00000100
00000000
00000010
00000001
00001000
00000000
00000010
00000000
,  // measure 17
00000100
00000000
00001000
00010000
00001000
01000000
00100000
10000000
,  // measure 18
10010000
00000000
00010000
01000000
00010000
00000000
10000000
00000000
,  // measure 19
01000000
00000000
00010000
00001000
00010000
00000000
00000100
00000000
,  // measure 20
00000010
00000000
00000001
00000100
00000001
00000000
00000010
00000000
,  // measure 21
00000100
00000000
00010000
00001000
00010000
00000000
01000000
00000000
,  // measure 22
00100000
00000000
10000000
00100000
00010000
00000000
00001000
00000000
,  // measure 23
00000010
00000000
00000100
00010000
00001000
00000000
00010000
00000000
,  // measure 24
01000000
00000000
00100000
00010000
10000000
00000000
01000000
00010000
,  // measure 25
00001000
00010000
00011000
00000000
00000010
00000000
00000001
00000000
,  // measure 26
00001000
00000000
00000001
00000100
00001000
00000100
00000000
00000010
,  // measure 27
00010000
00001000
00100000
01000000
,  // measure 28
10000000
00000000
00100000
01000000
00010000
10000000
00000000
01000000
,  // measure 29
00010000
00001000
00000100
00000001
,  // measure 30
00001000
00000000
00000010
00000100
00001000
00010000
00000000
00000000
,  // measure 31
01000000
00000000
00100000
01000000
00010000
00001000
00000000
00000000
,  // measure 32
00000100
00000001
00000010
00000100
,  // measure 33
00010000
00001000
00100000
01000000
,  // measure 34
10010000
00200000
00000000
10000000
,  // measure 35
01300000
00002000
00000000
00100000
,  // measure 36
00013000
00000200
00000000
00000010
,  // measure 37
00001300
00000020
00000000
00000001
,  // measure 38
00001030
00000000
00000001
00000100
00000001
00000000
00000010
00000000
,  // measure 39
00010100
00000000
00001000
00010000
00001000
00000000
01000000
00000000
,  // measure 40
10100000
00000000
01000000
00100000
01000000
00000000
00001000
00000000
,  // measure 41
00011000
00000000
00000100
00000010
00000100
00001000
00000001
00000000
,  // measure 42
00000101
00000020
00001000
00000100
,  // measure 43
00000001
00000100
00001030
00000100
,  // measure 44
00010000
00001000
01000000
00000000
00100000
10000000
00010000
00000000
,  // measure 45
10000000
01000000
00100000
00000000
00001000
00000000
00010000
00000100
,  // measure 46
00000010
00000001
00000100
00000000
00000110
00000000
00001000
00000000
,  // measure 47
00001000
00010000
00011000
01000000
,  // measure 48
01000000
00010000
10010000
01000000
,  // measure 49
00100000
00000000
00001000
00000000
00011000
00000000
00000010
00000100
,  // measure 50
00000001
00001000
00000001
00000000
00000100
00000000
00001000
00010000
,  // measure 51
00001000
00000000
00100000
00000000
01000000
00000000
10000000
00010000
,  // measure 52
10000000
00000000
01000000
00000000
00100000
00000000
00001000
01000000
,  // measure 53
00001000
00010000
00001000
00000000
00000100
00000000
00000001
00000000
,  // measure 54
00000010
00000100
00010100
00001000
,  // measure 55
00011000
01000000
01010000
00100000
,  // measure 56
10100000
10000000
01000000
00010000
,  // measure 57
00001000
00000000
00000010
00000000
00000001
00000000
00000100
00001000
,  // measure 58
00010000
01000000
00000000
00000000
,  // measure 59
00000000
00000000
01000000
10000000
00000000
00010000
00000000
01000000
,  // measure 60
00000000
00001000
00000000
00100000
00000000
00011000
00000000
00000000
,  // measure 61
00000000
00000000
00000010
00001000
00000000
00000001
00000000
00000100
,  // measure 62
00000000
00001000
00000000
00010000
00000000
00010100
00000000
00000000
,  // measure 63
00000000
00000001
00000001
00001000
,  // measure 64
00001000
00000000
00000100
00000000
00001000
00000001
00000000
00000000
,  // measure 65
00000000
00000100
00000100
00001000
,  // measure 66
00001000
00000000
00010000
00000000
00001000
00000100
00000000
00000000
,  // measure 67
00000000
00001000
00001000
00010000
,  // measure 68
00010000
00000000
00100000
00000000
01000000
00100000
00000000
00000000
,  // measure 69
10000000
10000000
00010000
00010000
,  // measure 70
00100000
00000000
01000000
00000000
10000000
00000000
00100000
01000000
,  // measure 71
00100000
00010000
00001000
00000100
,  // measure 72
00000010
00000000
00001000
00000000
00000001
00001000
00000000
00000000
,  // measure 73
00000001
00000010
00000100
00001000
,  // measure 74
00000010
00000000
00010000
00000000
00001000
00010000
00000000
00000000
,  // measure 75
00100000
10000000
00010000
00100000
,  // measure 76
01000000
10100000
00110000
00011000
,  // measure 77
00001100
00000101
00001100
00011000
,  // measure 78
00110000
10100000
00110000
00011000
,  // measure 79
00001100
00000101
00000000
00000000
,  // measure 80
00000000
00000000
00001000
00010000
00002000
00000000
00000000
00013000
,  // measure 81
00000000
00000000
00000010
00001000
00000200
00000000
00000000
00001300
,  // measure 82
00000000
00000000
00000001
00000100
00000020
00000000
00000000
00000130
,  // measure 83
00000000
00000000
00000001
00000100
00002000
00000000
00000000
00013000
,  // measure 84
00000000
00000000
01000000
10000000
02000000
00000000
00000000
03100000
,  // measure 85
00000000
00000000
00010000
10000000
00200000
00000000
00000000
01300000
,  // measure 86
00000000
00000000
00001000
00010000
00002000
00000000
00000000
01003000
,  // measure 87
00000000
00000000
00010000
00100000
00020000
00000000
00000000
10030000
,  // measure 88
00000000
00000000
00100000
00000000
00000000
10010000
00000000
00000000
,  // measure 89
01000000
00000000
01000000
00000000
00000000
10010000
00000000
00000000
,  // measure 90
00100000
00000000
00100000
00000000
00000000
00011000
00000000
00000000
,  // measure 91
00000010
00000000
00000010
00000000
00000000
00011000
00000000
00000000
,  // measure 92
00000000
00000000
00000100
00000000
00000000
00001001
00000000
00000000
,  // measure 93
00000010
00000000
00000010
00000000
00000000
00001001
00000000
00000000
,  // measure 94
00000110
00000000
00000110
00000000
00000000
00001001
00000000
00000000
,  // measure 95
00000100
00000200
00000300
00002002
,  // measure 96
00003003
00000000
00000100
00000000
00000100
00000000
00010000
00001000
,  // measure 97
01000000
00020000
00000000
00000000
00100000
00000000
00000000
00130000
,  // measure 98
00000000
00000000
01000000
00000000
01000000
00000000
10000000
00010000
,  // measure 99
00000000
20010000
00000000
00000000
01000000
00000000
00000000
31000000
,  // measure 100
00000000
00000000
00010000
00000000
00010000
00000000
00001000
00010000
,  // measure 101
00000100
00002000
00000000
00000000
00000010
00000000
00000000
00003010
,  // measure 102
00000000
00000000
00000100
00000000
00000100
00000000
00000001
00001000
,  // measure 103
00000000
00001002
00000000
00000000
00000100
00000000
00000000
00000103
,  // measure 104
00000000
00000000
00001001
00000000
00000000
00011000
00000000
00000000
,  // measure 105
10010000
00000000
00000000
01100000
00000000
00000000
11000000
00000000
,  // measure 106
01010000
00000000
10010000
00000000
00000000
00011000
00000000
00000000
,  // measure 107
00001001
00000000
00000000
00000110
00000000
00000000
00000011
00000000
,  // measure 108
00001010
00000000
00000001
00000100
00000000
00000100
00000001
00000000
,  // measure 109
00001000
00000100
00000000
00000100
00001000
00000000
00000010
00000000
,  // measure 110
00010000
00022000
00000000
00000000
,  // measure 111
00033000
00000200
00000300
00002002
,  // measure 112
00003003
00000001
00000100
00001000
,  // measure 113
00000100
00000001
00000101
00001100
,  // measure 114
00000000
00010000
01000000
10000000
,  // measure 115
01000000
00010000
01010000
11000000
,  // measure 116
00000000
10000000
00100000
00010000
,  // measure 117
00100000
10000000
10100000
00110000
,  // measure 118
00000000
00000000
00000000
00010000
00001000
00010000
00002000
00000000
,  // measure 119
00003000
00000000
00000000
00000100
00000001
00000100
00000002
00000000
,  // measure 120
00000003
00000001
00000010
00001000
,  // measure 121
00000010
00000001
00000011
00001010
,  // measure 122
00000000
00010000
00100000
10000000
,  // measure 123
00100000
00010000
00110000
10100000
,  // measure 124
00000000
10000000
01000000
00010000
,  // measure 125
01000000
10000000
11000000
01010000
,  // measure 126
00000000
00000000
00000000
00001000
00010000
00001000
00020000
00000000
,  // measure 127
00030000
00000000
00000000
00000100
00000010
00000100
00000020
00000000
,  // measure 128
00000030
00000001
00000100
00000001
,  // measure 129
00000100
00000010
00001000
00000100
,  // measure 130
00010000
00001000
00100000
00001000
,  // measure 131
00100000
00010000
10000000
01000000
,  // measure 132
00100000
00010000
00110000
01000000
,  // measure 133
11000000
00010000
01000000
00010000
,  // measure 134
01000000
00001000
00011000
00000100
,  // measure 135
00001100
00000010
00000001
00001000
,  // measure 136
00001001
00000001
00000001
00000100
,  // measure 137
00000100
00001000
00010000
00001000
,  // measure 138
00010000
00100000
00100000
10000000
,  // measure 139
10000000
01000000
00100000
01000000
,  // measure 140
01100000
10000000
01000000
00010000
,  // measure 141
01000000
10000000
11000000
01010000
,  // measure 142
00000000
00001000
00000100
00000001
,  // measure 143
00000100
00001000
00001100
00000101
,  // measure 144
00000000
00000001
00000010
00001000
,  // measure 145
00000010
00000001
00000011
00001010
,  // measure 146
00000000
00000000
00000000
00001000
00010000
00001000
00020000
00000000
,  // measure 147
00030000
00000000
00000000
01000000
00100000
01000000
00200000
00000000
,  // measure 148
00300000
10000000
00100000
00010000
,  // measure 149
00100000
10000000
10100000
00110000
,  // measure 150
00000000
00001000
00000010
00000001
,  // measure 151
00000010
00001000
00001010
00000011
,  // measure 152
00000000
00000001
00000100
00001000
,  // measure 153
00000100
00000001
00000101
00001100
,  // measure 154
00000000
00000000
00000000
00010000
00001000
00010000
00002000
00000000
,  // measure 155
00003000
00000000
00000000
01000000
00100000
01000000
00200000
00000000
,  // measure 156
00300000
20020000
00000000
00000000
,  // measure 157
00000000
00000000
00000000
00000000
,  // measure 158
30030000
01010000
11000000
10010000
,  // measure 159
00110000
02000000
00000000
00000000
,  // measure 160
03000000
00000000
00000000
00000000
10010000
00000000
00000000
11000000
,  // measure 161
00000000
00200000
00000000
00000000
,  // measure 162
00300000
00001000
00010000
00000100
,  // measure 163
00001100
00000000
00000000
00002002
00000000
00000000
00000000
00000000
,  // measure 164
00003003
00000010
00001000
00000100
,  // measure 165
00010000
00000000
00001000
00000000
00101000
00000000
00000000
00220000
,  // measure 166
00000000
00000000
00000000
00330000
,  // measure 167
00010000
10000000
00100000
01000000
,  // measure 168
01010000
00000000
00000000
00022000
00000000
00000000
00000000
00000000
,  // measure 169
00033000
00001000
00010000
00001000
,  // measure 170
00010000
00000100
00001000
00000100
,  // measure 171
00001000
00000010
00000010
00000100
,  // measure 172
00000100
00000000
00000001
00001000
00000100
00000000
00000010
00000000
,  // measure 173
00000010
00000000
00000001
00000100
00000010
00000000
00001000
00000000
,  // measure 174
00001000
00000000
00000100
00010000
00001000
00000000
00100000
00000000
,  // measure 175
00100000
00000000
00010000
01000000
00100000
01000000
00000000
00000000
,  // measure 176
00100000
10000000
00010000
00100000
,  // measure 177
01000000
00000000
10000000
01000000
00100000
00020000
00000000
00000000
,  // measure 178
00000000
00130000
00001000
00010000
,  // measure 179
00000100
00000000
00001000
00000010
00000100
00000020
00000000
00000000
,  // measure 180
00000000
00001030
00000001
00000010
,  // measure 181
00000100
00000000
00001000
00000100
00001000
00000020
00000000
00000000
,  // measure 182
00000000
00000130
00001000
00010000
,  // measure 183
00100000
00000000
01000000
00010000
01000000
00200000
00000000
00000000
,  // measure 184
00000000
10300000
00010000
00100000
,  // measure 185
01000000
10000000
01000000
00010000
,  // measure 186
00001000
00000000
00000100
00000000
00000001
00000010
00000000
00000010
,  // measure 187
00000001
00001000
00000010
00000100
,  // measure 188
00001000
00000000
00010000
00000000
00100000
10000000
00000000
10000000
,  // measure 189
00100000
01000000
00010000
00100000
,  // measure 190
00001000
00000000
00010000
00000000
00000100
00001000
00000000
00001000
,  // measure 191
00000100
00000010
00000001
00000100
,  // measure 192
00000010
00000000
00001000
00000000
00000100
00010000
00000000
00010000
,  // measure 193
00000100
00022000
00000000
00000000
,  // measure 194
00033000
02200000
00000000
00000000
,  // measure 195
03300000
00100000
00010000
01000000
,  // measure 196
00001000
00010000
00000100
00001000
,  // measure 197
00000010
00000100
00000001
00000100
,  // measure 198
00000010
00001000
00001100
00010000
,  // measure 199
00011000
00001000
00100000
00010000
,  // measure 200
01000000
00100000
10000000
01000000
,  // measure 201
00010000
01000000
00100000
00010000
,  // measure 202
01000000
00001000
00011000
00000100
,  // measure 203
00001100
00000010
00000001
00000100
,  // measure 204
00001000
00000100
00000001
00001000
,  // measure 205
00000100
00010000
00001000
00100000
,  // measure 206
00010000
10000000
01000000
00010000
,  // measure 207
01000000
10000000
00100000
00010000
,  // measure 208
00001000
00000100
00000001
00001000
,  // measure 209
00001001
00000010
00000001
00000100
,  // measure 210
00000001
00000010
00001010
00011000
,  // measure 211
00000000
00100000
10000000
01000000
,  // measure 212
10000000
00100000
00110000
00011000
,  // measure 213
00000000
00000100
00000001
00000010
,  // measure 214
00000001
00000100
00001100
00011000
,  // measure 215
00000000
00000000
00000000
01000000
00100000
01000000
00200000
00000000
,  // measure 216
00300000
00000000
00000000
10000000
00010000
10000000
00020000
00000000
,  // measure 217
00030000
00100000
01000000
10000000
,  // measure 218
00100000
00010000
00001000
00010000
,  // measure 219
00000100
00001000
00000001
00000010
,  // measure 220
00000100
00001000
00001000
00000100
,  // measure 221
00000100
00010000
00010000
00001000
,  // measure 222
00001000
01000000
00100000
00010000
,  // measure 223
00100000
10000000
01000000
00010000
,  // measure 224
00001000
00000100
00000001
00001000
,  // measure 225
00001001
00000000
00000000
00000000
;

//---------------dance-double - ----------------
#NOTES:
     dance-double:
     :
     Hard:
     9:
     0.664,0.678,0.357,0.182,0.096: // measure 1
00000000
00000000
00000000
00000000
,  // measure 2
00000000
00000000
00000000
00000000
,  // measure 3
00000000
00000000
00000000
00000000
,  // measure 4
00000000
00000000
00000000
00000000
,  // measure 5
00000000
00000000
00000000
00000000
,  // measure 6
00000000
00000000
00000010
00000001
00000010
00000000
00000100
00001000
,  // measure 7
00000100
00000000
00001000
00010000
00001000
00000000
00100000
00010000
,  // measure 8
00100000
00000000
01000000
10000000
01000000
00000000
00100000
00001000
,  // measure 9
00010000
00000000
00001000
00000010
00000100
00001000
00000001
00000100
,  // measure 10
00000010
00000000
00001000
00000100
00000001
00000100
00010000
00001000
,  // measure 11
00100000
00000000
00010000
00100000
10000000
00100000
00001000
00010000
,  // measure 12
00000100
00000000
00000010
00000001
00000100
00001000
00000100
00000010
,  // measure 13
00010000
00000000
00001000
01000000
00100000
00010000
00100000
10000000
,  // measure 14
01000000
00000000
00100000
01000000
10000000
00100000
00010000
00001000
,  // measure 15
00000100
00000000
00000010
00000100
00000001
00000010
00001000
00010000
,  // measure 16
01000000
00000000
00100000
00001000
00010000
01000000
00100000
00001000
,  // measure 17
00010000
00000000
00000010
00010000
00001000
00000100
00000010
00010000
,  // measure 18
00001000
00000000
00000000
00000000
01000000
00000000
00100000
00000000
10000000
00010000
00000000
00100000
00000000
00000000
00001000
00000000
,  // measure 19
00000000
00010000
00000000
00000000
00000100
00000000
00000010
00000000
00000001
00001000
00000000
00000010
00000000
00000000
00010000
00000000
,  // measure 20
00000000
00001000
00000000
00000000
00010000
00000000
01000000
00000000
00100000
00010000
00000000
10000000
00000000
00000000
01000000
00000000
,  // measure 21
00000000
00010000
00000000
00000000
00001000
00000000
00000100
00000000
00000010
00001000
00000000
00000001
00000000
00000000
00000100
00000000
,  // measure 22
00000000
00001000
00000000
00000000
01000000
00000000
00100000
00000000
00010000
00001000
00000000
01000000
00000000
00000000
00001000
00000000
,  // measure 23
00000000
00010000
00000000
00000000
00000100
00000000
00000010
00000000
00001000
00010000
00000000
00000100
00000000
00000000
00010000
00000000
,  // measure 24
00000000
00001000
00000000
00000000
00010000
00000000
01000000
00000000
10000000
00100000
00000000
01000000
00010000
00000000
00100000
00000000
,  // measure 25
00001000
00010000
00000000
00000100
00000020
00000000
00000000
00000000
00000001
00000000
00000000
00000000
00000001
00000000
00000000
00000000
,  // measure 26
00000031
00000000
00000100
00001000
00010000
01000000
00100000
00001000
,  // measure 27
00010000
00000100
00000010
00000001
00001000
00000010
00000100
00001000
,  // measure 28
00010000
00100000
01000000
00001000
00010000
00000010
00000100
00001000
,  // measure 29
00000100
00000010
00001000
00000100
00010000
00001000
00100000
01000000
,  // measure 30
10010000
00000000
01000000
00000000
00100000
10000000
00000000
01000000
,  // measure 31
00100000
00001000
00010000
00000000
00000100
00000010
00000000
00000001
,  // measure 32
00001000
00000010
00000100
00000000
00000001
00000001
00000000
00000100
,  // measure 33
00000000
00000000
00000100
00000000
00000000
00000000
00001000
00000000
00000000
00001000
00000000
00000000
00010000
00000000
00000000
00010000
,  // measure 34
00000000
00010000
00000000
00100000
02000000
00000000
00000000
00010000
00000000
00000000
00100000
00000000
00000000
00010000
00000000
00000000
,  // measure 35
03001000
00000000
00010000
00000000
00002000
00000000
00000000
01000000
00000000
00000000
00010000
00000000
00000000
01000000
00000000
00000000
,  // measure 36
00013000
00000000
00000100
00000000
00000020
00000000
00000000
00001000
00000000
00000000
00000100
00000000
00000000
00001000
00000000
00000000
,  // measure 37
00000130
00000000
00000001
00000000
00001000
00000000
00000000
00001000
00000000
00000000
00001000
00000000
00000001
00000000
00000000
00000001
,  // measure 38
00000000
00000001
00000100
00001000
00010000
00001000
00000000
00000100
,  // measure 39
00000010
00010000
00001000
00010000
01000000
00100000
00000000
00010000
,  // measure 40
10000000
01000000
00010000
00001000
00000010
00001000
00000000
00010000
,  // measure 41
00000010
00000000
00000100
00000000
00000001
00000000
00000000
00001000
00000000
00000000
00001100
00000000
00010000
00000000
00000000
00001000
,  // measure 42
00000000
00011000
02000000
00000000
00000000
00000000
00000000
00000000
,  // measure 43
00000000
00000000
00000000
00000000
00000000
00000000
00000000
00000000
03010000
00000000
10000000
00010000
10000000
00000000
00000000
01000000
,  // measure 44
00000000
00000000
01000000
00000000
00010000
00000000
00000000
00000000
00001000
00000000
00000100
00000000
00000010
00000000
00000000
00000010
,  // measure 45
00000000
00000000
00000010
00000000
00001000
00000000
00000000
00001000
00000000
00000000
00001000
00000000
00000100
00000000
00000000
00000100
,  // measure 46
00000000
00000100
00010000
00000000
00012000
00000000
01003000
00000000
,  // measure 47
01010000
00100000
02010000
03001000
,  // measure 48
00011000
00000100
00000021
00000130
,  // measure 49
00001100
00000000
00000110
00000000
00010100
00000000
00001000
01000000
,  // measure 50
00010000
10000000
00010000
00000000
01000000
00000000
00100000
00000000
00010000
00000000
00100000
00000000
10000000
00000000
01000000
00000000
,  // measure 51
01100000
00000000
00001000
00010000
00000100
00000010
00000001
00001000
,  // measure 52
00001100
00000000
00000010
00001000
00000010
00000001
00000100
00000010
,  // measure 53
00000001
00000010
00001000
00000100
00000010
00001000
00010000
01000000
,  // measure 54
01100000
00000000
00010000
00000000
10000000
00100000
00000000
01000000
,  // measure 55
00001000
00010000
00000100
00000000
00000011
00000000
00001001
00000000
,  // measure 56
00001010
00000000
00000100
00000000
00000010
00000010
00000000
00010000
,  // measure 57
00000000
00001000
01000000
00100000
10000000
00000000
01000000
00100000
,  // measure 58
00001000
00010000
00001000
00000000
02000000
00000000
00000000
00000000
00000000
00000000
00000000
00000000
03000000
00000000
00000000
00000000
,  // measure 59
00000000
00000000
00001000
00010000
00000000
00001010
00000000
00000100
,  // measure 60
00000000
00000011
00000000
00001001
00000000
00000101
00000000
00000000
,  // measure 61
00000000
00000000
00100000
00001000
00000000
01010000
00000000
00100000
,  // measure 62
00000000
10010000
00000000
11000000
00000000
01010000
00000000
00000000
,  // measure 63
00000000
00000000
00010000
01000000
00010000
00100000
00010000
01000000
,  // measure 64
10000000
00000000
01000000
00010000
00100000
00001000
00000000
00010000
,  // measure 65
00000100
00001000
00000010
00000100
00000010
00001000
00000100
00001000
,  // measure 66
00000010
00000000
00000001
00000010
00001000
00000000
00000001
00000100
,  // measure 67
00002000
00000000
00013000
00001000
00100000
01000000
00100000
00010000
,  // measure 68
10000000
00000000
00100000
01000000
00010000
00100000
00000000
00100000
,  // measure 69
01000000
10000000
00100000
10000000
01000000
00010000
00001000
00000100
,  // measure 70
00000001
00000100
00001000
00010000
01000000
00010000
00001000
00000000
,  // measure 71
00011000
00000000
00000010
00001000
00000100
00000010
00000001
00001000
,  // measure 72
00000001
00000000
00000110
00000000
00000100
00001000
00010000
00001000
,  // measure 73
00010000
00000000
00011000
00000000
00010000
01000000
10000000
01000000
,  // measure 74
10000000
00000000
10100000
00000000
00100000
01000000
00100000
01000000
,  // measure 75
00010000
00000000
00100000
00010000
01000000
00100000
10000000
00010000
,  // measure 76
10000000
00000000
01000000
10000000
00100000
10000000
01000000
10000000
,  // measure 77
00100000
01000000
00001000
00010000
01000000
00010000
00001000
00010000
,  // measure 78
01000000
00100000
00010000
10000000
00100000
10000000
01000000
10000000
,  // measure 79
00100000
00000000
10000000
00000000
02000000
00000000
00000000
00000000
03000000
00000000
00000000
00000000
01000000
10000000
01000000
10000000
,  // measure 80
01000000
10000000
01000000
00100000
00001000
00010000
00000010
00000100
,  // measure 81
00000000
00000001
00000010
00000100
00000010
00000001
00001000
00000100
,  // measure 82
00000000
00010000
00000010
00000100
00001000
00000100
00000001
00000010
,  // measure 83
00000000
00001000
00100000
00010000
01000000
00100000
10000000
00010000
,  // measure 84
00000000
10000000
01000000
10000000
00100000
01000000
00001000
00010000
,  // measure 85
00000000
01000000
10000000
00100000
00010000
00001000
00000010
00000001
,  // measure 86
00000000
00000100
00010000
00000100
00000010
00001000
00000100
00010000
,  // measure 87
00000000
00001000
00100000
00010000
01000000
00100000
10000000
00010000
,  // measure 88
00100000
01000000
20000000
00000000
00000000
30010000
00000000
01000000
,  // measure 89
00001000
00010000
00000020
00000000
00000000
00000130
00000000
00000001
,  // measure 90
00001000
00000100
00020000
00000000
00000000
01030000
00000000
10000000
,  // measure 91
00100000
00010000
00002000
00000000
00000000
00003100
00000000
00000001
,  // measure 92
00000010
00000100
00000020
00000000
00000000
00001030
00000000
00000010
,  // measure 93
00000001
00000100
00002000
00000000
00000000
00013000
00000000
00100000
,  // measure 94
10000000
01000000
00200000
00000000
00000000
10300000
00000000
00100000
,  // measure 95
00001000
00000000
00010000
00000000
00002000
00000000
00000000
00000000
00013000
00000000
00000000
00000000
00001000
00010000
00001000
00010000
,  // measure 96
00001000
01000000
00100000
10000000
00010000
00100000
00001000
00100000
,  // measure 97
01000000
20000000
00000000
00000000
30010000
00000000
00000000
10010000
,  // measure 98
00000000
00000000
00100000
01000000
00001000
00100000
00010000
01000000
,  // measure 99
00001000
00000200
00000000
00000000
00000310
00000000
00000000
00000110
,  // measure 100
00000000
00000000
00001000
00000001
00000010
00001000
00010000
00100000
,  // measure 101
01000000
00020000
00000000
00000000
10030000
00000000
00000000
10010000
,  // measure 102
00000000
00000000
01000000
00100000
00001000
00000010
00000100
00001000
,  // measure 103
00000010
00000200
00000000
00000000
00000310
00000000
00000000
00000110
,  // measure 104
00000000
00000000
00000101
00000000
00000000
00001010
00000000
00000000
,  // measure 105
00011000
00000000
00000000
00110000
00000000
00000000
11000000
00000000
,  // measure 106
01010000
00000000
11000000
00000000
00000000
00110000
00000000
00000000
,  // measure 107
00011000
00000000
00000000
00001010
00000000
00000000
00000101
00000000
,  // measure 108
00001100
00000000
00001001
00001100
00000000
00010100
00011000
00000000
,  // measure 109
00011000
01001000
00000000
01010000
01100000
00000000
00110000
00000000
,  // measure 110
00011000
00002200
00000000
00000000
,  // measure 111
00003300
00000000
00000000
00000000
00000010
00000000
00000000
00000000
00001000
00000000
00000000
00000000
00000001
00001000
00000001
00001000
,  // measure 112
00000001
00000100
00000001
00000010
00000000
00000100
00001000
00000010
,  // measure 113
00001000
00000100
00010000
00001000
00010000
00001000
00000200
00000000
,  // measure 114
00000300
00000000
00001000
00010000
00000000
01000000
00100000
01000000
,  // measure 115
10000000
00010000
00100000
00100000
00010000
01000000
00200000
00000000
,  // measure 116
00310000
00000000
00100000
10000000
00000000
00010000
00100000
00001000
,  // measure 117
01000000
00001000
00010000
00000100
00010000
00001000
00000100
00000001
,  // measure 118
00001000
00000001
00000000
00000100
00001000
00010000
00200000
00000000
,  // measure 119
00000000
00000000
00300000
01000000
00010000
00100000
02000000
00000000
,  // measure 120
00000000
00000000
13000000
01000000
00000000
00100000
00010000
01000000
,  // measure 121
00010000
00100000
00001000
00010000
00001000
00010000
02000000
00000000
,  // measure 122
03000000
00000000
00010000
00001000
00000000
00000010
00000100
00000010
,  // measure 123
00000001
00001000
00000100
00000100
00001000
00000010
00000200
00000000
,  // measure 124
00001300
00000000
00000100
00000001
00000000
00001000
00000100
00010000
,  // measure 125
00000010
00010000
00001000
01000000
00001000
00010000
01000000
00000000
,  // measure 126
00010000
10000000
00000000
00100000
00010000
00001000
00000200
00000000
,  // measure 127
00000000
00000000
00000000
00000310
00001000
00000100
00000020
00000000
,  // measure 128
00000000
00000030
00000001
00000100
00001000
00000000
00000100
00001000
,  // measure 129
00010000
00000000
00000100
00010000
00000100
00000010
00001000
00010000
,  // measure 130
00100000
00000000
10000000
01000000
00010000
00000000
01000000
00010000
,  // measure 131
00001000
00000000
01000000
00001000
01000000
00100000
00010000
00001000
,  // measure 132
00000100
00000010
00000101
00001000
,  // measure 133
00000101
00000000
00000010
00000100
00000001
00001000
00000001
00000100
,  // measure 134
00001000
00010000
00010010
00001000
,  // measure 135
01001000
00000000
00010000
00000100
00010000
00001000
00101000
00000000
,  // measure 136
00010100
00000000
00000100
00001000
00000001
00000000
00000100
00000001
,  // measure 137
00001000
00000000
00000010
00000100
00000010
00001000
00000100
00010000
,  // measure 138
00001000
00000000
00100000
00010000
10000000
00000000
00100000
10000000
,  // measure 139
00010000
00000000
01000000
00100000
00010000
00001000
00000100
00000001
,  // measure 140
00001000
00000000
00000001
00000010
00000000
00000100
00001000
00000010
,  // measure 141
00001000
00000100
00010000
00001000
00010000
00001000
00000200
00000000
,  // measure 142
00000300
00000000
00001000
00010000
00000000
01000000
00100000
01000000
,  // measure 143
10000000
00010000
00100000
00100000
00010000
01000000
00200000
00000000
,  // measure 144
00310000
00000000
00100000
10000000
00000000
00010000
00100000
00001000
,  // measure 145
01000000
00001000
00010000
00000100
00010000
00001000
00000100
00000001
,  // measure 146
00001000
00000001
00000000
00000100
00001000
00010000
00200000
00000000
,  // measure 147
00000000
00000000
00300000
01000000
00010000
00100000
02000000
00000000
,  // measure 148
00000000
00000000
13000000
01000000
00000000
00100000
00010000
01000000
,  // measure 149
00010000
00100000
00001000
00010000
00001000
00010000
02000000
00000000
,  // measure 150
03000000
00000000
00010000
00001000
00000000
00000010
00000100
00000010
,  // measure 151
00000001
00001000
00000100
00000100
00001000
00000010
00000200
00000000
,  // measure 152
00001300
00000000
00000100
00000001
00000000
00001000
00000100
00010000
,  // measure 153
00000010
00010000
00001000
01000000
00001000
00010000
01000000
00000000
,  // measure 154
00010000
10000000
00000000
00100000
00010000
00001000
00000200
00000000
,  // measure 155
00000000
00000000
00000000
00000310
00001000
00000100
00000020
00000000
,  // measure 156
00000030
00000002
00002000
00000000
,  // measure 157
00000000
00000000
00000000
00000000
,  // measure 158
00003003
00000000
00000010
00010000
00000010
00010000
00001000
01000000
,  // measure 159
00001000
01000000
00020000
00000000
00000000
00000000
00000000
00000000
,  // measure 160
00030000
10000000
00000000
00000000
00100000
00000000
01000000
00000000
10010000
00000000
00010000
00000000
10000000
00000000
20020000
00000000
,  // measure 161
00000000
00000000
00000000
00000000
30030000
00000000
00000000
00000000
00000000
01000000
00000000
00000000
00000000
00000000
00000000
00000000
00000000
00000000
00000000
00000000
00000000
00000000
00000000
00000000
00001000
00000000
00010000
00000000
00001000
00000000
00010000
00000000
,  // measure 162
00001000
00000000
00000100
00000000
00000020
00000000
00000000
00000000
00000000
00001030
00000000
00000000
00000100
00000000
00000010
00000000
,  // measure 163
00001001
00001000
00000001
00002002
00000000
00000000
00000000
00000000
,  // measure 164
00003003
00000000
00000000
00000000
00000010
00000100
00000010
00000100
00000010
00000000
00001000
00000000
00000002
00000000
00000000
00000000
,  // measure 165
00000000
00000013
00000000
00000000
00001000
00000000
00010000
00000000
00001100
00000000
00010000
00000000
00001000
00000000
00210000
00000000
,  // measure 166
00000000
00000000
00000000
00000000
00000000
00000000
00000000
00000000
00300000
00000000
00000000
00000000
01000000
10000000
01000000
10000000
,  // measure 167
01000000
00000000
00100000
00000000
00010000
00000000
00000000
00000000
00000000
01000000
00000000
00000000
00100000
00000000
00010000
00000000
,  // measure 168
01010000
00001000
00010000
00001200
00000000
00000000
00000000
00000320
,  // measure 169
00000000
00000000
00000031
00000000
00000100
00000001
00000010
00000100
,  // measure 170
00000010
00000001
00001000
00000000
00000100
00010000
00000000
00001000
,  // measure 171
01000000
00000000
00100000
01000000
00100000
10000000
00010000
00000000
,  // measure 172
00100000
01000000
00100000
00000000
00001000
00010000
00000000
00000100
,  // measure 173
00000010
00000000
00000001
00000010
00000001
00001000
00000100
00000000
,  // measure 174
00000010
00000100
00001000
00000000
00000010
00010000
00000000
00001000
,  // measure 175
00100000
00000000
00010000
01000000
00100000
00000000
01000000
00010000
,  // measure 176
01000000
00100000
10000000
00000000
00010000
00100000
00000000
00001000
,  // measure 177
00010000
00001000
00010000
00000000
00001100
00000000
00000010
00001000
,  // measure 178
00000010
00001000
00000100
00000000
00000011
00000000
00000100
00001000
,  // measure 179
00000100
00001000
00000010
00000000
00011000
00000000
01000000
00010000
,  // measure 180
01000000
00010000
00100000
00000000
11000000
10000000
01000000
10000000
,  // measure 181
01000000
10000000
00100000
00010000
00001000
00000000
00010000
00001000
,  // measure 182
00000100
00000010
00001000
00000001
00001000
00000100
00000000
00000010
,  // measure 183
00000001
00000000
00001000
00000010
00001000
00000100
00010000
00001000
,  // measure 184
01000000
00100000
10000000
01000000
10000000
00010000
00000000
01000000
,  // measure 185
00100000
01000000
00010000
00000000
10010000
00000000
01000000
00010000
,  // measure 186
00100000
00001000
00010000
00000100
00010000
00001000
00000000
00010000
,  // measure 187
00000010
00001000
00000001
00000000
00001001
00000000
00000010
00001000
,  // measure 188
00000100
00010000
00001000
00100000
00001000
00010000
00000000
00001000
,  // measure 189
01000000
00010000
10000000
00000000
10010000
00000000
01000000
00010000
,  // measure 190
00100000
01000000
00100000
00001000
00010000
00000100
00000000
00000010
,  // measure 191
00000001
00001000
00000001
00000000
00001001
00000000
00000100
00001000
,  // measure 192
00000010
00010000
00001000
01000000
00010000
00100000
01000000
00100000
,  // measure 193
00001000
00010000
00000020
00000000
00000000
00000000
00000000
00000000
,  // measure 194
00000000
00000000
00000000
00000000
,  // measure 195
00000030
00000101
00001100
00000101
,  // measure 196
00001100
00000000
00001000
00000100
00000001
00000100
00001000
00010000
,  // measure 197
01000000
11000000
01010000
11000000
,  // measure 198
01010000
00000000
00010000
01000000
10000000
01000000
00010000
00001000
,  // measure 199
00000010
00000110
00001100
00010100
,  // measure 200
00101000
00000000
00001000
00010000
00001000
00100000
00010000
00100000
,  // measure 201
10000000
01100000
00110000
00101000
,  // measure 202
00010100
00000000
00010000
00001000
00010000
00000100
00001000
00000100
,  // measure 203
00000001
00000000
00000100
00000010
00000001
00000000
00001000
00000100
,  // measure 204
00000010
00000000
00001000
00000010
00000001
00000000
00001000
00000100
,  // measure 205
00000001
00000101
00001100
00001010
,  // measure 206
00010010
00011000
01001000
01010000
,  // measure 207
11000000
00000000
01000000
00100000
10000000
00000000
00010000
01000000
,  // measure 208
00100000
00000000
00010000
00100000
10000000
00000000
00010000
01000000
,  // measure 209
10000000
11000000
01010000
00110000
,  // measure 210
00101000
00011000
00010100
00001100
,  // measure 211
00000101
00000000
00000010
00000001
00000000
00001000
00000100
00001000
,  // measure 212
00000010
00000100
00000001
00000001
00000100
00001000
00020000
00000000
,  // measure 213
00031000
00000000
00010000
01000000
00000000
10000000
00100000
10000000
,  // measure 214
01000000
00100000
00010000
01000000
00010000
10000000
01000000
00010000
,  // measure 215
00001000
00010000
00000000
00001000
00000100
00000001
00002000
00000000
,  // measure 216
00000000
00000000
00003000
00000001
00000010
00001000
00000002
00000000
,  // measure 217
00000000
00000003
00000100
00000100
00000100
00000000
00001000
00001000
,  // measure 218
00001000
00000000
00000010
00000010
00000100
00000100
00000010
00000010
,  // measure 219
00000100
00000000
00001000
00001000
00001000
00000000
00010000
00010000
,  // measure 220
00010000
00000000
00100000
00100000
01000000
01000000
00100000
00100000
,  // measure 221
01000000
00000000
10000000
10000000
01000000
00100000
00010000
00010000
,  // measure 222
01000000
00000000
00100000
00100000
10000000
00010000
01000000
01000000
,  // measure 223
00001000
00000000
00100000
00100000
00001000
00010000
00000100
00000100
,  // measure 224
00001000
00000000
00000001
00000001
00001000
00000010
00000101
00000000
,  // measure 225
00001100
00000000
00000000
00000000
;

//---------------dance-double - ----------------
#NOTES:
     dance-double:
     :
     Beginner:
     1:
     0.151,0.178,0.038,0.035,0.000: // measure 1
00000000
00000000
00000000
00000000
,  // measure 2
00000000
00000000
00000000
00000000
,  // measure 3
00000000
00000000
00000000
00000000
,  // measure 4
00000000
00000000
00000000
00000000
,  // measure 5
00000000
00000000
00000000
00000000
,  // measure 6
00000000
10000000
00000000
00000000
,  // measure 7
00000000
00010000
00000000
00000000
,  // measure 8
00000000
00001000
00000000
00000000
,  // measure 9
00000000
00000001
00000000
00000000
,  // measure 10
00000000
00000010
00000000
00000001
,  // measure 11
00000000
00000100
00000000
00001000
,  // measure 12
00000000
00020000
00000000
00000000
,  // measure 13
00030000
00010000
00000000
00000000
,  // measure 14
00000000
01000000
00000000
10000000
,  // measure 15
00000000
00100000
00000000
00010000
,  // measure 16
00000000
00002000
00000000
00000000
,  // measure 17
00003000
00001000
00000000
00000000
,  // measure 18
00000000
00000010
00000010
00000000
,  // measure 19
00000000
00000001
00000001
00000000
,  // measure 20
00000000
00000100
00000100
00000000
,  // measure 21
00000000
00001000
00001000
00000000
,  // measure 22
00000000
00010000
00010000
00000000
,  // measure 23
00000000
01000000
01000000
00000000
,  // measure 24
00000000
10000000
10000000
00000000
,  // measure 25
00000000
01100000
00000000
00000000
,  // measure 26
00000000
10000000
10000000
10000000
,  // measure 27
00000000
01000000
00000000
01000000
,  // measure 28
00000000
00010000
00000000
00001000
,  // measure 29
00000000
00000100
00000000
00000100
,  // measure 30
00000000
00000001
00000001
00000001
,  // measure 31
00000000
00000100
00000000
00000100
,  // measure 32
00000000
00001000
00000000
00010000
,  // measure 33
00000000
01000000
00000000
01000000
,  // measure 34
00000000
10010000
00000000
00000000
,  // measure 35
01000000
01000000
00000000
00000000
,  // measure 36
00010000
00010000
00000000
00000000
,  // measure 37
00001000
00001000
00000000
00000100
,  // measure 38
00000000
00000002
00000000
00000000
,  // measure 39
00000003
00000001
00000000
00000000
,  // measure 40
00000000
00002000
00000000
00000000
,  // measure 41
00003000
00001000
00000000
00010000
,  // measure 42
00000000
00011000
00000000
00000000
,  // measure 43
00000000
01000000
00000000
10000000
,  // measure 44
00000000
00100000
00000000
00100000
,  // measure 45
00000000
00010000
00000000
00001000
,  // measure 46
00000000
00011000
00000000
00000000
,  // measure 47
00000000
00011000
00000000
00000000
,  // measure 48
00000000
00000020
00000000
00000000
,  // measure 49
00000030
00000000
00000000
00000001
,  // measure 50
00000001
00000001
00000000
00000100
,  // measure 51
00000000
00000100
00000000
00001000
,  // measure 52
00000000
00010000
00000000
01000000
,  // measure 53
00000000
01000000
00000000
10000000
,  // measure 54
00000000
10010000
00000000
00000000
,  // measure 55
00010000
00010000
00000000
00000000
,  // measure 56
00001000
00001000
00000000
00000100
,  // measure 57
00000000
00001000
00001000
00001000
,  // measure 58
00001000
00001000
00000000
00000000
,  // measure 59
00000000
00000200
00000000
00000000
,  // measure 60
00000300
00000100
00000000
00000100
,  // measure 61
00000000
00002000
00000000
00000000
,  // measure 62
00003000
00001000
00000000
00001000
,  // measure 63
00000000
00000010
00000000
00000000
,  // measure 64
00000000
00000001
00000000
00000000
,  // measure 65
00000000
00000100
00000000
00000100
,  // measure 66
00000000
00001000
00000000
00001000
,  // measure 67
00000000
00010000
00000000
00000000
,  // measure 68
00000000
01000000
00000000
00000000
,  // measure 69
00000000
10000000
00000000
10000000
,  // measure 70
00000000
00010000
00000000
00010000
,  // measure 71
00000000
01000000
00000000
00000000
,  // measure 72
00000000
01000000
00000000
00000000
,  // measure 73
00000000
00100000
00000000
00000000
,  // measure 74
00000000
00100000
00000000
00000000
,  // measure 75
00000000
00010000
00000000
00000000
,  // measure 76
00000000
00000010
00000000
00000100
,  // measure 77
00000000
00000010
00000000
00000100
,  // measure 78
00000000
00000010
00000000
00000100
,  // measure 79
00000000
00000010
00000000
00000000
,  // measure 80
00000000
00000001
00000000
00000000
,  // measure 81
00000000
00001000
00000000
00000000
,  // measure 82
00000000
00010000
00000000
00000000
,  // measure 83
00000000
10000000
00000000
00000000
,  // measure 84
00000000
10000000
00000000
10000000
,  // measure 85
00000000
10000000
00000000
00000000
,  // measure 86
00000000
00010000
00000000
00010000
,  // measure 87
00000000
00010000
00000000
00000000
,  // measure 88
00000000
00001000
00000000
00000000
,  // measure 89
00000000
00000001
00000000
00000000
,  // measure 90
00000000
00000100
00000000
00000010
,  // measure 91
00000000
00000100
00000000
00000000
,  // measure 92
00000000
00000001
00000000
00001000
,  // measure 93
00000000
00000001
00000000
00000000
,  // measure 94
00000000
00000100
00000000
00000000
,  // measure 95
00000000
00001000
00000000
00000000
,  // measure 96
00000000
00010000
00000000
00000000
,  // measure 97
00000000
00011000
00000000
00000000
,  // measure 98
00000000
00001000
00000000
00000000
,  // measure 99
00000000
00011000
00000000
00000000
,  // measure 100
00000000
01000000
00000000
00000000
,  // measure 101
00000000
01100000
00000000
00000000
,  // measure 102
00000000
00100000
00000000
00000000
,  // measure 103
00000000
01100000
00000000
00000000
,  // measure 104
00000000
20000000
00000000
30000000
,  // measure 105
00000000
10000000
00000000
00000000
,  // measure 106
00000000
00020000
00000000
00030000
,  // measure 107
00000000
00010000
00000000
00000000
,  // measure 108
00000000
00002000
00000000
00003000
,  // measure 109
00000000
00001000
00000000
00000000
,  // measure 110
00000000
00000002
00000000
00000003
,  // measure 111
00000000
00000001
00000000
00000000
,  // measure 112
00000000
00001000
00000000
00000000
,  // measure 113
00000000
00001000
00000000
00000000
,  // measure 114
00000000
00010000
00000000
00000000
,  // measure 115
00000000
00010000
00000000
00000000
,  // measure 116
00000000
01000000
00000000
00000000
,  // measure 117
00000000
01000000
00000000
00000000
,  // measure 118
00000000
00001000
00000000
00000000
,  // measure 119
00000000
00001000
00000000
00000000
,  // measure 120
00000000
00010000
00000000
00010000
,  // measure 121
00000000
00010000
00000000
00000000
,  // measure 122
00000000
00001000
00000000
00001000
,  // measure 123
00000000
00001000
00000000
00000000
,  // measure 124
00000000
00000100
00000000
00000100
,  // measure 125
00000000
00000100
00000000
00000000
,  // measure 126
00000000
00000010
00000000
00000000
,  // measure 127
00000000
00001000
00000000
00000000
,  // measure 128
00000000
00000001
00000000
00000000
,  // measure 129
00000000
00001000
00000000
00000000
,  // measure 130
00000000
00000100
00000000
00000000
,  // measure 131
00000000
00010000
00000000
00000000
,  // measure 132
00000000
00001000
00000000
00000000
,  // measure 133
00000000
00001000
00000000
00000000
,  // measure 134
00000000
00100000
00000000
00000000
,  // measure 135
00000000
00100000
00000000
00000000
,  // measure 136
00000000
00010000
00000000
00010000
,  // measure 137
00000000
10000000
00000000
10000000
,  // measure 138
00000000
00010000
00000000
00010000
,  // measure 139
00000000
10000000
00000000
10000000
,  // measure 140
00000000
01000000
00000000
00000000
,  // measure 141
00000000
00010000
00000000
00000000
,  // measure 142
00000000
00001000
00000000
00000000
,  // measure 143
00000000
00000100
00000000
00000000
,  // measure 144
00000000
00000001
00000000
00000000
,  // measure 145
00000000
00000010
00000000
00000000
,  // measure 146
00000000
00001000
00000000
00000000
,  // measure 147
00000000
00010000
00000000
00000000
,  // measure 148
00000000
00001000
00000000
00001000
,  // measure 149
00000000
00010000
00000000
00010000
,  // measure 150
00000000
00100000
00000000
00000000
,  // measure 151
00000000
10000000
00000000
00000000
,  // measure 152
00000000
00010000
00000000
00010000
,  // measure 153
00000000
10000000
00000000
10000000
,  // measure 154
00000000
01000000
00000000
00000000
,  // measure 155
00000000
00010000
00000000
00000000
,  // measure 156
00000000
00011000
00000000
00000000
,  // measure 157
00000000
00001000
00000000
00000001
,  // measure 158
00000000
00000010
00000000
00000100
,  // measure 159
00000000
00001000
00000000
00000000
,  // measure 160
00000000
00000000
00010000
00000000
,  // measure 161
00010000
00000000
00000000
00000000
,  // measure 162
00000000
00000000
00000000
00000000
,  // measure 163
01000000
00000000
01000000
00000000
,  // measure 164
00000000
00000000
00000000
00000000
,  // measure 165
00000000
00000000
10000000
00000000
,  // measure 166
10000000
00000000
00000000
00000000
,  // measure 167
00000000
00000000
00000000
00000000
,  // measure 168
00010000
00000000
00010000
00000000
,  // measure 169
00000000
01000000
00000000
00001000
,  // measure 170
00000000
00010000
00000000
00010000
,  // measure 171
00000000
00010000
00000000
00000100
,  // measure 172
00000000
00001000
00000000
00001000
,  // measure 173
00000000
00001000
00000000
00000010
,  // measure 174
00000000
00000100
00000000
00000100
,  // measure 175
00000000
00000100
00000000
00000100
,  // measure 176
00000000
00000001
00000000
00000001
,  // measure 177
00000000
00000010
00000000
00000010
,  // measure 178
00000000
00001000
00000000
00000000
,  // measure 179
00000000
00010000
00000000
00000000
,  // measure 180
00000000
00001000
00000000
00001000
,  // measure 181
00000000
00010000
00000000
00010000
,  // measure 182
00000000
00100000
00000000
00000000
,  // measure 183
00000000
10000000
00000000
00000000
,  // measure 184
00000000
01000000
00000000
01000000
,  // measure 185
00000000
00100000
00000000
00010000
,  // measure 186
00000000
01000000
00000000
00000000
,  // measure 187
00000000
00001000
00000000
00000000
,  // measure 188
00000000
00010000
00000000
00001000
,  // measure 189
00000000
00000100
00000000
00000100
,  // measure 190
00000000
00000010
00000000
00000000
,  // measure 191
00000000
00001000
00000000
00000000
,  // measure 192
00000000
00000001
00000000
00000000
,  // measure 193
00000000
00001001
00000000
00000000
,  // measure 194
00000000
00000010
00000000
00000000
,  // measure 195
00000000
00000100
00000000
00000000
,  // measure 196
00000000
00000100
00000000
00000000
,  // measure 197
00000000
00000010
00000000
00000000
,  // measure 198
00000000
00000010
00000000
00000000
,  // measure 199
00000000
00001000
00000000
00000000
,  // measure 200
00000000
00001000
00000000
00000000
,  // measure 201
00000000
00000100
00000000
00000000
,  // measure 202
00000000
00000100
00000000
00000000
,  // measure 203
00000000
00000000
00010000
00000000
,  // measure 204
00010000
00000000
00001000
00000000
,  // measure 205
00000000
00000000
00100000
00000000
,  // measure 206
00100000
00000000
00010000
00000000
,  // measure 207
00000000
00000000
10000000
00000000
,  // measure 208
10000000
00000000
00100000
00000000
,  // measure 209
00000000
00000000
01000000
00000000
,  // measure 210
01000000
00000000
00010000
00000000
,  // measure 211
00010000
00000000
00100000
00000000
,  // measure 212
00100000
00000000
01000000
00000000
,  // measure 213
00000000
00000000
00010000
00000000
,  // measure 214
00010000
00000000
00001000
00000000
,  // measure 215
00000000
00000000
00000100
00000000
,  // measure 216
00000100
00000000
00000001
00000000
,  // measure 217
00000000
00000000
00001000
00000000
,  // measure 218
00000100
00000000
00001000
00000000
,  // measure 219
00000000
00000000
00010000
00000000
,  // measure 220
00001000
00000000
00010000
00000000
,  // measure 221
00000000
00001000
00000000
00000000
,  // measure 222
00000000
00100000
00000000
00000000
,  // measure 223
00000000
00010000
00000000
00000000
,  // measure 224
00000000
10000000
00000000
00000000
,  // measure 225
01000000
00000000
00000000
00000000
;
