#TITLE:Power 3;
#SUBTITLE:(Industry Mix);
#ARTIST:Stillwind;
#TITLETRANSLIT:;
#SUBTITLETRANSLIT:;
#ARTISTTRANSLIT:;
#CREDIT:;
#BANNER:Power 3 (Industry Mix).png;
#BACKGROUND:Power 3 (Industry Mix)-bg.png;
#LYRICSPATH:;
#CDTITLE:./CDTITLES/Dance Dance Revolution ULTRAMIX4.png;
#MUSIC:Power 3 (Industry Mix).ogg;
#OFFSET:0.000;
#SAMPLESTART:169.226;
#SAMPLELENGTH:15.000;
#SELECTABLE:YES;
#DISPLAYBPM:72.000:351.000;
#BPMS:0.000=147.844,12.000=148.148,16.000=147.541,20.000=148.148,24.000=148.023,180.000=148.148,184.000=147.541,188.000=149.368,204.000=165.939,208.000=165.989,240.000=165.903,280.000=166.090,296.000=166.282,304.000=163.265,312.000=166.924,336.000=165.899,344.000=155.172,352.000=154.176,360.000=159.961,364.000=154.989,436.000=165.138,440.000=164.948,456.000=164.561,472.000=165.237,504.000=77.419,508.000=82.380,512.000=350.037,564.000=350.195,584.000=349.848,599.938=350.543,608.000=295.082,640.000=290.701,664.000=144.035,668.000=290.323,724.000=144.000,728.000=290.749,750.000=142.893,753.938=290.188,828.000=71.713,830.000=290.008,950.000=145.785,954.000=290.043;
#STOPS:344.000=0.367
,608.000=0.500
;
#BGCHANGES:;

//---------------dance-single - ----------------
#NOTES:
     dance-single:
     :
     Beginner:
     1:
     0.190,0.364,0.107,0.036,0.003:
0000
0000
0000
0000
,
0000
0000
0000
0000
,
0000
0000
0000
0000
,
1001
0000
0000
0000
,
0100
0000
0100
0000
,
0100
0000
0000
0000
,
0010
0000
0010
0000
,
0010
0000
0000
0000
,
1000
0000
1000
0000
,
1000
0000
0000
0000
,
0001
0000
0001
0000
,
0001
0000
0000
0000
,
1000
0000
0000
0000
,
0001
0000
0000
0000
,
1000
0000
0000
0000
,
1001
0000
0000
0000
,
0100
0000
0000
0000
,
0010
0000
0000
0000
,
0110
0000
0000
0000
,
0100
0000
0100
0000
,
0100
0000
0000
0000
,
0001
0000
0001
0000
,
0001
0000
0000
0000
,
1000
0000
1000
0000
,
1000
0000
0000
0000
,
0010
0000
0010
0000
,
0010
0000
0000
0000
,
1000
0000
0000
0000
,
0001
0000
0000
0000
,
1000
0000
0000
0001
,
0001
0000
0000
0000
,
0100
0100
0100
0000
,
0010
0000
0000
0000
,
0010
0010
0010
0000
,
0100
0000
0000
0000
,
1000
1000
1000
0000
,
0001
0000
0000
0000
,
0001
0001
0001
0000
,
1000
0000
0000
0000
,
0001
0000
1000
0000
,
0001
0000
0000
0000
,
0100
0000
0010
0000
,
0100
0000
0000
0000
,
1000
0000
0000
0000
,
0001
0000
0000
0000
,
0100
0000
0010
0000
,
1000
0000
0002
0000
,
0000
0003
0000
0000
,
0000
0000
0000
0000
0000
0000
0000
0000
0000
0000
0000
0000
0000
0000
0000
0000
0000
0000
0000
0000
0000
0200
0000
0000
0000
0000
0000
0000
0000
0000
0000
0000
0000
0000
0000
0000
0000
0000
0000
0000
0000
0000
0000
0000
0000
0000
0000
0000
0000
0000
0000
0000
0000
0000
0000
0000
0000
0000
0000
0000
0000
0000
0000
0000
,
0000
0000
0000
0300
0000
0000
0000
0000
0000
0000
0000
0000
0000
0000
0000
0000
0000
0000
0000
0000
0000
0000
0000
0000
0000
0000
0000
0000
0000
0000
0000
0000
,
0000
0000
0000
0000
0000
0000
0000
2000
0000
0000
0000
0000
0000
0000
0000
0000
0000
0000
0000
0000
0000
0000
0000
0000
0000
0000
0000
0000
0000
0000
0000
0000
0000
0000
0000
0000
0000
0000
0000
0000
0000
0000
0000
0000
0000
0000
0000
0000
3000
0000
0000
0000
0000
0000
0000
0000
0000
0000
0000
0000
0000
0000
0000
0000
,
0002
0000
0000
0003
,
1000
0000
0001
0000
,
1000
0000
0001
0001
,
0001
0000
0001
0000
,
0100
0000
0100
0000
,
0010
0000
0010
0000
,
1000
0000
1000
1000
,
1000
0000
1000
0000
,
0100
0000
0100
0000
,
0010
0000
0010
0000
,
0001
0000
1000
0000
,
0002
0000
0000
0003
,
0001
0000
0000
0000
,
2000
0000
0000
3000
,
1000
0000
0000
0000
,
0020
0000
0000
0030
,
0010
0000
0000
0000
,
0200
0000
0000
0300
,
0100
0000
0100
0000
,
1001
0000
0000
0000
,
0010
0000
0010
0000
,
0010
0000
0000
0000
,
0100
0000
0100
0000
,
0110
0000
0000
0000
,
0001
0000
0001
0000
,
0001
0000
0000
0000
,
1000
0000
1000
0000
,
1001
0000
0000
0000
,
0100
0000
0001
0000
,
1000
0000
0000
0000
,
0100
0000
1000
0000
,
0001
0000
0000
0000
,
0010
0000
0001
0000
,
1000
0000
0000
0000
,
0010
0000
1000
0000
,
0000
0001
0000
0000
,
0000
0000
0000
0000
,
0110
0000
0000
0000
,
0000
0000
0000
0000
,
1000
1000
1000
0000
,
0001
0001
0001
0000
,
1000
1000
1000
0000
,
1001
0000
0000
0000
,
1000
1000
1000
1000
,
1000
0000
0000
0000
,
0001
0001
0001
0001
,
0001
0000
0000
0000
,
0010
0010
0010
0010
,
0010
0000
0000
0000
,
0100
0100
0100
0100
,
0100
0000
0000
0000
,
1000
0000
0001
0000
,
1001
0000
0000
0000
,
1000
0000
1000
0000
,
0001
0001
0001
0001
,
0001
0000
0000
0000
,
0100
0000
0000
0000
,
0010
0000
0010
0000
,
2000
0000
0000
3000
,
1000
0000
1000
0000
,
1000
0000
1000
0000
,
0001
0000
0001
0000
,
0001
0000
0001
0000
,
1001
0000
1001
0000
,
1001
0000
1001
0000
,
0001
0000
1000
0000
,
0002
0000
0000
0003
,
0001
0000
0010
0000
,
0110
0000
0100
0000
,
0110
0000
0010
0000
,
0110
0000
0100
0000
,
1000
0000
1000
0000
,
0001
0000
0001
0000
,
1000
0000
1000
0000
,
0001
0001
0001
0001
,
0001
0001
1000
1000
,
0010
0020
0000
0030
,
0100
0000
0100
0000
,
0100
0000
0000
0000
,
1000
0000
1000
0000
,
1000
0000
0000
0000
,
0001
0000
0001
0000
,
0001
0000
0000
0000
,
1000
0000
1000
0000
,
1000
0000
0000
0000
,
0010
0000
0010
0000
,
0010
0000
0000
0000
,
0100
0000
0100
0000
,
0100
0000
0000
0000
,
0001
0000
0001
0000
,
0001
0000
0000
0000
,
1000
0000
1000
0000
,
1000
0000
0000
0000
,
0100
0000
0100
0000
,
0100
0000
0000
0000
,
0010
0000
0010
0000
,
0010
0000
0000
0000
,
0001
0000
0001
0000
,
0001
0000
0000
0000
,
1000
0000
1000
0000
,
1000
0000
1000
0000
,
0010
0000
0000
0000
,
0001
0000
0000
0000
,
1000
0000
0000
0000
,
0100
0000
0000
0000
,
1000
0000
0000
0000
,
1000
0000
0000
0000
,
0001
0000
0000
0000
,
0001
0000
0000
0000
,
1001
0000
0000
0000
,
0100
0000
0000
0000
,
0010
0000
0000
0000
,
0100
0000
0000
0000
,
1001
0000
0000
0000
,
0010
0000
0000
0000
,
0110
0000
0110
0000
,
0010
0000
0000
0000
,
0100
0000
0000
0000
,
1000
0000
0000
0000
,
0001
0000
0000
0000
,
1000
0000
0000
0000
,
0001
0000
0000
0000
,
1000
0000
0000
0000
,
0001
0000
0000
0000
,
0110
0000
0000
0000
,
0100
0000
0000
0000
,
0110
0000
0000
0000
,
0010
0000
0000
0000
,
1001
0000
0000
0000
,
0100
0000
0000
0000
,
0010
0000
0010
0000
,
0110
0000
0000
0000
,
1000
0000
0000
0000
,
0001
0000
0000
0000
,
1000
0000
0000
0000
,
0001
0000
0000
0000
,
1000
0000
0100
0000
,
0100
0000
0110
0000
,
0000
1000
0000
0000
,
0000
0001
0000
0000
,
0000
1000
0000
0000
,
0000
0001
0000
0000
,
0000
1000
0000
0000
,
0001
0000
0000
0000
,
0110
0000
0000
0000
,
0010
0000
0000
0000
,
0100
0000
0000
0000
,
0001
0000
0000
0000
,
1000
0000
0000
0000
,
0010
0000
0000
0000
,
0100
0000
0000
0000
,
0001
0000
0000
0000
,
1000
0000
0000
0000
,
0100
0000
0000
0000
,
0010
0000
0000
0000
,
0001
0000
0000
0000
,
0110
0000
0001
0000
,
0000
0000
0001
0000
,
0000
0000
1000
0000
,
0000
0000
1000
0000
,
0000
0000
0110
0000
,
0000
0000
0100
0000
,
0000
0000
0100
0000
,
0000
0000
0010
0000
,
0000
0000
0110
0000
,
0000
0000
0010
0000
,
0000
0000
0010
0000
,
0000
0000
0100
0000
,
0000
0000
1001
0000
,
0000
0000
0001
0000
,
0000
0000
1000
0000
,
0000
0000
0001
0000
,
1000
0000
1001
0000
,
0000
0000
0100
0000
,
0010
0000
0100
0000
,
0000
0000
0100
0000
,
0010
0000
1000
0000
,
0000
0000
1000
0000
,
0001
0000
0001
0000
,
0000
0000
0001
0000
,
1000
0000
0100
0000
,
0000
0000
0100
0000
,
0001
0000
0010
0000
,
0000
0000
0010
0000
,
1000
0000
0100
0000
,
0000
0000
0001
0000
,
1000
0000
0100
0100
,
0100
0000
0100
0000
,
0010
0000
0100
0000
,
0010
0000
1000
0000
,
0001
0000
1000
0000
,
0001
0000
1000
0000
,
0001
0000
1000
0000
,
0001
0000
1000
0000
,
0001
0000
1000
0000
,
1001
0000
0000
0100
,
0000
0100
0000
0000
,
0100
0000
0000
1001
;

//---------------dance-single - ----------------
#NOTES:
     dance-single:
     :
     Easy:
     5:
     0.342,0.651,0.137,0.156,0.011:
0000
0000
0000
0000
,
0000
0000
0000
0000
,
0000
0000
0000
0000
,
1000
0000
1000
0000
,
1000
0001
1000
0000
,
0001
0000
0001
0000
,
0001
1000
0001
0000
,
0100
0000
0100
0000
,
0100
0001
0100
0000
,
0010
0000
0010
0000
,
0010
1000
0010
0000
,
1001
0000
0000
1000
,
0010
0100
0010
0100
,
0001
0000
0000
1000
,
0200
0000
0300
0100
,
0020
0000
0030
0001
,
0100
0010
0100
0010
,
2000
0000
0000
3000
,
0002
0000
0000
0003
,
0100
0000
0010
0000
,
1000
0000
1000
0100
,
1000
0000
0010
0000
,
0100
0000
0100
0001
,
0100
0000
0010
0000
,
1000
0000
1000
0100
,
1000
0000
0001
0000
,
1000
0000
0001
0100
,
0001
0000
0000
1000
,
0100
0000
0000
0001
,
0100
0000
0000
1000
,
1001
0000
0000
0000
,
0001
0100
0001
0100
,
0010
0000
0010
0000
,
1000
0100
1000
0100
,
0001
0000
0001
0000
,
0100
0010
0100
0010
,
1000
0000
1000
0000
,
0001
0100
0001
0100
,
0010
0000
0010
0000
,
1000
1000
0001
0000
,
0100
0100
0001
0000
,
1000
1000
0010
0000
,
0100
0100
0010
0000
,
1000
0000
0001
0000
,
1000
0000
0010
0000
,
0100
0000
0001
0000
,
1000
0000
2002
0000
,
0000
0000
0000
0000
,
0000
0000
0000
0000
,
0000
0000
0000
0000
,
3003
0000
0000
0000
0000
0000
0000
0000
0000
0000
0000
0100
0000
0000
0000
0000
0000
0000
0000
0000
0000
0000
0000
0000
0000
0010
0000
0000
0000
0000
0000
0000
,
0000
1000
0000
0100
,
0010
0010
0001
0001
,
1000
0001
1000
0001
,
0100
0000
0010
0000
,
0100
0010
0200
0300
,
0001
0000
0010
0000
,
0001
0010
0002
0003
,
1000
0000
0100
0000
,
1000
0100
2000
3000
,
0001
0000
1000
0000
,
0001
1000
0002
0003
,
1001
2000
0000
0001
,
0000
0001
0000
3001
,
0001
0002
0000
1000
,
0000
1000
0000
1003
,
0100
0020
0000
0001
,
0000
0001
0000
0031
,
0100
0020
0000
1000
,
0000
1000
0000
1030
,
0002
0003
2000
3000
,
0001
1000
0100
0000
,
0020
0030
0200
0300
,
0010
0100
1000
0000
,
0020
0030
0200
0300
,
0010
0100
0001
0000
,
2000
3000
0002
0003
,
0010
0100
1000
0001
,
2000
3000
0002
0003
,
0200
0300
0010
0010
,
0020
0030
0200
0300
,
0002
0003
0010
0010
,
0020
0030
0200
0300
,
2000
3000
0001
0001
,
0002
0003
0200
0300
,
0020
0030
1000
0001
,
2002
3003
0000
0000
,
0000
0000
0000
0000
,
0220
0000
0000
0000
,
0000
0000
0330
0000
,
0001
1000
0100
1000
,
0001
0001
0010
0001
,
1000
1000
0100
0010
,
0002
0000
0000
0003
,
0100
0001
0100
1000
,
0100
0001
0100
1000
,
0010
0001
0010
1000
,
0010
0001
0010
1000
,
0001
0010
0001
0100
,
0001
0010
0001
0100
,
1000
0010
1000
0100
,
1000
0010
1000
0100
,
1001
0000
0010
1000
,
1001
0000
0100
0001
,
1001
0000
0110
0000
,
0100
0010
0001
1000
,
1001
0000
0001
0000
,
0011
0000
1000
0000
,
1100
0000
0001
0000
,
0101
0000
0000
0000
,
0010
1000
0010
1010
,
1000
0100
1000
1100
,
0100
0010
0100
0110
,
0010
0001
0010
0011
,
0001
0100
0001
0101
,
0101
0000
1100
1000
,
1100
0000
0011
0000
,
2002
0000
0000
3003
,
0010
0001
0010
0011
,
0001
0100
0001
0101
,
0100
0010
0100
0110
,
0010
1000
0010
1010
,
1000
0001
1000
1001
,
0001
0100
0010
0110
,
0100
0010
0100
0010
,
0001
1000
0001
1000
,
2001
3010
1002
0103
,
2001
3010
1002
0003
,
0010
0000
0010
0000
,
0001
0010
0001
0000
,
1000
0000
1000
0000
,
0010
1000
0010
0000
,
1000
0000
1000
0000
,
0100
1000
0100
0000
,
0010
0000
0010
0000
,
0001
0010
0001
0000
,
0100
0000
0100
0000
,
0001
0100
0001
0000
,
1000
0000
1000
0000
,
0100
1000
0100
0000
,
0010
0000
0010
0000
,
0100
0010
0100
0000
,
1000
0000
1000
0000
,
0001
1000
0001
0000
,
0100
0000
0010
0000
,
0100
0000
0010
0000
,
1000
0000
0001
0000
,
1000
0000
0001
0000
,
0010
0000
0001
0000
,
0010
0000
0001
0000
,
1000
0000
0010
0000
,
1000
0000
0010
0000
,
0001
0100
0001
0000
,
1000
0000
0010
0000
,
0001
0000
0100
0000
,
1000
0000
0010
0100
,
0000
0001
0000
0000
0001
0000
0000
1000
,
0000
1000
0000
0010
,
0100
0000
0001
0000
,
1000
0000
0000
0010
,
0100
0001
0100
0000
,
0010
0000
0000
1000
,
0010
0000
0100
0000
,
0001
0000
0001
0010
,
0001
1000
0001
0000
,
0100
0000
0000
0010
,
1000
0000
0000
0000
1000
0000
0000
0000
0000
0001
0000
0000
0000
0001
0000
0000
,
0010
0100
1000
0000
,
0001
0000
0001
0000
,
0010
0100
0001
0000
,
1000
0000
1000
0000
,
0010
0100
0010
0000
,
0001
0000
0001
0000
,
1000
0000
1000
0000
,
0010
0100
0000
1001
,
0001
1000
0001
0000
,
0010
0100
0000
1001
,
1000
0001
1000
0000
,
0010
0100
0000
1001
,
0001
0010
0100
0000
,
1000
0000
0001
0000
0000
0001
0000
0000
,
0010
0000
0000
0000
0000
0000
0100
0000
0000
0001
0000
0000
0000
0000
0000
0000
,
0001
0010
0000
1000
,
0010
0000
0001
0100
,
0000
1000
0100
0000
,
0001
1000
0000
1000
,
0001
0000
0010
0100
,
0000
1000
1010
0101
,
0011
1100
1000
0010
,
0000
0001
0010
0000
,
0001
0100
0000
1000
,
0100
0000
0001
0010
,
0000
0001
0100
0000
,
1000
0010
0000
1000
,
0100
0000
0001
0010
,
0001
0000
1000
0100
,
1000
0000
0010
1000
,
0010
0000
0100
0001
,
0100
0000
0001
1000
,
0001
0000
0010
0100
,
0010
0000
0100
1000
,
0001
0000
0010
0010
,
0000
0100
0100
0000
,
1000
1000
0000
0001
,
0001
0000
0100
0100
,
0000
0010
0010
0000
,
1000
0001
0000
0200
,
0000
0300
1000
0010
,
1000
0000
0001
0000
,
0001
0000
0010
0000
,
0010
0100
1000
0000
,
0001
1000
0001
0000
,
0100
0000
0100
0000
,
0010
0000
1000
0010
,
1000
0000
0001
0000
,
0000
1000
0001
0010
,
0001
0000
1000
0000
,
1000
0010
0000
0100
,
0000
0001
0010
0000
,
1000
0000
0100
0000
0000
1000
0000
0000
,
0001
0000
0000
1000
0000
0000
0010
0000
,
0000
1000
0000
0000
0000
0010
0000
0100
,
0000
0010
0000
0000
1000
0000
0000
0000
,
0001
1000
0001
0010
,
0000
1000
0000
1000
,
0000
0001
1000
0010
,
0000
0001
0000
0001
,
0000
1000
0001
0100
,
0000
1000
0000
1000
,
0000
0001
1000
0100
,
0000
0001
0000
0001
,
0000
1000
0001
0010
,
0000
1000
0000
1000
,
0000
0001
1000
0010
,
0000
0001
0000
0001
,
0000
1000
0001
0100
,
0000
1000
0000
1000
,
0000
0000
0000
0000
0001
0000
0000
0000
0100
0000
0000
0100
0000
0000
0010
0000
,
0000
0010
0000
0000
0000
0000
1000
0000
0001
0000
0000
0000
0010
0000
0000
0000
,
0100
1000
0001
0010
,
0100
1000
0000
0010
,
0000
0100
0000
0001
,
0000
1000
0000
0010
,
0000
0100
0000
0001
,
0000
1000
0010
0100
,
0000
0001
0010
0000
,
0100
0000
1000
0001
,
0000
0000
0010
0000
0000
0000
0000
0100
,
0000
0000
0000
2002
,
0000
0000
0000
0000
,
0000
3003
0000
0000
;

//---------------dance-single - ----------------
#NOTES:
     dance-single:
     :
     Medium:
     8:
     0.496,0.651,0.332,0.179,0.016:
0000
0000
0000
0000
,
0000
0000
0000
0000
,
0000
0000
0000
0000
,
1100
0000
0000
1000
0010
0000
0000
0100
,
0001
0010
0200
0300
,
0011
0000
0000
0001
0100
0000
0000
0010
,
1000
0100
0020
0030
,
0101
0000
0000
0001
0010
0000
0000
0100
,
1000
0001
0200
0300
,
1010
0000
0000
1000
0100
0000
0000
0010
,
0001
1000
0020
0030
,
0200
0000
0000
0300
,
0001
0010
0001
0000
1000
0000
1000
0000
,
0010
1000
0200
0000
0000
0000
0310
0000
,
0011
0101
1010
1100
,
0200
0000
0000
0300
,
1000
0010
1000
0000
0001
0000
0001
0000
,
0020
0000
0000
0000
0000
0000
0000
0130
,
0000
0000
1100
0101
,
1000
0010
0001
0000
0010
0000
1010
0000
,
1002
0000
0103
0000
,
0001
0010
1000
0000
0010
0000
0011
0000
,
2001
0000
3100
0000
,
1000
0100
0001
0000
0100
0000
0110
0000
,
0012
0000
1003
0000
,
0001
0100
1000
0000
0100
0000
0110
0000
,
2010
0000
3001
0000
,
0100
0000
0010
1010
,
1000
0000
0001
0011
,
0010
0000
0100
0110
,
0020
0000
0031
1001
,
0000
0000
1000
1000
0001
0000
0021
0000
,
0000
0031
0000
0010
0100
0000
0000
0000
,
0000
1000
0001
1000
,
0000
0101
0000
0001
0010
0000
0000
0000
,
0000
0000
0001
0001
1000
0000
1020
0000
,
0000
1030
0000
0010
0100
0000
0000
0000
,
0000
0001
1000
0001
,
0000
1100
0000
1000
0010
0000
0000
0000
,
0000
0000
1000
1000
0100
0000
0120
0000
,
0000
0130
0000
0010
0001
0000
0000
0000
,
0000
1000
0010
0100
,
0000
0101
0000
0001
1000
0000
0000
0000
,
0000
1010
0000
0101
,
0000
0011
0000
1100
,
0000
1001
0000
0110
,
0000
0101
2002
0000
,
0000
0000
0000
0000
,
0000
0000
0000
0000
,
0000
0000
0000
3003
,
0000
0000
0000
0000
0000
0000
0010
0000
0000
0000
0000
0000
0000
0000
0000
0000
0000
0000
0000
0000
0000
0100
0000
0000
0000
0000
0000
0000
0000
0000
0000
0000
0000
0000
0000
0010
0000
0000
0000
0000
0000
0000
0010
0000
0000
0000
0000
0000
0000
0100
0000
0000
0000
0000
0000
0000
0000
0000
0000
0000
0000
0000
0000
0000
,
0001
0000
1000
0000
0001
0001
1000
0000
,
1100
1100
0101
0101
,
1000
0001
1000
0001
1000
0000
1001
0000
,
0100
0000
0001
0010
0000
0001
1000
0000
,
0010
0001
0010
1000
,
0100
0000
1000
0010
0000
1000
0001
0000
,
1000
0010
0100
0101
,
1100
0000
0000
0010
0000
0000
1000
0000
,
0100
1000
0010
0100
,
0001
0000
0000
0010
0000
0000
0100
0000
,
1000
0010
2002
3003
,
1001
1000
0001
0100
,
1000
0100
0001
0010
,
0100
0010
0001
0010
,
0100
1000
0100
0001
,
0100
0100
0010
0010
,
0001
1000
0001
1000
,
0010
0010
0100
0100
,
0001
0000
1000
0000
0001
1000
0001
1000
,
1001
0000
0000
1001
0000
0000
0100
0000
,
0010
1000
0100
1000
,
0020
0000
0000
0230
0000
0000
0301
0000
,
0100
1000
0100
0010
,
1010
0000
0000
0101
0000
0000
1000
0000
,
0100
0010
0001
0100
,
0020
0000
0000
0230
0000
0000
0300
0000
,
1000
0100
0001
0010
,
0200
0000
0000
0302
0000
0000
0203
0000
,
0000
0320
0000
0000
1030
0000
0010
0000
,
0002
0000
0000
0203
0000
0000
2300
0000
,
0000
3200
0000
0000
0310
0000
1000
0000
,
0002
0000
0000
0023
0000
0000
0230
0000
,
0000
2300
0000
0000
3100
0000
1000
0000
,
1010
0000
0000
0101
0000
0000
0011
0000
,
0000
1100
0000
0000
1001
0000
0110
0000
,
2002
0000
0000
0000
,
0000
0000
3003
0000
0000
0000
0000
0100
,
0020
0200
0000
0000
0000
0000
0000
0000
,
0000
0000
0330
0000
,
1000
0001
0100
0000
0010
1000
0100
0000
,
1000
0001
1000
0001
1000
0010
0100
0000
,
0001
1000
0010
0000
0100
0001
0010
0000
,
0002
2003
3002
0013
,
0001
0100
0010
1000
0001
0100
0010
0000
,
1010
1100
1010
1001
,
1000
0100
0010
0001
1000
0100
0010
0000
,
0011
0101
0011
1001
,
1000
0010
0100
0010
0000
1000
0000
0010
,
0000
1000
0000
0110
0000
0110
0000
1000
,
0001
0010
0100
0010
0000
0001
0000
0010
,
0000
0001
0000
0110
0000
0110
0000
0010
,
0200
0000
1300
0000
0010
0010
0010
0000
,
0100
0001
0010
0001
0100
0001
1000
0000
,
0001
0100
1000
0000
0100
0001
0100
0000
,
0001
1000
0010
0100
0010
1000
0001
0010
,
0200
0000
1000
0010
,
0001
0001
0010
1300
,
2002
0000
0000
0000
,
0000
0000
0000
0000
0000
3003
0000
0000
,
1000
0001
0000
1000
0000
0010
1000
0000
,
0100
0010
0000
0002
0000
0000
0103
0000
,
0010
0100
0110
0110
,
0010
1000
0100
0010
0001
0010
0001
0000
,
0010
0001
0000
0010
0000
0001
1000
0000
,
0010
0100
0000
0002
0000
0000
1003
0000
,
0001
0010
0100
0010
0001
0100
0010
0000
,
2000
3200
0320
0031
,
0011
1001
1100
1010
,
1000
0010
0100
0000
1000
0001
0100
0000
,
1010
1001
0101
0011
,
0001
0100
1000
0100
0010
1000
0001
0000
,
1000
0100
0000
1000
0000
0000
0010
0000
,
0100
0001
0000
1000
0001
1000
0001
0000
,
1001
0110
1001
0110
,
0010
1000
0100
0010
0001
0100
0010
0000
,
1000
0000
0001
0000
0100
0100
0001
0000
,
0010
0001
0010
0100
1000
0000
0000
0000
,
1000
0001
1000
0000
,
0010
0000
0100
0000
,
0001
0010
0100
0000
,
1000
0010
0100
0000
,
0001
1000
0001
0010
,
0001
0100
0010
1000
,
0000
0010
0000
0100
,
0000
0001
0000
1000
,
0100
1000
0010
0100
,
0000
0010
0000
0100
,
0000
0001
0000
0101
,
0000
0101
0000
0100
,
0010
1000
0100
0010
,
0000
0001
0000
1000
,
0000
0010
0000
0100
,
0000
0001
1000
0000
,
1010
0000
0101
0000
,
1000
0000
0001
0000
,
1100
0000
0011
0000
,
0100
0000
0010
0000
,
0110
0000
0011
0000
,
1001
0000
1010
0000
,
1000
0100
0010
0100
,
1000
0001
0010
0100
,
0001
0010
1000
0010
,
0001
0100
0010
1000
,
0010
0100
0001
1000
,
0010
0000
1000
0000
0000
0001
0010
0000
,
0000
1000
0000
0000
1000
0000
0000
0001
,
0000
0001
0010
0100
,
1000
0001
0010
0000
,
1000
0000
0000
1001
,
0010
0100
0010
1000
,
0001
0000
0010
0000
0000
0100
0010
0000
,
0100
1000
0010
0100
,
0001
0000
1000
0000
0000
0010
0100
0000
,
0001
0010
0100
1000
,
0010
0000
0100
0000
0000
0001
0010
0000
,
0011
0000
0000
0000
1010
0000
0000
0000
0000
0010
0000
0000
0000
0010
0000
0000
,
0100
0001
0100
1000
,
0100
0001
0010
0001
,
0100
0010
1000
0001
,
0010
0100
1000
0001
,
0010
1000
0010
0001
,
1000
0010
0100
0001
,
0010
0000
0100
0000
0000
1000
0001
0000
,
0100
0000
0001
0010
0000
0000
0100
0000
,
1000
0001
1000
0010
,
0000
0100
0000
0001
0000
0010
0100
0000
,
1000
0001
1000
0100
,
0000
0010
0000
0001
0000
0100
0010
0000
,
1000
0001
1000
0010
,
0000
0100
0000
0001
0000
0010
0000
0000
,
0001
0000
0001
0000
0000
0000
1000
0000
0000
1000
0000
0000
0000
0000
0010
0000
,
0100
0001
0100
0001
,
1000
0010
1000
0010
,
0100
0001
0010
0001
,
0010
0100
1000
0100
,
1000
0010
0100
0001
,
0100
0001
0101
0110
,
1010
1001
0001
0010
,
0000
0100
0000
1000
0010
0000
0100
0000
,
0001
0010
0000
0000
0100
1000
0000
0000
,
1000
0010
0000
0000
0100
0001
0000
0010
,
0000
0100
1000
0000
0000
1000
0010
0000
,
0000
0010
0100
0000
0000
0100
0001
0000
,
1000
0000
0010
0100
0000
0000
0001
0000
,
0001
0010
0001
1000
,
0100
1000
0100
0010
,
0001
1000
0010
0100
,
0001
1000
0010
0100
,
0001
1000
0100
0010
,
0001
0100
0010
1000
,
0000
0001
0000
1000
0000
0010
0100
0000
,
0000
0001
0000
1000
0000
0100
0010
0000
,
0100
1000
0000
0000
0001
0000
1000
0010
,
0000
0000
1000
0000
0001
0010
0000
0000
,
0100
0000
1000
0010
0000
0000
0100
0000
,
0001
1000
0001
0000
0010
0000
0200
0000
,
0000
0300
1000
0010
,
0001
0010
1000
0010
,
0001
0010
1000
0100
,
0000
1000
0001
0000
0010
0000
0010
0000
,
0001
0000
0100
0000
0001
0000
0000
1000
,
0000
0010
0000
0000
0100
0000
0000
0010
,
0000
0000
1000
0000
0001
0010
0001
0000
,
0001
1000
0001
0000
0100
0000
0000
0000
,
0000
1001
0001
0010
,
0100
1000
0001
0100
,
0010
1000
0001
0010
,
0000
0100
1000
0000
0010
0000
0100
0000
,
0001
0000
0100
0000
0010
1000
0000
0000
,
1000
0000
0000
0001
0000
0000
0001
0000
,
0000
0010
0000
0000
0000
0100
0000
0100
,
0000
0100
1000
0000
0001
0000
0010
0000
,
0001
0000
1000
0000
0001
0010
0000
0000
,
0100
0100
1000
0010
,
1000
0000
0001
0000
1000
0010
0000
0000
,
0100
0100
0001
0010
,
0001
0000
1000
0000
0001
0100
0000
0000
,
0010
0010
1000
0100
,
1000
0000
0001
0000
1000
0100
0000
0000
,
0010
0010
0001
0100
,
0001
0000
1000
0000
0001
0010
0000
0000
,
0100
0100
1000
0010
,
0001
0000
0010
0000
1000
0010
0000
0000
,
0100
0100
0001
0010
,
1000
0000
0010
0000
0001
0100
0000
0000
,
0010
0010
1000
0100
,
0001
0000
0000
0000
0100
0000
0000
0000
1000
0000
0000
1000
0000
0000
0001
0000
,
0000
0001
0000
0000
0100
0000
0010
0000
1000
0000
0000
0000
0010
0000
0000
0000
,
0100
0001
0010
0100
,
1000
0000
0001
0000
0100
0010
0000
0000
,
0010
1000
0000
0000
1000
0001
0000
0000
,
0001
0010
0000
0000
0010
0100
0000
0000
,
0100
1000
0000
0000
1000
0001
0000
0000
,
0001
0010
0000
0000
0100
0000
1000
0000
,
0010
0000
0100
0000
0001
0000
1000
0010
,
0000
0000
0100
0100
,
0000
0000
0001
0000
0000
0010
0000
0000
,
0010
0100
0000
2002
,
0000
0000
0000
0000
,
0000
3003
0000
0000
;

//---------------dance-single - ----------------
#NOTES:
     dance-single:
     :
     Hard:
     10:
     0.867,1.000,0.416,0.325,0.283:
0000
0000
0000
0000
,
0000
0000
0000
0000
,
0000
0000
0000
0000
,
1001
0000
0100
1000
0001
0000
0010
0001
,
0200
0320
0130
1010
,
1001
0000
0100
0001
0100
0000
0001
1000
,
0020
2030
3010
0101
,
0010
1000
0100
1000
0010
0100
0001
0010
,
0002
0203
0301
0110
,
0100
0001
0010
0100
0010
0001
0100
1000
,
0200
0000
0000
0000
0320
0000
0000
0000
1030
0000
0001
0000
0100
0010
0100
0010
,
0100
0000
1001
0000
0100
0001
0011
0000
,
0100
0010
0110
0000
0010
1000
1100
0000
,
0010
0001
0100
1000
0100
0001
0010
1000
,
0020
0000
0032
0000
0103
0000
0010
0100
,
0010
1000
0110
0000
0100
1000
1010
0000
,
0100
0010
0110
0000
0010
0001
0101
0000
,
0010
1000
0100
0001
0100
1000
0010
0001
,
0020
0000
0000
0000
2030
0000
0000
0000
3001
0100
0001
0100
0001
0100
0010
0000
,
0100
0000
0010
0000
1000
0001
1000
0000
,
0100
0000
0010
0000
0001
1000
0001
0100
,
0001
0000
0010
0000
0100
1000
0100
0000
,
0100
0010
0100
0000
1000
0001
1000
0100
,
1000
0000
0010
0000
0100
0001
0100
0000
,
0100
0010
0100
0000
0001
1000
0001
0100
,
0001
0000
0010
0000
0100
1000
0100
0000
,
0100
0010
0100
1000
0100
0010
0100
0001
,
0100
0000
1000
2001
0000
3100
2100
0000
,
3002
0000
0103
0102
0000
1003
2001
0000
,
3020
0000
0031
0012
0000
0013
2010
0000
,
3002
0003
0110
1001
,
0010
0100
1000
0001
1000
0100
0010
0001
,
0010
0100
0010
0001
0010
0100
1000
0010
,
1000
0100
1000
0010
1000
0010
0100
0001
,
1000
0010
0100
0001
1000
0100
1000
0001
,
0010
0001
0100
0001
0010
0001
0100
0010
,
1000
0100
0010
0100
1000
0100
0010
0100
,
1000
0010
0100
0001
1000
0010
0100
0001
,
1001
0101
0000
0101
1001
0000
1100
0000
,
0010
0100
0001
0010
0100
1000
0100
0010
,
0100
0001
0100
1000
0100
0010
0001
0100
,
0010
1000
0001
0100
0010
1000
0010
0100
,
0010
1000
0010
0001
0010
0100
0001
1000
,
0010
0020
1000
2030
0001
3002
1000
2003
,
0100
3200
1000
2300
0001
3002
0010
0013
,
0200
2300
3002
0203
,
0300
0020
0000
1030
0002
0000
0000
0000
,
0000
0000
0000
0000
0000
0000
0000
0000
0000
0000
0000
0000
0000
0013
0000
0000
0000
0020
0000
0000
0000
0000
0000
0000
0000
0000
0000
0000
0000
0000
0000
0000
,
0000
0000
0000
0000
0000
0230
0000
0000
0000
0000
0000
0000
0000
0000
0000
0000
,
0000
0000
0000
0000
0000
0000
0000
0000
0000
0000
0000
0000
1300
0000
0000
0000
0000
0000
0000
0000
2000
0000
0000
0000
0000
0000
0000
0000
0000
0000
0000
0000
0000
0000
0000
0000
0000
0000
0000
0000
0000
0000
0000
0000
0000
0000
0000
0000
0000
0000
0000
0000
0000
0000
0000
0000
3000
0000
0000
0000
0000
0000
0000
0100
,
0000
0000
0000
1000
0000
0000
0000
0001
0000
0000
0000
0000
0000
0000
0000
0000
0000
0000
0000
0000
0101
0000
0000
0000
0000
0000
0000
0000
0000
0000
0000
0000
0000
0000
0000
0010
0000
0000
0000
0000
0000
0000
0010
0000
0000
0000
0000
0000
0000
0100
0000
0000
0000
0000
0000
0000
0000
0001
0000
0000
1000
0000
0000
0000
,
0100
0000
0000
0000
0011
0000
0000
0000
0100
0000
0100
0000
0010
0000
0001
0010
,
0001
0000
0010
0100
0010
0000
0100
1000
0100
0000
1000
0001
1000
0000
0001
1000
,
0001
1000
0001
1000
0001
1000
0001
0000
,
1001
0000
0100
0002
0000
0103
2000
0000
,
3100
0000
0010
0001
0100
0001
1001
0000
,
1010
0000
0010
0002
0000
0013
2000
0000
,
3010
0000
0100
0001
0010
0100
1000
0010
,
1001
0000
0010
2000
0000
3010
0002
0000
,
0013
0000
0000
0000
0100
0000
1000
0000
0001
1000
0001
1000
0010
0100
0001
0000
,
0101
0000
0100
2000
0000
3100
0002
0000
,
0103
0000
0010
1000
0010
1000
0010
0100
0001
1000
0001
0000
1000
0001
1000
0000
,
0010
0000
0001
0000
1000
0100
0000
1000
0010
0000
1000
0001
0000
1000
0100
0000
,
0010
0000
0001
0000
0100
0001
0000
0010
0001
0000
1000
0001
0000
0100
0001
0000
,
1000
0000
0010
0000
0100
0001
0000
0100
0010
0000
0100
1000
0000
0100
0010
0000
,
0100
0000
0001
0000
0010
0100
0000
0010
1000
0000
0010
0100
0000
0010
0001
0000
,
1000
0000
0001
0000
0100
0010
0000
1000
0001
0000
0010
0100
0000
1000
0001
0000
,
0010
0000
1000
0000
0010
0100
0000
1000
0001
0000
0100
0010
0000
1000
0010
0000
,
0100
0000
0001
0000
0010
0001
0000
0100
0010
0000
1000
0100
0000
0010
0001
0000
,
0100
0000
0010
0000
1000
0100
0000
0010
0001
0000
0100
0010
0000
1000
0001
0000
,
2001
0000
3001
0110
0000
0110
0001
1000
,
0010
0100
0001
0100
0010
1000
0100
0010
,
0002
0000
0103
2000
0000
3100
0002
0000
,
1003
0010
0100
0001
0010
0100
1000
0010
,
1002
0000
1003
0110
0000
0110
1000
0001
,
0010
0100
1000
0100
0010
1000
0001
0100
,
2000
0000
3010
0002
0000
0013
2000
0000
,
3001
0010
0100
1000
0010
0100
0001
0010
,
0200
0000
0000
2300
0000
0000
3020
0000
,
0000
0032
0000
0000
0013
0000
0100
0000
,
2200
0000
0000
0000
0000
0000
0000
0000
0000
0000
0000
0000
0000
0000
0000
0000
3300
0000
0000
0000
0000
0000
0000
0202
0000
0000
0000
0000
0000
0000
0000
0000
0000
0000
0000
0000
0000
0000
0000
0303
0000
0000
0000
0000
0000
0000
0000
0022
0000
0000
0000
0000
0000
0000
0000
0000
0000
0000
0000
0000
0000
0000
0000
0033
,
0000
0000
0000
0000
0000
0000
0000
2020
0000
0000
0000
0000
0000
0000
0000
0000
0000
0000
0000
0000
0000
0000
0000
3030
0000
0000
0000
0000
0000
0000
0000
0000
0110
0000
0000
0000
0000
0000
0000
0000
0000
0000
0000
0000
0000
0000
0000
0000
0101
0000
0000
0000
0000
0000
0000
0000
0000
0000
0000
0000
0000
0000
0000
0000
,
0001
0002
0000
0103
0200
0000
1300
2000
,
0000
3010
0020
0000
0031
0001
0010
0010
,
1000
0000
0100
1000
0010
0000
0100
0000
0001
0010
0100
0000
1000
0000
0001
0100
,
0010
1000
0001
0100
0010
1000
0001
0000
,
2000
0000
0000
0000
,
0000
0000
0000
0000
3000
0000
0000
0110
,
1001
0202
0000
0000
0000
0000
0000
0000
,
0000
0000
0303
1001
,
0001
0100
0001
0100
0001
0000
1000
0010
0000
0100
0001
0000
1000
0000
0001
0000
,
1000
0100
1000
0100
1000
0000
0001
0010
0000
0100
1000
0000
0001
0000
1000
0000
,
0001
0000
0010
0100
1000
0000
0001
0000
1000
0000
0010
0100
0001
0000
1000
0000
,
0010
1000
0001
0010
0100
0000
0010
0000
0001
1000
0010
0100
0001
0000
0010
0000
,
1001
0000
0100
0000
1000
0000
0010
0000
1000
0000
0100
0000
1000
0010
0100
0000
,
0001
0000
0010
0000
0001
0000
0100
0000
0001
0000
0010
0000
0001
0100
0000
0001
,
0010
0000
0100
0000
1000
0000
0010
0000
0100
0000
0001
0000
0010
0001
1000
0000
,
0100
0001
0000
0001
0100
0000
1000
0000
0010
0001
0000
0001
0010
0000
1000
0000
,
0100
0000
1000
0000
0010
0000
1000
0000
0100
0000
1000
0000
0010
1000
0100
0000
,
0010
0000
0001
0000
0100
0000
0010
0000
1000
0000
0100
0000
0010
0001
0000
1000
,
0010
0000
0100
0000
0001
0000
0010
0000
0100
0000
1000
0000
0010
0100
0010
0000
,
1000
0100
0000
0100
1000
0000
0010
0000
0100
0001
0000
0001
0100
0000
0010
0000
,
1000
0000
0100
0001
0100
0000
1000
0000
0001
0000
1000
0000
0100
0000
0010
0000
,
0001
0000
0100
1000
0100
0000
0001
0000
1000
0000
0001
0000
0100
0000
0010
0000
,
0101
0000
1000
0010
1000
0000
0001
0000
1100
0000
0001
0010
0001
0000
1000
0000
,
0110
0000
1000
0001
1000
0000
0010
0000
0100
0001
0010
0100
1000
0001
0100
0010
,
2000
0000
0200
3000
2000
0300
0020
3000
,
0002
0030
0200
0003
0002
0300
0020
0003
,
2030
0000
0200
3000
0002
0300
0020
0003
0002
0030
0200
0003
2000
0300
3001
0000
,
2002
0000
0000
0000
0000
3003
0011
1100
,
1001
0000
0010
0000
0100
0000
0001
0000
0010
0000
0001
0000
0100
1000
0000
0001
,
0010
0000
1000
0000
0001
0000
0010
0000
0100
0000
1000
0001
1000
0000
0001
0000
,
1000
0000
0100
0000
0010
0000
0001
0000
0100
0001
0000
1000
0100
0000
0001
0000
,
0100
1000
0000
0001
0100
0000
0010
0000
1000
0100
0010
0100
1000
0001
0100
0010
,
0100
0000
0010
0000
1000
0000
0001
0000
0010
0000
0100
0001
0000
0001
0100
0000
,
1000
0000
0010
0000
0100
0000
0001
0010
0001
0000
1000
0000
0100
0000
1000
0000
,
0001
0010
0100
1000
0001
0000
1000
0000
0010
0000
0001
0000
0100
0000
1000
0000
,
2002
0000
0000
0000
0000
0000
0000
3003
1100
0000
0011
0000
0101
0000
1010
0000
,
1000
0000
0001
0000
0100
0001
0100
0001
1000
0000
0100
0000
0010
0000
0100
0000
,
1000
0010
0000
0100
0001
0000
0010
0000
0001
0100
0000
0010
1000
0000
0001
0000
,
0100
0000
0001
0000
1000
0100
1000
0100
0010
0000
0001
0000
1000
0000
0001
0000
,
0100
0010
0000
1000
0100
0000
0010
0001
0000
0100
0010
0000
1000
0001
1000
0001
,
1000
0000
0001
0000
0100
0000
0010
0000
0001
0010
0000
1000
0100
0000
1000
0000
,
0001
0000
0010
0000
0001
0000
1000
0000
0100
0000
1000
0001
0000
0010
0100
0000
,
1000
0001
1000
0001
1000
0000
0010
0000
0100
0000
1000
0000
0001
0000
0100
0000
,
1010
1001
1100
1010
1001
0101
0011
0001
,
1000
0000
1000
0000
1001
0000
0001
0000
0001
0010
0100
0010
1000
0010
0001
0000
,
1000
0000
0000
0000
0000
0000
0000
0000
0001
0000
0000
0000
0000
0000
0000
0000
1001
0000
0000
0000
0000
0000
0000
0000
1000
0000
0000
0000
0000
0000
0000
0000
0001
0000
0000
0000
0000
0000
0000
1000
0000
0000
0000
0000
0000
0001
0000
0000
0000
0000
1000
0000
0000
0000
0001
0000
0000
1000
0000
0000
0001
0000
1000
0000
,
0001
1000
0001
0000
1000
0000
0001
0000
,
0100
0001
0010
0011
,
1000
0100
1000
0000
0001
0000
1000
0000
,
0100
1000
0010
1010
,
0001
0100
0001
0000
1000
0000
1001
0000
,
1000
0100
1000
0000
0001
0000
1001
0000
,
0010
0100
0001
0000
1000
0000
0100
0010
,
0000
0000
0011
0000
0100
1000
0001
0000
,
1002
0000
0103
0210
,
0000
0301
1001
0100
,
0001
1000
0020
0000
,
0130
1000
0100
0000
1000
0000
0010
1000
,
0010
0000
0100
0000
0001
0000
0010
0001
,
0010
0100
1000
0001
,
0001
1000
1000
1001
,
0100
0001
0100
0001
1000
0100
1000
0100
,
0010
0100
0010
0001
1000
0000
0100
0000
,
1000
0001
0010
0100
,
1001
0100
0010
1001
,
0010
0000
0100
0000
0001
0000
1000
0001
,
1001
0000
0100
0000
0010
0000
1000
0001
,
2001
0000
0000
0000
3100
0000
1000
0001
,
1001
0010
1001
0100
,
1000
0001
0100
0001
0010
0100
1000
0001
,
0100
0010
0100
0001
0100
0010
1000
0000
,
0100
0010
0100
1000
0100
0010
0001
0000
,
0010
0100
0010
1000
0010
0100
0010
0001
,
0100
0010
1000
0000
0001
0010
0100
0000
,
0010
0001
0000
0010
1000
0000
0010
0001
,
0000
0010
1000
0000
0010
0100
0010
0000
,
0100
1000
0100
0010
0001
0010
0100
0000
,
1000
0001
1000
0001
0010
0000
0110
0000
,
0011
0000
1001
0000
1000
0100
0010
0001
,
0010
0100
1000
0001
0000
0100
0010
1000
,
0001
0100
1000
0100
0001
1000
0100
0000
,
0010
0011
0001
0101
,
1010
0000
1001
0000
0001
0100
0010
1000
,
0010
0100
0001
1000
0000
0100
0010
0001
,
1000
0001
0000
0001
1000
0001
0000
0001
0000
0100
0000
0100
0000
0010
0000
0010
,
1000
0100
1000
0001
1000
0010
0100
0000
,
1000
0000
0010
0000
0100
0001
1000
0000
,
0001
0100
0001
1000
0001
0010
0100
0000
,
0001
0000
0010
0000
0100
1000
0001
0000
,
1000
0100
1000
0100
0010
0001
0010
0001
,
1000
0001
1000
0001
0100
0010
0100
0000
,
0010
0000
1000
0001
0000
1000
0100
0000
,
0010
0000
0001
1000
0000
0000
0110
0000
,
0011
0000
1001
0000
0100
0001
0100
0000
,
0001
0100
0001
1000
0000
0010
0100
0000
,
1010
0000
1001
0000
0100
1000
0100
0000
,
1000
0100
1000
0001
0000
0010
0100
0000
,
1100
0000
1001
0000
0010
1000
0010
0000
,
1000
0010
1000
0001
0000
0110
0000
0000
,
1000
0010
1000
0010
0000
0000
0100
0001
0000
0001
0100
0000
0000
0000
0110
0000
,
1000
0000
0001
0000
1000
0100
1000
0000
,
0001
0000
1000
0000
0001
0100
0001
0100
,
0001
0000
1000
0001
1000
0000
0001
1000
,
0001
0000
1000
0100
1000
0000
0100
0010
,
0100
0010
0100
0000
0010
0001
0010
0000
,
0100
0000
1000
0000
0100
0000
0000
0000
0010
0100
0000
0000
1001
0000
0000
0000
,
0011
0000
1100
0000
0010
0100
0010
1000
,
0010
0000
0100
0001
0100
0010
0100
0000
,
0010
1000
0001
0000
1000
0001
0100
0000
,
0001
0100
0010
0000
0100
0010
0100
0001
,
1000
0000
1000
0100
0010
0000
0001
0100
,
0010
0000
1000
0001
1000
0000
0100
0010
,
0100
0001
1000
0000
0100
0010
0100
0000
,
1000
0100
1000
0000
0001
0010
0001
0000
,
0001
0100
0001
0000
1000
0010
1000
0000
,
0001
1000
0001
0000
0001
0100
0001
0000
,
0001
1000
0001
0000
0001
0010
0001
0000
,
1000
0001
1000
0000
1000
0100
1000
0000
,
1000
0001
1000
0000
1000
0010
1000
0000
,
0100
1000
0100
0010
0100
0000
0100
0001
,
0100
0010
0100
0000
0100
1000
0100
0010
,
0001
0000
0001
1000
0001
0100
0001
0000
,
0001
1000
0001
0010
0001
0000
0001
1000
,
0010
0100
0010
0000
0010
1000
0010
0100
,
0010
0000
0010
0001
0010
0100
0010
2000
,
0002
0000
0000
3003
1000
0100
0010
0001
,
1000
0000
1000
0000
0001
0100
0001
0000
,
0010
1000
0010
0000
0100
0001
0100
0010
,
0100
0001
1000
0000
1100
0000
1001
0000
,
1010
0000
0110
0000
0100
0001
0000
0100
,
0010
0000
0100
1000
0000
0100
0010
1000
,
0010
0000
1010
0000
1001
0000
0001
0100
,
0001
0000
0010
1000
0010
0100
0001
0000
,
0101
0000
1001
0000
0001
0100
0010
1000
,
0001
0000
0001
0000
1000
0100
1000
0000
,
0010
0001
0010
0000
0100
1000
0100
0010
,
0100
1000
0001
0000
0101
0000
1001
0000
,
0011
0000
0110
0000
0100
1000
0000
0100
,
0010
0000
0100
0001
0100
0000
0100
0010
,
0000
0100
1000
0000
0000
0110
0000
0110
,
0000
0100
0010
0000
1010
0000
1001
0000
,
0101
0000
0110
0000
0100
1000
0100
0010
,
1000
0001
0010
0100
0001
0100
1000
0010
,
0100
0001
1000
0100
0010
0001
1000
0100
,
0001
0100
0010
0001
0010
0100
1000
0001
,
0010
0100
0001
0000
0100
0001
0100
0010
,
0001
1000
0010
0100
1000
0100
0001
0010
,
0100
1000
0001
0100
0010
1000
0001
0100
,
1000
0100
0010
1000
0010
0100
0001
1000
,
0010
0100
0001
0000
0010
1000
0010
0100
,
1000
0001
0100
0010
0001
0010
1000
0100
,
0010
0001
1000
0010
0100
0001
1000
0010
,
0001
0010
0100
0001
0100
0010
1000
0001
,
0100
0010
0001
0000
0010
0001
0010
0100
,
0001
1000
0100
0010
1000
0010
0001
0100
,
0010
0000
1000
0000
0001
0000
0010
0000
0100
1000
0000
0100
0010
0000
0100
0001
,
0000
0100
0010
0000
0001
0100
0001
1000
0100
0000
0010
0000
0001
0000
0010
0000
,
0100
1000
0001
0000
0101
0000
1001
0000
,
1000
0100
1000
0000
1001
0000
1010
0000
,
0100
0010
0100
0001
1000
0100
1000
0001
,
0010
0100
1000
0000
0100
0010
0001
0010
,
0100
0000
1000
0000
0001
0010
0001
0000
,
1000
0100
1000
0000
0001
0100
0010
1000
,
0010
0100
0001
1000
0100
0010
0002
0000
,
0000
0000
0000
0003
0100
0010
0100
0010
,
0000
0000
1000
0001
0000
0010
0100
0000
,
1000
0001
1000
0001
0000
0000
2002
0000
,
0000
0000
0000
0000
,
0000
3003
0000
0000
;

//---------------dance-double - ----------------
#NOTES:
     dance-double:
     :
     Beginner:
     1:
     0.182,0.364,0.081,0.023,0.008:
00000000
00000000
00000000
00000000
,
00000000
00000000
00000000
00000000
,
00000000
00000000
00000000
00000000
,
01000000
00000000
00000000
00000000
,
00010000
00000000
00010000
00000000
,
00010000
00000000
00000000
00000000
,
00001000
00000000
00001000
00000000
,
00001000
00000000
00000000
00000000
,
00000100
00000000
00000100
00000000
,
00000100
00000000
00000000
00000000
,
00000001
00000000
00000001
00000000
,
00000001
00000000
00000000
00000000
,
00001000
00000000
00000000
00000000
,
00010000
00000000
00000000
00000000
,
10000000
00000000
00000000
00000000
,
01100000
00000000
00000000
00000000
,
00010000
00000000
00000000
00000000
,
00001000
00000000
00000000
00000000
,
00001001
00000000
00000000
00000000
,
00000100
00000000
00000100
00000000
,
00000100
00000000
00000000
00000000
,
00001000
00000000
00001000
00000000
,
00001000
00000000
00000000
00000000
,
00010000
00000000
00010000
00000000
,
00010000
00000000
00000000
00000000
,
01000000
00000000
01000000
00000000
,
01000000
00000000
00000000
00000000
,
10000000
00000000
00000000
00000000
,
00010000
00000000
00000000
00000000
,
00001000
00000000
00000000
00010000
,
00010000
00000000
00000000
00000000
,
00001000
00001000
00001000
00000000
,
00001000
00000000
00000000
00000000
,
00000001
00000001
00000001
00000000
,
00000001
00000000
00000000
00000000
,
00001000
00001000
00001000
00000000
,
00001000
00000000
00000000
00000000
,
00010000
00010000
00010000
00000000
,
00010000
00000000
00000000
00000000
,
01000000
00000000
01000000
00000000
,
10000000
00000000
00000000
00000000
,
00100000
00000000
00100000
00000000
,
10000000
00000000
00000000
00000000
,
00010000
00000000
00000000
00000000
,
00001000
00000000
00000000
00000000
,
00000010
00000000
00000000
00000000
,
00001001
00000000
00001001
00000000
,
00000000
00000000
00000000
00000000
00000000
00000000
00000000
00000000
00000000
00000000
00000000
00000000
00000000
00000001
00000000
00000000
00000000
00000000
00000000
00000000
00000000
00000000
00000000
00000000
00000000
00000000
00000000
00000000
00000000
00000000
00000000
00000000
,
00000000
00000000
00000000
00000000
00000000
00000000
00000000
00000000
00000000
00000100
00000000
00000000
00000000
00000000
00000000
00000000
00000000
00000000
00000000
00000000
00000000
00000000
00000000
00000000
00000000
00000000
00000000
00000000
00000000
00000000
00000000
00000000
,
00000000
00000000
00000000
00000000
00000000
00000000
00000000
00001000
00000000
00000000
00000000
00000000
00000000
00000000
00000000
00000000
00000000
00000000
00000000
00000000
00000000
00000000
00000000
00000000
00000000
00000000
00000000
00000000
00000000
00000000
00000000
00000000
,
00000000
00000000
00000000
00010000
00000000
00000000
00000000
00000000
00000000
00000000
00010000
00000000
00000000
00000000
00000000
00000000
00000000
00000000
00000000
00000000
00000000
00000000
00000000
00000000
00000000
00000000
00000000
00000000
00000000
00000000
00000000
00000000
,
00001000
00001000
00000000
00000000
,
00010000
00000000
00010000
00000000
,
01000000
00000000
01000000
01000000
,
01000000
00000000
10000000
00000000
,
00100000
00000000
00100000
00000000
,
00010000
00000000
00010000
00000000
,
00001000
00000000
00001000
00001000
,
00001000
00000000
00000100
00000000
,
00000010
00000000
00000010
00000000
,
00001000
00000000
00001000
00000000
,
00000001
00000000
00001000
00000000
,
00000002
00000000
00000000
00000003
,
00000001
00000000
00000000
00000000
,
00000200
00000000
00000000
00000300
,
00000100
00000000
00000000
00000000
,
00002000
00000000
00000000
00003000
,
00001000
00000000
00000000
00000000
,
00020000
00000000
00000000
00030000
,
00010000
00000000
00010000
00000000
,
00011000
00000000
00000000
00000000
,
00010000
00000000
00010000
00000000
,
00010000
00000000
00000000
00000000
,
01000000
00000000
01000000
00000000
,
01100000
00000000
00000000
00000000
,
10000000
00000000
10000000
00000000
,
10000000
00000000
00000000
00000000
,
00010000
00000000
00010000
00000000
,
10010000
00000000
00000000
00000000
,
10000000
00000000
01000000
00000000
,
00010000
00000000
00000000
00000000
,
01000000
00000000
00010000
00000000
,
00001000
00000000
00000000
00000000
,
00010000
00000000
00001000
00000000
,
00000100
00000000
00000000
00000000
,
00001000
00000000
00000100
00000000
,
00000001
00000000
00000000
00000000
,
00000000
00000000
00000000
00000000
,
00001000
00000000
00000000
00000000
,
00000100
00000000
00000000
00000000
,
00000001
00000001
00000001
00000000
,
00001000
00001000
00001000
00000000
,
00000001
00000001
00000001
00000000
,
00001001
00000000
00000000
00000000
,
00000010
00000010
00000010
00000010
,
00000010
00000000
00000000
00000000
,
00000100
00000100
00000100
00000100
,
00000100
00000000
00000000
00000000
,
00001000
00001000
00001000
00001000
,
00001000
00000000
00000000
00000000
,
00010000
00010000
00010000
00010000
,
00010000
00000000
00000000
00000000
,
00001000
00000000
00010000
00000000
,
00011000
00000000
00000000
00000000
,
00100000
00000000
00100000
00000000
,
01000000
01000000
01000000
01000000
,
01000000
00000000
00000000
00000000
,
10000000
00000000
00000000
00000000
,
00010000
00000000
00010000
00000000
,
20000000
00000000
00000000
30000000
,
10000000
00000000
10000000
00000000
,
01000000
00000000
01000000
00000000
,
00010000
00000000
00010000
00000000
,
00001000
00000000
00001000
00000000
,
00011000
00000000
00011000
00000000
,
00011000
00000000
00011000
00000000
,
00001000
00000000
00000100
00000000
,
00000002
00000000
00000000
00000003
,
00000001
00000000
00001000
00000000
,
00001001
00000000
00000001
00000000
,
00001001
00000000
00001000
00000000
,
00001001
00000000
00000001
00000000
,
00000100
00000000
00000100
00000000
,
00001000
00000000
00001000
00000000
,
00010000
00000000
00010000
00000000
,
00001000
00001000
00001000
00001000
,
00001000
00010000
01000000
01000000
,
10000000
20000000
00000000
30000000
,
00100000
00000000
00100000
00000000
,
00100000
00000000
00000000
00000000
,
10000000
00000000
10000000
00000000
,
10000000
00000000
00000000
00000000
,
01000000
00000000
01000000
00000000
,
01000000
00000000
00000000
00000000
,
00010000
00000000
00010000
00000000
,
00010000
00000000
00000000
00000000
,
00001000
00000000
00001000
00000000
,
00001000
00000000
00000000
00000000
,
00000100
00000000
00000100
00000000
,
00000100
00000000
00000000
00000000
,
00000001
00000000
00000001
00000000
,
00000001
00000000
00000000
00000000
,
00001000
00000000
00001000
00000000
,
00001000
00000000
00000000
00000000
,
00000010
00000000
00000010
00000000
,
00000010
00000000
00000000
00000000
,
00000100
00000000
00000100
00000000
,
00000100
00000000
00000000
00000000
,
00001000
00000000
00001000
00000000
,
00001000
00000000
00000000
00000000
,
00010000
00000000
00010000
00000000
,
00010000
00000000
00010000
00000000
,
00011000
00000000
00000000
00000000
,
00001000
00000000
00000000
00000000
,
00001000
00000000
00000000
00000000
,
00000100
00000000
00000000
00000000
,
00000001
00000000
00000000
00000000
,
00000001
00000000
00000000
00000000
,
00000010
00000000
00000000
00000000
,
00000010
00000000
00000000
00000000
,
00001001
00000000
00000000
00000000
,
00000001
00000000
00000000
00000000
,
00000001
00000000
00000000
00000000
,
00000100
00000000
00000000
00000000
,
00000100
00000000
00000000
00000000
,
00001000
00000000
00000000
00000000
,
00011000
00000000
00000000
00000000
,
00010000
00000000
00000000
00000000
,
00010000
00000000
00000000
00000000
,
01000000
00000000
00000000
00000000
,
00000000
00000000
00000000
00000000
,
10000000
00000000
00000000
00000000
,
10000000
00000000
00000000
00000000
,
00100000
00000000
00000000
00000000
,
00000000
00000000
00000000
00000000
,
00010000
00000000
00000000
00000000
,
00010000
00000000
00000000
00000000
,
00001000
00000000
00000000
00000000
,
00001000
00000000
00000000
00000000
,
00000100
00000000
00000000
00000000
,
00000100
00000000
00000000
00000000
,
00001001
00000000
00000000
00000000
,
00001001
00000000
00000000
00000000
,
00000001
00000000
00000000
00000000
,
00000100
00000000
00000000
00000000
,
00001000
00000000
00000000
00000000
,
00010000
00000000
00000000
00000000
,
01000000
00000000
00000000
00000000
,
10000000
00000000
10010000
00000000
,
00000000
00000000
10000000
00000000
,
00000000
00000000
00100000
00000000
,
00000000
00000000
01000000
00000000
,
00000000
00000000
00010000
00000000
,
00000000
00000000
10000000
00000000
,
10000000
00000000
00000000
00000000
,
01000000
00000000
00000000
00000000
,
00010000
00000000
00000000
00000000
,
00001000
00000000
00000000
00000000
,
00000100
00000000
00000000
00000000
,
00000001
00000000
00000000
00000000
,
00000010
00000000
00000000
00000000
,
00000010
00000000
00000000
00000000
,
00000001
00000000
00000000
00000000
,
00000100
00000000
00000000
00000000
,
00001000
00000000
00000000
00000000
,
00001000
00000000
00000000
00000000
,
00010000
00000000
00000000
00000000
,
00011000
00000000
00010000
00000000
,
00000000
00000000
00010000
00000000
,
00000000
00000000
01000000
00000000
,
00000000
00000000
10000000
00000000
,
00000000
00000000
10000000
00000000
,
00000000
00000000
00100000
00000000
,
00000000
00000000
10000000
00000000
,
00000000
00000000
01000000
00000000
,
00000000
00000000
01000000
00000000
,
00000000
00000000
00010000
00000000
,
00000000
00000000
00001000
00000000
,
00000000
00000000
00000100
00000000
,
00000000
00000000
00001001
00000000
,
00000000
00000000
00000001
00000000
,
00000000
00000000
00000001
00000000
,
00000000
00000000
00000010
00000000
,
00000010
00000000
00000010
00000000
,
00000000
00000000
00000100
00000000
,
00000100
00000000
00000100
00000000
,
00000000
00000000
00001000
00000000
,
00001000
00000000
00001000
00000000
,
00000000
00000000
00000001
00000000
,
00000001
00000000
00000001
00000000
,
00000000
00000000
00000100
00000000
,
00000100
00000000
00000100
00000000
,
00000000
00000000
00001000
00000000
,
00001000
00000000
00001000
00000000
,
00000000
00000000
00010000
00000000
,
00010000
00000000
00010000
00000000
,
00000000
00000000
01000000
00000000
,
01000000
00000000
01000000
00000000
,
00000000
00000000
10000000
00000000
,
10000000
00000000
10000000
00000000
,
00000000
00000000
00010000
00000000
,
00010000
00000000
00010000
00000000
,
00000000
00000000
01000000
00000000
,
01000000
00000000
01000000
00000000
,
00000000
00000000
00001000
00000000
,
00001000
00000000
00001000
00000000
,
00000000
00000000
00000100
00000000
,
00000100
00000000
00000100
00000000
,
00000000
00000000
00000000
00000110
;

//---------------dance-double - ----------------
#NOTES:
     dance-double:
     :
     Easy:
     5:
     0.346,0.488,0.107,0.153,0.016:
00000000
00000000
00000000
00000000
,
00000000
00000000
00000000
00000000
,
00000000
00000000
00000000
00000000
,
00000010
00000000
00000001
00000000
,
00000001
00000100
00000001
00000100
,
00001000
00000000
00010000
00000000
,
00010000
01000000
00010000
01000000
,
10000000
00000000
00100000
00000000
,
00100000
00010000
00100000
00010000
,
00001000
00000000
00000010
00000000
,
00000010
00000001
00000010
00000001
,
00000100
00000000
00000000
00010000
,
00001000
00010000
00001000
00000000
,
01000000
00000000
00000000
00010000
,
00001000
00010000
00001000
00000100
,
00000001
00000000
00000000
00001000
,
00010000
00001000
00010000
00000000
,
01000000
00000000
00000000
00000000
,
10000000
01000000
00100000
00010000
,
01000000
00000000
00001000
00010000
,
00001000
00000000
00000100
00000000
,
00000001
00000100
00001000
00000100
,
00001000
00000000
00010000
00000000
,
01000000
00010000
00001000
00010000
,
00001000
00000000
00000100
00000000
,
00000001
00000010
00000001
00000010
,
00001000
00000000
00010000
00000000
,
00002000
00000000
00003000
00010000
,
00020000
00000000
00030000
01000000
,
02000000
00000000
03000000
10000000
,
20000000
00000000
30010000
00000000
,
10000000
01000000
00010000
00001000
,
00000100
00000001
00000010
00000000
,
00000001
00000100
00000001
00001000
,
00000001
00000100
00000001
00000000
,
00000001
00000100
00001000
00010000
,
01000000
10000000
00100000
00000000
,
10000000
01000000
10000000
00100000
,
20000000
30000000
00020000
00030000
,
01000000
00010000
00100000
00010000
,
00100000
00001000
00010000
00000000
,
00000100
00001000
00000001
00001000
,
00000001
00000100
00000010
00000000
,
00002000
00003000
00000002
00000003
,
00000200
00000300
00002000
00003000
,
00020000
00030000
00002000
00003000
,
00011000
00000000
00020000
00000000
,
00000000
00000000
00000000
00000000
00000000
00030000
00000000
00000000
00000000
00000000
00000000
00000000
00000000
02000000
00000000
00000000
00000000
00000000
00000000
00000000
00000000
00000000
00000000
00000000
00000000
00000000
00000000
00000000
00000000
00000000
00000000
00000000
,
00000000
03000000
00000000
00000000
00000000
00000000
00000000
00000000
00000000
20000000
00000000
00000000
00000000
00000000
00000000
00000000
00000000
00000000
00000000
00000000
00000000
00000000
00000000
00000000
00000000
00000000
00000000
00000000
00000000
00000000
00000000
30000000
,
00000000
00000000
00000000
00000000
00000000
00000000
00000000
00200000
00000000
00000000
00000000
00000000
00000000
00000000
00000000
00000000
00000000
00000000
00000000
00000000
00000000
00000000
00000000
00000000
00000000
00000000
00000000
00000000
00000000
00000000
00000000
00000000
,
00000000
00000000
00000000
00300000
00000000
00000000
00000000
00000000
00000000
00000000
00010000
00000000
00000000
00000000
00000000
00000000
00000000
00000000
00000000
00000000
00000000
00000000
00000000
00000000
00000000
00001000
00000000
00000000
00000000
00000000
00000000
00000000
,
00000000
00000100
00000000
00000001
,
00001000
00001000
00000001
00000001
,
00001000
00000001
00001000
00000001
,
00000100
00000000
00000001
00000000
,
00000100
00000001
00000100
00000001
,
00001000
00000000
00000100
00000000
,
00001000
00000100
00001000
00000100
,
00010000
00000000
00001000
00000000
,
00010000
00001000
00010000
00001000
,
00100000
00000000
00010000
00000000
,
00100000
00010000
00200000
00300000
,
01100000
02000000
00000000
10000000
,
00000000
10000000
00000000
13000000
,
00100000
02000000
00000000
00010000
,
00000000
00010000
00000000
03010000
,
00100000
00002000
00000000
00010000
,
00000000
00010000
00000000
00013000
,
00000100
00002000
00000000
00000010
,
00000000
00000010
00000000
00003010
,
00000100
00000000
00000001
00000000
,
00000010
00000001
00000100
00000100
,
00001000
00000000
00010000
00000000
,
00001000
00010000
00100000
00100000
,
10000000
00000000
01000000
00000000
,
00100000
01000000
00010000
00010000
,
00100000
00000000
00010000
00000000
,
00100000
00001000
00010000
00001000
,
00020000
00030000
00002000
00003000
,
00000200
00000300
00000001
00000001
,
00000200
00000300
00002000
00003000
,
00020000
00030000
00100000
00100000
,
20000000
30000000
02000000
03000000
,
00020000
00030000
00001000
00001000
,
00000200
00000300
00000002
00000003
,
00000020
00000030
00001000
00010000
,
00022000
00000000
00000000
00000000
,
00033000
00000000
00000000
00000000
,
00001002
00000000
00000000
00000003
,
00002000
00000000
00000000
00003000
,
00000001
00000100
00001000
00010000
,
00001000
00001000
00100000
00010000
,
10000000
10000000
01000000
00010000
,
00002000
00000000
00000000
00003000
,
00010000
00000010
00010000
00001000
,
00000100
00000001
00000010
00000001
,
00001000
00000100
00010000
00001000
,
00100000
00010000
01000000
00100000
,
10000000
01000000
00010000
00001000
,
00010000
00100000
00010000
00001000
,
00000100
00000001
00001000
00000001
,
00000010
00000001
00000100
00001000
,
00011000
00000000
00100000
10000000
,
10100000
00000000
01000000
00010000
,
00011000
00000000
00001010
00000000
,
00001000
00000100
00000010
00000001
,
00000011
00000000
00000100
00000000
,
00001100
00000000
00010000
00000000
,
01010000
00000000
10000000
00000000
,
10100000
00000000
00000000
00000000
,
00100000
10000000
00100000
10100000
,
10000000
01000000
10000000
11000000
,
01000000
00010000
01000000
01010000
,
00001000
00010000
00001000
00011000
,
00010000
00000010
00010000
00001010
,
00001010
00000000
00000101
00000001
,
00000101
00000000
00001100
00000000
,
00022000
00000000
00000000
00033000
,
00001000
00010000
00001000
00011000
,
00010000
01000000
00010000
01010000
,
01000000
10000000
01000000
11000000
,
10000000
00100000
10000000
10100000
,
01000000
00100000
01000000
01100000
,
01000000
00010000
01000000
01010000
,
00010000
10000000
01000000
00010000
,
00001000
00000100
00000001
00001000
,
00000002
00000013
00002000
00003100
,
00000020
00001030
00000200
00000300
,
00000001
00000000
00000100
00000000
,
00000001
00000000
00000100
00000000
,
00001000
00000000
00010000
00000000
,
00001000
00000000
00010000
00000000
,
01000000
00000000
00010000
00000000
,
01000000
00000000
00010000
00000000
,
01000000
00000000
10000000
00000000
,
01000000
00000000
10000000
00000000
,
00010000
00000000
01000000
00000000
,
00100000
00000000
10000000
00000000
,
01000000
00000000
00010000
00000000
,
00001000
00000000
00010000
00000000
,
00000010
00000000
00001000
00000000
,
00000001
00000000
00000100
00000000
,
00001000
00000000
00010000
00000000
,
00001000
00000000
00100000
00000000
,
00010000
00000000
01000000
00000000
,
00100000
00000000
10000000
00000000
,
01000000
00000000
00010000
00000000
,
01000000
00000000
00100000
00000000
,
00001000
00000000
00010000
00000000
,
00000100
00000000
00000010
00000000
,
00001100
00000000
00001100
00000000
,
00000101
00000000
00000101
00000000
,
00000010
00000100
00001000
00000000
,
00000001
00000000
00000100
00000000
,
00001000
00000000
00010000
00000000
,
00100000
00000000
10000000
00010000
,
00000000
00100000
00000000
00000000
00001000
00000000
00000000
00010000
,
00000000
00000100
00000000
00000010
,
00000001
00000000
00000100
00000000
,
00000010
00000000
00000000
00000000
00000000
00000000
00000000
00010000
,
00001000
00010000
00100000
00000000
,
10000000
00000000
00000000
00010000
,
01000000
00000000
00100000
00000000
,
10000000
00000000
01000000
00010000
,
00001000
00000010
00000001
00000000
,
00001000
00000000
00000000
00000100
,
00000010
00000000
00000000
00000000
00000100
00000000
00000000
00000000
00000000
00010000
00000000
00000000
00000000
00001000
00000000
00000000
,
00010000
00100000
00010000
00000000
,
00100000
00000000
10000000
00000000
,
01000000
10000000
01000000
00000000
,
00100000
00000000
00001000
00000000
,
00000010
00000001
00000010
00000000
,
00000100
00000000
00010000
00000000
,
00001000
00000000
01000000
00000000
,
00100000
10000000
00000000
00010000
,
01000000
00001000
01000000
00000000
,
00100000
10000000
00000000
01000000
,
00100000
00001000
00010000
00000000
,
00001000
01000000
00000000
00100000
,
10000000
01000000
00100000
00000000
,
00001000
00000000
00010000
00000000
00000000
00000100
00000000
00000000
,
00000010
00000000
00000000
00000000
00000000
00000000
00000001
00000000
00000000
00000100
00000000
00000000
00000000
00000000
00000000
00000000
,
00000010
00010000
00000000
00001000
,
01000000
00000000
00100000
10000000
,
00000000
10000000
01000000
00000000
,
01000000
00010000
00000000
00010000
,
00001000
00000000
00001000
00000010
,
00000000
00000010
00000001
00000100
,
00001000
00010000
00100000
10000000
,
00000000
01000000
00010000
00000000
,
00010000
00001000
00000000
00000010
,
00000001
00000000
00000001
00000100
,
00000000
00000010
00010000
00000000
,
00001000
01000000
00000000
00100000
,
10000000
00000000
10000000
01000000
,
00100000
00000000
00001000
00010000
,
00000100
00000000
00000010
00000001
,
00001000
00000000
00000100
00000010
,
00010000
00000000
00001000
01000000
,
00100000
00000000
10000000
01000000
,
00010000
00000000
00010000
00001000
,
00000010
00000000
00000001
00000100
,
00000000
00000010
00010000
00000000
,
00001000
01000000
00000000
00100000
,
10000000
00000000
00010000
01000000
,
00000000
00001000
00010000
00000000
,
00000010
00001000
00000000
00000002
,
00000000
00000003
00000100
00000010
,
00010000
00001000
00000000
00000000
,
01000000
00000000
00100000
00000000
,
10000000
01000000
10000000
00000000
,
01000000
00100000
01000000
00000000
,
00100000
00000000
00001000
00000000
,
00010000
00000000
00000100
00000010
,
00000100
00000000
00000010
00000000
,
00000000
00000001
00000100
00000001
,
00001000
00000000
00000100
00000000
,
00010000
00001000
00000000
00010000
,
00000000
00100000
10000000
00000000
,
01000000
00000000
00100000
00000000
00000000
00001000
00000000
00000000
,
00010000
00000000
00000000
00001000
00000000
00000000
00010000
00000000
,
00000000
00001000
00000000
00000000
00000000
00010000
00000000
00100000
,
00000000
01000000
00000000
00000000
00001000
00000000
00000000
00000000
,
00010000
00001000
00000010
00000100
,
00000000
00001000
00000000
00000001
,
00000000
00000100
00000010
00010000
,
00000000
00001000
00000000
00010000
,
00000000
00000100
00000010
00000001
,
00000000
00000100
00000000
00001000
,
00000000
00010000
00100000
10000000
,
00000000
00010000
00000000
00100000
,
00000000
00001000
00010000
00000100
,
00000000
00000010
00000000
00000001
,
00000000
00001000
00000001
00000100
,
00000000
00001000
00000000
00010000
,
00000000
00100000
01000000
00001000
,
00000000
00010000
00000000
00000100
,
00000000
00000000
00000000
00000000
00000010
00000000
00000000
00000000
00010000
00000000
00000000
00001000
00000000
00000000
00010000
00000000
,
00000000
00100000
00000000
00000000
00000000
00000000
10000000
00000000
01000000
00000000
00000000
00000000
00100000
00000000
00000000
00000000
,
00001000
00010000
00000100
00000010
,
00000001
00000100
00000000
00001000
,
00000000
00010000
00000000
00001000
,
00000000
01000000
00000000
00100000
,
00000000
10000000
00000000
01000000
,
00000000
00100000
00001000
00010000
,
00000100
00000010
00000000
00000000
,
00000001
00000000
00000100
00001000
,
00000000
00000000
00010000
00000000
00000000
00000000
00000000
00001000
,
00000000
00000000
00000000
00022000
,
00000000
00000000
00000000
00000000
,
00000000
00033000
00000000
00000000
;

//---------------dance-double - ----------------
#NOTES:
     dance-double:
     :
     Medium:
     8:
     0.504,0.692,0.267,0.159,0.020:
00000000
00000000
00000000
00000000
,
00000000
00000000
00000000
00000000
,
00000000
00000000
00000000
00000000
,
00001000
00000000
00000000
00000100
00001000
00000000
00000000
00010000
,
00001000
00000100
00001001
00000000
,
00000001
00000000
00000000
00000010
00001000
00000000
00000000
00010000
,
00001000
00010000
00011000
00000000
,
00010000
00000000
00000000
01000000
10000000
00000000
00000000
00100000
,
10000000
01000000
00100000
01100000
,
01000000
00000000
00000000
00010000
00001000
00000000
00000000
00010000
,
01000000
00010000
00001000
00011000
,
00001000
00000100
00000001
00000100
,
00001000
00010000
01000000
00010000
,
00001000
00000010
00000001
00000010
,
00000002
00000203
00002300
00023000
,
00031000
00010000
01000000
10000000
,
01000000
00010000
00001000
00000100
,
00000001
00000010
00001000
00000010
,
00000001
00000100
00001000
00010000
,
00011000
00000000
00010000
01000000
,
00010000
00000000
01000000
00000000
10000000
00100000
10000000
00100000
,
01000000
00010000
01000000
00010000
,
00100000
00000000
00001000
00000000
00010000
00001000
00010000
00001000
,
00000100
00000001
00000100
00000001
,
00000010
00000000
00000100
00000000
00001000
00000001
00001000
00000001
,
00000100
00001000
00000100
00001000
,
00010000
00000000
00001000
00000000
00010000
01000000
00010000
01000000
,
10000000
00000000
00010000
01000000
00000000
00000000
10100000
00000000
,
00000000
00000000
01000000
00010000
00000000
00000000
00011000
00000000
,
00000000
00000000
00000100
00000001
00000000
00000000
00000110
00000000
,
00000101
00000000
00002000
00013000
,
00001000
00000100
00000010
00001001
,
00000000
00000100
00000000
00000100
00000010
00000000
00000000
00000000
,
00000100
00001000
00010000
00011000
,
00000000
00010000
00000000
00010000
01000000
00000000
00000000
00000000
,
10000000
01000000
00100000
10010000
,
00000000
01000000
00000000
01000000
00100000
00000000
00000000
00000000
,
01000000
00010000
00001000
00011000
,
00000000
00001000
00000000
00001000
00000100
00000000
00000000
00000000
,
00000001
00000100
00001000
00010000
,
00001000
00000100
00000000
00001000
00010000
00000000
01000000
00000000
,
10000000
00100000
00010000
00100000
,
10000000
01000000
00000000
00010000
01000000
00000000
00010000
00000000
,
00001000
00000100
00000100
00000001
,
00000001
00000100
00000100
00001000
,
00011000
00000000
01001000
00000000
,
01010000
00000000
00002000
00000000
,
00000000
00000000
00000000
00000000
00000000
00003000
00000000
00000000
00000000
00000000
00000000
00000000
00000000
00000200
00000000
00000000
00000000
00000000
00000000
00000000
00000000
00000000
00000000
00000000
00000000
00000000
00000000
00000000
00000000
00000000
00000000
00000000
,
00000000
00000300
00000000
00000000
00000000
00000000
00000000
00000000
00000000
00000002
00000000
00000000
00000000
00000000
00000000
00000000
00000000
00000000
00000000
00000000
00000000
00000000
00000000
00000000
00000000
00000000
00000000
00000000
00000000
00000000
00000000
00000003
,
00000000
00000000
00000000
00000000
00000000
00000000
00000000
00000020
00000000
00000000
00000000
00000000
00000000
00000000
00000000
00000000
00000000
00000000
00000000
00000000
00000000
00000000
00000000
00000000
00000000
00000000
00000000
00000030
00000000
00000000
00000000
00000000
,
00000000
00000000
00000000
00000100
00000000
00000000
00000000
00000000
00000000
00000000
00010100
00000000
00000000
00000000
00000000
00000000
00000000
00001000
00000000
00000000
00000000
00000000
00000000
00000000
00000000
00101000
00000000
00000000
00000000
00000000
00000000
00000000
,
00010000
01010000
00100000
10100000
,
01010000
00110000
00101000
00011000
,
00010000
00000010
00010000
00001000
00100000
00000000
00011000
00000000
,
00000100
00000000
00001000
00000010
00000000
00001000
00000100
00000000
,
00000001
00000100
00000010
00000001
,
00001000
00000000
00000100
00010000
00000000
00001000
00010000
00000000
,
00100000
10000000
00010000
10010000
,
01100000
00000000
00000000
01000000
00000000
00000000
00010000
00000000
,
10000000
00010000
00100000
01000000
,
00010000
00000000
00000000
00001000
00000000
00000000
00010000
00000000
,
00001000
00000100
00000220
00000330
,
00000110
00000010
00001000
00001000
,
00000100
00000010
00000001
00000001
,
00000100
00001000
00010000
00010000
,
01000000
10000000
00100000
00100000
,
10000000
01000000
00010000
00001000
,
00000100
00000001
00000100
00001000
,
00010000
01000000
10000000
01000000
,
00010000
00000000
00001000
00000000
00010000
00001000
00010000
00001000
,
00020000
00000000
00031000
00020000
00000000
00031000
00000100
00000000
,
00000010
00001000
00000001
00000010
,
00002000
00000000
00000000
00023000
00000000
00000000
00031000
00000000
,
01000000
00100000
10000000
00010000
,
20000000
00000000
31000000
20000000
00000000
31000000
00100000
00000000
,
00010000
10000000
01000000
00100000
,
00002000
00000000
00000000
00023000
00000000
00000000
00030000
00000000
,
00001000
00000100
00000001
00000010
,
00000002
00000000
00000000
00000203
00000000
00000000
00002300
00000000
,
00000000
00023000
00000000
00000000
00130000
00000000
00100000
00000000
,
20000000
00000000
00000000
32000000
00000000
00000000
03020000
00000000
,
00000000
00032000
00000000
00000000
00003010
00000000
00000010
00000000
,
00000200
00000000
00000000
00020300
00000000
00000000
00032000
00000000
,
00000000
02003000
00000000
00000000
03100000
00000000
01000000
00000000
,
01100000
00000000
00000000
01010000
00000000
00000000
00011000
00000000
,
00000000
00001100
00000000
00000000
00000110
00000000
00001001
00000000
,
00000220
00000000
00000000
00000000
,
00000000
00000000
00000000
00000000
00000330
00000000
00000000
00010000
,
00001000
01000000
00100000
00000000
00100000
10000000
00000000
10000000
,
01000000
00000000
01000000
00100000
00000000
00100000
00001000
00000000
,
00010000
00001000
00000100
00000000
00001000
00010000
01000000
00000000
,
00010000
00001000
00010000
00001000
00010000
00000100
00000010
00000000
,
00000001
00001000
00000010
00000000
00001000
00000001
00000010
00000000
,
00000002
00002003
00003200
00010300
,
00001000
01000000
00100000
01000000
00010000
00100000
01000000
00000000
,
01100000
00011000
00110000
11000000
,
10000000
01000000
00100000
00010000
00001000
00000100
00000010
00000000
,
00000110
00011000
00001010
00000101
,
00000001
00001000
00000010
00000100
00000000
00000001
00000000
00001000
,
00000000
00000010
00000000
00001010
00000000
00001010
00000000
00001000
,
00010000
01000000
10000000
01000000
00000000
00100000
00000000
10000000
,
00000000
01000000
00000000
11000000
00000000
11000000
00000000
10000000
,
02000000
00000000
03100000
00000000
00001000
00010000
00001000
00000000
,
00000100
00000001
00000010
00000001
00000100
00000010
00001000
00000000
,
00000100
00001000
00000010
00000000
00000100
00000001
00000100
00000000
,
00000001
00000100
00001000
00010000
00100000
10000000
01000000
00100000
,
00020000
00000000
00100000
01000000
,
10000000
10000000
01000000
00130000
,
00022000
00000000
00000000
00000000
,
00000000
00000000
00000000
00000000
00000000
00033000
00000000
00000000
,
00000100
00001000
00000000
00000001
00000000
00000100
00000010
00000000
,
00000001
00000010
00000000
00000200
00000000
00000000
00001300
00000000
,
01000000
00010000
01010000
01010000
,
10000000
00010000
00100000
01000000
10000000
01000000
10000000
00000000
,
01000000
00100000
00000000
00010000
00000000
01000000
00001000
00000000
,
00010000
00001000
00000000
00020000
00000000
00000000
00030100
00000000
,
00001000
00000100
00000010
00000100
00001000
00000001
00000100
00000000
,
00000020
00000230
00000302
00000013
,
00001010
00001001
00001100
00001010
,
00000010
00010000
00001000
00000000
00010000
00001000
01000000
00000000
,
00110000
10010000
01010000
00110000
,
01000000
00100000
10000000
01000000
00100000
00010000
01000000
00000000
,
00010000
01000000
00000000
00100000
00000000
00000000
10000000
00000000
,
00010000
00100000
00000000
00001000
00010000
00001000
00010000
00000000
,
00011000
00001100
00001001
00000011
,
00000001
00000100
00000010
00000001
00000010
00001000
00000100
00000000
,
00001100
00000000
00110000
00000000
00001000
00001000
00100000
00000000
,
00010000
01000000
10000000
01000000
00010000
00000000
00000000
00000000
,
00100000
00010000
00100000
00000000
,
01000000
00000000
10000000
00000000
,
00010000
00100000
00001000
00000000
,
00010000
00000010
00001000
00000000
,
00000010
00001000
00000100
00000010
,
00001000
00000010
00000001
00000100
,
00000000
00000001
00000000
00000100
,
00000000
00010000
00000000
01000000
,
00010000
00100000
01000000
10000000
,
00000000
00010000
00000000
10000000
,
00000000
00100000
00000000
10100000
,
00000000
10100000
00000000
10000000
,
00010000
00100000
00001000
00010000
,
00000000
00000100
00000000
00001000
,
00000000
00000010
00000000
00000100
,
00000000
00000001
00001000
00000000
,
00000011
00000000
00001100
00000000
,
00010000
00000000
00001000
00000000
,
01010000
00000000
10100000
00000000
,
10000000
00000000
00010000
00000000
,
10010000
00000000
10100000
00000000
,
10010000
00000000
00110000
00000000
,
00010000
00000100
00001000
00000010
,
00000100
00000001
00000010
00000100
,
00000010
00000001
00000100
00001000
,
00010000
00001000
00000010
00000001
,
00000100
00000010
00010000
00001000
,
00010000
00000000
00100000
00000000
00000000
10000000
00010000
00000000
,
00000000
00100000
00000000
00000000
00001000
00000000
00000000
00010000
,
00000000
00001000
00000010
00000001
,
00000100
00000010
00010000
00000000
,
00002000
00000000
00003000
00011000
,
00010000
01000000
00100000
00001000
,
00010000
00000000
00100000
00000000
00000000
10000000
00010000
00000000
,
00100000
00001000
00010000
00000100
,
00000010
00000000
00000001
00000000
00000000
00001000
00000100
00000000
,
00000010
00000001
00000100
00001000
,
00010000
00000000
01000000
00000000
00000000
10000000
00010000
00000000
,
00100000
00000000
00000000
00000000
00001000
00000000
00000000
00000000
00000000
00010000
00000000
00000000
00000000
00000100
00000000
00000000
,
00000010
00000001
00000100
00000010
,
00010000
00001000
01000000
00100000
,
10000000
01000000
00010000
00001000
,
00000010
00000100
00001000
00000001
,
00000100
00000010
00010000
00001000
,
01000000
00100000
10000000
01000000
,
00010000
00000000
00001000
00000000
00000000
00000100
00000010
00000000
,
00010000
00000000
00001000
00010000
00000000
00000000
00100000
00000000
,
10000000
01000000
00100000
00001000
,
00000000
00010000
00000000
00001000
00000000
00000010
00000001
00000000
,
00000001
00000100
00000010
00010000
,
00000000
00001000
00000000
00010000
00000000
00100000
10000000
00000000
,
10000000
00100000
01000000
00001000
,
00000000
00010000
00000000
00001000
00000000
00010000
00000000
00000000
,
00001000
00000000
01000000
00000000
00000000
00000000
00100000
00000000
00000000
10000000
00000000
00000000
00000000
00000000
00010000
00000000
,
10000000
01000000
00100000
00001000
,
00010000
00000100
00000010
00000001
,
00000100
00001000
00000100
00000010
,
00010000
00001000
00010000
01000000
,
00100000
00010000
10000000
00100000
,
10000000
01000000
01100000
00011000
,
00000110
00011000
00000010
00000001
,
00000000
00001000
00000000
00000001
00000100
00000000
00000010
00000000
,
00010000
00001000
00000000
00000000
00001000
01000000
00000000
00000000
,
01000000
00100000
00000000
00000000
10000000
00010000
00000000
01000000
,
00000000
00100000
10000000
00000000
00000000
10000000
01000000
00000000
,
00000000
01000000
00100000
00000000
00000000
00100000
00001000
00000000
,
00010000
00000000
00001000
00010000
00000000
00000000
00000100
00000000
,
00000010
00000001
00000100
00000010
,
00010000
00001000
01000000
00100000
,
10000000
01000000
00100000
00001000
,
00010000
00000100
00000010
00000001
,
00000100
00001000
00000100
00000010
,
00010000
00001000
00010000
00100000
,
00000000
10000000
00000000
01000000
00000000
00100000
00001000
00000000
,
00000000
00010000
00000000
00000100
00000000
00000010
00000001
00000000
,
00001000
00000100
00000000
00000000
00010000
00000000
00001000
01000000
,
00000000
00000000
00100000
00000000
10000000
00010000
00000000
00000000
,
01000000
00000000
00100000
10000000
00000000
00000000
01000000
00000000
,
00100000
00001000
00010000
00000000
00001000
00000000
02000000
00000000
,
00000000
03000000
00100000
10000000
,
00100000
01000000
00100000
10000000
,
01000000
00010000
00001000
00000010
,
00000000
00000001
00001000
00000000
00000100
00000000
00000010
00000000
,
00000001
00000000
00000100
00000000
00001000
00000000
00000000
00010000
,
00000000
00001000
00000000
00000000
01000000
00000000
00000000
00100000
,
00000000
10000000
01000000
00100000
,
00001000
00010000
00000100
00000000
,
00000000
00001001
00000010
00000001
,
00000010
00000100
00000010
00000001
,
00000100
00001000
00010000
00100000
,
00000000
10000000
00010000
00000000
01000000
00000000
00100000
00000000
,
10000000
00000000
01000000
00000000
00100000
00001000
00000000
00000000
,
00010000
00000000
00000000
00000100
00000000
00000000
00000010
00000000
,
00000000
00000001
00000000
00000000
00000000
00000010
00000000
00000100
,
00000000
00010000
00001000
00000000
00010000
00000000
00010000
00000000
,
00001000
00000000
00001000
00000000
01000000
00001000
00000000
00000000
,
00010000
00010000
00001000
00000010
,
00000001
00000000
00000100
00000000
00000010
00010000
00000000
00000000
,
00001000
00001000
00010000
00100000
,
10000000
00000000
00010000
00000000
01000000
00001000
00000000
00000000
,
00010000
00010000
00001000
00000010
,
00000001
00000000
00000100
00000000
00000010
00010000
00000000
00000000
,
00001000
00001000
00010000
00100000
,
10000000
00000000
00010000
00000000
00100000
00001000
00000000
00000000
,
00010000
00010000
00001000
00000100
,
00000001
00000000
00000010
00000000
00000100
00010000
00000000
00000000
,
00001000
00001000
00010000
01000000
,
10000000
00000000
00010000
00000000
00100000
00001000
00000000
00000000
,
00010000
00000000
00010000
00000000
00001000
00000000
00010000
00000100
,
00000000
00000000
00000000
00000000
00000010
00000000
00000000
00000000
00000001
00000000
00000000
00000010
00000000
00000000
00000100
00000000
,
00000000
00010000
00000000
00000000
00001000
00000000
01000000
00000000
00100000
00000000
00000000
00000000
10000000
00000000
00000000
00000000
,
01000000
00010000
00001000
00000010
,
00000100
00000000
00001000
00000000
00000001
00000100
00000000
00000000
,
00000010
00010000
00000000
00000000
00001000
00010000
00000000
00000000
,
00100000
01000000
00000000
00000000
00010000
10000000
00000000
00000000
,
01000000
00001000
00000000
00000000
00010000
00000010
00000000
00000000
,
00010000
00000100
00000000
00000000
00000010
00000000
00000001
00000000
,
00000100
00000000
00001000
00000000
00010000
00000000
00001000
00100000
,
00000000
00000000
01000000
01000000
,
00000000
00000000
00100000
00000000
00000000
00001000
00000000
00000000
,
00010000
00000100
00000000
00002002
,
00000000
00000000
00000000
00000000
,
00000000
00003003
00000000
00000000
;

//---------------dance-double - ----------------
#NOTES:
     dance-double:
     :
     Hard:
     10:
     0.793,1.000,0.302,0.120,0.169:
00000000
00000000
00000000
00000000
,
00000000
00000000
00000000
00000000
,
00000000
00000000
00000000
00000000
,
00001000
00000100
00000001
00000010
00001000
00010000
00100000
10000000
,
01000000
00010000
00001000
00011000
,
00010000
01000000
10000000
00100000
00010000
00001000
00000010
00000001
,
00000100
00001000
00010000
00011000
,
01000000
00000000
00100000
10000000
01000000
00100000
00010000
01000000
,
00001000
00010000
00001000
00000100
00000010
00000000
00010000
00000000
,
00000100
00000000
00000010
00000001
00000100
00000010
00001000
00000100
,
00010000
00001000
00100000
00010000
01000000
00000000
00001000
00000000
,
00000100
00000000
00000001
00000000
00000100
00000010
00010000
00001000
,
01000000
00000000
00100000
00000000
10000000
00010000
01000000
00001000
,
00010000
00000000
00010000
00000000
00000010
00001000
00000100
00001000
,
00001001
00000000
00001010
00000000
00010010
00000000
00011000
00010000
,
00001000
00000000
01000000
00000000
00010000
00100000
01000000
10000000
,
00010000
00000000
00100000
00000000
00001000
00010000
00000100
00001000
,
00000001
00000000
00000100
00000000
00001000
00100000
00010000
10000000
,
01000000
00010000
00001000
00000100
00000001
00000100
00001000
00010000
,
01000000
10000000
00100000
00010000
,
00001000
00000000
00000010
00000000
00000001
00000100
00001000
00010000
,
02000000
13000000
01000000
00010000
,
00001000
00000000
00000100
00000000
00000001
00000010
00001000
00010000
,
00100000
10000000
00100000
00010000
,
00001000
00000000
00000010
00000000
00000001
00000100
00001000
00010000
,
02000000
00000000
13000000
00000000
00100000
01000000
00010000
00100000
,
00001000
00010000
00000100
00001000
00000010
00000100
00000001
00000010
,
00000001
00000000
00000100
00001000
00000000
00010000
01000000
00000000
,
01100000
00000000
10000000
01000000
00000000
00010000
00001000
00000000
,
00000110
00000000
00000001
00000100
00000000
00001000
00010000
00000000
,
00021000
00000000
00001000
01030000
,
10000000
01000000
00100000
00001000
00000010
00000001
00000100
00001000
,
00010000
01000000
10000000
01000000
00010000
00001000
00010000
00100000
,
10000000
01000000
00100000
00010000
01000000
00100000
10000000
00010000
,
00100000
00001000
00010000
00001000
00000010
00000001
00000100
00000010
,
00001000
00000100
00000001
00000100
00010000
00001000
00100000
00010000
,
01000000
10000000
01000000
00100000
10000000
00100000
00010000
00001000
,
00000010
00000100
00000001
00000100
00010000
00001000
00010000
01000000
,
10000000
00010000
00000000
01000000
00100000
00000000
10010000
00000000
,
10000000
00100000
00010000
00001000
00000010
00000100
00010000
00001000
,
01000000
00010000
01000000
00100000
10000000
00100000
00010000
00001000
,
00000010
00000100
00010000
00001000
00000100
00000001
00001000
00000010
,
00000100
00001000
00010000
00001000
00010000
00100000
10000000
00010000
,
10000000
00100000
01000000
00010000
00100000
00001000
00010000
00000100
,
00001000
00000010
00000100
00000001
00000010
00000100
00010000
00001000
,
00100000
00001000
01000000
00001000
00100000
00001000
01000000
00000000
,
00000000
00100000
00000000
01000000
00020000
00000000
00000000
00000000
,
00000000
00000000
00000000
00000000
00000000
00000000
00000000
00000000
00000000
00000000
00000000
00000000
00000000
00130000
00000000
00000000
00000000
00002000
00000000
00000000
00000000
00000000
00000000
00000000
00000000
00000000
00000000
00000000
00000000
00000000
00000000
00000000
,
00000000
00000000
00000000
00000000
00000000
00000000
00000000
00000000
00000000
00000200
00003000
00000000
00000000
00000000
00000000
00000000
00000000
00000000
00000000
00000000
00000000
00000000
00000000
00000000
00000000
00000000
00000000
00000000
00000000
00000000
00000000
00000000
,
00000000
00000000
00000000
00000000
00000000
00000001
00000300
00000000
00000000
00000020
00000000
00000000
00000000
00000000
00000000
00000000
00000000
00000000
00000000
00000000
00000000
00000000
00000000
00000000
00000000
00000000
00000000
00000000
00000030
00000000
00000000
00000100
,
00000000
00001000
00000000
00000001
00000000
00000000
00000000
00000000
00000000
00000000
00001001
00000000
00000000
00000000
00000000
00000000
00000000
00000100
00000000
00000000
00000000
00000100
00000000
00000000
00000000
00000001
00000000
00000000
00000000
00000010
00000000
00000000
,
00000100
00000000
00001001
00000000
00000100
00000100
00001000
00000010
,
00000100
00000010
00000100
00001000
00010000
00001000
00010000
01000000
,
00100000
00000000
01000000
00000000
00100000
00000000
00010000
10000000
00010000
00000000
10000000
00000000
00010000
00000000
00000000
00000000
,
10010000
00000000
01000000
00010000
00100000
00000000
01000000
10000000
,
00000000
01000000
00010000
00000000
00001000
00010000
00001000
00000000
,
00011000
00000000
00000100
00001000
00000010
00000000
00000100
00000001
,
00000010
00001000
00000010
00000100
00010000
00001000
00100000
00010000
,
10010000
00000000
00100000
00010000
01000000
00000000
00100000
10000000
,
00000000
00100000
00010000
00000000
00001000
00010000
00001000
00000000
,
00011000
00000000
00000010
00001000
00000100
00000000
00000010
00000001
,
00000100
00001000
00000100
00000010
00000101
00000000
00001100
00000000
,
00001000
00000000
00000001
00000000
00000100
00000001
00000000
00000000
00000010
00000000
00000000
00000100
00000000
00000000
00001000
00000000
,
00000100
00000000
00010000
00000000
00001000
00010000
00000000
00000000
01000000
00000000
00000000
00100000
00000000
00000000
00010000
00000000
,
10000000
00000000
00010000
00000000
00100000
00010000
00000000
00000000
01000000
00000000
00000000
00100000
00000000
00000000
10000000
00000000
,
00010000
00000000
10000000
00000000
01000000
00100000
00000000
00000000
00010000
00000000
00000000
01000000
00000000
00000000
00100000
00000000
,
00010000
00000000
00001000
00000000
00010000
00000100
00000000
00000100
00001000
00000000
00001000
00000010
00000000
00000000
00000001
00000000
,
00000010
00000000
00001000
00000000
00000001
00000010
00000000
00000010
00000100
00000000
00000100
00001000
00000000
00000000
00000100
00000000
,
00010000
00000000
00001000
00000000
00010000
01000000
00000000
01000000
10000000
00000000
10000000
00010000
00000000
00000000
10000000
00000000
,
00100000
00000000
01000000
00000000
00010000
00100000
00000000
00100000
01000000
00000000
01000000
10000000
00000000
00000000
00010000
00000000
,
10000000
00100000
00000000
00000000
00000000
00000000
10000000
00010000
00000000
00000000
00000000
00000000
00100000
00000000
10000000
00000000
,
00100000
00000000
01000000
00010000
00100000
01000000
10000000
01000000
,
00020000
00000000
00030000
00002000
00000000
00003000
00000010
00000000
,
00000001
00000100
00000010
00001000
00000100
00000010
00000001
00000100
,
00000001
00001000
00000000
00000000
00000000
00000000
00000010
00001000
00000000
00000000
00000000
00000000
00000100
00000000
00000001
00000000
,
00000100
00000000
00000010
00001000
00000100
00000010
00000001
00000010
,
00002000
00000000
00003000
00020000
00000000
00030000
01000000
00000000
,
10000000
00100000
01000000
00010000
00100000
01000000
10000000
00100000
,
02000000
00000000
00000000
03002000
00000000
00000000
00023000
00000000
,
00000000
00030200
00000000
00000000
00000310
00000000
00000001
00000000
,
00000220
00000000
00000330
00002200
00000000
00003300
00022000
00000000
,
00033000
00220000
00000000
00330000
01100000
00000000
10100000
00000000
,
10000000
02000000
00000000
03010000
00002000
00000000
00003010
00000002
,
00000000
00000103
00002000
00000000
00013000
00100000
10000000
01000000
,
01100000
00000000
00010000
00011000
00000000
00000100
00001100
00000000
,
00000010
00000000
00000011
00000000
00000000
00000000
00000001
00000000
00000100
00000000
00001000
00010000
00001000
00000000
00000000
00000000
,
02200000
00000000
00000000
00000000
,
00000000
00000000
00000000
00000000
00000000
03300000
00000000
01010000
,
00110000
00202000
00000000
00000000
00000000
00000000
00000000
00000000
,
00000000
00000000
00000000
00000000
00000000
00303000
00010000
00001000
,
01000000
00010000
01000000
00000000
00100000
00000000
10000000
00000000
00010000
01000000
00010000
00000000
00100000
00000000
00001000
00000000
,
00001000
00010000
00010000
00000100
00000100
00001000
00001000
00010100
,
00000100
00001000
00000100
00000000
00000010
00000000
00000001
00000000
00001000
00000100
00001000
00000000
00000010
00000000
00000100
00000000
,
00000010
00000100
00000010
00000100
00000010
00000000
00000010
00000000
00001000
00000100
00001000
00000100
00010000
00000000
00000000
00000000
,
00001000
01000000
00010000
00100000
00001000
01000000
00010000
00100000
,
00001000
00010000
00000100
00001000
00000001
00000001
00001000
00001100
,
00010000
00000010
00001000
00000100
00010000
00000010
00001000
00000100
,
00010000
00001000
01000000
00010000
10000000
10000000
00010000
01010000
,
10000000
00100000
01000000
00010000
10000000
00010000
10000000
01000000
,
00010000
00000100
00001000
00000010
00000001
00000010
00001000
00001000
,
00000001
00000100
00000010
00001000
00000001
00001000
00000001
00000100
,
00001000
00000000
01000000
00000000
00010000
00000000
00100000
00000000
01000000
00000000
01000000
10000000
00010000
00000000
01000000
00010000
,
10000000
00000000
00100000
00000000
01010000
00000000
00000000
00000000
00010000
00000000
00001000
00010000
00000100
00000000
00010000
00000000
,
00000010
00000000
00001000
00000000
00000101
00000000
00000000
00000000
00000100
00000000
00000100
00000001
00001000
00000000
00000100
00000000
,
00010000
00000000
00010000
00000000
01001000
00000000
00010000
00000000
00010000
00000000
00001000
01000000
00010000
00000000
01000000
00000000
,
00100000
00000000
10000000
01000000
00100000
00000000
00100000
01000000
00100000
00000000
00100000
00000000
00001000
00010000
00001000
00010000
,
00001000
00000000
00000000
00000000
00010100
00000000
00000000
00001000
,
00000001
00001000
00000100
00010000
00001000
00000000
00010000
00000000
,
01000000
10000000
01000000
00010000
00001000
00000100
00000001
00000100
,
00010000
00000000
01100000
00000000
10000000
00010000
10000000
10010000
,
11000000
00000000
01000000
00000000
10000000
00000000
01000000
00000000
00010000
00000000
00001000
00010000
00000100
00000000
00001000
00000000
,
00000001
00000000
00000010
00000000
00001000
00000000
00010000
00000000
00100000
00000000
10000000
00100000
10000000
00000000
01000000
00000000
,
00100000
00000000
00100000
00000000
00001000
00000000
00010000
00000000
00000010
00000000
00000010
00001000
00000001
00000000
00000100
00000000
,
00000001
00000000
00000010
00000000
00000100
00000000
00010000
00000000
00000100
00001000
00000010
00001000
00000010
00000000
00000000
00000000
,
00000100
00000000
00000001
00000000
00000010
00000000
00001000
00000000
00010000
00001000
00010000
00000000
00100000
00000000
00010000
00000000
,
00001000
00000000
00000010
00000000
00001000
00000000
00010000
00000000
00001000
00010000
00001000
00000000
00000100
00000000
00000001
00000000
,
00001000
00000000
00000100
00000000
00010000
00000000
00010000
00000000
00010000
00001000
00010000
00000000
01000000
00000000
01000000
00000000
,
00200000
01000000
01000000
01000000
01000000
01000000
01000000
01300000
,
11000000
00000000
10000000
00000000
00010000
00000000
00000000
00000000
01001000
00000000
00010000
00001000
00010000
00000000
00000000
00000000
,
00010100
00000000
00001000
00000000
00000010
00000000
00000100
00000000
00000001
00001000
00000001
00000100
00000001
00000000
00000000
00000000
,
00001100
00000000
00001000
00000000
00000100
00000000
00000000
00000000
00010100
00000000
00001000
00010000
00001000
00000000
00000000
00000000
,
01001000
00000000
00010000
00000000
00100000
00000000
01000000
00000000
10000000
00010000
10000000
01000000
10000000
00000000
00000000
00000000
,
00100000
01000000
00010000
00000000
01000000
00000000
00000000
00000000
00100000
01000000
10000000
00000000
01000000
00000000
00000000
00000000
,
01000000
00000000
00010000
00000000
00100000
00000000
00001000
00000000
00010000
00001000
00010000
00000100
00010000
00000000
00000000
00000000
,
00000100
00001000
00000100
00000000
00000100
00000000
00000010
00000000
00000100
00001000
00000100
00000000
00000100
00000000
00000010
00000000
,
00000010
00000001
00001000
00000000
00000001
00001000
00000100
00000000
00001000
00000100
00010000
00000100
00010000
00001000
00010000
00001000
,
00010000
00000000
00000000
00000000
01000000
00000000
10000000
01000000
00010000
00001000
00000100
00000000
00000001
00000000
00000000
00000000
,
00000001
00000000
00000000
00000000
00000100
00000000
00001000
00010000
00100000
00000000
10000000
00000000
00010000
00000000
00100000
00000000
,
00011000
00001000
00010000
00000010
,
00001000
00000001
00000100
00000001
,
00000010
00000001
00000100
00000001
00001000
00000000
00000001
00001000
,
00000100
00000100
00001001
00000000
,
00000001
00001000
00000100
00010000
,
00001000
00100000
00010000
01000000
,
00100000
10000000
00010000
01000000
00010000
00000000
10000000
00100000
,
01000000
01000000
10010000
00000000
,
01000000
00010000
01000000
00000000
00100000
00000000
10000000
00000000
,
00010000
00100000
00010000
00000000
01000000
00000000
00001000
00000000
,
00010000
00001000
00010000
00000000
00000100
00000000
00001000
00000000
,
00000010
00000100
00000010
00000000
00001000
00000000
00000001
00000000
,
00000100
00000001
00000100
00000000
00000100
00000001
00001000
00000000
,
00000100
00001000
00000100
00000000
00000100
00010000
00001000
00000000
,
00010000
00000000
01000000
00000000
10000000
00000000
01000000
00100000
,
00010000
00100000
01000000
00000000
10000000
00000000
00000000
00000000
,
10000000
01000000
00000000
01000000
00010000
00000000
00010000
00000000
,
00001000
00000100
00000000
00000100
00000001
00000000
00000001
00000000
,
00000010
00001000
00000000
00001000
00010000
00000000
00010000
00000000
,
00100000
10000000
00000000
10000000
01000000
00000000
01000000
00000000
,
00010000
00001000
00010000
00000000
00010000
00000100
00001000
00000000
,
00001000
00000010
00001000
00000000
00001000
00000001
00000100
00000000
,
00000100
00000010
00000100
00000000
00000100
00000010
00001000
00000000
,
00000010
00001000
00000100
00001000
00000100
00010000
00001000
00010000
,
01000000
00100000
01000000
00010000
00001000
00000100
00000010
00000000
,
00000001
00000100
00000010
00001000
00000100
00010000
00001000
00000000
,
00100000
01000000
00100000
00001000
00100000
00010000
01000000
00001000
,
00010000
00000100
00000010
00000000
00000001
00000100
00000010
00000000
,
00001000
00000100
00000000
00010000
00001000
00000000
00100000
00010000
,
00000000
00100000
01000000
00000000
10000000
01000000
10000000
00000000
,
01000000
00010000
01000000
00010000
00001000
00010000
00001000
00000000
,
00000010
00000100
00000010
00000100
00000010
00000000
00000011
00000000
,
00001001
00000000
00001100
00000000
00010000
00001000
00010000
00001000
,
01000000
00100000
10000000
00010000
00000000
00100000
01000000
10000000
,
00010000
01000000
00100000
01000000
00001000
00010000
00001000
00000000
,
00010000
00010100
00000100
00000110
,
00000011
00000000
00001001
00000000
00001000
00000100
00000010
00000001
,
00001000
00000100
00010000
00001000
00000000
01000000
00100000
10000000
,
00010000
01000000
00000000
01000000
00001000
00010000
00000000
00010000
00000000
00000100
00000000
00000100
00000000
00000010
00000000
00000010
,
00000001
00000100
00000001
00001000
00000001
00000100
00001000
00000000
,
00010000
00000000
01000000
00000000
10000000
00010000
10000000
00000000
,
01000000
00010000
01000000
00010000
00001000
00010000
00000100
00000000
,
00000010
00000000
00000001
00000000
00001000
00000001
00001000
00000000
,
00000001
00000100
00000001
00000100
00001000
00010000
00001000
00010000
,
00100000
10000000
00100000
10000000
01000000
00100000
01000000
00000000
,
00010000
00000000
00001000
00000100
00000000
00000010
00001000
00000000
,
00000001
00000000
00001000
00000001
00000000
00000000
00000110
00000000
,
00001010
00000000
00001001
00000000
00000100
00010000
00000100
00000000
,
00010000
00001000
00010000
00001000
00000000
00100000
01000000
00000000
,
01100000
00000000
00101000
00000000
00001000
00010000
00001000
00000000
,
00010000
00001000
00010000
00000100
00000000
00000010
00000100
00000000
,
00000110
00000000
00000011
00000000
00000001
00001000
00000001
00000000
,
00001000
00000100
00001000
00000001
00000000
00000011
00000000
00000000
,
00000001
00000010
00000001
00000010
00000000
00000000
00000100
00001000
00000000
00001000
00000100
00000000
00000000
00000000
00011000
00000000
,
01000000
00000000
00100000
00000000
00001000
00010000
00001000
00000000
,
00010000
00000000
00000100
00000000
00010000
00001000
00010000
00001000
,
00010000
00000000
00000100
00000010
00000100
00000000
00001000
00000001
,
00001000
00000000
00000010
00000100
00000010
00000000
00010000
00000010
,
00010000
00001000
00010000
00000000
00001000
00010000
00001000
00000000
,
00100000
00000000
00010000
00000000
00100000
00000000
00000000
00000000
01000000
10000000
00000000
00000000
00110000
00000000
00000000
00000000
,
00011000
00000000
00001100
00000000
00000010
00000100
00000010
00000001
,
00000010
00000000
00000001
00000010
00000001
00001000
00000001
00000000
,
00001000
00000100
00010000
00000000
00001000
00010000
00000100
00000000
,
00010000
00001000
00100000
00000000
00010000
00100000
00010000
10000000
,
00010000
00000000
10000000
01000000
00100000
00000000
00001000
00010000
,
00000100
00000000
00001000
00000100
00000010
00000000
00000100
00000010
,
00000100
00001000
00000001
00000000
00001000
00000100
00001000
00000000
,
00000001
00000010
00000001
00000000
00001000
00000001
00001000
00000000
,
00001000
00000100
00001000
00000000
00000100
00010000
00000100
00000000
,
00010000
00001000
00010000
00000000
00010000
00000100
00010000
00000000
,
00001000
00010000
00001000
00000000
00001000
00100000
00001000
00000000
,
00100000
00010000
00100000
00000000
00100000
01000000
00100000
00000000
,
01000000
00100000
01000000
00000000
01000000
10000000
01000000
00000000
,
00100000
00010000
00100000
00001000
00100000
00000000
00100000
00001000
,
00010000
00001000
00010000
00000000
00010000
00001000
00010000
00000100
,
00000010
00000000
00000010
00000100
00000010
00000001
00000010
00000000
,
00000100
00000010
00000100
00001000
00000100
00000000
00000100
00000010
,
00000001
00000010
00000001
00000000
00000001
00001000
00000001
00000100
,
00000010
00000000
00000010
00000100
00000010
00001000
00000010
00000200
,
00000002
00000000
00000000
00000303
00001000
00000100
00010000
00001000
,
00010000
00000000
00010000
00000000
00001000
00010000
00001000
00000000
,
00100000
00001000
00100000
00000000
00010000
00100000
00010000
10000000
,
00010000
01000000
00010000
00000000
01010000
00000000
10010000
00000000
,
10100000
00000000
01100000
00000000
01000000
00010000
00000000
01000000
,
00001000
00000000
00010000
00001000
00000000
00010000
00001000
00010000
,
00000100
00000000
00001100
00000000
00001001
00000000
00000001
00000100
,
00000001
00000000
00001000
00000001
00001000
00000100
00000010
00000000
,
00000110
00000000
00000011
00000000
00000001
00000010
00000001
00001000
,
00000001
00000000
00000001
00000000
00001000
00000100
00001000
00000000
,
00000100
00010000
00000100
00000000
00001000
00010000
00001000
00100000
,
00010000
00100000
00010000
00000000
00110000
00000000
10010000
00000000
,
11000000
00000000
01100000
00000000
00100000
00010000
00000000
00100000
,
00001000
00000000
00010000
00001000
00010000
00000000
00000100
00001000
,
00000000
00000100
00000010
00000000
00000000
00000110
00000000
00000011
,
00000000
00000001
00001000
00000000
00001001
00000000
00001100
00000000
,
00010100
00000000
00011000
00000000
00001000
00010000
00001000
01000000
,
00100000
01000000
00100000
10000000
00010000
01000000
00100000
10000000
,
00010000
01000000
00001000
00010000
00001000
00010000
00000010
00001000
,
00000010
00000100
00000001
00001000
00000100
00010000
00001000
00010000
,
00001000
00100000
00001000
00000000
00010000
00001000
00010000
00000100
,
00000010
00000100
00000010
00000001
00001000
00000100
00000010
00000001
,
00001000
00000100
00010000
00001000
00010000
00001000
00100000
00010000
,
00100000
01000000
10000000
00010000
01000000
00001000
00010000
00001000
,
00010000
00000010
00010000
00000000
00001000
00010000
00001000
00100000
,
01000000
00100000
01000000
10000000
00010000
00100000
01000000
10000000
,
00010000
00100000
00001000
00010000
00001000
00010000
00000100
00001000
,
00000100
00000010
00000001
00001000
00000010
00010000
00001000
00010000
,
00001000
01000000
00001000
00000000
00010000
00001000
00010000
00000100
,
00000010
00000100
00000010
00000001
00001000
00000100
00000010
00000001
,
00001000
00000000
00000100
00000000
00010000
00000000
00001000
00000000
00100000
00010000
00000000
00100000
01000000
00000000
00100000
10000000
,
00000000
00100000
01000000
00000000
00100000
00001000
00010000
00001000
00100000
00000000
01000000
00000000
00100000
00000000
00010000
00000000
,
10000000
01000000
00100000
00000000
00110000
00000000
10010000
00000000
,
10000000
01000000
00100000
00000000
01100000
00000000
01010000
00000000
,
00010000
01000000
00010000
00001000
00010000
00001000
00000010
00001000
,
00000010
00000100
00000010
00000000
00000001
00000010
00000001
00001000
,
00000001
00000000
00000100
00000000
00000010
00000100
00000010
00000000
,
00010000
00001000
00010000
00000000
00001000
00010000
00001000
01000000
,
00010000
01000000
00100000
10000000
01000000
00100000
00020000
00000000
,
00000000
00000000
00000000
00030000
01000000
00010000
01000000
00001000
,
00000000
00000000
00010000
00001000
00000000
00010000
00000100
00000000
,
00001000
00000100
00001000
00000001
00000000
00000000
00002002
00000000
,
00000000
00000000
00000000
00000000
,
00000000
00003003
00000000
00000000
;

//---------------dance-single - ----------------
#NOTES:
     dance-single:
     :
     Challenge:
     10:
     0.835,1.000,0.341,0.328,0.278:
0000
0000
0000
0000
,
0000
0000
0000
0000
,
0000
0000
0000
0000
,
1001
0000
0100
1000
0001
0000
0010
0001
,
0200
0320
0130
1010
,
1001
0000
0100
0001
0100
0000
0001
1000
,
0020
2030
3010
0101
,
0010
1000
0100
1000
0010
0100
0001
0010
,
0002
0203
0301
0110
,
0100
0001
0010
0100
0010
0001
0100
1000
,
0200
0000
0000
0000
0320
0000
0000
0000
1030
0000
0001
0000
0100
0010
0100
0010
,
0100
0000
1001
0000
0100
0001
0011
0000
,
0100
0010
0110
0000
0010
1000
1100
0000
,
0010
0001
0100
1000
0100
0001
0010
1000
,
0020
0000
0032
0000
0103
0000
0010
0100
,
0010
1000
0110
0000
0100
1000
1010
0000
,
0100
0010
0110
0000
0010
0001
0101
0000
,
0010
1000
0100
0001
0100
1000
0010
0001
,
0020
0000
0000
0000
2030
0000
0000
0000
3001
0100
0001
0100
0001
0100
0010
0000
,
0100
0000
0010
0000
1000
0001
1000
0000
,
0100
0000
0010
0000
0001
1000
0001
0100
,
0001
0000
0010
0000
0100
1000
0100
0000
,
0100
0010
0100
0000
1000
0001
1000
0100
,
1000
0000
0010
0000
0100
0001
0100
0000
,
0100
0010
0100
0000
0001
1000
0001
0100
,
0001
0000
0010
0000
0100
1000
0100
0000
,
0100
0010
0100
1000
0100
0010
0100
0001
,
0100
0000
1000
2001
0000
3100
2100
0000
,
3002
0000
0103
0102
0000
1003
2001
0000
,
3020
0000
0031
0012
0000
0013
2010
0000
,
3002
0003
0110
1001
,
0010
0100
1000
0001
1000
0100
0010
0001
,
0010
0100
0010
0001
0010
0100
1000
0010
,
1000
0100
1000
0010
1000
0010
0100
0001
,
1000
0010
0100
0001
1000
0100
1000
0001
,
0010
0001
0100
0001
0010
0001
0100
0010
,
1000
0100
0010
0100
1000
0100
0010
0100
,
1000
0010
0100
0001
1000
0010
0100
0001
,
1001
0101
0000
0101
1001
0000
1100
0000
,
0010
0100
0001
0010
0100
1000
0100
0010
,
0100
0001
0100
1000
0100
0010
0001
0100
,
0010
1000
0001
0100
0010
1000
0010
0100
,
0010
1000
0010
0001
0010
0100
0001
1000
,
0010
0020
1000
2030
0001
3002
1000
2003
,
0100
3200
1000
2300
0001
3002
0010
0013
,
0200
2300
3002
0203
,
0300
0020
0000
1030
0002
0000
0000
0000
,
0000
0000
0000
0000
0000
0000
0000
0000
0000
0000
0000
0000
0000
0013
0000
0000
0000
0020
0000
0000
0000
0000
0000
0000
0000
0000
0000
0000
0000
0000
0000
0000
,
0000
0000
0000
0000
0000
0230
0000
0000
0000
0000
0000
0000
0000
0000
0000
0000
,
0000
0000
0000
0000
0000
0000
0000
0000
0000
0000
0000
0000
1300
0000
0000
0000
0000
0000
0000
0000
2000
0000
0000
0000
0000
0000
0000
0000
0000
0000
0000
0000
0000
0000
0000
0000
0000
0000
0000
0000
0000
0000
0000
0000
0000
0000
0000
0000
0000
0000
0000
0000
0000
0000
0000
0000
3000
0000
0000
0000
0000
0000
0000
0100
,
0000
0000
0000
1000
0000
0000
0000
0001
0000
0000
0000
0000
0000
0000
0000
0000
0000
0000
0000
0000
0101
0000
0000
0000
0000
0000
0000
0000
0000
0000
0000
0000
0000
0000
0000
0010
0000
0000
0000
0000
0000
0000
0010
0000
0000
0000
0000
0000
0000
0100
0000
0000
0000
0000
0000
0000
0000
0001
0000
0000
1000
0000
0000
0000
,
0100
0000
0000
0000
0011
0000
0000
0000
0100
0000
0100
0000
0010
0000
0001
0010
,
0001
0000
0010
0100
0010
0000
0100
1000
0100
0000
1000
0001
1000
0000
0001
1000
,
0001
1000
0001
1000
0001
1000
0001
0000
,
1001
0000
0100
0002
0000
0103
2000
0000
,
3100
0000
0010
0001
0100
0001
1001
0000
,
1010
0000
0010
0002
0000
0013
2000
0000
,
3010
0000
0100
0001
0010
0100
1000
0010
,
1001
0000
0010
2000
0000
3010
0002
0000
,
0013
0000
0000
0000
0100
0000
1000
0000
0001
1000
0001
1000
0010
0100
0001
0000
,
0101
0000
0100
2000
0000
3100
0002
0000
,
0103
0000
0010
1000
0010
1000
0010
0100
0001
1000
0001
0000
1000
0001
1000
0000
,
0010
0000
0001
0000
1000
0100
0000
1000
0010
0000
1000
0001
0000
1000
0100
0000
,
0010
0000
0001
0000
0100
0001
0000
0010
0001
0000
1000
0001
0000
0100
0001
0000
,
1000
0000
0010
0000
0100
0001
0000
0100
0010
0000
0100
1000
0000
0100
0010
0000
,
0100
0000
0001
0000
0010
0100
0000
0010
1000
0000
0010
0100
0000
0010
0001
0000
,
1000
0000
0001
0000
0100
0010
0000
1000
0001
0000
0010
0100
0000
1000
0001
0000
,
0010
0000
1000
0000
0010
0100
0000
1000
0001
0000
0100
0010
0000
1000
0010
0000
,
0100
0000
0001
0000
0010
0001
0000
0100
0010
0000
1000
0100
0000
0010
0001
0000
,
0100
0000
0010
0000
1000
0100
0000
0010
0001
0000
0100
0010
0000
1000
0001
0000
,
2001
0000
3001
0110
0000
0110
0001
1000
,
0010
0100
0001
0100
0010
1000
0100
0010
,
0002
0000
0103
2000
0000
3100
0002
0000
,
1003
0010
0100
0001
0010
0100
1000
0010
,
1002
0000
1003
0110
0000
0110
1000
0001
,
0010
0100
1000
0100
0010
1000
0001
0100
,
2000
0000
3010
0002
0000
0013
2000
0000
,
3001
0010
0100
1000
0010
0100
0001
0010
,
0200
0000
0000
2300
0000
0000
3020
0000
,
0000
0032
0000
0000
0013
0000
0100
0000
,
2200
0000
0000
0000
0000
0000
0000
0000
0000
0000
0000
0000
0000
0000
0000
0000
3300
0000
0000
0000
0000
0000
0000
0202
0000
0000
0000
0000
0000
0000
0000
0000
0000
0000
0000
0000
0000
0000
0000
0303
0000
0000
0000
0000
0000
0000
0000
0022
0000
0000
0000
0000
0000
0000
0000
0000
0000
0000
0000
0000
0000
0000
0000
0033
,
0000
0000
0000
0000
0000
0000
0000
2020
0000
0000
0000
0000
0000
0000
0000
0000
0000
0000
0000
0000
0000
0000
0000
3030
0000
0000
0000
0000
0000
0000
0000
0000
0110
0000
0000
0000
0000
0000
0000
0000
0000
0000
0000
0000
0000
0000
0000
0000
0101
0000
0000
0000
0000
0000
0000
0000
0000
0000
0000
0000
0000
0000
0000
0000
,
0001
0002
0000
0103
0200
0000
1300
2000
,
0000
3010
0020
0000
0031
0001
0010
0010
,
1000
0000
0100
1000
0010
0000
0100
0000
0001
0010
0100
0000
1000
0000
0001
0100
,
0010
1000
0001
0100
0010
1000
0001
0000
,
2000
0000
0000
0000
,
0000
0000
0000
0000
3000
0000
0000
0110
,
1001
0202
0000
0000
0000
0000
0000
0000
,
0000
0000
0303
1001
,
0001
0100
0001
0100
0001
0000
1000
0010
0000
0100
0001
0000
1000
0000
0001
0000
,
1000
0100
1000
0100
1000
0000
0001
0010
0000
0100
1000
0000
0001
0000
1000
0000
,
0001
0000
0010
0100
1000
0000
0001
0000
1000
0000
0010
0100
0001
0000
1000
0000
,
0010
1000
0001
0010
0100
0000
0010
0000
0001
1000
0010
0100
0001
0000
0010
0000
,
1001
0000
0100
0000
1000
0000
0010
0000
1000
0000
0100
0000
1000
0010
0100
0000
,
0001
0000
0010
0000
0001
0000
0100
0000
0001
0000
0010
0000
0001
0100
0000
0001
,
0010
0000
0100
0000
1000
0000
0010
0000
0100
0000
0001
0000
0010
0001
1000
0000
,
0100
0001
0000
0001
0100
0000
1000
0000
0010
0001
0000
0001
0010
0000
1000
0000
,
0100
0000
1000
0000
0010
0000
1000
0000
0100
0000
1000
0000
0010
1000
0100
0000
,
0010
0000
0001
0000
0100
0000
0010
0000
1000
0000
0100
0000
0010
0001
0000
1000
,
0010
0000
0100
0000
0001
0000
0010
0000
0100
0000
1000
0000
0010
0100
0010
0000
,
1000
0100
0000
0100
1000
0000
0010
0000
0100
0001
0000
0001
0100
0000
0010
0000
,
1000
0000
0100
0001
0100
0000
1000
0000
0001
0000
1000
0000
0100
0000
0010
0000
,
0001
0000
0100
1000
0100
0000
0001
0000
1000
0000
0001
0000
0100
0000
0010
0000
,
0101
0000
1000
0010
1000
0000
0001
0000
1100
0000
0001
0010
0001
0000
1000
0000
,
0110
0000
1000
0001
1000
0000
0010
0000
0100
0001
0010
0100
1000
0001
0100
0010
,
2000
0000
0200
3000
2000
0300
0020
3000
,
0002
0030
0200
0003
0002
0300
0020
0003
,
2030
0000
0200
3000
0002
0300
0020
0003
0002
0030
0200
0003
2000
0300
3001
0000
,
2002
0000
0000
0000
0000
3003
0011
1100
,
1001
0000
0010
0000
0100
0000
0001
0000
0010
0000
0001
0000
0100
1000
0000
0001
,
0010
0000
1000
0000
0001
0000
0010
0000
0100
0000
1000
0001
1000
0000
0001
0000
,
1000
0000
0100
0000
0010
0000
0001
0000
0100
0001
0000
1000
0100
0000
0001
0000
,
0100
1000
0000
0001
0100
0000
0010
0000
1000
0100
0010
0100
1000
0001
0100
0010
,
0100
0000
0010
0000
1000
0000
0001
0000
0010
0000
0100
0001
0000
0001
0100
0000
,
1000
0000
0010
0000
0100
0000
0001
0010
0001
0000
1000
0000
0100
0000
1000
0000
,
0001
0010
0100
1000
0001
0000
1000
0000
0010
0000
0001
0000
0100
0000
1000
0000
,
2002
0000
0000
0000
0000
0000
0000
3003
1100
0000
0011
0000
0101
0000
1010
0000
,
1000
0000
0001
0000
0100
0001
0100
0001
1000
0000
0100
0000
0010
0000
0100
0000
,
1000
0010
0000
0100
0001
0000
0010
0000
0001
0100
0000
0010
1000
0000
0001
0000
,
0100
0000
0001
0000
1000
0100
1000
0100
0010
0000
0001
0000
1000
0000
0001
0000
,
0100
0010
0000
1000
0100
0000
0010
0001
0000
0100
0010
0000
1000
0001
1000
0001
,
1000
0000
0001
0000
0100
0000
0010
0000
0001
0010
0000
1000
0100
0000
1000
0000
,
0001
0000
0010
0000
0001
0000
1000
0000
0100
0000
1000
0001
0000
0010
0100
0000
,
1000
0001
1000
0001
1000
0000
0010
0000
0100
0000
1000
0000
0001
0000
0100
0000
,
1010
1001
1100
1010
1001
0101
0011
0001
,
1000
0000
1000
0000
1001
0000
0001
0000
0001
0010
0100
0010
1000
0010
0001
0000
,
1000
0000
0000
0000
0000
0000
0000
0000
0001
0000
0000
0000
0000
0000
0000
0000
1001
0000
0000
0000
0000
0000
0000
0000
1000
0000
0000
0000
0000
0000
0000
0000
0001
0000
0000
0000
0000
0000
0000
1000
0000
0000
0000
0000
0000
0001
0000
0000
0000
0000
1000
0000
0000
0000
0001
0000
0000
1000
0000
0000
0001
0000
1000
0000
,
0001
1000
0001
0000
1000
0000
0001
0000
,
0100
0001
0010
0011
,
1000
0100
1000
0000
0001
0000
1000
0000
,
0100
1000
0010
1010
,
0001
0100
0001
0000
1000
0000
1001
0000
,
1000
0100
1000
0000
0001
0000
1001
0000
,
0010
0100
0001
0000
1000
0000
0100
0010
,
0000
0000
0011
0000
0100
1000
0001
0000
,
1002
0000
0103
0210
,
0000
0301
1001
0100
,
0001
1000
0020
0000
,
0130
1000
0100
0000
1000
0000
0010
1000
,
0010
0000
0100
0000
0001
0000
0010
0001
,
0010
0100
1000
0001
,
0001
1000
1000
1001
,
0100
0001
0100
0001
1000
0100
1000
0100
,
0010
0100
0010
0001
1000
0000
0100
0000
,
1000
0001
0010
0100
,
1001
0100
0010
1001
,
0010
0000
0100
0000
0001
0000
1000
0001
,
1001
0000
0100
0000
0010
0000
1000
0001
,
2001
0000
0000
0000
3100
0000
1000
0001
,
1001
0010
1001
0100
,
1000
0001
0100
0001
0010
0100
1000
0000
,
0001
0010
0001
0000
0100
0000
0100
0000
,
0001
0010
0001
1000
0100
0000
0100
0000
,
1000
0010
0100
0001
0010
0000
1000
0000
,
0001
0000
0010
0000
0001
1000
0100
0000
,
0001
0010
0000
1000
0010
0000
0001
0010
,
0000
1000
0010
0000
0100
0001
1000
0000
,
0001
0000
0010
0000
1000
0100
0010
0001
,
0000
0000
0100
1000
,
0100
1000
0001
1000
0100
0000
0010
0000
,
0001
0000
0001
0000
0000
1000
0010
0000
,
0100
0001
1000
0001
0100
0000
0010
0000
,
1000
0000
1000
0000
0000
0001
0010
0000
,
0100
1000
1000
0001
,
0001
0000
0100
0000
0000
0100
0010
0100
,
0001
1000
0000
0000
1000
0001
0000
0000
0000
0010
0000
0010
0000
0100
0000
0100
,
1000
0010
1000
0010
0100
0000
0100
0000
,
0001
0010
0001
0000
1000
0000
1000
0001
,
0010
0100
1000
0000
1000
0010
0100
0000
,
0001
0010
0100
0010
0000
0001
1000
0000
,
0010
0100
0001
0000
0010
0100
1000
0000
,
0001
0100
0010
1000
0000
1000
0010
0000
,
0100
0000
0001
0010
0000
0100
1000
0001
,
0100
0000
0010
1000
0000
0000
0010
0000
,
0100
0001
0100
0000
0010
1000
0010
0000
,
1000
0000
0001
0100
0000
0010
1000
0000
,
0100
1000
0100
0000
0010
0001
0010
0000
,
0001
0000
1000
0010
0000
0100
0001
0000
,
0001
1000
0001
0000
1000
0001
1000
0000
,
0010
0000
0010
0100
0000
0100
0000
0000
,
0001
0010
0001
0010
0000
0000
0100
1000
0000
1000
0100
0000
0000
0000
0110
0000
,
0001
1000
0001
0010
0100
0000
0100
0000
,
1000
0000
0010
0100
0001
0010
0100
1000
,
0001
0000
0010
0100
0010
0000
0100
1000
,
0100
0000
0010
0001
0010
0000
0100
1000
,
0010
0100
0001
0000
1000
0001
1000
0000
,
0100
0010
0100
0000
1001
0000
0110
0000
,
1001
0000
0110
0000
0001
0010
0001
0010
,
0000
0100
1000
0100
0010
0100
0000
1000
,
0010
1000
0000
0100
0010
0100
0000
0010
,
0001
0010
0000
0001
0010
0001
1000
0000
,
0001
0010
0100
0000
1000
0010
0100
0000
,
0001
0010
0100
0000
1000
0010
0100
0001
,
0010
0000
0100
1000
0100
1000
0001
0000
,
0100
0000
0010
1000
0010
1000
0001
0000
,
0100
0000
0010
1000
0010
1000
0001
0000
,
0010
0000
0100
1000
0100
1000
0001
0000
,
0100
0000
0010
1000
0010
0100
0001
0000
,
0010
0000
0100
1000
0100
0010
0001
0000
,
0010
0000
0100
1000
0001
0010
0100
0000
,
1000
0010
1000
0010
0000
0100
0001
0000
,
0001
0010
0001
0010
0000
0100
1000
0000
,
1000
0010
1000
0010
0100
0000
0001
0010
,
0100
1000
0100
0000
0010
0001
0010
0100
,
1000
0000
0010
0100
0001
0010
0100
0000
,
1000
0010
0100
0001
0010
0000
2000
0002
,
0000
0000
3003
0000
0001
0010
0001
0000
,
1000
0000
1000
0000
1000
0010
1000
0000
,
0001
0010
0001
0000
1000
0100
1000
0000
,
0000
0001
0100
0000
0011
0000
1100
0000
,
0010
0000
0110
0000
0100
1000
0000
1000
,
0001
0000
0001
0010
0000
0010
0100
0000
,
1000
0001
0011
0110
,
1100
1001
0020
0000
,
0000
0000
0030
0000
1000
0010
1000
0000
,
0001
0001
1000
1000
,
0001
0100
0001
0000
0100
0010
0100
0000
,
0000
0001
0010
0000
0011
0000
0110
0000
,
1100
0000
1001
0000
0001
1000
0000
1000
,
0010
0000
0010
0100
0000
0100
0001
0000
,
0000
1000
0000
0000
0000
0010
0000
0010
,
0000
0010
0100
0000
0001
0000
1001
0000
,
1000
0000
1001
0000
0001
0010
0001
0010
,
1000
0010
1000
0010
0100
1000
0001
0010
,
0000
0001
0100
0010
1000
0010
1000
0010
,
0001
0010
0001
0010
0100
0001
0010
0100
,
1000
0001
1000
0000
0001
0100
0001
0100
,
1000
0100
1000
0100
0010
1000
0001
0100
,
0000
0001
0010
0100
1000
0100
1000
0100
,
0001
0100
0001
0100
0010
0001
0100
0010
,
1000
0001
1000
0000
1000
0010
0100
0010
,
0001
0010
0100
0010
1000
0001
0100
0010
,
0000
1000
0100
0010
0001
0010
0100
0010
,
1000
0010
0100
0010
0001
1000
0010
0100
,
0001
1000
0001
0000
1000
0100
1000
0010
,
0100
0001
0100
0010
1000
0001
1000
0100
,
0010
0000
0001
0000
0010
0000
0100
0000
1000
0010
0000
0001
0010
0000
1000
0100
,
0000
0001
0100
0000
1000
0010
0100
0001
1000
0000
0010
0000
1000
0000
0001
0000
,
1000
0000
0100
0000
0001
0010
0001
1000
,
0001
0000
0100
0000
1000
0010
0000
0010
,
0100
1000
0000
1000
0100
0001
0000
0001
,
1000
0100
0010
0001
1000
0100
0000
0100
,
0010
1000
0000
1000
0010
0001
0000
0001
,
1000
0010
0100
0001
0010
0000
0100
0000
,
0100
1000
0001
0000
0001
1000
0100
0020
,
0000
0000
0030
0000
0100
0001
0100
0001
,
0000
0000
0100
1000
0000
1000
0010
0000
,
0010
0001
0010
0000
0000
0000
2002
0000
,
0000
0000
0000
0000
,
0000
3003
0000
0000
;

//---------------dance-double - ----------------
#NOTES:
     dance-double:
     :
     Challenge:
     10:
     0.737,1.000,0.172,0.117,0.163: // measure 1
00000000
00000000
00000000
00000000
,  // measure 2
00000000
00000000
00000000
00000000
,  // measure 3
00000000
00000000
00000000
00000000
,  // measure 4
00001000
00000100
00000001
00000010
00001000
00010000
00100000
10000000
,  // measure 5
01000000
00010000
00001000
00011000
,  // measure 6
00010000
01000000
10000000
00100000
00010000
00001000
00000010
00000001
,  // measure 7
00000100
00001000
00010000
00011000
,  // measure 8
01000000
00000000
00100000
10000000
01000000
00100000
00010000
01000000
,  // measure 9
00001000
00010000
00001000
00000100
00000010
00000000
00010000
00000000
,  // measure 10
00000100
00000000
00000010
00000001
00000100
00000010
00001000
00000100
,  // measure 11
00010000
00001000
00100000
00010000
01000000
00000000
00001000
00000000
,  // measure 12
00000100
00000000
00000001
00000000
00000100
00000010
00010000
00001000
,  // measure 13
01000000
00000000
00100000
00000000
10000000
00010000
01000000
00001000
,  // measure 14
00010000
00000000
00010000
00000000
00000010
00001000
00000100
00001000
,  // measure 15
00001001
00000000
00001010
00000000
00010010
00000000
00011000
00010000
,  // measure 16
00001000
00000000
01000000
00000000
00010000
00100000
01000000
10000000
,  // measure 17
00010000
00000000
00100000
00000000
00001000
00010000
00000100
00001000
,  // measure 18
00000001
00000000
00000100
00000000
00001000
00100000
00010000
10000000
,  // measure 19
01000000
00010000
00001000
00000100
00000001
00000100
00001000
00010000
,  // measure 20
01000000
10000000
00100000
00010000
,  // measure 21
00001000
00000000
00000010
00000000
00000001
00000100
00001000
00010000
,  // measure 22
02000000
13000000
01000000
00010000
,  // measure 23
00001000
00000000
00000100
00000000
00000001
00000010
00001000
00010000
,  // measure 24
00100000
10000000
00100000
00010000
,  // measure 25
00001000
00000000
00000010
00000000
00000001
00000100
00001000
00010000
,  // measure 26
02000000
00000000
13000000
00000000
00100000
01000000
00010000
00100000
,  // measure 27
00001000
00010000
00000100
00001000
00000010
00000100
00000001
00000010
,  // measure 28
00000001
00000000
00000100
00001000
00000000
00010000
01000000
00000000
,  // measure 29
01100000
00000000
10000000
01000000
00000000
00010000
00001000
00000000
,  // measure 30
00000110
00000000
00000001
00000100
00000000
00001000
00010000
00000000
,  // measure 31
00021000
00000000
00001000
01030000
,  // measure 32
10000000
01000000
00100000
00001000
00000010
00000001
00000100
00001000
,  // measure 33
00010000
01000000
10000000
01000000
00010000
00001000
00010000
00100000
,  // measure 34
10000000
01000000
00100000
00010000
01000000
00100000
10000000
00010000
,  // measure 35
00100000
00001000
00010000
00001000
00000010
00000001
00000100
00000010
,  // measure 36
00001000
00000100
00000001
00000100
00010000
00001000
00100000
00010000
,  // measure 37
01000000
10000000
01000000
00100000
10000000
00100000
00010000
00001000
,  // measure 38
00000010
00000100
00000001
00000100
00010000
00001000
00010000
01000000
,  // measure 39
10000000
00010000
00000000
01000000
00100000
00000000
10010000
00000000
,  // measure 40
10000000
00100000
00010000
00001000
00000010
00000100
00010000
00001000
,  // measure 41
01000000
00010000
01000000
00100000
10000000
00100000
00010000
00001000
,  // measure 42
00000010
00000100
00010000
00001000
00000100
00000001
00001000
00000010
,  // measure 43
00000100
00001000
00010000
00001000
00010000
00100000
10000000
00010000
,  // measure 44
10000000
00100000
01000000
00010000
00100000
00001000
00010000
00000100
,  // measure 45
00001000
00000010
00000100
00000001
00000010
00000100
00010000
00001000
,  // measure 46
00100000
00001000
01000000
00001000
00100000
00001000
01000000
00000000
,  // measure 47
00000000
00100000
00000000
01000000
00020000
00000000
00000000
00000000
,  // measure 48
00000000
00000000
00000000
00000000
00000000
00000000
00000000
00000000
00000000
00000000
00000000
00000000
00000000
00130000
00000000
00000000
00000000
00002000
00000000
00000000
00000000
00000000
00000000
00000000
00000000
00000000
00000000
00000000
00000000
00000000
00000000
00000000
,  // measure 49
00000000
00000000
00000000
00000000
00000000
00000000
00000000
00000000
00000000
00000200
00003000
00000000
00000000
00000000
00000000
00000000
00000000
00000000
00000000
00000000
00000000
00000000
00000000
00000000
00000000
00000000
00000000
00000000
00000000
00000000
00000000
00000000
,  // measure 50
00000000
00000000
00000000
00000000
00000000
00000001
00000300
00000000
00000000
00000020
00000000
00000000
00000000
00000000
00000000
00000000
00000000
00000000
00000000
00000000
00000000
00000000
00000000
00000000
00000000
00000000
00000000
00000000
00000030
00000000
00000000
00000100
,  // measure 51
00000000
00001000
00000000
00000001
00000000
00000000
00000000
00000000
00000000
00000000
00001001
00000000
00000000
00000000
00000000
00000000
00000000
00000100
00000000
00000000
00000000
00000100
00000000
00000000
00000000
00000001
00000000
00000000
00000000
00000010
00000000
00000000
,  // measure 52
00000100
00000000
00001001
00000000
00000100
00000100
00001000
00000010
,  // measure 53
00000100
00000010
00000100
00001000
00010000
00001000
00010000
01000000
,  // measure 54
00100000
00000000
01000000
00000000
00100000
00000000
00010000
10000000
00010000
00000000
10000000
00000000
00010000
00000000
00000000
00000000
,  // measure 55
10010000
00000000
01000000
00010000
00100000
00000000
01000000
10000000
,  // measure 56
00000000
01000000
00010000
00000000
00001000
00010000
00001000
00000000
,  // measure 57
00011000
00000000
00000100
00001000
00000010
00000000
00000100
00000001
,  // measure 58
00000010
00001000
00000010
00000100
00010000
00001000
00100000
00010000
,  // measure 59
10010000
00000000
00100000
00010000
01000000
00000000
00100000
10000000
,  // measure 60
00000000
00100000
00010000
00000000
00001000
00010000
00001000
00000000
,  // measure 61
00011000
00000000
00000010
00001000
00000100
00000000
00000010
00000001
,  // measure 62
00000100
00001000
00000100
00000010
00000101
00000000
00001100
00000000
,  // measure 63
00001000
00000000
00000001
00000000
00000100
00000001
00000000
00000000
00000010
00000000
00000000
00000100
00000000
00000000
00001000
00000000
,  // measure 64
00000100
00000000
00010000
00000000
00001000
00010000
00000000
00000000
01000000
00000000
00000000
00100000
00000000
00000000
00010000
00000000
,  // measure 65
10000000
00000000
00010000
00000000
00100000
00010000
00000000
00000000
01000000
00000000
00000000
00100000
00000000
00000000
10000000
00000000
,  // measure 66
00010000
00000000
10000000
00000000
01000000
00100000
00000000
00000000
00010000
00000000
00000000
01000000
00000000
00000000
00100000
00000000
,  // measure 67
00010000
00000000
00001000
00000000
00010000
00000100
00000000
00000100
00001000
00000000
00001000
00000010
00000000
00000000
00000001
00000000
,  // measure 68
00000010
00000000
00001000
00000000
00000001
00000010
00000000
00000010
00000100
00000000
00000100
00001000
00000000
00000000
00000100
00000000
,  // measure 69
00010000
00000000
00001000
00000000
00010000
01000000
00000000
01000000
10000000
00000000
10000000
00010000
00000000
00000000
10000000
00000000
,  // measure 70
00100000
00000000
01000000
00000000
00010000
00100000
00000000
00100000
01000000
00000000
01000000
10000000
00000000
00000000
00010000
00000000
,  // measure 71
10000000
00100000
00000000
00000000
00000000
00000000
10000000
00010000
00000000
00000000
00000000
00000000
00100000
00000000
10000000
00000000
,  // measure 72
00100000
00000000
01000000
00010000
00100000
01000000
10000000
01000000
,  // measure 73
00020000
00000000
00030000
00002000
00000000
00003000
00000010
00000000
,  // measure 74
00000001
00000100
00000010
00001000
00000100
00000010
00000001
00000100
,  // measure 75
00000001
00001000
00000000
00000000
00000000
00000000
00000010
00001000
00000000
00000000
00000000
00000000
00000100
00000000
00000001
00000000
,  // measure 76
00000100
00000000
00000010
00001000
00000100
00000010
00000001
00000010
,  // measure 77
00002000
00000000
00003000
00020000
00000000
00030000
01000000
00000000
,  // measure 78
10000000
00100000
01000000
00010000
00100000
01000000
10000000
00100000
,  // measure 79
02000000
00000000
00000000
03002000
00000000
00000000
00023000
00000000
,  // measure 80
00000000
00030200
00000000
00000000
00000310
00000000
00000001
00000000
,  // measure 81
00000220
00000000
00000330
00002200
00000000
00003300
00022000
00000000
,  // measure 82
00033000
00220000
00000000
00330000
01100000
00000000
10100000
00000000
,  // measure 83
10000000
02000000
00000000
03010000
00002000
00000000
00003010
00000002
,  // measure 84
00000000
00000103
00002000
00000000
00013000
00100000
10000000
01000000
,  // measure 85
01100000
00000000
00010000
00011000
00000000
00000100
00001100
00000000
,  // measure 86
00000010
00000000
00000011
00000000
00000000
00000000
00000001
00000000
00000100
00000000
00001000
00010000
00001000
00000000
00000000
00000000
,  // measure 87
02200000
00000000
00000000
00000000
,  // measure 88
00000000
00000000
00000000
00000000
00000000
03300000
00000000
01010000
,  // measure 89
00110000
00202000
00000000
00000000
00000000
00000000
00000000
00000000
,  // measure 90
00000000
00000000
00000000
00000000
00000000
00303000
00010000
00001000
,  // measure 91
01000000
00010000
01000000
00000000
00100000
00000000
10000000
00000000
00010000
01000000
00010000
00000000
00100000
00000000
00001000
00000000
,  // measure 92
00001000
00010000
00010000
00000100
00000100
00001000
00001000
00010100
,  // measure 93
00000100
00001000
00000100
00000000
00000010
00000000
00000001
00000000
00001000
00000100
00001000
00000000
00000010
00000000
00000100
00000000
,  // measure 94
00000010
00000100
00000010
00000100
00000010
00000000
00000010
00000000
00001000
00000100
00001000
00000100
00010000
00000000
00000000
00000000
,  // measure 95
00001000
01000000
00010000
00100000
00001000
01000000
00010000
00100000
,  // measure 96
00001000
00010000
00000100
00001000
00000001
00000001
00001000
00001100
,  // measure 97
00010000
00000010
00001000
00000100
00010000
00000010
00001000
00000100
,  // measure 98
00010000
00001000
01000000
00010000
10000000
10000000
00010000
01010000
,  // measure 99
10000000
00100000
01000000
00010000
10000000
00010000
10000000
01000000
,  // measure 100
00010000
00000100
00001000
00000010
00000001
00000010
00001000
00001000
,  // measure 101
00000001
00000100
00000010
00001000
00000001
00001000
00000001
00000100
,  // measure 102
00001000
00000000
01000000
00000000
00010000
00000000
00100000
00000000
01000000
00000000
01000000
10000000
00010000
00000000
01000000
00010000
,  // measure 103
10000000
00000000
00100000
00000000
01010000
00000000
00000000
00000000
00010000
00000000
00001000
00010000
00000100
00000000
00010000
00000000
,  // measure 104
00000010
00000000
00001000
00000000
00000101
00000000
00000000
00000000
00000100
00000000
00000100
00000001
00001000
00000000
00000100
00000000
,  // measure 105
00010000
00000000
00010000
00000000
01001000
00000000
00010000
00000000
00010000
00000000
00001000
01000000
00010000
00000000
01000000
00000000
,  // measure 106
00100000
00000000
10000000
01000000
00100000
00000000
00100000
01000000
00100000
00000000
00100000
00000000
00001000
00010000
00001000
00010000
,  // measure 107
00001000
00000000
00000000
00000000
00010100
00000000
00000000
00001000
,  // measure 108
00000001
00001000
00000100
00010000
00001000
00000000
00010000
00000000
,  // measure 109
01000000
10000000
01000000
00010000
00001000
00000100
00000001
00000100
,  // measure 110
00010000
00000000
01100000
00000000
10000000
00010000
10000000
10010000
,  // measure 111
11000000
00000000
01000000
00000000
10000000
00000000
01000000
00000000
00010000
00000000
00001000
00010000
00000100
00000000
00001000
00000000
,  // measure 112
00000001
00000000
00000010
00000000
00001000
00000000
00010000
00000000
00100000
00000000
10000000
00100000
10000000
00000000
01000000
00000000
,  // measure 113
00100000
00000000
00100000
00000000
00001000
00000000
00010000
00000000
00000010
00000000
00000010
00001000
00000001
00000000
00000100
00000000
,  // measure 114
00000001
00000000
00000010
00000000
00000100
00000000
00010000
00000000
00000100
00001000
00000010
00001000
00000010
00000000
00000000
00000000
,  // measure 115
00000100
00000000
00000001
00000000
00000010
00000000
00001000
00000000
00010000
00001000
00010000
00000000
00100000
00000000
00010000
00000000
,  // measure 116
00001000
00000000
00000010
00000000
00001000
00000000
00010000
00000000
00001000
00010000
00001000
00000000
00000100
00000000
00000001
00000000
,  // measure 117
00001000
00000000
00000100
00000000
00010000
00000000
00010000
00000000
00010000
00001000
00010000
00000000
01000000
00000000
01000000
00000000
,  // measure 118
00200000
01000000
01000000
01000000
01000000
01000000
01000000
01300000
,  // measure 119
11000000
00000000
10000000
00000000
00010000
00000000
00000000
00000000
01001000
00000000
00010000
00001000
00010000
00000000
00000000
00000000
,  // measure 120
00010100
00000000
00001000
00000000
00000010
00000000
00000100
00000000
00000001
00001000
00000001
00000100
00000001
00000000
00000000
00000000
,  // measure 121
00001100
00000000
00001000
00000000
00000100
00000000
00000000
00000000
00010100
00000000
00001000
00010000
00001000
00000000
00000000
00000000
,  // measure 122
01001000
00000000
00010000
00000000
00100000
00000000
01000000
00000000
10000000
00010000
10000000
01000000
10000000
00000000
00000000
00000000
,  // measure 123
00100000
01000000
00010000
00000000
01000000
00000000
00000000
00000000
00100000
01000000
10000000
00000000
01000000
00000000
00000000
00000000
,  // measure 124
01000000
00000000
00010000
00000000
00100000
00000000
00001000
00000000
00010000
00001000
00010000
00000100
00010000
00000000
00000000
00000000
,  // measure 125
00000100
00001000
00000100
00000000
00000100
00000000
00000010
00000000
00000100
00001000
00000100
00000000
00000100
00000000
00000010
00000000
,  // measure 126
00000010
00000001
00001000
00000000
00000001
00001000
00000100
00000000
00001000
00000100
00010000
00000100
00010000
00001000
00010000
00001000
,  // measure 127
00010000
00000000
00000000
00000000
01000000
00000000
10000000
01000000
00010000
00001000
00000100
00000000
00000001
00000000
00000000
00000000
,  // measure 128
00000001
00000000
00000000
00000000
00000100
00000000
00001000
00010000
00100000
00000000
10000000
00000000
00010000
00000000
00100000
00000000
,  // measure 129
00011000
00001000
00010000
00000010
,  // measure 130
00001000
00000001
00000100
00000001
,  // measure 131
00000010
00000001
00000100
00000001
00001000
00000000
00000001
00001000
,  // measure 132
00000100
00000100
00001001
00000000
,  // measure 133
00000001
00001000
00000100
00010000
,  // measure 134
00001000
00100000
00010000
01000000
,  // measure 135
00100000
10000000
00010000
01000000
00010000
00000000
10000000
00100000
,  // measure 136
01000000
01000000
10010000
00000000
,  // measure 137
01000000
00010000
01000000
00000000
00100000
00000000
10000000
00000000
,  // measure 138
00010000
00100000
00010000
00000000
01000000
00000000
00001000
00000000
,  // measure 139
00010000
00001000
00010000
00000000
00000100
00000000
00001000
00000000
,  // measure 140
00000010
00000100
00000010
00000000
00001000
00000000
00000001
00000000
,  // measure 141
00000100
00000001
00000100
00000000
00000100
00000001
00001000
00000000
,  // measure 142
00000100
00001000
00000100
00000000
00000100
00010000
00001000
00000000
,  // measure 143
00010000
00000000
01000000
00000000
10000000
00000000
01000000
00100000
,  // measure 144
00010000
00100000
01000000
00000000
10000000
00000000
00000000
00000000
,  // measure 145
10000000
01000000
00000000
01000000
00010000
00000000
00010000
00000000
,  // measure 146
00001000
00000100
00000000
00000100
00000001
00000000
00000001
00000000
,  // measure 147
00000010
00001000
00000000
00001000
00010000
00000000
00010000
00000000
,  // measure 148
00100000
10000000
00000000
10000000
01000000
00000000
01000000
00000000
,  // measure 149
00010000
00001000
00010000
00000000
00010000
00000100
00001000
00000000
,  // measure 150
00001000
00000010
00001000
00000000
00001000
00000001
00000100
00000000
,  // measure 151
00000100
00000010
00000100
00000000
00000100
00000010
00001000
00000000
,  // measure 152
00000010
00001000
00000100
00001000
00000100
00001000
00000001
00001000
,  // measure 153
00000001
00000100
00000010
00000000
00010000
00000000
00001000
00000000
,  // measure 154
00010000
00000100
00000010
00000000
00000001
00000000
00000100
00000000
,  // measure 155
00000010
00010000
00001000
01000000
00100000
00000000
10000000
00000000
,  // measure 156
01000000
00000000
00010000
00000000
00001000
00010000
00001000
00000000
,  // measure 157
00010000
00000100
00000000
00000010
00000001
00000000
00000100
00000010
,  // measure 158
00000000
00010000
00001000
00000000
01000000
00100000
10000000
00000000
,  // measure 159
01000000
00000000
00010000
00000000
00001000
00000000
00000000
00000100
,  // measure 160
00000010
00000000
00001000
00000101
,  // measure 161
00000010
00010000
00001000
01000000
00100000
00000000
10000000
00000000
,  // measure 162
01000000
00000000
00100000
00000000
00000000
00001000
00010000
00000000
,  // measure 163
00000100
00000010
00000001
00000100
00001000
00000000
00010000
00000000
,  // measure 164
00100000
00000000
10000000
00000000
00010000
01000000
00100000
00000000
,  // measure 165
10000000
01000000
00010000
00001000
,  // measure 166
00000100
00000000
00000001
00000000
00000000
00000010
00000001
00001000
,  // measure 167
00000100
00000010
00000000
00000000
00001000
00010000
00000000
00000000
00000000
01000000
00000000
00100000
00000000
10000000
00000000
00010000
,  // measure 168
10000000
01000000
00100000
00001000
00010000
00000000
00000100
00000000
,  // measure 169
00000010
00000001
00000010
00000000
00000001
00000000
00000100
00000010
,  // measure 170
00010000
00001000
01000000
00000000
00100000
10000000
00100000
00000000
,  // measure 171
10000000
01000000
00100000
00001000
00000000
00010000
00000100
00000000
,  // measure 172
00000010
00000001
00000010
00000000
00010000
00000100
00010000
00000000
,  // measure 173
00001000
00010000
00001000
01000000
00000000
00100000
10000000
00000000
,  // measure 174
01000000
00000000
00010000
00001000
00000000
00010000
00001000
00010000
,  // measure 175
00000100
00000000
00000010
00000001
00000000
00000000
00000100
00000000
,  // measure 176
00000010
00000001
00000010
00000000
00010000
00001000
00010000
00000000
,  // measure 177
00001000
00000000
01000000
00100000
00000000
10000000
01000000
00000000
,  // measure 178
00100000
01000000
10000000
00000000
01000000
00100000
00001000
00000000
,  // measure 179
00010000
00000000
00000100
00000010
00000000
00000001
00000100
00000000
,  // measure 180
00000010
00001000
00000010
00000000
00001000
00000100
00001000
00000000
,  // measure 181
00000001
00000000
00000100
00000010
00000000
00010000
00000000
00000000
,  // measure 182
00001000
01000000
00100000
00000000
10000000
00000000
00010000
01000000
00000000
00100000
10000000
00000000
00000000
00000000
00010000
00000000
,  // measure 183
10000000
01000000
00100000
00001000
00010000
00000000
00000100
00000000
,  // measure 184
00000010
00000000
00000001
00000100
00000010
00010000
00000100
00000010
,  // measure 185
00000001
00000000
00000100
00000010
00010000
00000000
00000100
00010000
,  // measure 186
00001000
00000000
00010000
00100000
00010000
00000000
00100000
10000000
,  // measure 187
00010000
01000000
00001000
00000000
00010000
00001000
01000000
00000000
,  // measure 188
00100000
10000000
00100000
00000000
10000000
00000000
01000000
00000000
,  // measure 189
00010000
00000000
00001000
00000000
00000010
00000001
00000010
00000100
,  // measure 190
00000000
00010000
00001000
00010000
00000100
00000010
00000000
00000001
,  // measure 191
00000100
00000001
00000000
00000010
00000100
00000010
00000000
00000100
,  // measure 192
00010000
00000100
00000000
00010000
00001000
00010000
00000100
00000000
,  // measure 193
00010000
00001000
01000000
00000000
01000000
00100000
01000000
00000000
,  // measure 194
00100000
10000000
00100000
00000000
10000000
01000000
00100000
00001000
,  // measure 195
00010000
00000000
00000100
00000010
00000001
00000100
00000010
00000000
,  // measure 196
00010000
00000000
00000100
00010000
00000010
00010000
00001000
00000000
,  // measure 197
01000000
00000000
00100000
10000000
01000000
00100000
00001000
00000000
,  // measure 198
00010000
00000000
00000100
00000010
00000001
00000100
00000010
00000000
,  // measure 199
00010000
00000000
00001000
00010000
00001000
01000000
00001000
00000000
,  // measure 200
00100000
00000000
01000000
00100000
00010000
10000000
01000000
00000000
,  // measure 201
00010000
00000000
00001000
00010000
00000100
00000010
00000001
00000000
,  // measure 202
00001000
00000100
00010000
00001000
00000000
00010000
00000010
00000000
,  // measure 203
00000100
00000010
00010000
00001000
00000000
00010000
00000100
00000000
,  // measure 204
00000010
00000001
00000000
00001000
00000100
00000000
00000010
00000100
,  // measure 205
00000000
00010000
00001000
00000000
01000000
00100000
00000000
10000000
,  // measure 206
00010000
00000000
00100000
00001000
00000000
00010000
00000100
00000000
,  // measure 207
00000010
00000001
00000000
00000100
00001000
00000000
00010000
00002000
,  // measure 208
00000000
00000000
00003000
00000000
00010000
00000100
00001000
00000000
,  // measure 209
00000010
00000000
00000100
00000000
00000010
00010000
00000010
00000000
,  // measure 210
00010000
00001000
00010000
00000000
00001000
01000000
00001000
00000000
,  // measure 211
00000000
00100000
01000000
00000000
10000000
00000000
01000000
00000000
,  // measure 212
00010000
00000000
00001000
00000000
00010000
00000000
00001000
00010000
,  // measure 213
00000100
00000000
00000010
00000001
00000100
00000010
00000000
00010000
,  // measure 214
00001000
00010000
00000100
00000010
,  // measure 215
00000001
00000100
00000001
00000000
,  // measure 216
00000000
00000000
00001000
00000000
00000010
00010000
00001000
00000000
,  // measure 217
01000000
00100000
10000000
01000000
,  // measure 218
00010000
00001000
00010000
00000000
00001000
00000010
00001000
00000000
,  // measure 219
00000000
00000100
00001000
00000000
00000010
00000000
00000100
00000000
,  // measure 220
00000010
00000000
00000001
00000000
00000100
00001000
00000000
00010000
,  // measure 221
00001000
00000000
00010000
00100000
00000000
10000000
00010000
00000000
,  // measure 222
00000000
10000000
00000000
00000000
00000000
01000000
00000000
00010000
,  // measure 223
00000000
00001000
00010000
00000000
00100000
00000000
10000000
00000000
,  // measure 224
00100000
00000000
00010000
00000000
00001000
00010000
00001000
00000000
,  // measure 225
00000010
00000001
00000010
00000000
00000001
00000000
00000100
00001000
,  // measure 226
00000000
00010000
00000100
00000000
00000010
00000001
00000010
00000000
,  // measure 227
00000001
00000100
00000001
00000000
00000100
00000000
00001000
00010000
,  // measure 228
00001000
00000000
01000000
00000000
00100000
10000000
00100000
00000000
,  // measure 229
10000000
01000000
10000000
00000000
01000000
00000000
00010000
00001000
,  // measure 230
00000000
00010000
00001000
00000000
00000010
00000001
00000010
00000000
,  // measure 231
00000001
00001000
00000001
00000000
00000100
00000000
00001000
00000000
,  // measure 232
00000000
00010000
00001000
00000000
00010000
00000100
00010000
00000000
,  // measure 233
00100000
10000000
00010000
00000000
10000000
00000000
01000000
00010000
,  // measure 234
00000000
00001000
00010000
00000000
00001000
00000010
00001000
00000000
,  // measure 235
00010000
00001000
00010000
00000000
00000100
00000000
00000010
00000001
,  // measure 236
00001000
00000000
00000001
00000000
00000100
00001000
00000100
00000000
,  // measure 237
00001000
00010000
00001000
00000000
00010000
00000000
00100000
10000000
,  // measure 238
00000000
00000000
00010000
00000000
01000000
00000000
00000000
00000000
00100000
10000000
00000000
10000000
01000000
00000000
01000000
00010000
,  // measure 239
00000000
00010000
00001000
00000000
00000010
00000001
00000100
00001000
00010000
00000000
00001000
00000000
00100000
00000000
01000000
00000000
,  // measure 240
10000000
00000000
01000000
00000000
00010000
00001000
00010000
00001000
,  // measure 241
00000010
00000000
00000001
00000000
00000100
00001000
00000000
00000100
,  // measure 242
00000010
00001000
00000000
00000001
00000100
00001000
00000000
00001000
,  // measure 243
00010000
00000100
00010000
00001000
00010000
01000000
00000000
01000000
,  // measure 244
10000000
01000000
00000000
10000000
00100000
10000000
00000000
00100000
,  // measure 245
00010000
00001000
00010000
00001000
01000000
00000000
00001000
00000000
,  // measure 246
00000010
00001000
00000010
00000000
00000001
00000100
00000001
00000200
,  // measure 247
00000000
00000000
00000300
00000000
00001000
00010000
00001000
00010000
,  // measure 248
00000000
00000000
00100000
10000000
00000000
10000000
01000000
00000000
,  // measure 249
00010000
00001000
00010000
00000000
00000000
00000000
00022000
00000000
,  // measure 250
00000000
00000000
00000000
00000000
,  // measure 251
00000000
00033000
00000000
00000000
;
