#TITLE:Power 2;
#SUBTITLE:(stargaze mix);
#ARTIST:dj nagi;
#TITLETRANSLIT:;
#SUBTITLETRANSLIT:;
#ARTISTTRANSLIT:;
#CREDIT:;
#BANNER:Power 2 (stargaze mix).png;
#BACKGROUND:Power 2 (stargaze mix)-bg.png;
#LYRICSPATH:;
#CDTITLE:./CDTITLES/Dance Dance Revolution ULTRAMIX4.png;
#MUSIC:Power 2 (stargaze mix).ogg;
#OFFSET:0.000;
#SAMPLESTART:43.383;
#SAMPLELENGTH:15.000;
#SELECTABLE:YES;
#DISPLAYBPM:139.000:175.000;
#BPMS:0.000=140.078,37.000=139.845,65.000=140.036,273.000=139.912,365.000=139.981,681.000=161.435,685.000=162.162,689.000=163.636,693.000=165.138,697.000=169.811,701.000=172.249,705.000=175.610,709.000=173.077,713.000=174.757,721.000=172.249,725.000=173.913,757.000=173.578,777.000=173.494,801.000=176.471,805.000=173.703,821.000=174.334;
#STOPS:;
#BGCHANGES:;

//---------------dance-single - ----------------
#NOTES:
     dance-single:
     :
     Beginner:
     1:
     0.170,0.208,0.014,0.023,0.000:
0000
0000
0000
0000
,
0000
0000
0000
0000
,
0000
0000
0000
0000
,
0000
1000
0000
0001
,
0000
1000
0000
1000
,
0000
0010
0000
0100
,
0000
0010
0000
0010
,
0000
0100
0000
0100
,
0000
0001
0001
0001
,
0001
1001
0000
0000
,
0000
1000
0000
1000
,
0000
1001
0000
0000
,
0000
0001
0000
0001
,
0000
0001
0001
0000
,
1000
1000
1000
0000
,
0010
0010
0010
0000
,
0100
0100
0100
0100
,
0100
0100
0000
0000
,
1000
1000
1000
0000
,
0010
0010
0010
0000
,
0100
0100
0100
0000
,
0100
0100
0000
0010
,
0000
0100
0000
0001
,
0000
1000
0000
0010
,
0000
0100
0100
0100
,
0100
0100
0000
0100
,
0000
0001
0001
0001
,
0000
1000
0000
0010
,
0000
1000
0000
0100
,
0000
0010
0010
0010
,
0000
0001
0000
0001
,
0000
0100
0100
0100
,
0000
0010
0010
0010
,
0010
0010
0000
0100
,
0000
0010
0010
0010
,
0000
1000
0000
0001
,
0000
1000
1000
1000
,
0000
1000
0000
0100
,
0000
0100
0000
1000
,
0000
0010
0010
0010
,
0010
0000
0000
0000
,
0000
0020
0000
0000
,
0030
0000
0000
0000
,
0000
2000
0000
0000
,
3000
0000
0000
0000
,
0000
0002
0000
0000
,
0003
0000
0000
0000
,
0000
0020
0000
0000
,
0030
0010
0010
0010
,
0010
0010
0000
0100
,
0000
0010
0000
1000
,
0000
0001
0000
1000
,
0000
0001
0001
0001
,
0000
1000
0000
0100
,
0000
1000
0000
0010
,
0000
0100
0100
0100
,
0100
1000
0000
0000
,
0000
0001
0000
0001
,
0000
0010
0000
0100
,
0000
0010
0000
0010
,
0000
1000
0000
1000
,
0000
0001
0000
0001
,
0000
0100
0000
0010
,
0000
1000
0000
0001
,
0000
1000
1000
1000
,
0000
1000
0000
0000
,
0000
1000
1000
1000
,
0000
0001
0000
0000
,
0000
0010
0010
0010
,
0000
0100
0000
0000
,
0000
0100
0100
0100
,
0000
0001
0000
0000
,
0000
1000
0000
0000
,
0000
0010
0000
0000
,
0000
0010
0000
0000
,
0000
0100
0000
0000
,
0000
0100
0000
0000
,
0000
0001
0000
0001
,
0000
0001
0000
0000
,
0000
0010
0000
0010
,
0000
0010
0000
0010
,
0000
1000
0000
1000
,
0000
0010
0000
1000
,
0000
0001
0000
0001
,
0000
0100
0000
0001
,
0000
1000
0000
0001
,
0000
1000
0000
0001
,
0000
0100
0000
0010
,
0000
0010
0000
0010
,
0000
0010
0000
0000
,
0000
0010
0000
0010
,
0000
1000
0000
0000
,
0000
0001
0000
0001
,
0000
0100
0000
0000
,
0000
0010
0000
0010
,
0000
0100
0000
0000
,
0000
0001
0000
1000
,
0000
0020
0000
0000
,
0030
0010
0000
0000
,
0000
0200
0000
0000
,
0300
0100
0000
0000
,
0000
0002
0000
0000
,
0003
0001
0000
0000
,
0000
2000
0000
0000
,
3000
1000
0000
0000
,
0000
0100
0000
0010
,
0000
0100
0000
0010
,
0000
0100
0100
0000
,
0000
0010
0000
0010
,
0000
0001
0000
1000
,
0000
0010
0010
0000
,
0000
1000
0000
0001
,
0000
0100
0100
0100
,
0000
0010
0000
0000
,
0000
1000
0000
0001
,
0000
1000
0000
0000
,
0000
0100
0000
0000
,
0000
0010
0000
0010
,
0000
0001
0000
0001
,
0000
0100
0000
0100
,
0000
0010
0000
0010
,
0000
1000
0000
0001
,
0000
1000
1000
1000
,
0000
0010
0000
1000
,
0000
0010
0010
0010
,
0000
0100
0000
0001
,
0000
0100
0100
0100
,
0000
0001
0000
1000
,
0000
0010
0000
0010
,
0000
0110
0000
0000
,
0000
0000
0000
0000
,
0000
0110
0000
0000
,
0000
0000
0000
0000
,
0000
1000
0000
0001
,
0000
1000
1000
1000
,
0000
0010
0000
1000
,
0000
0001
0001
0001
,
0000
0100
0000
0010
,
0000
0100
0000
0010
,
0010
0010
0000
0010
,
0000
0100
0100
0100
,
0000
0010
0000
1000
,
0000
0010
0010
0010
,
0000
1000
0000
0001
,
0000
1000
1000
1000
,
0000
0010
0000
1000
,
0000
0100
0000
1000
,
0000
0010
0000
0100
,
0000
0001
0000
0010
,
0000
0001
0000
1000
,
0000
0001
0000
0010
,
0000
0001
0000
1000
,
0000
0001
0001
0001
,
0001
0001
0000
0000
,
0000
1000
0000
1000
,
0000
0100
0100
0100
,
0000
0010
0000
0010
,
0000
0001
0001
0001
,
0000
1000
0000
0001
,
0000
1000
1000
1000
,
0000
0010
0000
0100
,
0000
0010
0000
0000
,
0000
0100
0000
0100
,
0000
0010
0010
0010
,
0000
1000
0000
0001
,
0000
1000
1000
1000
,
0000
0001
0000
0100
,
0000
0001
0001
0001
,
0000
0000
0000
0000
,
0000
0000
0000
0000
,
0000
0001
0000
1000
,
0000
0001
0000
1000
,
0000
0010
0000
0000
,
0000
0100
0000
0000
,
0000
0010
0000
1000
,
0000
0001
0000
1000
,
0000
0001
0000
0000
,
0000
0100
0000
0000
,
0000
0010
0000
0010
,
0000
0010
0010
0010
,
0000
0100
0000
0100
,
0000
0100
0100
0100
,
0000
0001
0000
0001
,
0000
1000
1000
1000
,
0000
0001
0000
1000
,
0000
0001
0001
0001
,
0000
0100
0100
0000
,
0000
0010
0010
0000
,
0000
0100
0100
0000
,
0000
0001
0001
0000
,
0000
1000
1000
0000
,
0000
0010
0010
0000
,
0000
0100
0000
0000
,
0000
0010
0000
0000
,
0000
0100
0100
0000
,
0000
0010
0010
0000
,
0000
0100
0000
0100
,
0000
0001
0000
0000
,
0000
1000
0000
0000
,
0000
1000
0000
0001
,
0000
1000
0000
0001
,
0000
0100
0000
0001
,
0000
1000
0000
0100
,
0000
1000
0000
0010
,
0000
0100
0000
0010
,
0000
0110
0000
0000
;

//---------------dance-single - ----------------
#NOTES:
     dance-single:
     :
     Easy:
     4:
     0.266,0.297,0.099,0.128,0.000:
0000
0000
0000
0000
,
0000
0000
0000
0000
,
0000
0000
0000
0000
,
0000
1000
0001
1000
,
0010
0200
0000
0310
,
0000
0100
0001
0100
,
0010
0200
0000
0310
,
0000
1000
1000
0001
,
0001
0100
0100
0100
,
0100
0110
0000
0100
,
0010
0110
0000
1000
,
0001
1001
0000
1000
,
0001
0110
0000
0010
,
0100
0002
0010
0010
,
1003
0200
1000
1000
,
0310
0002
0000
1003
,
0000
0010
0100
0010
,
0100
0010
0010
1000
,
0100
0010
0010
0001
,
0100
0110
0000
0100
,
0010
1000
0100
1000
,
0000
0001
0100
0001
,
0000
0100
0010
0100
,
0100
0001
1000
0001
,
0010
0200
0000
1300
,
0000
1000
0100
1000
,
0010
0100
0001
0100
,
0010
0100
0110
0000
,
0000
0001
0010
0100
,
1000
0100
0010
0001
,
0010
0100
0000
0010
,
0000
0200
0000
0000
,
0300
0001
1000
0001
,
1000
1001
0000
1000
,
0010
1000
0100
1000
,
0010
0100
0000
0010
,
0010
0100
0100
0010
,
0100
0001
1000
0001
,
0000
0100
0010
0010
,
0100
0010
0100
0010
,
1000
0001
0000
0000
,
0000
1001
0000
0000
,
0000
2000
0000
0000
,
3000
0002
0000
0000
,
0003
0100
0100
0100
,
0100
0200
0000
0000
,
0300
0020
0000
0000
,
0030
1000
1000
1000
,
1000
2000
0000
0000
,
3000
1000
0001
0100
,
0001
1000
1000
0010
,
1000
0002
0000
1003
,
0000
0100
0100
0100
,
1000
1100
1000
0001
,
1000
0010
1000
0001
,
0100
0002
0000
1003
,
0000
0220
0000
0330
,
0000
1000
0100
0010
,
0001
0001
0010
0100
,
1000
0001
0001
0100
,
0000
1000
1000
0100
,
0000
0001
0100
0010
,
1000
1000
0010
0100
,
0001
1000
1000
0010
,
0000
0001
0001
0010
,
0000
0200
0000
0300
,
0000
0100
0010
1000
,
0000
0002
0000
0003
,
0000
0010
0001
0100
,
0000
0020
0000
0030
,
0000
0010
1000
0100
,
0000
2000
0000
3000
,
0000
0110
0000
0000
,
0000
1001
0000
2000
,
0000
3000
0000
0100
,
0010
1000
0000
0001
,
0100
1000
0000
0010
,
0100
0110
0000
0002
,
0000
0003
0000
0100
,
0010
0001
0000
1000
,
0001
2002
0000
3003
,
0000
1001
0000
1001
,
0000
0010
0100
0010
,
0000
0110
0000
0110
,
0000
0200
0000
0300
,
0000
1001
0000
1001
,
0000
1000
0100
0010
,
0000
0110
0000
0110
,
0000
0002
0000
0003
,
0000
1001
0000
0010
,
0001
0200
0000
0300
,
0000
1001
0000
0010
,
1000
0200
0000
0300
,
0000
1100
0000
1000
,
0001
0200
0000
0300
,
0000
0110
0000
0010
,
0100
0002
0000
0003
,
0000
2002
0000
0000
,
3003
1001
1000
1000
,
0000
2002
0000
0000
,
3003
1001
0001
0001
,
0000
0220
0000
0000
,
0330
0110
0100
0100
,
0000
0220
0000
0000
,
0330
0010
0010
0010
,
0000
0001
0001
0010
,
0000
1000
1000
0010
,
0000
1000
0100
0010
,
0000
0010
0001
0100
,
0010
1000
0000
0001
,
0000
1000
1000
0100
,
0010
0001
1000
0010
,
0000
0100
0100
0010
,
1000
0002
0000
0003
,
0000
1000
0100
0010
,
0001
1000
0000
0001
,
0000
1000
0100
0010
,
0001
0010
0001
0010
,
0001
0100
0000
0001
,
0000
1000
0010
1000
,
0010
1000
0000
0100
,
0000
1000
0000
0010
,
0100
0010
0000
1000
,
0001
0100
0000
0010
,
1000
0100
0000
0010
,
0001
0100
0000
0010
,
1000
0001
0000
1000
,
0001
0100
0000
0010
,
1000
0100
0010
0001
,
1000
0002
0000
0003
,
0000
2000
0000
0000
,
0000
0010
0010
3010
,
0000
0020
0000
0030
,
0000
2000
0000
3000
,
0000
0002
0000
0003
,
0000
0100
0000
0100
,
0000
0010
0000
0010
,
0010
0010
1000
0010
,
1000
0001
0100
0001
,
0000
1000
0001
1000
,
0001
0100
0010
0100
,
0000
0010
0000
1000
,
0001
0100
0000
0010
,
1000
0001
0000
1000
,
0010
0100
0001
0010
,
0100
1000
0000
0001
,
0000
1000
0000
0010
,
0000
1000
1000
0010
,
0000
1000
1000
0100
,
0010
0001
0000
1000
,
0000
0001
0000
1000
,
0000
0010
0010
0010
,
0100
0010
0010
0010
,
0100
0010
0000
0000
,
0000
1000
1000
0001
,
1000
0010
0100
0100
,
0000
0100
0010
0100
,
0000
0001
0001
0001
,
0000
1000
1000
0010
,
0100
0010
0010
0010
,
0000
0100
0001
0100
,
0000
0100
0010
0100
,
0000
0010
0010
0010
,
0100
0010
0100
0001
,
0000
1000
1000
0001
,
0100
0010
0000
0100
,
0000
0010
0010
0010
,
1000
0010
1000
0100
,
0000
0000
0000
0000
,
0000
1000
1000
1000
,
1000
1000
0000
0001
,
0000
0100
0100
0100
,
0100
0001
0000
1000
,
0000
0010
0010
0010
,
0000
0100
0001
0100
,
0000
0010
1000
0010
,
0000
0100
0001
0100
,
0000
0001
1000
0001
,
0000
1000
1000
1000
,
0001
1000
0000
0001
,
0000
0100
0100
0100
,
0010
0100
0000
0100
,
0000
0100
0100
0100
,
0001
0100
0010
1000
,
0000
1000
0000
0001
,
0000
1000
1000
1000
,
0000
0001
0001
0001
,
1000
0001
0100
0010
,
0000
1000
1000
1000
,
0010
0100
0001
0100
,
0001
1000
0000
0001
,
0000
0100
0100
0100
,
0000
0010
0000
0010
,
0000
0010
0000
0010
,
0000
0100
0000
0100
,
0000
0100
0100
0100
,
0100
0100
0000
0100
,
0000
0010
0100
0010
,
0100
0010
0000
1000
,
0000
0010
1000
0010
,
1000
0010
0000
0100
,
0000
0001
0100
0001
,
0100
0001
0000
1000
,
0000
0001
1000
0001
,
1000
0010
0100
0010
,
0100
0110
0000
0000
;

//---------------dance-single - ----------------
#NOTES:
     dance-single:
     :
     Medium:
     7:
     0.407,0.478,0.183,0.200,0.000:
0000
0000
0000
0000
,
0000
0000
0000
0000
,
0000
0000
0000
0000
,
0000
0000
1000
1000
0010
0000
0100
0100
,
0010
1000
0100
0010
,
0100
0000
0010
0010
0001
0000
0010
0010
,
0100
0000
1000
0000
0001
0000
1000
0001
,
1000
0000
0010
0010
0100
0000
0010
0000
,
1000
1001
0110
1001
,
0110
0002
1000
0103
,
0010
1000
0200
0000
0010
0000
1300
0000
,
0010
0100
0002
0000
0100
0000
0013
0000
,
0100
1000
0020
0000
0001
0000
1030
0000
,
0000
0200
1000
0310
,
0001
0010
0200
0000
0010
0000
1300
0000
,
0010
1000
0010
0000
1000
0000
0001
0000
,
1000
0100
1100
0000
0101
0000
1100
0000
,
0101
1001
0100
0100
,
0010
1000
0001
0000
0100
0000
0100
0000
,
0010
1000
0100
0000
0010
0000
0010
0000
,
0001
1000
0020
0000
0200
0030
0002
0300
,
2000
0003
3100
0000
0010
0000
0001
0010
,
0001
0100
0010
0000
1000
0000
0100
0000
,
1000
0010
0100
0000
0001
0000
0010
0000
,
0100
0020
0001
0100
,
1030
0120
0000
0031
,
0100
0001
0000
0100
0000
0010
0000
0010
,
1000
0100
0001
0000
0110
0000
0001
0000
,
1000
0000
0001
0000
0100
0001
0000
0100
,
0000
0010
0000
0100
0000
0001
1000
0000
,
0001
0000
2000
0000
0020
3000
0200
0030
,
0002
0300
0103
0010
0000
2000
0000
0000
,
3000
1000
0010
0100
,
1001
0110
0000
0001
,
1000
0100
0000
1000
0000
0001
0000
0100
,
0000
0101
0000
0100
0010
0000
0100
0001
,
0000
1000
0000
0100
0000
0010
0000
0100
,
0000
1000
0000
0100
0000
0010
0001
0000
,
0100
0000
0020
0000
2030
0000
3010
0100
,
0000
0001
0000
0200
0000
0020
0000
0000
,
0000
0000
0330
0000
,
0000
0000
1000
0000
0010
0100
0000
0100
,
0010
0000
2002
0000
0000
3003
0000
0100
,
0100
0000
0001
0000
1000
0001
0000
0100
,
0000
0010
0000
1000
0000
0001
0000
1001
,
1100
0000
0101
0001
,
0001
2000
0000
0000
0000
0000
3000
0010
,
0010
0000
1000
0000
0010
0000
0100
0010
,
0000
0101
0000
0000
0000
0101
0000
0000
,
0000
0000
0001
0100
1000
0000
0101
0000
,
1100
0000
1000
0100
0001
0000
1100
0000
,
0011
0000
0001
0010
0100
0000
1001
0000
,
0110
2000
3002
0103
,
0000
0000
0010
0001
0100
0000
0001
0000
,
1000
0000
0010
1000
0100
0000
0000
1000
,
1000
0000
0010
0000
1000
0000
0100
0010
,
0000
0100
0010
0000
0001
0000
0100
0000
,
1000
0000
0010
0000
0100
0001
0000
1000
,
0100
0000
0010
0000
0100
0100
0000
0110
,
0000
0000
0010
0000
0010
0001
0000
1000
,
0100
0000
0100
0000
0010
0010
0000
0220
,
0000
0330
1001
1001
,
1000
0001
1000
0000
0010
0010
0000
1010
,
0010
0000
0100
0000
0001
0000
0010
0100
,
0000
1000
0000
0010
0000
0100
0000
0010
,
0000
0001
1000
0000
0001
0000
0100
0000
,
0010
0200
0010
0300
,
0000
0001
0100
0010
,
1000
0010
0001
0100
,
0010
0001
1000
0010
,
0100
0020
0100
0030
,
0000
1000
0010
0100
,
0001
0100
1000
0010
,
0100
1100
0000
1001
,
0000
0000
1000
0001
0100
0000
0100
0000
,
0000
0101
0000
1001
,
0000
0000
1000
0100
0010
0000
0010
0000
,
0100
2000
3100
0010
,
0000
0000
0001
0100
0010
0000
0010
0000
,
0000
0001
0100
1000
,
0001
0000
0010
0001
0100
0000
0010
1000
,
0100
0002
0103
0010
,
0000
0000
1000
0100
0010
0000
0010
0000
,
1000
0020
0130
0001
,
0000
0000
0010
0001
1000
0000
1000
0000
,
0010
0200
0301
1000
,
0000
0000
1000
0001
0100
0000
0100
0000
,
0000
0010
1000
0001
,
0100
0000
0010
1000
0100
0000
0010
0001
,
0100
0010
1000
0000
0001
0000
1000
0001
,
1000
0010
0100
0001
,
0000
0000
0001
0000
1000
0000
0001
1000
,
0001
0100
0010
1000
,
0100
0000
0010
0000
0001
0000
1000
0010
,
0100
0010
1000
0001
,
0000
0000
0010
0000
0100
0000
0001
0010
,
0100
1000
0010
1000
,
0000
0000
0001
0000
1000
0000
0010
1000
,
0100
0000
0010
0000
0001
0000
0010
1000
,
0100
0000
0010
0000
0001
0000
0010
0001
,
0100
0010
1000
0001
,
0000
0000
0010
0000
1000
0000
0001
0100
,
0010
0001
1000
0001
,
0000
0000
0010
0000
0001
0000
1000
0010
,
0100
1000
0001
1000
,
0000
0100
0100
0100
,
0110
0010
0010
0010
,
0110
2000
3020
0230
,
0302
0013
0100
0010
,
0001
0000
1000
0000
0001
0000
1000
0010
,
1000
0000
0001
0100
1000
0100
0001
0000
,
0010
0100
1000
0100
,
1000
0001
0100
0010
,
1000
0002
0100
0000
,
0010
0000
1000
1000
,
1000
0010
0000
1000
,
0000
0100
0100
0100
,
0100
0013
0000
0100
,
0010
0100
0010
0100
,
0010
1000
0001
1000
,
0001
0100
0100
0010
,
0110
0000
1000
0000
0100
0000
1000
0001
,
0100
0000
0001
0000
1000
0000
0010
1000
,
0001
0000
1000
0000
0100
0000
0010
0001
,
0100
0010
1000
0001
,
1000
0000
0001
0010
0001
0000
1000
0010
,
1000
0000
0001
0010
0001
0000
0100
0000
,
0100
0000
1000
0010
1000
0000
0001
0010
,
0001
0000
1000
0010
0100
0001
1000
0000
,
0010
2000
0100
0010
,
3001
2000
0010
0100
,
3001
0000
0010
1000
0010
0000
0010
0001
,
0010
0000
0010
0100
0010
0000
0010
1000
,
0010
1000
1000
0010
,
1000
2000
0000
0002
,
3003
0100
0100
0100
,
0010
1000
0001
1001
,
0000
1000
0010
1000
,
0001
0100
0001
1000
,
1001
0001
0100
0010
,
1000
0010
1000
1010
,
1010
0000
1000
0010
1000
0000
0001
0010
,
0001
0000
1000
0010
1000
0000
0100
0000
,
0100
0000
0001
0010
0001
0000
1000
0010
,
1000
1000
0001
0010
,
0100
0000
1000
0000
0100
0000
1000
0100
,
0010
0000
1000
0100
0001
0000
1000
0100
,
0001
1000
0010
0100
,
0001
0000
0001
0100
1000
0000
0001
0100
,
1000
1000
0001
0100
,
0010
1000
0100
0010
,
0001
0001
1000
0010
,
0100
0000
0100
0000
0100
0000
0010
0100
,
0010
1001
0000
0000
,
0000
1000
0100
0100
,
1000
0000
0010
0000
0100
1000
0200
0000
,
0300
0001
1000
0100
,
0010
0000
0100
1000
0100
0000
0020
0000
,
0030
0000
0001
0000
0002
0000
0000
1000
,
1003
0010
0100
0220
,
0330
0001
0010
0100
,
1000
0100
0010
0001
0010
0000
0200
0000
,
0300
1000
0010
0100
,
0001
0100
0010
1000
0010
0000
0220
0000
,
0330
0000
0001
0000
0010
0000
0001
0010
,
0000
0200
2300
3020
,
0030
0100
0001
0100
,
0001
0011
0110
2002
,
3003
1000
0000
0001
,
0000
1000
0001
1000
,
0001
0010
0100
1000
0010
1000
0000
1000
,
0000
0001
0100
0001
0010
0001
0000
0001
,
0000
0010
0100
0001
0100
1000
0000
1000
,
0000
0010
0100
1000
0100
0001
0000
0001
,
0000
0110
0110
2000
,
3000
0110
0110
0001
,
0000
1001
1001
0020
,
0030
1001
1001
0200
,
0300
1000
0001
1000
,
0100
0000
0010
0000
0100
1000
0002
0000
,
0003
0100
0100
0000
0010
0000
0100
0000
,
0010
0000
1000
0100
1000
0000
0010
0000
,
1000
0100
0010
0100
,
0010
0000
0001
0100
0001
0000
0010
0000
,
0001
2200
3300
1000
,
0001
0000
0100
0010
1000
0000
0202
0000
,
0303
0000
0000
0001
0000
0010
0000
1000
,
0000
0010
0000
0001
0000
1000
0000
0100
,
0000
0001
0100
0000
0100
0000
2000
0000
,
3001
1000
0001
0100
0001
0000
0020
0000
,
0030
0100
0100
2000
,
3001
0010
0001
0100
0001
0000
2000
0000
,
3000
0010
0010
0100
,
0100
0001
0010
1000
,
0010
0110
0100
0001
,
0100
1100
1000
0010
,
0100
0101
0010
1100
,
0010
0101
1000
0100
,
1000
0001
0100
0001
,
0100
0010
0001
0010
,
0001
1000
0100
1000
,
0100
0001
0000
1000
0000
0001
0000
0010
,
0000
0100
0000
1000
0000
0001
0000
1000
,
0000
0010
0000
0001
0000
0010
0000
1000
,
0000
0100
0000
0001
0000
0010
0000
1000
,
0000
0100
0020
0000
0000
0000
0000
0000
,
0030
0000
0000
0000
;

//---------------dance-single - ----------------
#NOTES:
     dance-single:
     :
     Hard:
     9:
     0.592,0.657,0.464,0.200,0.177:
0000
0000
0000
0000
,
0000
0000
0000
0000
,
0000
0000
0000
0000
,
0000
0000
1001
0000
0110
0000
1000
0100
,
0100
0000
1001
0000
0110
0000
0010
1000
,
1010
0000
0000
0000
0010
0000
1000
0100
0000
0100
1000
0000
1000
0010
0000
0010
,
0100
0000
0001
0000
0010
0000
0010
0100
0000
0100
1000
0000
1000
0001
0000
0001
,
1000
0000
0010
0000
0100
0000
0100
0010
0000
0010
1000
0000
1000
0100
0000
0100
,
0010
0001
1001
0000
0110
0000
1001
0000
,
0110
0000
0000
0000
1001
0000
0000
1000
0000
0000
0100
0000
0000
0010
0000
0000
,
0001
0000
0100
0000
0001
0000
0000
1000
0000
0000
0010
0000
0000
1000
0000
0000
,
0001
0000
0100
0000
0101
0000
0000
0100
0000
0000
0010
0000
0000
1000
0000
0000
,
0001
0000
0100
0000
1000
0000
0000
0001
0000
0000
1000
0000
0000
0100
0000
0000
,
1000
0000
0001
0000
1001
0000
0000
0001
0000
0000
0100
0000
0000
0010
0000
1000
,
0100
0000
1000
0000
0010
0000
0000
0001
0000
0000
0010
0000
0000
1000
0000
0100
,
0010
0000
0100
0000
0110
0000
0000
0100
0000
0000
1000
0000
0000
0010
0000
0100
,
0001
0100
0101
0000
1100
0000
1010
0000
,
0011
0000
0000
0000
1001
0000
1000
0001
0000
0001
1000
0000
0000
0100
0000
0010
,
0001
0000
1000
0000
0010
0000
1000
0010
0000
0010
1000
0000
0000
0001
0000
1000
,
0100
0000
0010
0000
0011
0000
0001
0010
0000
0010
0001
0000
0000
1000
0000
0010
,
0100
0000
0001
0000
1000
0000
1000
0001
0000
0001
1000
0000
0000
0100
0000
1000
,
0010
0000
0100
0000
1001
0000
0000
0100
0000
0000
0010
0000
0000
1000
0000
0001
,
0010
0000
0100
0000
0010
0000
0000
0100
0000
0000
1000
0000
0000
0010
0000
1000
,
0100
0000
1000
0000
1100
0000
1000
0100
0000
0100
1000
0000
0000
0010
0000
0100
,
0001
0000
0010
0000
0001
0000
0000
1000
0000
0000
0100
0000
0000
0010
0000
0100
,
1000
0010
1010
0000
1000
0100
0001
0100
,
1000
0010
0001
0010
1000
0100
0001
0100
,
0010
0001
1000
0000
1001
0000
1010
0000
,
0101
0000
0010
1000
0100
0100
0010
0001
,
0100
0100
0010
1000
0100
0010
0001
0010
,
0010
0011
0011
0110
,
1100
0000
2000
0010
0000
0100
0000
0000
,
3000
0000
1000
0010
1000
0001
0100
0010
,
0100
0000
0001
0000
0101
0000
0000
0000
0001
0000
1000
0100
0010
0000
0001
0010
,
0001
0000
1000
0000
0010
0000
1000
0010
0100
0000
0001
0100
0001
0000
1000
0010
,
1000
0000
0100
0000
1000
0000
0010
1000
0010
0000
0100
0000
0100
0000
0001
0010
,
0001
0000
1000
0000
1000
0000
0001
0010
0100
0000
1000
0100
1000
0000
0001
0010
,
0001
0000
0100
0000
1000
0000
0100
0000
0001
0000
0010
0000
0100
0000
1000
0100
,
0010
0001
0011
0010
0110
0100
1100
1001
,
0000
0100
0000
0010
0000
0200
0002
0000
,
0000
0000
0000
0303
,
0000
0000
0001
0000
1000
0100
0000
1000
,
0000
0000
0020
0000
0000
0000
0030
0100
,
0100
0000
0010
0000
1000
0100
0000
1000
,
0000
0010
0000
0100
0000
0001
0000
1000
,
0010
0000
1000
0001
,
0100
0200
0000
0000
0000
0000
0300
0001
,
1000
0000
0010
0000
0010
0000
1000
0001
,
0000
0000
0000
0000
0001
0010
0100
0010
0001
0010
0100
0010
0001
0000
1000
0100
,
1000
0000
0010
0000
0010
0000
1000
0000
0002
0000
0000
0000
1003
0000
0000
0001
,
0000
1000
0010
0100
0001
0000
0100
0000
0020
0000
0000
0000
1030
0000
0000
0001
,
0000
0100
0010
0000
0100
0000
0001
0000
0020
0000
0000
0000
0130
0000
0000
1000
,
0000
0010
1000
0010
0100
0000
0001
0000
0200
0000
0000
0000
0301
0000
0000
1000
,
0000
0001
1000
0000
1001
0000
0001
0000
2000
0000
0000
0000
3010
0000
0000
0100
,
0000
0001
1000
0010
1000
0000
0001
0000
0200
0000
0000
0000
0301
0000
0000
1000
,
0000
0010
0100
0000
0010
0000
0100
0000
0020
0000
0000
0000
0130
0000
0000
0001
,
0000
0010
0100
0000
1000
0000
0100
0000
0010
0000
0001
0000
0010
0000
0100
0000
,
1000
1001
0110
0010
1010
0000
0100
0010
,
0011
0020
0000
0032
0000
0023
0000
0130
,
0010
0001
0100
0001
0011
0000
0100
1000
,
1010
1001
0000
0110
0000
0110
0000
1100
,
0101
0000
0001
1000
1100
0000
1000
0001
,
0101
0020
0000
2030
0000
3020
0000
0130
,
0010
1000
0010
0100
0101
0000
0010
0100
,
1100
0110
0110
0220
,
0330
0000
1001
0000
0010
1000
0000
0001
,
0000
1001
0100
1001
,
0010
0000
0110
0000
1000
0010
0000
0001
,
0000
0000
0110
0000
0001
0010
0000
1000
,
0000
0000
1010
0000
1000
0001
0000
0100
,
0000
1100
0001
0011
,
1000
0000
0101
0000
0001
0100
0000
0010
,
0000
0000
1100
0000
1000
0100
0000
0010
,
0000
0000
1001
0100
0010
0000
1001
0000
,
0110
0000
0001
0100
0010
1000
0001
0000
,
1100
0000
0011
1000
0100
0000
0101
0000
,
1010
0000
1000
0100
0010
1000
0001
0100
,
0010
0001
0101
1000
0010
0000
1001
0000
,
0110
0000
1001
0001
1000
0010
0100
0000
,
0110
0000
1001
0100
0100
0000
0110
0000
,
1001
0000
1100
1000
0100
0010
1000
0000
,
0101
1000
0100
0001
,
0100
0010
1000
0100
,
0001
0010
1000
0001
,
1000
0001
0100
1000
,
0100
0010
0001
0100
,
1000
0010
0001
1000
,
0010
0100
0001
0010
,
1000
0000
0001
0100
0010
0001
0100
0010
,
1000
0100
0010
0000
0001
0010
0100
1000
,
0100
0010
1000
0000
0010
0000
0100
0000
,
0001
0000
0010
0000
1000
0010
0100
0001
,
0100
0010
1000
0000
0001
0000
0010
0000
,
0100
0000
0001
0000
1000
0001
0010
0001
,
0100
0010
1000
0000
1000
0000
0001
0000
,
0001
0000
1000
0000
0001
1000
0100
1000
,
0010
0100
0001
0000
0001
0000
1000
0000
,
1000
0000
0010
0000
0100
0001
0010
0000
,
0100
0000
0010
0000
0100
1000
0010
0000
,
0100
0000
0001
0000
1000
0001
0100
0000
,
0010
0000
1000
0000
0001
1000
0100
0010
,
0001
0000
1000
0000
0010
1000
0001
0000
,
0100
0000
0010
0000
1000
0100
0010
0000
,
1000
0000
0010
0000
0001
0100
0010
0000
,
0001
0000
1001
0000
1000
0001
1000
0010
,
0100
0000
0010
0010
1000
0001
0100
0100
,
0001
0010
0100
0100
1000
0001
0010
0010
,
0110
0000
0001
1000
1100
0100
1000
0001
,
0100
0010
1000
0100
0011
0001
1000
0100
,
0011
0000
0001
0100
0110
1000
0001
1000
,
0100
0000
0010
0000
0001
0010
0001
0010
0001
0000
0000
0000
0000
0000
0000
0000
,
2002
0000
3003
0000
0110
0000
0100
0100
,
0010
0000
0000
0000
1000
0100
0010
0001
1000
0000
0000
0000
0001
0100
0010
1000
,
0001
0000
0000
0000
1001
0000
0000
1000
0001
0000
0000
0010
0100
0000
0000
1000
,
0010
0000
0000
0100
0010
0000
0000
1000
0100
0000
0000
0000
0220
0000
0000
0000
,
0330
0000
0000
0000
0110
0000
0000
0001
1000
0000
0000
0010
0100
0000
0000
0001
,
0010
0000
0000
0100
1000
0000
0000
0010
1000
0000
0000
0000
0101
0000
0000
0000
,
1100
0000
1000
1000
0100
0010
0001
0000
,
0101
0000
0001
0001
0100
0010
1000
0000
,
1010
2002
0000
0000
,
0003
0000
3010
1000
0010
1000
0010
1000
,
1010
0000
0010
2000
0000
3001
1000
0100
,
0000
0010
0010
0002
0000
1003
0001
0100
,
0110
0000
0010
2000
0000
3010
0100
0001
,
0000
1000
0000
0100
0000
0010
0001
0000
,
1010
0000
1000
0002
0000
0103
0001
0010
,
0000
0100
0100
2000
0000
3010
0100
0010
,
1010
0000
1000
0002
0000
0103
0001
1000
,
0000
0010
0200
0000
0002
0300
2000
0003
,
3100
0000
0000
0000
1000
0000
0000
0001
0100
0000
0000
1000
0100
0000
0000
0001
,
0200
0010
0010
0001
,
0310
0000
1000
0100
0010
0100
2000
0000
,
0020
3000
0000
1030
0010
0100
0002
0000
,
0020
0003
0000
0031
1000
0100
0020
0000
,
0002
0030
0000
0103
0010
1000
0020
0000
,
2030
0001
0001
3010
,
0000
0000
0000
0000
1001
0000
0000
0000
0110
0000
0000
0000
1001
0000
0000
0001
,
1000
0100
1000
0100
0001
0100
1000
0100
,
0001
0100
1000
0010
0100
0001
0010
0100
,
1100
0000
0000
0000
0000
0000
0010
0000
0010
0000
0010
0000
0010
0000
0000
0100
,
1001
0000
0000
0000
0000
0000
0100
0000
0100
0000
0100
0000
0100
0000
0000
0010
,
1001
0000
0100
0020
0000
0130
0001
0010
,
0000
0100
1000
0010
0000
0100
0001
1000
,
1001
0000
0010
1000
0000
0100
0001
1000
,
0000
0100
0020
0000
0002
0030
2000
0003
,
3100
0000
1000
0100
0010
0001
0010
0100
,
1000
0000
0000
0000
1000
0100
0010
0001
0010
0001
0010
0000
0001
0000
0100
0000
,
0010
0000
1000
0010
0100
0001
0100
0010
,
1000
0000
0000
0000
0001
0100
0010
1000
0010
1000
0010
0000
1000
0000
0100
0000
,
0010
0000
0000
1100
0000
0011
1001
0000
,
0110
0000
0000
0011
0000
1100
1001
0000
,
0110
0000
2000
0000
0200
3000
0020
0300
,
0002
0000
0030
0000
1003
0000
0100
0000
1000
0000
0010
0000
0100
0000
0001
1000
,
0001
1000
0001
1000
0020
0000
0000
0000
0000
0000
0000
0000
0000
0000
0000
0000
,
0030
2010
0001
3100
,
0102
0000
1000
0000
0013
0001
0100
0000
,
0001
1020
0130
0201
,
0310
0100
0010
1000
0010
0100
0001
0000
,
0000
0000
0012
0000
2003
0000
0000
3100
,
0001
0100
0010
0100
2000
0000
3020
0000
,
0030
0002
0103
0020
,
2030
3001
0100
0001
1000
0001
0010
0000
,
0000
0011
1010
1001
,
0001
0010
0110
0000
1100
0000
0101
0000
,
0000
0000
1001
0001
0001
0001
1001
0000
,
0001
1000
0010
0100
1000
0100
0010
0000
,
0000
0000
2001
0000
3002
0000
0000
1003
,
0100
1000
1010
1000
1001
0001
0101
0000
,
0000
0210
0001
0010
,
1300
0000
1000
0100
1000
0100
0010
0001
,
0010
0001
0100
0001
0100
0001
0000
1000
,
0000
0010
1000
0010
1000
0001
0000
0101
,
0000
1000
0100
1000
0001
0101
0000
1100
,
0000
1000
0001
0000
0010
0000
0001
0000
,
0000
0000
1000
0000
0100
0000
1000
0100
,
1000
0010
0001
0000
0100
0000
1000
0000
,
0000
0000
0001
0000
0100
0000
0001
0100
,
0001
0010
1000
0100
1000
0100
0001
0100
,
0001
0100
1000
0000
1001
0000
0010
0000
,
1000
0001
0010
0000
0010
1000
0100
0000
,
0011
0100
0001
0010
,
1000
1000
0001
0010
0100
1000
0001
0000
,
0110
0100
0001
1000
,
0001
0001
1000
0010
0100
0001
1000
0000
,
1001
0000
0001
0100
0001
1000
0100
1000
,
0001
0010
0100
1000
0100
0000
0101
0000
,
0000
0000
1000
0010
1000
0001
0010
0010
,
0001
0001
0100
0010
1000
0100
1100
0000
,
0000
0000
0010
0001
0100
0001
0010
0001
,
0100
0001
0010
0100
1000
1000
0100
0000
,
0000
0000
0010
1000
0100
1000
0010
0100
,
0001
0010
0001
0100
0001
0001
0010
0000
,
0000
0000
0100
1000
0001
0100
1000
0100
,
0001
1000
0100
0010
0001
0010
0100
0000
,
1001
0000
0110
1000
0001
0100
0010
0100
,
0001
1000
0110
0000
0001
0000
0100
0001
,
1000
0000
0011
0001
1000
0010
1010
1000
,
0001
0100
0101
0000
1100
0000
0101
0000
,
1100
0000
0001
0010
0001
0100
0001
0010
,
0001
0100
0101
0000
1100
0000
0101
0000
,
1100
0000
0100
1000
0010
1000
0100
1000
,
0010
1000
1010
0000
0011
0000
1010
0000
,
0011
0000
0010
1000
0010
0001
0010
1000
,
0010
0001
1000
0001
0010
0100
1000
0100
,
1000
0010
0001
0100
0001
0010
1000
0001
,
0100
0010
2002
0000
0000
0000
0000
0000
,
3003
0000
0000
0000
;

//---------------dance-double - ----------------
#NOTES:
     dance-double:
     :
     Beginner:
     1:
     0.168,0.208,0.014,0.023,0.000: // measure 1
00000000
00000000
00000000
00000000
,  // measure 2
00000000
00000000
00000000
00000000
,  // measure 3
00000000
00000000
00000000
00000000
,  // measure 4
00000000
00000010
00000000
00000100
,  // measure 5
00000000
00010000
00000000
01000000
,  // measure 6
00000000
00010000
00000000
10000000
,  // measure 7
00000000
01000000
00000000
00100000
,  // measure 8
00000000
00010000
00000000
00001000
,  // measure 9
00000000
00010000
00010000
00010000
,  // measure 10
00010000
00011000
00000000
00000000
,  // measure 11
00000000
00000010
00000000
00000100
,  // measure 12
00000000
00000110
00000000
00000000
,  // measure 13
00000000
00001000
00000000
00000010
,  // measure 14
00000000
00000100
00000100
00000000
,  // measure 15
00010000
00010000
00010000
00000000
,  // measure 16
01000000
01000000
01000000
00000000
,  // measure 17
00100000
00100000
00100000
00100000
,  // measure 18
00100000
00100000
00000000
00000000
,  // measure 19
10000000
10000000
10000000
00000000
,  // measure 20
00010000
00010000
00010000
00000000
,  // measure 21
00100000
00100000
00100000
00000000
,  // measure 22
00001000
00001000
00000000
00010000
,  // measure 23
00000000
00000100
00000000
00001000
,  // measure 24
00000000
00000010
00000000
00000100
,  // measure 25
00000000
00000001
00000001
00000001
,  // measure 26
00000001
00000001
00000000
00001000
,  // measure 27
00000000
00000100
00000100
00000100
,  // measure 28
00000000
00010000
00000000
00001000
,  // measure 29
00000000
01000000
00000000
00100000
,  // measure 30
00000000
10000000
10000000
10000000
,  // measure 31
00000000
01000000
00000000
01000000
,  // measure 32
00000000
00100000
00100000
00100000
,  // measure 33
00000000
00010000
00010000
00010000
,  // measure 34
00010000
00010000
00000000
00001000
,  // measure 35
00000000
00000100
00000100
00000100
,  // measure 36
00000000
00001000
00000000
00000010
,  // measure 37
00000000
00000001
00000001
00000001
,  // measure 38
00000000
00000010
00000000
00000100
,  // measure 39
00000000
00010000
00000000
00001000
,  // measure 40
00000000
00100000
00100000
00100000
,  // measure 41
00100000
00000000
00000000
00000000
,  // measure 42
00000000
02000000
00000000
00000000
,  // measure 43
03000000
00000000
00000000
00000000
,  // measure 44
00000000
00020000
00000000
00000000
,  // measure 45
00030000
00000000
00000000
00000000
,  // measure 46
00000000
20000000
00000000
00000000
,  // measure 47
30000000
00000000
00000000
00000000
,  // measure 48
00000000
02000000
00000000
00000000
,  // measure 49
03000000
01000000
01000000
01000000
,  // measure 50
01000000
01000000
00000000
00100000
,  // measure 51
00000000
00001000
00000000
00010000
,  // measure 52
00000000
00000010
00000000
00001000
,  // measure 53
00000000
00000100
00000100
00000100
,  // measure 54
00000000
00000010
00000000
00000001
,  // measure 55
00000000
00000100
00000000
00000010
,  // measure 56
00000000
00010000
00010000
00010000
,  // measure 57
00010000
00010000
00000000
00000000
,  // measure 58
00000000
00001000
00000000
00001000
,  // measure 59
00000000
01000000
00000000
01000000
,  // measure 60
00000000
10000000
00000000
10000000
,  // measure 61
00000000
01000000
01000000
01000000
,  // measure 62
01000000
01000000
00000000
00100000
,  // measure 63
00000000
10000000
00000000
00100000
,  // measure 64
00000000
01000000
00000000
00001000
,  // measure 65
00000000
00010000
00010000
00010000
,  // measure 66
00010000
00000100
00000000
00000000
,  // measure 67
00000000
00000010
00000010
00000010
,  // measure 68
00000000
00001000
00000000
00000000
,  // measure 69
00000000
00000001
00000001
00000001
,  // measure 70
00000000
00001000
00000000
00000000
,  // measure 71
00000000
00000100
00000100
00000100
,  // measure 72
00000000
00010000
00000000
00000000
,  // measure 73
00000000
00001000
00000000
00000000
,  // measure 74
00000000
00100000
00000000
00000000
,  // measure 75
00000000
10000000
00000000
00000000
,  // measure 76
00000000
00010000
00000000
00000000
,  // measure 77
00000000
01000000
00000000
00000000
,  // measure 78
00000000
10000000
00000000
00010000
,  // measure 79
00000000
00100000
00000000
00000000
,  // measure 80
00000000
00001000
00000000
00010000
,  // measure 81
00000000
00000100
00000000
00001000
,  // measure 82
00000000
00000010
00000000
00000000
,  // measure 83
00000000
00000001
00000000
00001000
,  // measure 84
00000000
00000100
00000000
00000000
,  // measure 85
00000000
00010000
00000000
00001000
,  // measure 86
00000000
00100000
00000000
00000000
,  // measure 87
00000000
00001000
00000000
01000000
,  // measure 88
00000000
00100000
00000000
10000000
,  // measure 89
00000000
00010000
00000000
10000000
,  // measure 90
00000000
00010000
00000000
00000000
,  // measure 91
00000000
01000000
00000000
00001000
,  // measure 92
00000000
00100000
00000000
00000000
,  // measure 93
00000000
00001000
00000000
00010000
,  // measure 94
00000000
00000100
00000000
00000000
,  // measure 95
00000000
00001000
00000000
00000010
,  // measure 96
00000000
00000100
00000000
00000000
,  // measure 97
00000000
00000001
00000000
00001000
,  // measure 98
00000000
00000020
00000000
00000000
,  // measure 99
00000030
00000010
00000000
00000000
,  // measure 100
00000000
00020000
00000000
00000000
,  // measure 101
00030000
00010000
00000000
00000000
,  // measure 102
00000000
00002000
00000000
00000000
,  // measure 103
00003000
00001000
00000000
00000000
,  // measure 104
00000000
00020000
00000000
00000000
,  // measure 105
00030000
00010000
00000000
00000000
,  // measure 106
00000000
00000100
00000100
00000000
,  // measure 107
00000000
00010000
00010000
00000000
,  // measure 108
00000000
00001000
00001000
00000000
,  // measure 109
00000000
01000000
00000000
01000000
,  // measure 110
00000000
00010000
00000000
00100000
,  // measure 111
00000000
00001000
00000000
00010000
,  // measure 112
00000000
00000100
00000000
00001000
,  // measure 113
00000000
00000010
00000010
00000010
,  // measure 114
00000000
00000010
00000000
00000000
,  // measure 115
00000000
00001000
00000000
00000100
,  // measure 116
00000000
00010000
00000000
00000000
,  // measure 117
00000000
00001000
00000000
00000000
,  // measure 118
00000000
01000000
00000000
01000000
,  // measure 119
00000000
00100000
00000000
00100000
,  // measure 120
00000000
10000000
00000000
10000000
,  // measure 121
00000000
01000000
00000000
01000000
,  // measure 122
00000000
00100000
00000000
00001000
,  // measure 123
00000000
00010000
00010000
00010000
,  // measure 124
00000000
00000100
00000000
00001000
,  // measure 125
00000000
00000001
00000001
00000001
,  // measure 126
00000000
00000100
00000000
00000010
,  // measure 127
00000000
00010000
00010000
00010000
,  // measure 128
00000000
00001000
00000000
00100000
,  // measure 129
00000000
00001000
00000000
00010000
,  // measure 130
00000000
00011000
00000000
00000000
,  // measure 131
00000000
00000000
00000000
00000000
,  // measure 132
00000000
01100000
00000000
00000000
,  // measure 133
00000000
00000000
00000000
00000000
,  // measure 134
00000000
01000000
00000000
00010000
,  // measure 135
00000000
00100000
00100000
00100000
,  // measure 136
00000000
00001000
00000000
00010000
,  // measure 137
00000000
00000100
00000100
00000100
,  // measure 138
00000000
00001000
00000000
00000001
,  // measure 139
00000000
00001000
00000000
00000100
,  // measure 140
00000100
00000100
00000000
00010000
,  // measure 141
00000000
00000010
00000010
00000010
,  // measure 142
00000000
00010000
00000000
00001000
,  // measure 143
00000000
01000000
01000000
01000000
,  // measure 144
00000000
00100000
00000000
10000000
,  // measure 145
00000000
00010000
00010000
00010000
,  // measure 146
00000000
01000000
00000000
00001000
,  // measure 147
00000000
00010000
00000000
00001000
,  // measure 148
00000000
00010000
00000000
00000010
,  // measure 149
00000000
00001000
00000000
00000001
,  // measure 150
00000000
00000100
00000000
00000010
,  // measure 151
00000000
00010000
00000000
00001000
,  // measure 152
00000000
00010000
00000000
00001000
,  // measure 153
00000000
00010000
00010000
00010000
,  // measure 154
00010000
00000000
00000000
00000000
,  // measure 155
00000000
00010000
00000000
01000000
,  // measure 156
00000000
00100000
00100000
00100000
,  // measure 157
00000000
10000000
00000000
00010000
,  // measure 158
00000000
00100000
00100000
00100000
,  // measure 159
00000000
00001000
00000000
00010000
,  // measure 160
00000000
00000100
00000100
00000100
,  // measure 161
00000000
00001000
00000000
00000001
,  // measure 162
00000000
00000100
00000000
00000000
,  // measure 163
00000000
00000010
00000000
00000100
,  // measure 164
00000000
00000001
00000001
00000001
,  // measure 165
00000000
00001000
00000000
00000100
,  // measure 166
00000000
00010000
00010000
00010000
,  // measure 167
00000000
00001000
00000000
01000000
,  // measure 168
00000000
00010000
00010000
00010000
,  // measure 169
00000000
00000000
00000000
00000000
,  // measure 170
00000000
00000000
00000000
00000000
,  // measure 171
00000000
10000000
00000000
00010000
,  // measure 172
00000000
00100000
00000000
00001000
,  // measure 173
00000000
00010000
00000000
00000000
,  // measure 174
00000000
00000100
00000000
00000000
,  // measure 175
00000000
00001000
00000000
00000010
,  // measure 176
00000000
00000100
00000000
00000001
,  // measure 177
00000000
00001000
00000000
00000000
,  // measure 178
00000000
00000100
00000000
00000000
,  // measure 179
00000000
00010000
00000000
00001000
,  // measure 180
00000000
00100000
00000000
00100000
,  // measure 181
00000000
00010000
00000000
10000000
,  // measure 182
00000000
01000000
00000000
01000000
,  // measure 183
00000000
00100000
00000000
00001000
,  // measure 184
00000000
00010000
00000000
00010000
,  // measure 185
00000000
00000100
00000000
00001000
,  // measure 186
00000000
00000001
00000000
00000001
,  // measure 187
00000000
00001000
00001000
00000000
,  // measure 188
00000000
00000100
00000100
00000000
,  // measure 189
00000000
00000010
00000010
00000000
,  // measure 190
00000000
00000100
00000100
00000000
,  // measure 191
00000000
00010000
00010000
00000000
,  // measure 192
00000000
00001000
00001000
00000000
,  // measure 193
00000000
01000000
00000000
00000000
,  // measure 194
00000000
00010000
00000000
00000000
,  // measure 195
00000000
10000000
10000000
00000000
,  // measure 196
00000000
00100000
00100000
00000000
,  // measure 197
00000000
01000000
00000000
00010000
,  // measure 198
00000000
01000000
00000000
00000000
,  // measure 199
00000000
00001000
00000000
00000000
,  // measure 200
00000000
00010000
00000000
00000100
,  // measure 201
00000000
00000100
00000000
00000010
,  // measure 202
00000000
00000010
00000000
00000001
,  // measure 203
00000000
00000001
00000000
00001000
,  // measure 204
00000000
00001000
00000000
00000001
,  // measure 205
00000000
00000001
00000000
00001000
,  // measure 206
00000000
00001001
00000000
00000000
;

//---------------dance-double - ----------------
#NOTES:
     dance-double:
     :
     Easy:
     4:
     0.274,0.297,0.116,0.125,0.000: // measure 1
00000000
00000000
00000000
00000000
,  // measure 2
00000000
00000000
00000000
00000000
,  // measure 3
00000000
00000000
00000000
00000000
,  // measure 4
00000000
00000010
00010000
00000100
,  // measure 5
00010000
00002000
00000000
00013000
,  // measure 6
00000000
00001000
00100000
00001000
,  // measure 7
01000000
00020000
00000000
00130000
,  // measure 8
00000000
00100000
00100000
01000000
,  // measure 9
01000000
10000000
10000000
10000000
,  // measure 10
10000000
10010000
00000000
00010000
,  // measure 11
00100000
00011000
00000000
00010000
,  // measure 12
00000100
00000110
00000000
00000010
,  // measure 13
00000001
00001001
00000000
00000100
,  // measure 14
00001000
00020000
00100000
00100000
,  // measure 15
10030000
02000000
00100000
00100000
,  // measure 16
03001000
00020000
00000000
00030100
,  // measure 17
00000000
00000010
00000100
00000010
,  // measure 18
00000001
00000001
00000001
00000100
,  // measure 19
00010000
01000000
01000000
00100000
,  // measure 20
10000000
10010000
00000000
01000000
,  // measure 21
00100000
00001000
00010000
00001000
,  // measure 22
00000000
00000100
00001000
00000100
,  // measure 23
00000000
00000010
00000001
00000100
,  // measure 24
00000100
00010000
10000000
01000000
,  // measure 25
00100000
00020000
00000000
01030000
,  // measure 26
00000000
00100000
10000000
01000000
,  // measure 27
00010000
00001000
00000010
00000001
,  // measure 28
00001000
00000001
00001001
00000000
,  // measure 29
00000000
00000001
00000100
00010000
,  // measure 30
01000000
00100000
01000000
00010000
,  // measure 31
10000000
01000000
00000000
00100000
,  // measure 32
00000000
01100000
00000000
00000000
,  // measure 33
00000000
01000000
00010000
00001000
,  // measure 34
00000010
00000200
00000000
00000010
,  // measure 35
00000310
00000001
00001000
00000010
,  // measure 36
00010000
00001000
00000000
00100000
,  // measure 37
00100000
01000000
01000000
10000000
,  // measure 38
00100000
01000000
00100000
01000000
,  // measure 39
00000000
01000000
00001000
00001000
,  // measure 40
00010000
00000100
00001000
00000100
,  // measure 41
00000010
00000001
00000000
00000000
,  // measure 42
00000000
00000110
00000000
00000000
,  // measure 43
00000000
00000002
00000000
00000003
,  // measure 44
00000000
00002000
00000000
00003000
,  // measure 45
00000000
00000010
00000010
00000010
,  // measure 46
00000010
00000020
00000000
00000030
,  // measure 47
00000000
00020000
00000000
00030000
,  // measure 48
00000000
00001000
00001000
00001000
,  // measure 49
00001000
00002000
00000000
00003000
,  // measure 50
00000000
01000000
00010000
00100000
,  // measure 51
01000000
10000000
00100000
10000000
,  // measure 52
01000000
00200000
00000000
00301000
,  // measure 53
00000000
00010000
00010000
00000100
,  // measure 54
00001000
00001100
00001000
00000100
,  // measure 55
00000001
00000100
00000010
00000001
,  // measure 56
00001000
00000200
00000000
00010300
,  // measure 57
00000000
00001000
00001000
00001000
,  // measure 58
00001000
01000000
00010000
00010000
,  // measure 59
01000000
00100000
01000000
00100000
,  // measure 60
00000000
10000000
01000000
00010000
,  // measure 61
00001000
00000010
00000001
00000010
,  // measure 62
00000001
00000100
00000110
00000000
,  // measure 63
00000000
00000010
00000010
00010000
,  // measure 64
00001000
00100000
00010000
01000000
,  // measure 65
00100000
20000000
00000000
00000000
,  // measure 66
30000000
00020000
00030000
00100000
,  // measure 67
00000000
00010000
10000000
01000000
,  // measure 68
00000000
00200000
00300000
01000000
,  // measure 69
00000000
00010000
00100000
01000000
,  // measure 70
00000000
00200000
00300000
00001000
,  // measure 71
00000000
00010000
00000100
00000010
,  // measure 72
00000000
00000002
00000003
00001000
,  // measure 73
00000000
00000110
00000000
00000000
,  // measure 74
00000000
00011000
00000000
00200000
,  // measure 75
00300000
00010000
00000000
10000000
,  // measure 76
01000000
00100000
00000000
00010000
,  // measure 77
00100000
00001000
00000000
00010000
,  // measure 78
00001000
00011000
00000000
00020000
,  // measure 79
00030000
00000010
00000000
00000100
,  // measure 80
00000001
00001000
00000000
00000100
,  // measure 81
00000010
00000220
00000000
00000330
,  // measure 82
00000000
00000110
00000000
00000110
,  // measure 83
00000000
00000010
00010000
00001000
,  // measure 84
00000000
00011000
00000000
00011000
,  // measure 85
00000000
00200000
00300000
01000000
,  // measure 86
00000000
01100000
00000000
01100000
,  // measure 87
00000000
00100000
00010000
10000000
,  // measure 88
00000000
10010000
00000000
10010000
,  // measure 89
00000000
00200000
00300000
00001000
,  // measure 90
00000000
00011000
00000000
00010000
,  // measure 91
00000100
00000020
00000030
00000001
,  // measure 92
00000000
00001001
00000000
00000100
,  // measure 93
00000010
00002000
00003000
00000100
,  // measure 94
00000000
00011000
00000000
00100000
,  // measure 95
00010000
20000000
30000000
00010000
,  // measure 96
00000000
10010000
00000000
10000000
,  // measure 97
01000000
00200000
00300000
00010000
,  // measure 98
00000000
00022000
00000000
00000000
,  // measure 99
00033000
00011000
00001000
00001000
,  // measure 100
00000000
00000220
00000000
00000000
,  // measure 101
00000330
00000110
00001000
00000001
,  // measure 102
00000000
00002002
00000000
00000000
,  // measure 103
00003003
00001001
00000001
00000001
,  // measure 104
00000000
00000220
00000000
00000000
,  // measure 105
00000330
00000010
00000010
00000010
,  // measure 106
00000000
00001000
00000100
00001000
,  // measure 107
00000000
00000100
00010000
00001000
,  // measure 108
00100000
00010000
10000000
01000000
,  // measure 109
00000000
00100000
00001000
01000000
,  // measure 110
00010000
00100000
00000000
00001000
,  // measure 111
00000000
00010000
00010000
00000100
,  // measure 112
00000010
00000001
00001000
00000001
,  // measure 113
00000000
00001000
00001000
00000100
,  // measure 114
00010000
00002000
00000000
00003000
,  // measure 115
00000000
00100000
00010000
01000000
,  // measure 116
00010000
00100000
00000000
01000000
,  // measure 117
00000000
10000000
01000000
00010000
,  // measure 118
00001000
00000010
00000001
00000010
,  // measure 119
00000001
00001000
00000000
00000100
,  // measure 120
00000000
00010000
00001000
00010000
,  // measure 121
00001000
00100000
00000000
00010000
,  // measure 122
00000000
10010000
00000000
10000000
,  // measure 123
00010000
00100000
00000000
00100000
,  // measure 124
00001000
00011000
00000000
00010000
,  // measure 125
00000100
00001000
00000000
00000010
,  // measure 126
00000100
00000110
00000000
00000100
,  // measure 127
00000001
00001000
00000000
00000100
,  // measure 128
00010000
00011000
00000000
00001000
,  // measure 129
00100000
00010000
10000000
00010000
,  // measure 130
01000000
00002000
00000000
00003000
,  // measure 131
00000000
00200000
00000000
00000000
,  // measure 132
00000000
00001000
00001000
00301000
,  // measure 133
00000000
00020000
00000000
00030000
,  // measure 134
00000000
00000200
00000000
00000300
,  // measure 135
00000000
00002000
00000000
00003000
,  // measure 136
00000000
00000001
00000000
00000001
,  // measure 137
00000000
00001000
00000000
00000100
,  // measure 138
00000100
00000100
00010000
00001000
,  // measure 139
00010000
00001000
00100000
00001000
,  // measure 140
00000000
01000000
00100000
10000000
,  // measure 141
00010000
01000000
00001000
00010000
,  // measure 142
00000000
00011000
00000000
00000100
,  // measure 143
00001000
00000010
00000000
00000100
,  // measure 144
00000001
00001001
00000000
00001000
,  // measure 145
00000100
00010000
00001000
00100000
,  // measure 146
00010000
01000000
00000000
00100000
,  // measure 147
00000000
10000000
00000000
00010000
,  // measure 148
00000000
00100000
00100000
00001000
,  // measure 149
00000000
00010000
00010000
00000100
,  // measure 150
00000010
00000001
00000000
00001000
,  // measure 151
00000000
00000010
00000000
00010000
,  // measure 152
00000000
00001000
00001000
00001000
,  // measure 153
00010000
00001000
00001000
00001000
,  // measure 154
00010000
00000000
00000000
00000000
,  // measure 155
00000000
00001000
00001000
00010000
,  // measure 156
00000100
00001000
00000100
00000100
,  // measure 157
00000000
00000010
00000001
00000010
,  // measure 158
00000000
00000100
00000100
00000100
,  // measure 159
00000000
00010000
00010000
00001000
,  // measure 160
00100000
00010000
00010000
00010000
,  // measure 161
00000000
10000000
00100000
10000000
,  // measure 162
00000000
00100000
01000000
00100000
,  // measure 163
00000000
01000000
01000000
01000000
,  // measure 164
00001000
00010000
00000100
00001000
,  // measure 165
00000000
00000001
00000001
00001000
,  // measure 166
00000010
00000100
00000000
00000010
,  // measure 167
00000000
00001000
00001000
00001000
,  // measure 168
00000100
00010000
00001000
00100000
,  // measure 169
00000000
00000000
00000000
00000000
,  // measure 170
00000000
00010000
00010000
00010000
,  // measure 171
00010000
00010000
00000000
10000000
,  // measure 172
00000000
00100000
00100000
00100000
,  // measure 173
00100000
01000000
00000000
00001000
,  // measure 174
00000000
00010000
00010000
00010000
,  // measure 175
00000000
00000100
00001000
00000100
,  // measure 176
00000000
00000010
00000001
00000010
,  // measure 177
00000000
00000001
00001000
00000001
,  // measure 178
00000000
00000100
00000010
00000100
,  // measure 179
00000000
00000010
00000010
00000010
,  // measure 180
00010000
00001000
00000000
01000000
,  // measure 181
00000000
00010000
00010000
00010000
,  // measure 182
10000000
00100000
00000000
01000000
,  // measure 183
00000000
00010000
00010000
00010000
,  // measure 184
00100000
00001000
00010000
00000100
,  // measure 185
00000000
00001000
00000000
00000010
,  // measure 186
00000000
00000100
00000100
00000100
,  // measure 187
00000000
00000001
00000001
00000001
,  // measure 188
00001000
00000010
00010000
00001000
,  // measure 189
00000000
00100000
00100000
00100000
,  // measure 190
00010000
01000000
00100000
01000000
,  // measure 191
00100000
10000000
00000000
01000000
,  // measure 192
00000000
00100000
00100000
00100000
,  // measure 193
00000000
00001000
00000000
00001000
,  // measure 194
00000000
00001000
00000000
00001000
,  // measure 195
00000000
00010000
00000000
00010000
,  // measure 196
00000000
00010000
00010000
00010000
,  // measure 197
00010000
00010000
00000000
00000100
,  // measure 198
00000000
00001000
00000010
00001000
,  // measure 199
00000010
00001000
00000000
00000001
,  // measure 200
00000000
00000100
00000010
00000100
,  // measure 201
00000010
00000100
00000000
00000001
,  // measure 202
00000000
00001000
00000100
00001000
,  // measure 203
00000100
00010000
00000000
00001000
,  // measure 204
00000000
00100000
00010000
00100000
,  // measure 205
00010000
10000000
00100000
10000000
,  // measure 206
00010000
10010000
00000000
00000000
;

//---------------dance-double - ----------------
#NOTES:
     dance-double:
     :
     Medium:
     7:
     0.395,0.478,0.203,0.142,0.022: // measure 1
00000000
00000000
00000000
00000000
,  // measure 2
00000000
00000000
00000000
00000000
,  // measure 3
00000000
00000000
00000000
00000000
,  // measure 4
00000000
10000000
01000000
10000000
,  // measure 5
01000000
00100000
00001000
01000000
,  // measure 6
00001000
00010000
00000010
00010000
,  // measure 7
00000100
00000010
00000001
00000010
,  // measure 8
00000001
00000100
00000010
00000100
,  // measure 9
00000010
00001000
00000001
00001100
,  // measure 10
00000101
00000000
00000000
00000000
00000001
00000000
00000000
00000001
00000000
00000000
00000100
00000000
00000000
00000000
00000000
00000000
,  // measure 11
00000010
00000000
00000010
00000000
00010000
00000000
00000000
00010000
00000000
00000000
00001000
00000000
00000000
00000000
00000000
00000000
,  // measure 12
01000000
00000000
01000000
00000000
00100000
00000000
00000000
00100000
00000000
00000000
10000000
00000000
00000000
00000000
00000000
00000000
,  // measure 13
01000000
00000000
01000000
00000000
00100000
00000000
00000000
00100000
00000000
00000000
00001000
00000000
00000000
00000000
00000000
00000000
,  // measure 14
00010000
00000000
00010000
00000000
00000010
00000000
00000000
00000010
00000000
00000000
00001000
00000000
00000000
00000000
00000000
00000000
,  // measure 15
00000100
00000000
00000100
00000000
00000010
00000000
00000000
00000010
00000000
00000000
00000001
00000000
00000000
00000000
00000000
00000000
,  // measure 16
00000100
00000000
00000100
00000000
00001000
00000000
00000000
00001000
00000000
00000000
00010000
00000000
00000000
00000000
00000000
00000000
,  // measure 17
01000000
01000000
10000000
00000000
00010000
00000000
11000000
00000000
,  // measure 18
01010000
00000000
00000000
00000000
00010000
00000000
00000000
10000000
00000000
00000000
00100000
00000000
00000000
00000000
00000000
00000000
,  // measure 19
01000000
00000000
00001000
00000000
00010000
00000000
00000000
00000010
00000000
00000000
00001000
00000000
00000000
00000000
00000000
00000000
,  // measure 20
00000100
00000000
00000010
00000000
00000001
00000000
00000000
00001000
00000000
00000000
00000010
00000000
00000000
00000000
00000000
00000000
,  // measure 21
00000100
00000000
00000001
00000000
00000010
00000000
00000000
00001000
00000000
00000000
00010000
00000000
00000000
00000000
00000000
00000000
,  // measure 22
00001000
00000000
00010000
00000000
00000100
00000000
00000000
00010000
00000000
00000000
00001000
00000000
00000000
00000000
00000000
00000000
,  // measure 23
01000000
00000000
00100000
00000000
10000000
00000000
00000000
01000000
00000000
00000000
00100000
00000000
00000000
00000000
00000000
00000000
,  // measure 24
00001000
00000000
00100000
00000000
00010000
00000000
00000000
10000000
00000000
00000000
01000000
00000000
00000000
00000000
00000000
00000000
,  // measure 25
00010000
00000000
00001000
00000000
01000000
00000000
00000000
00001000
00000000
00000000
00010000
00000000
00000000
00000000
00000000
00000000
,  // measure 26
00000100
00000010
00000002
00000000
00000000
00000000
00000103
00000000
,  // measure 27
00000010
00010000
00000000
00001000
00000000
00010000
00000000
00001000
,  // measure 28
00000000
00010000
00000000
00000000
00011000
00000000
00001000
00000000
,  // measure 29
01000000
00000000
00010000
00000000
10000000
01000000
00000000
00100000
,  // measure 30
00000000
00001000
00000000
00010000
00000000
00002000
00000000
00000000
,  // measure 31
00003000
00000000
00010000
00000100
00001000
00000000
00000010
00001000
,  // measure 32
00000001
00000000
00000010
00000010
00000000
00001001
00000000
00000000
,  // measure 33
00000000
00000001
00001000
00000101
,  // measure 34
00001100
00000001
00000100
00001000
,  // measure 35
00011000
00010000
01000000
10000000
,  // measure 36
10010000
10000000
00100000
00010000
,  // measure 37
00011000
00001000
00000010
00000001
,  // measure 38
00001001
00000000
00000001
00000010
00000100
00000000
00000100
00010000
,  // measure 39
00001000
00000000
00011000
00000000
00110000
00000000
00100000
01000000
,  // measure 40
00000000
20000000
00000000
02000000
30000000
00200000
03000000
00000000
,  // measure 41
00300000
00000000
00000000
00000000
,  // measure 42
00000000
00000000
00001000
00000000
00000010
00000100
00000000
00010000
,  // measure 43
00000000
00000000
00000020
00000000
00000000
00000000
00000000
00000100
,  // measure 44
00000130
00000000
00000001
00000000
00000100
00010000
00000000
01000000
,  // measure 45
00000000
00100000
00000000
10000000
00000000
00010000
00000000
00100000
,  // measure 46
00110000
00000000
00100000
00001000
,  // measure 47
00000010
00000002
00000000
00000000
00000000
00000000
00000000
00000100
,  // measure 48
00000103
00000000
00000010
00000000
00001000
00000000
00000100
00010000
,  // measure 49
00000000
00001100
00000000
00110000
,  // measure 50
00000000
00000000
00010000
01000000
10000000
00000000
01010000
00000000
,  // measure 51
00110000
00000000
10000000
01000000
00010000
00000000
00011000
00000000
,  // measure 52
00000110
00000000
00000001
00000010
00001000
00000000
00000110
00000000
,  // measure 53
00001100
00000000
00010000
00001000
00010000
00000000
00022000
00000000
,  // measure 54
00033000
00000000
00110000
00000000
11000000
00000000
00010000
00001000
,  // measure 55
00000010
00000001
00000011
00000000
00001001
00000000
00000010
00010000
,  // measure 56
00001000
00000000
00010000
01000000
10000000
00000000
00010000
01000000
,  // measure 57
00100000
01100000
00011000
00110000
,  // measure 58
00011000
00000000
00010000
00000100
00000010
00000000
00000100
00001000
,  // measure 59
00000010
00000000
00001020
00000000
00000000
00000000
00000000
00000100
,  // measure 60
00000130
00000000
00001000
00010000
00100000
00000000
01000000
00100000
,  // measure 61
10000000
10010000
00110000
00011000
,  // measure 62
00001100
00000000
00001000
00010000
01000000
00000000
00001000
00010000
,  // measure 63
00000100
00000000
00002010
00000000
00000000
00000000
00000000
00000001
,  // measure 64
00003001
00000000
00000001
00000100
00000010
00001000
00010000
01000000
,  // measure 65
00100000
00010000
00001000
00000100
,  // measure 66
00000001
00000001
00001000
00010000
,  // measure 67
10000000
00020000
00100000
00030000
,  // measure 68
00000000
00001000
00010000
00000100
,  // measure 69
00001000
00000010
00000100
00000001
,  // measure 70
00001000
00000100
00000010
00001000
,  // measure 71
00000010
00000200
00000001
00000300
,  // measure 72
00000000
00000010
00001000
00000100
,  // measure 73
00010000
00001000
00010000
01000000
,  // measure 74
00100000
01100000
00000000
00110000
,  // measure 75
00000000
00000000
00010000
01000000
00100000
00000000
00100000
00000000
,  // measure 76
00000000
01100000
00000000
10100000
,  // measure 77
00000000
00000000
10000000
00010000
01000000
00000000
01000000
00000000
,  // measure 78
00010000
00200000
01300000
00001000
,  // measure 79
00000000
00000000
00010000
00001000
00000100
00000000
00000100
00000000
,  // measure 80
00000000
00000001
00000100
00001000
,  // measure 81
00000010
00000000
00000100
00000001
00000010
00000000
00000100
00001000
,  // measure 82
00000010
00000200
00001300
00010000
,  // measure 83
00000000
00000000
00001000
00010000
01000000
00000000
01000000
00000000
,  // measure 84
10000000
00020000
00130000
10000000
,  // measure 85
00000000
00000000
00100000
01000000
00010000
00000000
00010000
00000000
,  // measure 86
10000000
00020000
00130000
00001000
,  // measure 87
00000000
00000000
00010000
00000010
00000100
00000000
00000100
00000000
,  // measure 88
00000000
00000001
00000010
00001000
,  // measure 89
00000010
00000000
00000100
00000010
00001000
00000000
00000100
00000010
,  // measure 90
00000001
00001000
00000100
00000000
00000010
00000000
00000100
00000010
,  // measure 91
00000100
00001000
00000010
00010000
,  // measure 92
00000000
00000000
00001000
00000000
00010000
00000000
00001000
00010000
,  // measure 93
00001000
00100000
01000000
10000000
,  // measure 94
00100000
00000000
10000000
00000000
00010000
00000000
00100000
00010000
,  // measure 95
10000000
00010000
00100000
00001000
,  // measure 96
00000000
00000000
01000000
00000000
00010000
00000000
00100000
00001000
,  // measure 97
00010000
00000100
00000010
00000100
,  // measure 98
00000000
00000000
00001000
00000000
00000010
00000000
00000100
00000001
,  // measure 99
00001000
00000000
00000010
00000000
00000001
00000000
00001000
00000100
,  // measure 100
00010000
00000000
00001000
00000000
00100000
00000000
00010000
01000000
,  // measure 101
00100000
01000000
00010000
10000000
,  // measure 102
00000000
00000000
01000000
00000000
00100000
00000000
10000000
00010000
,  // measure 103
10000000
01000000
00100000
01000000
,  // measure 104
00000000
00000000
00001000
00000000
00100000
00000000
00001000
00000100
,  // measure 105
00000010
00000100
00000001
00000100
,  // measure 106
00000000
00000000
00000010
00000000
00000100
00000000
00000001
00001000
,  // measure 107
00000100
00000000
00000010
00000000
00000010
00000000
00000100
00010000
,  // measure 108
00001000
00011000
00010000
00110000
,  // measure 109
00010000
10000000
00010000
10000000
,  // measure 110
01000000
00000000
00100000
00000000
00010000
00000000
00100000
00001000
,  // measure 111
00010000
00000000
00000010
00001000
00000100
00001000
00000010
00000000
,  // measure 112
00001010
00000010
00001000
00000100
,  // measure 113
00001000
00000100
00010000
00001000
,  // measure 114
01000000
01010000
02000000
00000000
,  // measure 115
03200000
00000000
10000000
10000000
,  // measure 116
10300000
02000000
00000000
00200000
,  // measure 117
03000000
00001000
00001000
00001000
,  // measure 118
00301000
00010000
00000000
00000100
,  // measure 119
00001000
00000100
00001000
00000100
,  // measure 120
00001000
00000010
00000100
00000010
,  // measure 121
00000100
00000001
00000001
00001000
,  // measure 122
00001010
00000000
00010000
00000000
00001000
00000000
00010000
00000100
,  // measure 123
00001000
00000000
00000100
00000000
00010000
00000000
00001000
00100000
,  // measure 124
00010000
00000000
00100000
00000000
00010000
00000000
10000000
01000000
,  // measure 125
00100000
00001000
00010000
00000010
,  // measure 126
00001000
00000000
00000010
00010000
00000010
00000000
00010000
00001000
,  // measure 127
00010000
00000000
00001000
00100000
00001000
00000000
01000000
00000000
,  // measure 128
00010000
00000000
00100000
00001000
00100000
00000000
00001000
00010000
,  // measure 129
00001000
00000000
00010000
00000100
00001000
00000010
00010000
00000000
,  // measure 130
00001000
00010000
00000100
00001000
,  // measure 131
00000010
00000100
00000010
00000100
,  // measure 132
00000001
00000000
00001000
00000100
00000010
00000000
00000001
00000100
,  // measure 133
00000010
00000000
00001000
00000100
00000010
00000000
00000100
00010000
,  // measure 134
00001000
00100000
00100000
00010000
,  // measure 135
01000000
00200000
00000000
20000000
,  // measure 136
30300000
01000000
00100000
01000000
,  // measure 137
01000000
00100000
10000000
10100000
,  // measure 138
00000000
00010000
00100000
00001000
,  // measure 139
00010000
00000100
00001000
00000100
,  // measure 140
00011000
00010000
00000100
00001000
,  // measure 141
00000010
00000100
00000001
00001001
,  // measure 142
00000110
00000000
00000010
00010000
00000010
00000000
00010000
00001000
,  // measure 143
00010000
00000000
00100000
00001000
00100000
00000000
01000000
00000000
,  // measure 144
00010000
00000000
00100000
00001000
00100000
00000000
00001000
00010000
,  // measure 145
00001000
00010000
00000100
00001000
,  // measure 146
00000001
00000000
00001001
00000000
00001001
00000000
00000010
00001000
,  // measure 147
00000100
00000000
00010000
00001000
00100000
00000000
00010000
00001000
,  // measure 148
00100000
00000000
10010000
00000000
10010000
00000000
00100000
01000000
,  // measure 149
00010000
00000000
00100000
00001000
00010000
00000000
00100000
00001000
,  // measure 150
00010000
00000010
00001000
00000001
,  // measure 151
00000100
00000001
00000100
00001000
,  // measure 152
00010000
00100000
10000000
00100000
,  // measure 153
01000000
00000000
00001000
00000000
00010000
00000000
00001000
00010000
,  // measure 154
00001000
00000000
00000000
00000000
,  // measure 155
00000000
00000200
00000300
00001000
,  // measure 156
00000100
00000000
00000010
00000000
00000001
00001000
00000200
00000000
,  // measure 157
00000300
00020000
00030000
00001000
,  // measure 158
01000000
00010000
01000000
20000000
,  // measure 159
30000000
00000000
01000000
00000000
00010000
00000000
10000000
00010000
,  // measure 160
00100000
00110000
00101000
00220000
,  // measure 161
00330000
00020000
00030000
00001000
,  // measure 162
00010000
00000000
00001000
00000100
00001000
00000000
00000200
00000000
,  // measure 163
00000300
00000002
00000003
00000020
,  // measure 164
00000130
00001100
00010100
00002200
,  // measure 165
00003300
00000100
00001000
00000100
,  // measure 166
00010000
00001000
00010000
00001000
00010000
00000000
00002000
00000000
,  // measure 167
00003000
00010000
00100000
10000000
,  // measure 168
00010000
00000000
10000000
00010000
10000000
00010000
02000000
00000000
,  // measure 169
00000000
03100000
10000000
01000000
,  // measure 170
10000000
00010000
01000000
00010000
,  // measure 171
00100000
00101000
00011000
00000000
,  // measure 172
00000000
00010100
00011000
00000000
,  // measure 173
00000000
01001000
00011000
00000000
,  // measure 174
00000000
00010010
00011000
00000000
,  // measure 175
00000000
00001000
00001000
00000200
,  // measure 176
00000300
00000010
00000010
00000200
,  // measure 177
00000300
00000001
00000001
00000020
,  // measure 178
00000030
00000100
00000100
00000020
,  // measure 179
00000030
00000100
00001000
00000100
,  // measure 180
00001000
00000000
00000010
00000000
00000100
00000001
00000200
00000000
,  // measure 181
00000000
00001300
00000100
00001000
,  // measure 182
00000100
00000010
00001000
00000100
,  // measure 183
00010000
00001000
01000000
00010000
,  // measure 184
01000000
00000000
00010000
00100000
01000000
00000000
20000000
00000000
,  // measure 185
30000000
00020000
00030000
00100000
,  // measure 186
00010000
00000000
10000000
01000000
00100000
00000000
00020000
00000000
,  // measure 187
00030000
00000000
01000000
01000000
00000000
00100000
00100000
00000000
,  // measure 188
00010000
00000000
00001000
00001000
00000000
00010000
00010000
00000000
,  // measure 189
00001000
00000100
00000100
00000010
,  // measure 190
00000010
00000000
00001000
00000001
00000100
00000000
00000020
00000000
,  // measure 191
00000030
00001000
00001000
00000100
,  // measure 192
00000100
00000000
00010000
00001000
00100000
00000000
00020000
00000000
,  // measure 193
00030000
10000000
10000000
10000000
,  // measure 194
00100000
01000000
01000000
00020000
,  // measure 195
00130000
00001000
00010000
00010000
,  // measure 196
00010000
00000100
00001000
00001000
,  // measure 197
00001000
00000010
00000100
00000001
,  // measure 198
00001000
00001001
00000001
00000001
,  // measure 199
00000001
00000100
00001000
00000100
,  // measure 200
00000001
00000100
00001000
00001000
,  // measure 201
00001000
00010000
01000000
00010000
,  // measure 202
00001000
00010000
00000000
00001000
00000000
00010000
00000000
01000000
,  // measure 203
00000000
10000000
00000000
00010000
00000000
10000000
00000000
00010000
,  // measure 204
00000000
01000000
00000000
00001000
00000000
00010000
00000000
00000100
,  // measure 205
00000000
00001000
00000000
00000001
00000000
00001000
00000000
00000001
,  // measure 206
00000000
00000100
00000020
00000000
00000000
00000000
00000000
00000000
,  // measure 207
00000030
00000000
00000000
00000000
;

//---------------dance-double - ----------------
#NOTES:
     dance-double:
     :
     Hard:
     9:
     0.552,0.627,0.388,0.136,0.138: // measure 1
00000000
00000000
00000000
00000000
,  // measure 2
00000000
00000000
00000000
00000000
,  // measure 3
00000000
00000000
00000000
00000000
,  // measure 4
00000000
00000000
00000000
00001000
00000000
00000010
00000000
00000100
,  // measure 5
00000000
00000001
00000000
00000010
00000000
00000100
00000000
00010000
,  // measure 6
00000000
00000000
00001000
00000000
00100000
00000000
00010000
00000000
00100000
00000000
00100000
00000000
01000000
00000000
10000000
00100000
,  // measure 7
00000000
00000000
01000000
00000000
00001000
00000000
01000000
00000000
01000000
00000000
00100000
00000000
10000000
00000000
01000000
00010000
,  // measure 8
00000000
00000000
00001000
00000000
01000000
00000000
00001000
00000000
00001000
00000000
00010000
00000000
00000010
00000000
00001000
00000100
,  // measure 9
00000000
00000010
00000011
00000000
00001100
00000000
00001001
00000000
,  // measure 10
00011000
00000000
00000000
00000000
00010000
00000000
00000000
00001000
00000000
00000000
01000000
00000000
00000000
00100000
00000000
00000000
,  // measure 11
10000000
00000000
01000000
00000000
00010000
00000000
00000000
00001000
00000000
00000000
01000000
00000000
00000000
00100000
00000000
00000000
,  // measure 12
10000000
00000000
00010000
00000000
00110000
00000000
00000000
00100000
00000000
00000000
00001000
00000000
00000000
00010000
00000000
00000000
,  // measure 13
00000010
00000000
00001000
00000000
00000100
00000000
00000000
00000010
00000000
00000000
00000001
00000000
00000000
00001000
00000000
00000000
,  // measure 14
00000001
00000000
00000100
00000000
00000110
00000000
00000000
00000010
00000000
00000000
00010000
00000000
00000000
00001000
00000000
00000000
,  // measure 15
00000010
00000000
00000001
00000000
00001000
00000000
00000000
00000100
00000000
00000000
00010000
00000000
00000000
00001000
00000000
00000000
,  // measure 16
01000000
00000000
00001000
00000000
00101000
00000000
00000000
00100000
00000000
00000000
01000000
00000000
00000000
10000000
00000000
00000000
,  // measure 17
00100000
01000000
00020000
00000000
00230000
00000000
02300000
00000000
,  // measure 18
23000000
00000000
00000000
00000000
30100000
01000000
00000000
01000000
00001000
00000000
00001000
00010000
00000000
00010000
00000100
00000000
,  // measure 19
00000010
00000000
00000100
00000000
00000010
00000001
00000000
00000001
00001000
00000000
00001000
00000100
00000000
00000100
00010000
00000000
,  // measure 20
00001000
00000000
00010000
00000000
00001000
00100000
00000000
00100000
00001000
00000000
00001000
00010000
00000000
00010000
00001000
00000000
,  // measure 21
01000000
00000000
00001000
00000000
01000000
00100000
00000000
00100000
10000000
00000000
10000000
01000000
00000000
01000000
00100000
00000000
,  // measure 22
00001000
00000000
00100000
00000000
00001000
00010000
00000000
00010000
00000010
00000000
00000010
00000100
00000000
00000100
00000001
00000000
,  // measure 23
00001000
00000000
00000001
00000000
00001000
00000100
00000000
00000100
00010000
00000000
00010000
00001000
00000000
00001000
01000000
00000000
,  // measure 24
00010000
00000000
01000000
00000000
00010000
00100000
00000000
00100000
00001000
00000000
00001000
01000000
00000000
01000000
00010000
00000000
,  // measure 25
10000000
00000000
00010000
00000000
20000000
00000000
00000000
32000000
00000000
00000000
03020000
00000000
00000000
00032000
00000000
00000000
,  // measure 26
00013000
00001000
00021000
00000000
00000000
00000000
01030000
00000000
,  // measure 27
10000000
00100000
10000000
00010000
01000000
00001000
01000000
00100000
,  // measure 28
00010000
00001000
00000010
00000000
00000011
00000000
00000100
00001000
,  // measure 29
00000100
00000001
00000010
00000000
00001000
00010000
00000000
00001000
,  // measure 30
00010000
00001000
01000000
00100000
10000000
00010000
01000000
00000000
,  // measure 31
00000000
01000000
00010000
10000000
00100000
00010000
00001000
00000000
,  // measure 32
00010000
00000000
01000000
10000000
00000000
10010000
00000000
00000000
,  // measure 33
00000000
00000000
00000000
02000000
00000000
03020000
00000000
00032000
,  // measure 34
00000000
00003200
00000002
00000300
00000000
00000000
00001003
00000000
,  // measure 35
00000100
00010000
00000010
00010000
00001000
01000000
00001000
00100000
,  // measure 36
01000000
10000000
00100000
00000000
00000000
00000000
00010000
00001000
,  // measure 37
00000010
00001000
00010000
00001000
00100000
00001000
00010000
00100000
,  // measure 38
00010000
00001000
00010000
00000100
00001000
00000100
00000010
00000000
,  // measure 39
00000000
00000001
00001000
00000010
00010000
00000100
00100000
00001000
,  // measure 40
01000000
01010000
00000000
10010000
00000000
20200000
00000000
00000000
,  // measure 41
00000000
30300000
00000000
00000000
00000000
00000000
00000000
00000000
,  // measure 42
00000000
00000000
00000101
00000000
00000100
00001000
00000000
00010000
,  // measure 43
01000000
00000000
11000000
00000000
00000000
00000000
00000000
10000000
,  // measure 44
00100000
00000000
01000000
00001000
00010000
01000000
00000000
00100000
,  // measure 45
00001000
00100000
00000000
00001000
00010000
00001000
00000000
00010000
,  // measure 46
00000010
00010000
00000000
00000000
00000100
00000000
00000010
00000000
,  // measure 47
00000001
00000100
00000000
00000000
00000000
00000000
00000000
00000001
,  // measure 48
00001000
00000000
00000001
00000000
00000010
00000000
00001000
00010000
,  // measure 49
00000000
00000010
00000000
00000100
00000000
00000010
00000000
00000100
,  // measure 50
00000000
00000000
00000001
00000000
00000010
00000000
00000001
00000000
00000000
00000100
00000000
00000000
00000010
00000000
00000000
00010000
,  // measure 51
00000000
00000100
00001000
00000100
00000000
00000000
00010000
00000000
00000000
00001000
00000000
00000000
01000000
00000000
00000000
00010000
,  // measure 52
00000000
00000000
00100000
00000000
00000000
00000000
01000000
00000000
00000000
10000000
00000000
00000000
00010000
00000000
00000000
00100000
,  // measure 53
00000000
00001000
00010000
00001000
00000000
00000000
01000000
00000000
00000000
00001000
00000000
00000000
00010000
00000000
00000000
00000100
,  // measure 54
00000000
00000000
00000010
00000000
00000000
00000000
00000001
00000000
00001000
00000100
00000000
00001000
00000100
00000000
00001000
00000100
,  // measure 55
00000000
00010000
00001000
00010000
00000000
00000000
00001000
00000000
01000000
00100000
00000000
01000000
00100000
00000000
01000000
00100000
,  // measure 56
00000000
00000000
10000000
00000000
00000000
00000000
01000000
00000000
00100000
00001000
00000000
01000000
00010000
00000000
10000000
01000000
,  // measure 57
00000000
00100000
00001000
00100000
00000000
00000000
01000000
00000000
10000000
00100000
00000000
01000000
00001000
00000000
00010000
00000100
,  // measure 58
00000000
00000010
00000001
00001000
00000100
00000010
00000001
00000100
,  // measure 59
00010000
01000000
00001000
00100000
01000000
10000000
00100000
01000000
,  // measure 60
00001000
00010000
02000000
00000000
10000000
10000000
00000000
00010000
,  // measure 61
00000000
10000000
00000000
03010000
00000000
00001000
00000000
00000100
,  // measure 62
00000001
00000010
00000100
00010000
00001000
00100000
01000000
10000000
,  // measure 63
00100000
01000000
00001000
01000000
00100000
10000000
01000000
00001000
,  // measure 64
00000100
00000010
00001000
00010000
00100000
10000000
01000000
00010000
,  // measure 65
00001000
00000100
00000002
00000000
00000023
00000000
00000230
00000000
,  // measure 66
00001300
00000000
00011000
00000000
00000100
00001000
00000000
00000010
,  // measure 67
00000000
00000110
00000001
00000110
,  // measure 68
00001000
00000000
00001001
00000000
00000100
00010000
00000000
00001000
,  // measure 69
00000000
00000000
00011000
00000000
00100000
00010000
00000000
01000000
,  // measure 70
00000000
00000000
01010000
00000000
00100000
10000000
00000000
00010000
,  // measure 71
00000000
01100000
00001000
00011000
,  // measure 72
00000100
00000000
00000110
00000000
00001000
00000010
00000000
00000100
,  // measure 73
00000000
00000000
00000101
00000000
00000010
00000100
00000000
00001000
,  // measure 74
00000000
00000000
00001100
00010000
00001000
00000000
00011000
00000000
,  // measure 75
01100000
00000000
10000000
01000000
00100000
01000000
10000000
00000000
,  // measure 76
00110000
00000000
01010000
00001000
00010000
00000000
00011000
00000000
,  // measure 77
00000110
00000000
00000001
00000010
00000100
00000010
00000001
00000100
,  // measure 78
00000010
00001000
00001010
00000100
00010000
00000000
00001100
00000000
,  // measure 79
01010000
00000000
11000000
10000000
00100000
01000000
00010000
00000000
,  // measure 80
01100000
00000000
10010000
00100000
00100000
00000000
00110000
00000000
,  // measure 81
00011000
00000000
00001100
00000100
00000010
00001000
00000010
00000000
,  // measure 82
00000110
00000001
00000100
00001000
,  // measure 83
00010000
00100000
10000000
01000000
,  // measure 84
00010000
00001000
00000010
00000001
,  // measure 85
00000100
00001000
00010000
01000000
,  // measure 86
10000000
00100000
01000000
00001000
,  // measure 87
00010000
00000100
00000010
00001000
,  // measure 88
00000001
00000100
00000010
00010000
,  // measure 89
00001000
00000000
00010000
00001000
00000100
00000010
00001000
00000100
,  // measure 90
00010000
00001000
00100000
00000000
01000000
00100000
00010000
01000000
,  // measure 91
00100000
10000000
00010000
00000000
10000000
00000000
00100000
00000000
,  // measure 92
00010000
00000000
00100000
00000000
00001000
00010000
01000000
00100000
,  // measure 93
00010000
01000000
00001000
00000000
00010000
00000000
00000100
00000000
,  // measure 94
00000010
00000000
00000001
00000000
00000100
00000010
00001000
00000100
,  // measure 95
00000010
00000100
00010000
00000000
00010000
00000000
00001000
00000000
,  // measure 96
00001000
00000000
00010000
00000000
00001000
00010000
01000000
00100000
,  // measure 97
00010000
10000000
00100000
00000000
00100000
00000000
01000000
00000000
,  // measure 98
01000000
00000000
00010000
00000000
10000000
01000000
00100000
00000000
,  // measure 99
10000000
00000000
00010000
00000000
00100000
00001000
00010000
00000000
,  // measure 100
00000100
00000000
00001000
00000000
00000010
00001000
00000100
00000000
,  // measure 101
00000001
00000000
00001000
00000000
00000010
00000100
00000001
00001000
,  // measure 102
00000100
00000000
00010000
00000000
00001000
00010000
00001000
00000000
,  // measure 103
00100000
00000000
00010000
00000000
01000000
00100000
10000000
00000000
,  // measure 104
00010000
00000000
10000000
00000000
01000000
00100000
00010000
00000000
,  // measure 105
01000000
00000000
00011000
00000000
00010000
00001000
00000100
00000010
,  // measure 106
00000100
00001000
00010000
00001000
00000100
00000010
00000001
00000100
,  // measure 107
00000010
00001000
00000100
00100000
00001000
00010000
01000000
00000000
,  // measure 108
10010000
00000000
00100000
00001000
00011000
00010000
00000100
00001000
,  // measure 109
00000100
00000010
00000001
00000100
00000101
00000001
00000100
00001000
,  // measure 110
00000110
00000000
00001000
00010000
00011000
00100000
01000000
00010000
,  // measure 111
10000000
01000000
00110000
00110000
00110000
00000000
00000000
00000000
,  // measure 112
00011000
00000000
00000000
00000000
00001100
00000000
00001000
00000100
,  // measure 113
00000010
00000000
00000000
00000000
00000100
00010000
00000100
00010000
00000100
00000000
00000000
00000000
00010000
00001000
00010000
00001000
,  // measure 114
00010000
00000000
00000000
00000000
00011000
00000000
00000000
00010000
00100000
00000000
00000000
00100000
01000000
00000000
00000000
00001000
,  // measure 115
00100000
00000000
00000000
00001000
00010000
00000000
00000000
00000010
00001000
00000000
00000000
00000000
00002002
00000000
00000000
00000000
,  // measure 116
00003003
00000000
00000000
00000000
00000110
00000000
00000000
00001000
00000010
00000000
00000000
00010000
00001000
00000000
00000000
00100000
,  // measure 117
01000000
00000000
00000000
00100000
00001000
00000000
00000000
00010000
00000100
00000000
00000000
00000000
00011000
00000000
00000000
00000000
,  // measure 118
00001100
00000000
00000001
00001000
00000100
00001000
00000100
00000000
,  // measure 119
00011000
00000000
00010000
10000000
01000000
10000000
01000000
00000000
,  // measure 120
11000000
00220000
00000000
00000000
,  // measure 121
00000000
00000000
00330000
00000000
,  // measure 122
00011000
00000000
00100000
00001000
00000000
00010000
00000100
00001000
,  // measure 123
00000000
00000010
00000010
00010000
00000000
00001000
00100000
00010000
,  // measure 124
00011000
00000000
00100000
00001000
00000000
00010000
00001000
00000100
,  // measure 125
00000000
00000010
00000000
00010000
00000000
00001000
00010000
00000000
,  // measure 126
00110000
00000000
01000000
00010000
00000000
01000000
00001000
00010000
,  // measure 127
00000000
00001000
00001000
00100000
00000000
00000100
00001000
00000010
,  // measure 128
00001010
00000000
00010000
00001000
00000000
01000000
00100000
01000000
,  // measure 129
00000000
00001000
01001000
00000000
00110000
00000000
00011000
00000000
,  // measure 130
00001100
00000000
00002000
00000000
00000002
00003000
00000020
00000003
,  // measure 131
00000200
00000030
00002000
00000300
00000020
00003000
00020000
00000030
,  // measure 132
00031000
00000000
00100000
00010000
00100000
01000000
00100000
00000000
,  // measure 133
01000000
00000000
00100000
01000000
10000000
01000000
00100000
00000000
,  // measure 134
01100000
00000000
00100000
00010000
00001000
00000100
00000010
00000000
,  // measure 135
00000001
00000000
00000000
00001000
00000010
00000100
00000001
00000000
,  // measure 136
00001200
00000000
00000000
00000000
00010000
00000000
00000000
00010000
00000000
00000000
00010000
00000000
00000300
00000000
00000000
00000000
,  // measure 137
00000000
00011000
00110000
01100000
,  // measure 138
10010000
00000000
10000000
01000000
00010000
00001000
00000100
00000001
,  // measure 139
00000010
00000001
00000010
00000100
00001000
00000100
00010000
00001000
,  // measure 140
00011000
00000000
00000000
00000000
00000000
00000000
00100000
00000000
00100000
00000000
00100000
00000000
00100000
00000000
00000000
00001000
,  // measure 141
00010000
00000000
00000000
00000000
00000000
00000000
00000100
00000000
00000100
00000000
00000100
00000000
00000100
00000000
00000000
00010000
,  // measure 142
00001000
00000000
00100000
00010000
00000000
01000000
00001000
00010000
,  // measure 143
00000000
00000100
00001000
00000010
00000000
00010000
00001000
00100000
,  // measure 144
00101000
00000000
00100000
00001000
00000000
00010000
00001000
00000100
,  // measure 145
00000000
00000010
00001000
00000000
00010100
00000000
00011000
00000000
,  // measure 146
00110000
00000000
10000000
00010000
00100000
00010000
00100000
00001000
,  // measure 147
00010000
00000000
00011000
00011000
00010010
00000000
00001100
00001100
,  // measure 148
00001001
00000000
00001000
00000010
00010000
00001000
00010000
00001000
,  // measure 149
00100000
00000000
00011000
00011000
00101000
00000000
01010000
01010000
,  // measure 150
10010000
00000000
00000000
00100000
00000000
00001000
00010000
00000000
,  // measure 151
00000100
00000000
00000000
00001000
00000000
00000010
00010000
00000000
,  // measure 152
00011000
00110000
01010000
01100000
,  // measure 153
10010000
00000000
00000000
00000000
00100000
00000000
00001000
00000000
00010000
00000000
00000100
00000000
00010000
00000000
00001000
00010000
,  // measure 154
00001000
00010000
00001000
00010000
00000020
00000000
00000000
00000000
00000000
00000000
00000000
00000000
00000000
00000000
00000000
00000000
,  // measure 155
00000030
00102000
00010000
01003000
,  // measure 156
00021000
00000000
00000010
00000000
00030100
00001000
00000010
00000000
,  // measure 157
00000100
00000201
00001300
00021000
,  // measure 158
00130000
01000000
00100000
10000000
01000000
00010000
00001000
00000000
,  // measure 159
00000000
00000000
00002100
00000000
00003020
00000000
00000000
00000031
,  // measure 160
00000100
00001000
00010000
01000000
20000000
00000000
30200000
00000000
,  // measure 161
00300000
00020000
00031000
00000020
,  // measure 162
00000032
00001003
00000100
00001000
00000001
00000010
00000001
00000000
,  // measure 163
00000000
00001100
00010100
00011000
,  // measure 164
00010000
00100000
01100000
00000000
01010000
00000000
01001000
00000000
,  // measure 165
00000000
00000000
00100000
00001000
00010000
00001000
00100000
00000000
,  // measure 166
00001000
00010000
00000100
00001000
00000010
00000100
00000001
00000000
,  // measure 167
00000000
00000000
00001001
00000000
00000010
00000000
00000000
00000001
,  // measure 168
00000100
00001000
00011000
00010000
00110000
00100000
10100000
00000000
,  // measure 169
00000000
12000000
00010000
00100000
,  // measure 170
03010000
00000000
00010000
00001000
00010000
00001000
00000010
00001000
,  // measure 171
00000010
00000001
00000100
00000001
00000100
00000001
00000000
00001000
,  // measure 172
00000000
00000010
00000100
00000010
00000100
00001000
00000000
00011000
,  // measure 173
00000000
00100000
00010000
00100000
00010000
10000000
00000000
11000000
,  // measure 174
00000000
00010000
10000000
00000000
00100000
00000000
00010000
00000000
,  // measure 175
00000000
00000000
00010000
00000000
00001000
00000000
00010000
00001000
,  // measure 176
00010000
00000010
00001000
00000000
00000001
00000000
00000100
00000000
,  // measure 177
00000000
00000000
00001000
00000000
00010000
00000000
00001000
00100000
,  // measure 178
00001000
00100000
00010000
01000000
00010000
01000000
00100000
10000000
,  // measure 179
00100000
10000000
00010000
00000000
01010000
00000000
00100000
00000000
,  // measure 180
10000000
01000000
00100000
00000000
01000000
00010000
00001000
00000000
,  // measure 181
00011000
00001000
00000100
00000001
,  // measure 182
00000010
00000001
00000100
00000000
00000010
00001000
00000100
00000000
,  // measure 183
00001001
00000100
00001000
00010000
,  // measure 184
00001000
00010000
00100000
00000000
00001000
00010000
00100000
00000000
,  // measure 185
10100000
00000000
00010000
01000000
00010000
00000000
10000000
01000000
,  // measure 186
10000000
00000000
00010000
01000000
00010000
10000000
01000000
00000000
,  // measure 187
00000000
00000000
00010000
00001000
00010000
00000010
00001000
00001000
,  // measure 188
00000010
00000010
00001000
00000100
00000010
00000000
00000011
00000000
,  // measure 189
00000000
00000000
00000001
00000100
00001000
00010000
00001000
00000100
,  // measure 190
00000001
00000100
00001000
00010000
01000000
10000000
00100000
00000000
,  // measure 191
00000000
00000000
00100000
00010000
00001000
00000000
00000100
00001000
,  // measure 192
00010000
00000000
00100000
00010000
00001000
00000100
00000001
00000000
,  // measure 193
00000000
00000000
00000010
00001000
00000100
00001000
00000010
00000100
,  // measure 194
00000001
00000010
00000001
00000100
00001000
00010000
00100000
00000000
,  // measure 195
10010000
00000000
01000000
10000000
00010000
01000000
00100000
01000000
,  // measure 196
00010000
10000000
01000000
00000000
00010000
00000000
00001000
00010000
,  // measure 197
00001000
00000000
00011000
00001000
00100000
00000000
00011000
00010000
,  // measure 198
00000010
00001010
00000101
00001010
,  // measure 199
00000101
00000000
00000010
00000100
00001000
00000001
00000100
00001000
,  // measure 200
00010000
01000000
01000000
00000000
11000000
00000000
00110000
00000000
,  // measure 201
11000000
00000000
00100000
01000000
00010000
10000000
01000000
00010000
,  // measure 202
00001000
00000100
00000100
00000000
00000101
00000000
00001010
00000000
,  // measure 203
00000101
00000000
00000010
00001000
00010000
00001000
00000010
00001000
,  // measure 204
00010000
01000000
10000000
00000000
00100000
00000000
10000000
01000000
,  // measure 205
00100000
00010000
00100000
00000000
00001000
00000000
00010000
00000010
,  // measure 206
00001000
00000100
00000220
00000000
00000000
00000000
00000000
00000330
;
