#TITLE:Power 1;
#SUBTITLE:(Steppin' Out Mix);
#ARTIST:Stillwind;
#TITLETRANSLIT:;
#SUBTITLETRANSLIT:;
#ARTISTTRANSLIT:;
#CREDIT:;
#BANNER:Power 1 (Steppin' Out Mix).png;
#BACKGROUND:Power 1 (Steppin' Out Mix)-bg.png;
#LYRICSPATH:;
#CDTITLE:./CDTITLES/Dance Dance Revolution ULTRAMIX4.png;
#MUSIC:Power 1 (Steppin' Out Mix).ogg;
#OFFSET:0.000;
#SAMPLESTART:88.763;
#SAMPLELENGTH:15.000;
#SELECTABLE:YES;
#DISPLAYBPM:0.000:251.000;
#BPMS:0.000=188.482,10.000=187.640,38.000=187.891,98.000=188.482,106.000=188.036,318.000=187.990,462.000=194.595,466.000=196.721,470.000=189.974,478.000=162.162,486.000=176.471,490.000=173.913,502.000=170.616,506.000=152.542,508.000=125.000,509.000=123.288,510.000=54.135,518.000=53.892,522.000=51.948,526.000=104.348,530.000=176.759,542.000=118.812,546.000=123.288,562.000=126.316,566.000=125.000,570.000=91.837,571.000=166.667,573.000=163.636,574.000=176.471,590.000=175.396,606.000=178.218,622.000=180.000,638.000=179.328,654.000=150.000,718.000=150.179,774.000=149.688,806.000=146.939,810.000=17.697,810.750=249.798,878.000=250.000;
#STOPS:654.000=0.380
;
#BGCHANGES:;

//---------------dance-single - ----------------
#NOTES:
     dance-single:
     :
     Beginner:
     1:
     0.156,0.243,0.045,0.029,0.000:
0000
0000
0000
0000
,
0000
0000
0000
0000
,
0000
0000
1000
0000
,
1000
0000
1000
0000
,
1000
0000
1000
0000
,
0000
0000
0000
0000
,
0000
0000
0001
0000
,
0001
0000
0001
0000
,
0001
0000
0001
0000
,
0000
0000
0000
0000
,
0000
0000
0010
0010
,
0000
0000
1000
1000
,
0000
0000
0001
0001
,
0000
0000
0001
0001
,
0000
0000
1000
0000
,
1000
0000
1000
0000
,
0001
0000
0001
0000
,
0001
0000
0001
0000
,
1000
0000
1001
0000
,
0000
0000
0000
0000
,
0000
0000
2000
0000
,
0000
3000
0000
0000
,
0000
0000
0002
0000
,
0000
0003
0000
0000
,
0000
0000
0001
0000
,
0000
0000
1000
0000
,
0000
0000
1001
0000
,
0000
0000
0000
0000
,
0000
0000
0010
0000
,
0000
0000
0100
0000
,
0000
0000
0110
0000
,
0000
0000
0000
0000
,
0000
0000
0001
0000
,
0000
0000
1000
0000
,
0000
0000
1001
0000
,
0000
0000
0001
0001
,
0001
0000
0000
0000
,
0000
0000
1000
1000
,
1000
0000
0000
0000
,
0000
0000
0010
0010
,
0010
0000
0000
0000
,
0000
0000
1000
0000
,
1000
0000
1000
0000
,
0000
0000
0010
0000
,
0010
0000
0010
0000
,
0000
0000
0100
0000
,
0100
0000
0100
0000
,
0000
0000
0010
0000
,
0010
0000
0010
0000
,
0000
0000
1000
0000
,
1000
0000
0001
0001
,
0000
0000
0001
0000
,
0001
0000
0001
0000
,
0001
0000
1000
0000
,
1000
0000
1000
0000
,
1000
0000
0010
0000
,
0010
0000
0010
0000
,
0010
0000
0100
0000
,
0100
0000
0100
0000
,
0100
0000
0001
0000
,
0000
0000
1000
0000
,
0000
0000
0001
0000
,
0000
0000
1000
0000
,
0000
0000
0010
0010
,
0000
0000
0100
0000
,
0000
0000
0010
0000
,
0000
0000
0100
0000
,
0000
0000
1001
0000
,
0000
0000
0000
0000
,
0000
0000
1001
0000
,
0000
1000
0000
0001
,
0000
0001
0001
0001
,
0001
0001
0001
0001
,
0001
0000
0000
1000
,
0000
1000
0000
0001
,
0000
0001
0001
0000
,
1000
0000
2000
0000
,
3000
0000
0010
0000
,
0000
0100
0000
0100
,
0000
0100
0200
0000
,
0000
0300
0000
0000
,
0000
0000
0110
0000
,
0000
0010
0000
0010
,
0000
0100
0100
0000
,
0100
0000
0100
0000
,
0000
0000
0001
0001
,
0001
0000
0001
0000
,
0001
0000
1000
0000
,
1000
0000
1000
0000
,
1000
0000
0100
0100
,
0100
0000
0100
0000
,
0100
0000
0010
0010
,
0010
0000
0010
0000
,
0010
0000
0001
0000
,
0001
0000
0001
0000
,
0001
0000
0100
0000
,
0100
0000
0100
0000
,
0100
0000
0001
0001
,
0000
0001
0000
0001
,
0000
1000
1000
1000
,
0000
0010
0020
0000
,
0000
0030
0010
0000
,
0000
0000
0100
0000
,
0100
0000
0002
0000
,
0000
0003
0000
0000
,
0000
0000
2000
0000
,
0000
3000
0000
0000
,
0000
0000
0001
0000
,
0001
0000
1000
0000
,
1000
0000
0010
0000
,
0000
0000
0100
0000
,
0000
0000
0001
0000
,
0000
0000
1000
0000
,
0000
0000
1001
0000
,
0000
0000
1001
0000
,
0000
0000
0010
0000
,
0010
0000
0010
0000
,
0000
0000
0000
0000
,
0000
0000
0001
0000
,
0000
0000
1000
0000
,
0000
0000
0001
0000
,
0000
0000
0100
0100
,
0100
0000
0100
0000
,
0000
0000
0010
0000
,
0010
0000
1000
0000
,
1000
0000
0001
0000
,
0001
0000
0010
0000
,
0010
0000
0100
0000
,
0000
0000
1000
0000
,
0000
0000
0010
0000
,
0100
0000
0010
0000
,
0100
0000
0010
0000
,
0000
0000
1001
0000
,
0000
0000
0000
0000
,
0000
0000
0110
0000
,
0000
0000
0000
0000
,
0000
0000
0001
0000
,
1000
0000
0001
0000
,
0000
0000
1000
0000
,
0100
0000
1000
0000
,
0000
0000
0001
0000
,
0100
0000
0001
0000
,
0000
0000
1001
0000
,
0000
0000
0100
0000
,
0100
0000
0010
0000
,
0000
0000
1000
0000
,
0000
0000
0001
0000
,
0000
0000
0100
0000
,
0000
0000
0100
0000
,
0100
0000
0010
0000
,
0000
0000
1000
0000
,
1000
0000
0001
0000
,
0000
0000
0100
0000
,
0001
0000
0100
0000
,
0000
0000
0010
0000
,
1000
0000
0010
0000
,
0000
0000
0100
0000
,
0000
0000
0001
0000
,
0001
0000
1000
0000
,
1000
0000
0001
0000
,
0000
0000
0010
0000
,
0000
0000
0100
0000
,
0100
0000
0000
0000
,
0000
0000
0010
0000
,
0010
0000
0010
0000
,
0000
0000
0100
0000
,
0100
0000
0100
0000
,
0000
0000
0001
0000
,
0001
0000
0001
0000
,
0000
0000
1000
0000
,
1000
0000
1000
0000
,
0000
0000
0001
0000
,
0001
0000
0001
0000
,
0001
0000
1000
0000
,
1000
0000
1000
0000
,
1000
0000
0010
0000
,
0010
0000
0010
0000
,
0010
0000
0100
0000
,
0100
0000
0100
0000
,
0100
0000
0001
0000
,
0000
0000
0000
0000
,
1000
1000
1000
0000
,
0000
0000
0000
0000
,
0001
0001
0001
0000
,
0000
0000
0000
0000
,
0010
0010
0010
0000
,
0000
0000
0200
0000
,
0000
0300
0100
0100
,
0100
0000
0010
0010
,
0010
0000
0100
0100
,
0100
0000
0001
0001
,
0001
0000
1000
1000
,
1000
0000
0000
0000
,
0000
0000
0001
0001
,
0001
0000
2000
0000
,
0000
3000
1000
0000
,
0000
0000
1000
0000
,
0000
0000
1000
0000
,
0000
0000
0001
0000
,
0000
0000
0001
0000
,
0000
0000
0100
0000
,
0000
0000
0100
0000
,
0000
0000
0000
0000
,
0000
0010
0000
0000
0000
0010
0000
0000
,
0000
0000
0000
0000
0000
0100
0000
0000
,
0000
0100
0000
0000
0000
0100
0000
0000
,
0000
0000
0000
0000
0000
0001
0000
0000
,
0000
0001
0000
0000
0000
0001
0000
0000
,
0000
0000
0000
0000
0000
1000
0000
0000
,
0000
1000
0000
0000
0000
0000
0000
0000
,
0000
0000
0000
0000
0000
0001
0000
0000
,
0000
0001
0000
0000
0000
0001
0000
0000
,
0000
0000
0000
0000
0000
1000
0000
0000
,
0000
1000
0000
0000
0000
1000
0000
0000
,
0000
0000
0000
0000
0000
0001
0000
0000
,
0000
1000
0000
0000
0000
0001
0000
0000
,
0000
1000
0000
0000
0000
0000
0000
1001
,
0000
0000
0000
0000
,
0000
0000
0000
1001
0000
0000
0000
0000
;

//---------------dance-single - ----------------
#NOTES:
     dance-single:
     :
     Easy:
     3:
     0.218,0.347,0.051,0.181,0.000:
0000
0000
0000
0000
,
0000
0000
0000
0000
,
0000
0000
0001
0000
,
1000
0000
0001
0000
,
1000
1000
0000
0010
,
0000
0010
0000
0010
,
0000
0010
1000
0000
,
0001
0000
1000
0000
,
0001
0001
0000
0100
,
0000
0100
0000
0100
,
0000
0100
0001
1000
,
0001
1000
0001
1000
,
0001
0000
0000
0100
,
0000
0100
0000
0010
,
0000
0010
1000
0001
,
1000
0001
1000
0001
,
1000
0001
0000
0100
,
0000
0100
0002
0000
,
0000
0003
2001
0000
,
0000
3000
0000
0000
,
0000
0000
0002
0000
,
0000
0003
0000
0000
,
0000
0000
0200
0000
,
0000
0300
0000
0000
,
0000
0000
0020
0000
,
0000
0030
0000
0000
,
0000
0000
0110
0000
,
0010
0000
0000
0000
,
0100
0000
0000
0000
,
0001
0000
0000
0000
,
1000
0000
0000
0000
,
0010
0000
0000
0000
,
0001
0000
0000
0000
,
0100
0000
0000
0000
,
1000
0000
1001
0000
,
0000
0000
0001
0000
,
0010
0000
0001
0000
,
1000
1000
1000
0000
,
0010
0000
1000
0000
,
0001
0001
0001
0000
,
0100
0000
0001
0000
,
0100
0000
0010
0010
,
0010
0010
0010
0000
,
0000
0000
1000
0000
,
1000
0000
0001
0000
,
0001
0000
0010
0010
,
0010
0000
0100
0100
,
0100
0000
1000
0000
,
1000
0000
0001
0000
,
0001
0000
0100
1000
,
0010
0001
1001
0000
,
0000
0000
0001
0000
,
1000
0000
0001
0000
,
0010
0010
0001
0000
,
1000
0000
0001
0000
,
0100
0100
0010
0000
,
0100
0000
0010
0000
,
1000
1000
0010
0000
,
0100
0000
0010
0000
,
0100
0100
0110
0000
,
1001
0000
1001
0000
,
0110
0000
1000
0000
,
0001
0000
1000
0000
,
1001
0000
0010
0000
,
0100
0000
0010
0000
,
0110
0000
1000
1000
,
0001
0001
0010
1000
,
0100
0001
1001
0000
,
0000
0000
0010
0000
,
0010
0000
1000
0001
,
0000
0001
0000
1000
,
0000
0010
0010
0010
,
0010
0100
0100
0100
,
0100
0000
1000
0001
,
0000
0001
0000
1000
,
0000
0100
0020
0030
,
0002
0003
2000
0000
,
3000
0000
0010
0100
,
0000
0100
0000
0010
,
0000
0010
2000
0000
,
0000
0000
0000
0000
,
0000
3000
1000
0000
,
0001
0000
0001
0000
,
1000
0000
0200
0300
,
0200
0300
0020
0000
,
0030
0000
0002
0000
,
0203
0000
0320
0000
,
2030
0000
3002
1000
,
2003
3001
1000
0000
,
0001
0000
0200
0000
,
0320
0000
0230
0000
,
0310
0010
1000
0000
,
0001
0000
0010
0001
,
1000
0100
0010
0000
,
0010
0000
0100
0000
,
0100
0000
1000
0000
,
1000
0000
0001
0000
,
0001
0000
1000
1000
,
0000
0010
0000
0010
,
0000
1000
0100
0100
,
0010
0001
2000
0000
,
0000
3000
0001
0000
,
0000
0000
0010
0000
,
0010
0000
2000
0000
,
0000
3000
0100
0000
,
0100
0000
0002
0000
,
0000
0003
0100
0000
,
0100
0000
0010
0000
,
1000
0000
0100
0000
,
0001
0000
0020
0000
,
0000
0030
0200
0000
,
0000
0300
2000
0000
,
0000
3000
0020
0000
,
0000
0030
0200
0000
,
0000
0300
0002
0000
,
0000
0003
1000
0000
,
0001
0000
0010
0000
,
0000
0000
0000
0000
,
0000
0000
0100
0100
,
0100
0000
1000
0000
,
0001
0000
1000
0000
,
0001
0000
0010
0100
,
0010
0000
0100
0010
,
0100
0000
1000
0000
,
0001
0000
1000
0000
,
0001
0000
0100
0000
,
0010
0000
1000
0001
,
1000
0001
2000
0000
,
0000
3000
0020
0000
,
0000
0030
0200
0300
,
0002
0003
2000
3000
,
0200
0300
0020
0030
,
0000
0000
2002
0000
,
0000
0000
0000
0000
,
0000
0000
0000
0000
,
0000
0000
3003
0000
,
0000
0000
0010
0000
,
0100
0000
0010
0000
,
0100
0000
0002
0000
,
0000
0003
1000
0000
,
0001
0000
2000
0000
,
0000
3000
0020
0000
,
0000
0030
0010
0000
,
0000
0000
0001
0000
,
0001
0000
0010
0000
,
0000
0000
1000
0000
,
1000
0000
0010
0100
,
0010
0000
1000
0000
,
0001
0000
1000
0001
,
1000
0000
0010
0000
,
0100
0000
0010
0100
,
0010
0000
1000
0000
,
0001
0000
1000
0001
,
1000
0000
0100
0000
,
0010
0000
0100
0010
,
0100
0000
0020
0000
,
0000
0030
0010
0000
,
0002
0003
2000
3000
,
0002
0003
2000
3000
,
0000
0000
0200
0000
,
0000
0300
0100
0000
,
0002
0003
2000
0000
,
0002
0003
0000
3000
,
0000
0000
0001
0000
,
0001
0000
1000
0000
,
1000
0000
0001
0000
,
0001
0000
1000
0000
,
1000
0000
0010
0000
,
0000
0000
0010
1000
,
0001
0100
0010
0000
,
0100
0000
0020
0000
,
0000
0030
1000
0000
,
0000
0000
0001
1000
,
0001
1000
0001
0000
,
0100
0000
0010
0100
,
0010
0100
0010
0000
,
1000
0000
0001
0000
,
0100
0000
0010
0000
,
1000
0000
0002
0000
,
0000
0003
1001
0000
,
0000
0000
0010
0000
,
0000
0000
0001
0000
,
0000
0000
0100
0000
,
0000
0000
1000
0000
,
0000
0000
0010
0000
,
0000
0000
0001
0000
,
0000
0000
2000
0000
,
0000
3000
0001
0000
,
0000
0000
0010
0010
,
0000
0000
0100
0100
,
0100
0000
0001
0001
,
0001
0001
1000
0001
,
1000
0001
0000
0000
,
0000
0000
0010
0100
,
0010
0010
2000
0000
,
0000
3000
1000
0000
,
1000
0000
0001
0000
,
0001
0000
0010
0000
,
0010
0000
0100
0000
,
0100
0000
1000
0000
,
1000
0000
0001
0000
,
0001
0000
0100
0000
,
0100
0000
0000
0000
0020
0030
0000
0000
,
0000
0010
0000
0000
0000
0010
0000
0000
,
0000
0000
0000
0000
0000
0100
0000
0000
,
0000
0100
0000
0000
0000
0100
0000
0000
,
0000
0000
0000
0000
0000
0010
0000
0000
,
0000
0010
0000
0000
0000
0010
0000
0000
,
0000
0000
0000
0000
0000
1001
0000
0000
,
0000
0000
0000
0000
,
0000
0000
0000
0000
0000
0001
0000
0000
,
0000
0100
0000
0000
0000
1000
0000
0000
,
0000
0000
0000
0000
0000
1000
0000
0000
,
0000
0010
0000
0000
0000
0001
0000
0000
,
0000
0000
0000
0000
0000
0001
0000
0000
,
0000
1001
0000
0000
0000
1000
0000
0000
,
0000
1001
0000
0000
0000
0000
0000
0200
,
0000
0000
0000
0000
,
0000
0300
0000
0010
0000
0000
0000
0000
;

//---------------dance-single - ----------------
#NOTES:
     dance-single:
     :
     Medium:
     6:
     0.419,0.591,0.258,0.140,0.000:
0000
0000
0000
0000
,
0000
0000
0000
0000
,
0000
0000
1000
1000
,
0001
0001
1000
0001
,
1000
1001
0000
0010
,
0000
1000
0000
0010
,
0000
1001
1000
1000
,
0001
0001
1000
0001
,
1000
1001
0000
0100
,
0000
0001
0000
0100
,
0000
0010
0110
0100
,
0001
1000
0010
0100
,
0001
1001
1000
1000
,
0001
0001
0010
0010
,
0100
0100
1000
0100
,
1000
0100
0010
0001
,
0010
0001
0100
0001
,
0100
0001
1000
0100
,
0001
0010
1001
0000
,
1000
0000
0000
0000
0000
1000
0000
1000
,
0000
0000
1000
0000
,
1000
0000
0000
0001
0000
0000
0000
0000
,
0001
0000
1000
0000
,
1000
0000
0001
0000
,
0001
0000
0100
0000
,
0100
0000
0010
0000
,
0010
0010
1001
0000
,
0010
0000
0100
0000
,
0010
0000
0100
0000
,
1000
0000
0010
0000
,
0100
0000
0010
0000
,
0001
0000
0100
0000
,
0001
0000
0010
0000
,
0100
0000
0010
0000
,
0100
0100
1001
0000
,
0000
0000
1000
1000
,
0001
0001
1000
0001
,
1000
0001
1000
0000
0010
0000
0010
0000
,
0100
0100
0010
0010
,
0100
0010
0100
0000
0001
0000
1000
0000
,
0001
1000
0010
0100
,
0010
0000
0100
0000
0001
0100
0001
0000
,
0010
1000
0010
0000
0100
0000
0001
0000
,
0100
0001
1000
1000
,
0100
0100
0010
0010
,
0001
0001
1000
1000
,
0010
0010
0100
0100
,
0001
1000
0001
0000
1000
0001
1000
0000
,
1000
0100
1000
0000
0010
1000
0010
0000
,
0010
0001
0010
0000
0010
0000
1000
0000
,
0010
1000
0101
0100
,
0001
0000
1000
0001
1000
0000
0001
0000
,
0001
0001
1000
1000
,
1000
1000
1000
0000
0001
0000
0001
0000
,
1000
1000
0001
0001
,
0001
0001
0001
0000
0100
0000
0100
0000
,
0010
0010
0100
0100
,
0010
0010
0010
0000
1000
0000
1000
0000
,
0001
0001
1000
1000
,
0001
0001
0001
0000
0100
0000
0001
0000
,
0100
0001
1000
0010
,
1000
0010
1000
0000
0100
0000
1000
0000
,
0100
0010
0001
0010
,
0001
0010
0001
0000
0100
0000
0001
0000
,
0100
0010
1000
0010
,
1000
0001
1000
0000
0001
0000
0100
0000
,
0010
0100
0010
0001
,
0100
1000
1002
0000
,
0100
0000
0000
0000
,
0003
0000
0010
0110
,
1000
0001
1000
1001
,
0010
0001
1000
1010
,
0001
0011
1000
1100
,
0001
0101
1100
0010
,
0101
0001
0100
0001
,
1000
0100
0010
0010
,
0100
0200
1000
0301
,
0010
0000
0001
1001
,
0010
0110
0010
1000
,
0100
0010
0200
0001
,
1000
0000
0301
0000
0100
0010
0100
1000
,
0100
0000
1000
1001
,
1000
0100
1000
0000
0001
0000
1001
0000
,
0001
0010
0001
0000
0010
0000
0011
0000
,
0100
1100
0110
0000
,
0000
0000
0001
0010
,
0100
1000
0010
0100
,
0001
0100
0010
1000
,
0100
0020
0001
0000
,
0031
0000
1000
0100
,
0010
0001
0100
0010
,
1000
0100
1000
0010
,
0100
0001
0010
0100
,
1000
0100
1000
1100
,
0001
0101
1000
1010
,
0001
0011
0001
0100
,
0001
0100
0010
1000
,
0010
1000
0001
0011
,
1000
1010
0001
0101
,
1000
1100
1000
0001
,
1000
0001
0000
0000
0010
0100
0010
0100
,
0000
0000
0000
1002
0000
0000
0000
0000
,
0100
0000
0010
0000
,
0103
0100
0010
1000
,
0100
1000
0010
0100
,
0001
0001
0010
0001
,
0100
0001
0010
0100
,
1000
0000
1000
0000
0002
0000
0000
0003
,
0002
0000
0000
0003
2000
0000
0000
3000
,
2000
0000
0000
3000
0002
0000
0100
0003
,
2000
0000
0100
3000
0002
0000
0010
0003
,
2000
0000
0010
3000
0200
0000
0001
0300
,
0020
0000
1000
0030
0200
0000
0001
0300
,
0020
0000
1000
0030
0200
0000
1000
0300
,
0020
0000
0001
0030
0200
0000
1000
0300
,
0020
0000
0001
0030
0011
0000
0000
0000
,
1100
0000
1010
0000
,
0000
0001
0000
0000
1001
0000
0000
0000
,
0000
0000
0000
0000
,
0000
0000
0010
0100
,
0010
0100
1000
0100
,
0010
0001
0020
0230
,
2300
0000
3200
0320
,
0032
0000
1003
0001
,
1000
0010
0100
0001
,
0100
0001
1100
0101
,
1100
0000
0101
0000
0010
0001
0100
1000
,
0100
0001
0010
0100
2000
0000
3002
0000
,
2003
0000
3010
0100
0002
0000
2003
0000
,
3002
0000
1003
0100
1000
0010
0100
0001
,
0100
0010
1000
0100
1000
0000
0001
1000
,
0001
0000
0010
0100
2000
0000
0010
0000
,
0000
3000
0000
0001
1001
0000
0100
0000
,
0100
0100
1100
0101
,
1100
0101
0100
0100
,
0100
0100
1001
0000
,
1000
0010
0001
0010
,
1000
0010
0100
0001
,
0010
1000
0110
0000
,
1001
0000
0010
1000
,
0100
0001
0110
0000
,
1001
0000
0010
0001
,
0100
1000
1001
0000
,
0000
0000
0000
0000
1100
0000
0001
0010
,
0100
0000
0010
0100
1000
0100
0010
0100
,
1000
0000
0101
0000
1000
0100
0010
0000
,
0001
0010
0100
0000
1100
0000
0101
0000
,
1100
0000
0000
0000
1100
0000
0001
0010
,
0100
0000
0010
0100
1000
0100
0010
0100
,
1000
0000
0000
0000
1100
0000
1000
0100
,
0010
0000
0001
0010
0100
0010
0001
0010
,
0100
0000
0000
0000
0110
0000
0001
0100
,
1000
0000
0100
0001
0100
1000
0100
0001
,
0100
0000
0000
0000
0110
0000
1000
0100
,
0001
0000
0100
0001
0100
1000
0100
0001
,
0100
0000
1000
0001
,
1000
0001
0010
0100
,
0110
0000
0001
0000
,
0110
0000
1000
0000
,
0001
1000
0001
0000
0010
0000
0100
0000
,
0010
0100
1000
0001
,
1001
0000
0100
0000
,
1001
0000
0100
0000
,
1001
0000
0010
1000
,
0001
0000
1000
0001
,
0100
0000
0001
1000
,
0100
0010
0001
0001
,
1000
1000
0100
0000
,
0010
0010
1000
0100
,
0010
0001
0001
0100
,
0010
0000
2000
0000
,
0000
3000
0001
0100
,
0100
0001
0010
0100
,
0100
1000
0100
0000
,
0001
0001
1000
0001
,
1000
0010
0100
0100
,
0010
0010
0100
0010
,
0100
0010
1000
0001
,
1000
0001
0020
0200
,
0000
0000
0330
0000
0010
0000
0000
1000
,
0000
0000
0100
0000
0000
0001
0000
0000
,
0011
0000
0011
0000
0001
0000
0000
0100
,
0000
0000
1000
0000
0000
0010
0000
0000
,
1100
0000
1100
0000
1000
0000
0000
0001
,
0000
0000
0100
0000
0000
0010
0000
0000
,
0110
0000
1001
0000
0100
0000
0000
1000
,
0000
0001
2002
0000
,
0000
0000
3003
0000
0100
0001
1000
0000
,
0010
1000
0001
0000
0010
0001
0100
0000
,
1000
0100
0001
0000
1000
0000
1000
0000
,
0001
0000
0001
0000
1000
0001
1000
0001
,
1000
0001
1000
0000
0001
0100
0001
0100
,
0001
0100
0001
0000
0000
0000
0000
0000
,
0000
0000
0000
0000
1000
0100
1000
0100
,
1000
0100
1000
0000
0010
0000
0100
0000
,
1000
1000
1000
0000
0002
0000
0100
0000
,
0010
0000
0103
0000
0001
0100
0001
0000
,
1000
0100
1000
0000
2000
0000
0100
0000
,
0010
0000
3100
0000
1000
0100
1000
0000
,
0001
0100
0001
0000
0000
0000
1000
0000
,
0100
0010
0001
0100
,
0100
0010
0100
0010
0000
1000
0001
0000
,
0100
0000
0000
0000
0010
0000
0000
0000
0220
0000
0000
0330
0000
0000
0000
0000
,
0000
0001
0000
0100
0000
1000
0000
0100
,
0000
0001
0000
0000
0000
0110
0000
0000
,
0000
1000
0000
0100
0000
0001
0000
0100
,
0000
1000
0000
0000
0000
1001
0000
0000
,
0000
0010
0000
0001
0000
0100
0000
0001
,
0000
0010
0000
0100
0000
1000
0000
0002
,
0000
0000
0000
0000
,
0000
0000
0000
0003
0000
0001
0000
1000
,
0000
0100
0000
1000
0000
0001
0000
0100
,
0000
0001
0000
0000
0000
1000
0000
0010
,
0000
1000
0000
0001
0000
0100
0000
0010
,
0000
0100
0000
0001
0000
1000
0000
0000
,
0000
1100
0000
0000
0000
0001
0000
0000
,
0000
0101
0000
0000
0000
0000
0000
0110
,
0000
0000
0000
0000
,
0000
0000
0000
1001
0000
0000
0000
0000
;

//---------------dance-single - ----------------
#NOTES:
     dance-single:
     :
     Hard:
     9:
     0.642,0.805,0.366,0.258,0.134:
0000
0000
0000
0000
,
0000
0000
0000
0000
,
0000
0000
0010
1000
,
0001
0000
1000
0100
0000
0010
0000
0001
,
0100
0001
0100
0000
0010
0000
1000
0000
,
0100
1000
0001
0010
,
0001
1000
0001
0000
0010
0000
0001
0000
,
1000
0000
0001
0100
0000
0010
0000
1000
,
0100
1000
0001
0000
1000
0000
1000
0000
,
0010
0000
0010
0000
0100
1000
0100
0000
,
0100
0001
0100
0000
0001
0000
0010
0000
,
0100
0000
1000
0010
0000
0100
0000
0001
,
0010
0001
0100
0000
1000
0100
0001
0000
,
1000
0010
0001
0000
0010
1000
0100
0000
,
0010
0001
0100
0000
1010
0000
0101
0000
,
1100
0000
1000
0100
0000
0010
0000
0001
,
1000
0100
0010
0000
0001
0010
1000
0000
,
0001
0100
1000
0000
0010
1000
0001
0100
,
0010
1000
0100
0010
0120
0000
0000
0000
,
0031
0000
0200
1000
0000
1000
0000
2300
,
0000
0000
0000
3100
0002
0000
1003
0001
,
0000
0020
0000
0100
0000
0100
0000
0230
,
0000
0000
1300
0010
,
1000
0000
0010
0000
0001
0000
0000
0010
,
0000
0001
0001
0000
0100
0000
0010
0000
,
1000
0000
0100
0100
0000
1000
1000
0000
,
0001
1000
1001
0000
,
1010
0000
0100
0002
0000
0010
0000
2003
,
0000
0010
0000
3001
0000
0000
0000
0000
,
1000
0200
0000
0010
0000
0010
0000
0320
,
0000
0001
0000
0130
0010
0000
0000
0000
,
0010
0000
0000
0000
1010
0000
0000
0100
,
0000
0001
0010
0001
1000
0000
0000
0011
,
0000
0000
1000
0000
0000
0101
0000
0000
,
0100
0100
1001
0000
,
0000
0000
0011
1100
,
1000
0010
1000
0000
1010
0000
0101
0000
,
0001
0100
0001
0100
0010
0000
0110
0000
,
0100
0000
0001
0000
0010
0100
0010
0000
,
1000
0001
1000
0000
1002
0000
0103
0000
,
2001
3010
2001
3100
,
1002
0000
0013
0000
1000
0100
1000
0000
,
0001
0100
0001
0000
0010
0100
1000
0001
,
0010
0000
0110
1000
,
0010
1000
0010
0000
0100
0001
0100
0000
,
1000
0100
1000
0000
0001
0000
0100
0001
,
1000
0001
0010
0000
0100
1000
0001
1000
,
0010
1000
0100
0000
0011
0000
1001
0000
,
0100
1000
0010
0000
0101
0000
1001
0000
,
0010
0001
0100
0000
0010
1000
0100
0000
,
0010
0001
0100
0000
0010
0001
0100
0001
,
0010
0100
1000
0010
0100
0000
0110
0000
,
1010
0000
0010
1000
0000
1000
0100
0010
,
1000
0010
0100
0000
0010
0000
0110
0000
,
0011
0000
0010
0001
0000
0001
0100
0010
,
0001
0010
0100
0000
1000
0100
0001
0000
,
0001
0010
1000
0000
0001
0100
1000
0100
,
0010
0001
1000
0000
1000
0010
0001
0000
,
0001
0100
1000
0000
0001
0100
0010
1000
,
0010
0100
0001
0000
1000
0100
0010
0100
,
1000
0100
0010
0001
0100
0010
0100
0001
,
0010
0100
1000
0000
1000
0100
0010
0001
,
0010
1000
0001
1000
0100
0001
0010
0100
,
0001
1000
0001
0000
0001
0100
0010
0000
,
0100
1000
0001
0000
0001
1000
0100
0010
,
0001
0010
0100
0000
1001
1000
0100
0000
,
1001
0001
0010
0000
1001
0100
0010
1000
,
0100
0010
0001
0010
0002
0000
2000
0000
,
0000
0000
0000
0000
,
0000
3003
1000
1010
,
0001
0100
0001
0100
0000
0001
0000
0010
,
1000
0010
0001
0100
0010
1000
0010
0100
,
0010
0001
0010
0100
1000
0100
0010
0100
,
0001
0001
1000
1000
0010
0000
0101
0000
,
0010
1000
0010
1000
0000
0100
0000
0010
,
0100
1000
0010
1000
0100
0010
0001
0100
,
1000
0100
0001
1000
0000
0010
0100
0001
,
0000
0001
0010
0100
1000
0000
0011
0000
,
0100
1000
0100
1000
0000
0001
0000
0100
,
1000
0100
0001
0010
0200
0000
0320
0000
,
0032
0000
2003
0000
3001
0100
0010
0100
,
0001
1000
1000
0001
0100
0000
1010
0000
,
0001
0100
0010
1000
1000
0100
1000
0000
,
0010
0000
1000
0100
0010
0001
0100
0010
,
0001
0100
1000
0100
0010
1000
0100
0010
,
0000
0100
0001
1000
1000
0000
0002
0000
,
0000
0000
0000
0000
0000
0000
0000
0000
0000
0000
0000
0000
0000
0013
0000
0000
0000
0000
0000
0000
0000
0010
0000
0000
0001
0000
0000
0000
0000
0001
0000
0000
,
0010
0000
0000
0000
0000
0100
0000
0000
0000
0000
0000
0000
0000
0000
0000
0000
1000
0000
0000
0000
0000
0000
0000
0000
0010
0000
0000
0000
0100
0000
0000
0000
,
0010
0000
0000
0000
1000
0000
0000
0000
0200
0000
0000
0000
0000
0000
0000
0310
,
0000
0000
0000
0000
0000
0001
0000
0000
0010
0000
0000
0000
0000
0001
0000
0000
0000
0000
0000
0000
0000
1000
0000
0000
0010
0000
0000
0000
0000
0010
0000
0000
,
1000
0000
0000
0000
0000
0002
0000
0000
0000
0000
0000
0000
0000
0013
0000
0000
0100
0000
0000
0000
0000
0010
0000
0000
0001
0000
0000
0000
0000
0001
0000
0000
,
0010
0000
0000
0000
0000
0200
0000
0000
0000
0000
0000
0000
0000
0310
0000
0000
0000
0000
0000
0000
0000
0010
0000
0000
0100
0000
0000
0000
0000
0100
0000
0000
,
0010
0000
0000
0000
0000
2000
0000
0000
0000
0000
0000
0000
0000
3020
0000
0000
0000
0000
0000
0000
0000
2030
0000
0000
0000
0000
0000
0000
0000
0000
0000
0000
,
3001
1000
0100
0010
0010
0000
0001
0000
,
1000
1000
0100
1000
1000
0100
1000
0000
,
0001
0000
0010
0010
0001
0000
1010
0000
,
0001
0001
0100
0001
0001
0100
0001
0000
,
1000
0010
1000
1000
0010
0000
0101
0000
,
1000
1000
0010
1000
1000
0010
1000
0000
,
0010
0000
0100
0001
0101
0000
0011
0000
,
0100
1000
0000
0000
0010
0100
0001
1000
,
0000
0000
0000
0000
0000
0000
0001
1000
0001
0000
0000
0000
0010
0000
0100
0000
,
2000
0000
3010
0100
0002
0000
0013
0100
,
1000
1000
0001
0000
0011
0001
1000
0010
,
0000
0000
0000
0000
0000
0101
0000
0000
0000
0000
0000
0000
0000
1100
0000
0000
0000
0000
0000
0000
0000
0101
0000
0000
0000
0000
0000
0000
0001
0000
0000
0000
,
0010
0000
1100
0000
1010
1000
0001
0010
,
0000
0000
0000
0000
0000
1100
0000
0000
0000
0000
0000
0000
0000
0101
0000
0000
0000
0000
0000
0000
0000
1100
0000
0000
0000
0000
0000
0000
0100
0000
0000
0000
,
0001
1000
0100
1000
,
0001
0100
0001
0100
,
0010
0000
1000
0000
0001
0010
0100
1000
,
0100
0010
0001
0010
0100
1000
0100
0010
,
0001
0010
0100
1000
0100
0010
0001
0100
,
0010
1000
0001
0100
0010
1000
0001
0100
,
0010
1000
0001
0010
1000
0100
1000
0010
,
0001
0010
1000
0100
1000
0010
0001
0010
,
1000
0100
1000
0010
1000
0100
0010
0001
,
0010
0100
1000
0010
0100
0001
0100
0010
,
0000
1000
0000
0000
0001
0000
0000
1000
,
0000
0001
0000
0000
,
0000
0000
0000
0000
0110
0001
1000
0001
,
0100
1000
0100
0010
1000
0100
0010
0100
,
1000
0001
1000
0001
2001
3000
0201
0300
,
0022
0000
0033
0000
1002
0003
1200
0300
,
2020
0000
3030
0000
0101
1000
0001
0000
,
0110
0001
1000
0001
0010
0100
1000
0001
,
0210
0300
2001
3000
0021
0030
0201
0300
,
1020
0030
1200
0300
1000
0001
1000
0100
,
1000
0000
0010
0000
0001
0000
0100
0000
1000
0000
0000
0100
0001
0000
0002
0000
,
0100
0103
0000
0010
2000
0000
0100
3100
0020
0000
0000
0001
0031
0000
2000
0000
,
0100
3100
0000
0001
0100
0000
1000
0000
0010
0000
0000
0100
0002
0000
0000
0000
,
2003
0000
0000
0010
3010
0000
0100
0000
0020
0000
0000
1000
1030
0000
0001
0000
,
0100
0100
0000
0010
0010
0000
0100
0000
0001
0000
0000
0000
0000
0000
1000
0000
,
1000
0000
0001
0001
1000
0100
1000
0100
,
1000
0001
1000
0001
0100
0010
0100
0010
,
1000
0010
1000
0010
0100
0001
0100
0001
,
1000
0000
0001
0000
1000
0000
0001
0000
2001
0000
0000
3100
0000
0000
0000
0000
,
1001
0000
0000
0000
0000
0000
0000
0000
1100
0000
0000
0000
0000
0000
0000
0000
0101
0000
0000
0000
0000
0000
0000
0000
1000
0000
0000
0000
0000
0100
0000
0000
,
0001
0000
0000
0000
0000
0000
0000
0000
0001
0000
0000
0000
0000
0100
0000
0000
1000
0000
0000
0000
0000
0000
0000
0000
1000
0000
0000
0000
0000
0010
0000
0000
,
0001
0000
0000
0000
0000
0001
0000
0000
0010
0000
0000
0000
0000
1000
0000
0000
1001
0000
0000
0000
0000
0000
0000
0000
0000
0000
0000
0000
0000
0110
0000
0000
,
0000
0000
0000
0000
0000
0000
0000
0000
1000
0000
0000
0000
0000
0001
0000
0000
0100
0000
0000
0000
0000
0000
0000
0000
1000
0000
0000
0000
0000
0000
0000
0000
,
1000
0000
0000
0000
0000
0100
0000
0000
0000
0000
0000
0001
0000
0000
0000
0000
0010
0000
0000
0000
0000
0001
0000
0000
1000
0000
0000
0000
0000
0001
0000
0000
,
0000
1000
1100
0001
,
0101
0000
0000
0000
0000
0000
0000
0000
0000
0000
0000
0001
0000
0000
0000
0000
1001
0000
0000
0000
0000
0000
0000
0000
1000
0000
0000
0000
0100
0000
0000
0000
,
0010
0000
0001
0000
1000
0001
1000
0001
1000
0000
0000
0000
0010
0000
0100
0000
,
0001
0000
0000
0000
0010
0000
0100
0000
1000
0000
0100
0000
0010
0100
0010
0100
,
0010
0000
0001
1000
0001
0010
1000
0100
,
0001
0010
1000
0100
1001
0000
0101
0000
,
1100
0000
0100
0010
1001
0000
0010
0100
,
1001
1000
0100
0010
0001
0100
0010
0100
,
0010
0100
0010
1000
1001
0000
0100
0010
,
1001
0001
0010
0100
1000
0100
0010
0001
,
1001
0000
1000
0100
1100
0000
0001
0100
,
0110
0010
1000
0001
0100
0010
1000
0001
,
0100
1000
0100
0001
0110
0000
1000
0100
,
0110
0001
1000
0100
0010
0001
1000
0001
,
2002
0000
0003
0000
3001
0010
1000
0100
,
0002
0000
0000
0103
1000
0010
0100
0001
,
0220
0330
0202
0303
,
2200
3300
0202
0303
,
0001
0100
0001
0100
0001
0000
0000
0000
1000
0000
0010
0000
0001
0000
0100
0000
,
2000
0000
3000
0100
1000
0010
0001
0100
,
2000
0000
3000
0100
0002
0000
0003
0100
,
0020
0000
0030
1000
0001
0000
1000
0000
,
1001
0000
0000
0000
0000
0000
0000
0000
0000
0000
0001
0000
0000
1000
0000
0000
,
0100
0000
0000
0010
0000
0000
0011
0000
0000
0000
0001
0000
0000
0100
0000
0000
,
0010
0000
0000
1000
0000
0000
1010
0000
0000
0000
0100
0000
0000
0001
0000
0000
,
0010
0000
0000
0100
0000
0000
1000
0000
0100
0000
0000
0010
0000
0000
0001
0000
,
0000
0100
0000
0000
0001
0000
1000
0000
0010
0100
0010
0000
0000
0001
0000
0000
,
0001
0000
0000
1000
0000
0100
0000
0000
1000
0000
0010
0000
0100
0000
0000
0001
,
0100
0000
0001
0000
0010
0000
0100
1000
0000
0000
0000
0010
0100
0000
0010
0000
,
0100
0001
1000
0010
0100
0001
1000
0100
,
0010
0100
1000
0001
1000
0100
1000
0100
,
0010
0001
0100
1000
0100
0001
0010
0001
,
0010
0001
0100
0001
0100
0010
1000
0010
,
1000
0100
0001
0100
1000
0100
1000
0010
,
1000
0100
1000
0010
0001
1000
0001
0000
,
1000
0001
1000
0000
0001
0100
1000
0100
,
0001
0100
1000
0000
0010
1000
0100
0000
,
0010
0001
0100
0000
0010
0100
0001
0010
,
0100
1000
0001
0000
1001
0000
0000
0011
,
0000
0000
1100
0000
0000
0110
0000
0000
,
0011
0000
1001
0000
1100
0000
0000
1010
,
0000
0000
0110
0000
0000
0101
0000
0000
,
1010
0000
0110
0000
0101
0000
0010
0002
,
0000
0103
0002
0000
0013
0100
1000
0000
,
1010
0000
1001
0000
0010
0000
0001
2000
,
0000
3100
2000
0000
3010
0100
0001
0100
,
1000
0100
0010
1000
0001
0100
0001
1000
,
0100
1000
0001
0100
0010
0100
0010
0001
,
1000
0001
1000
0000
1000
0100
1000
0001
,
0100
0001
1000
0100
0010
0100
0010
1000
,
0001
1000
0001
0000
0010
1000
0010
1000
,
0100
0001
0200
0000
0000
0000
0000
0000
,
0000
0000
0300
0000
0010
0001
0010
0001
,
0100
1000
0100
0000
0001
0100
1000
0100
,
1000
0001
0010
0001
0010
1000
0001
0100
,
0010
0000
0000
0000
0100
0010
0000
0000
0200
0000
0000
0000
1000
0000
0000
0000
,
0001
0000
0000
0000
1300
0000
0001
0000
0000
0000
0010
0000
0100
1000
0000
0001
,
0000
0000
1000
0000
0001
0100
0000
0010
0000
0000
0100
0000
0001
0000
1000
0010
,
0000
0000
0001
0000
0001
0000
0000
0000
0000
0000
0010
0000
0010
0000
0100
1000
,
0000
0000
0010
0000
1000
0000
0100
0000
1000
0000
0001
0000
1000
0100
0000
0000
,
0001
0000
0100
0000
1000
0000
0010
0000
0000
0000
0100
0000
0001
0000
0010
0100
,
0000
0000
1000
0100
1000
0100
0000
0000
0220
0000
0000
0000
0330
0000
0000
0000
,
0000
0000
0000
0000
,
0000
0000
0000
0000
0000
1000
0000
0010
,
0000
1000
0000
0001
0000
0010
0000
0001
,
0000
1000
0100
0010
0000
0002
0000
0100
,
0000
1000
0000
0103
0000
2000
0000
0100
,
0000
3001
0100
0010
0000
0000
0000
2001
,
0000
0000
0000
0000
0000
3001
1000
0001
,
1000
0001
0000
0000
0000
1010
0000
0001
,
0000
0010
0000
0200
1000
0000
0001
0000
,
1300
0010
0000
0100
0000
0001
0000
0100
,
0000
1000
0000
0200
0001
0000
1000
0000
,
0301
0100
0000
0010
0000
1000
0000
0010
,
0000
1010
0000
0000
0000
0001
0000
0010
,
0000
0011
0000
0000
0000
0000
0000
1100
,
0000
0001
0100
0000
0000
1010
0000
1000
,
0100
0000
0000
0220
0000
0000
0000
0000
,
0000
0000
0000
0000
,
0330
0000
0000
0000
;

//---------------dance-double - ----------------
#NOTES:
     dance-double:
     :
     Hard:
     9:
     0.645,0.700,0.200,0.328,0.231: // measure 1
00000000
00000000
00000000
00000000
,  // measure 2
00000000
00000000
00000000
00000000
,  // measure 3
00000000
00000000
00000110
00000110
,  // measure 4
00001002
00000000
00000100
00000103
00000000
00001000
00000000
00010000
,  // measure 5
00001000
00010000
01000000
00000000
10000000
10000000
01000000
00000000
,  // measure 6
00010000
01000000
00100000
00000000
00001000
00001000
00010000
00000000
,  // measure 7
00001000
00000100
00000001
00000000
00000011
00000000
00000011
00000000
,  // measure 8
00002100
00000000
00000010
00003010
00000000
00000100
00000000
00000010
,  // measure 9
00001000
00000100
00001000
00000000
00000001
00000001
00000100
00000000
,  // measure 10
00000010
00000100
00000001
00000000
00000010
00000010
00001000
00000000
,  // measure 11
00010000
00001000
01000000
00010000
10000000
01000000
00000000
02000000
,  // measure 12
00000000
10000000
00000000
23000000
00000000
00100000
00000000
30100000
,  // measure 13
00000000
00010000
00001000
00020000
00000000
00000100
00000000
00030200
,  // measure 14
00000000
00000010
00000000
00000320
00000000
00000001
00000000
00000031
,  // measure 15
00000000
00000100
00000010
00000200
00000000
00001000
00000000
00002300
,  // measure 16
00000000
00010000
00000000
00023000
00000000
00100000
00000000
00130000
,  // measure 17
00000000
10000000
01000000
10000000
00000000
00010000
00000000
00010000
,  // measure 18
00000000
10000000
00000000
10000000
01000000
00100000
00001000
00010000
,  // measure 19
00001000
00100000
01000000
10000000
10010000
00000000
00000000
00010000
,  // measure 20
01000000
00000000
01000000
00001000
00000000
00010000
00000000
00002000
,  // measure 21
00000000
00000000
00000000
00013000
00001000
00000000
00000100
00000001
,  // measure 22
00000000
00000010
00000000
00000001
00000000
00001000
00000000
00000001
,  // measure 23
00000000
00000010
00000010
00000100
00001000
00000000
00000000
00000001
,  // measure 24
00000100
00000000
00000000
00000100
00001000
00000000
00000000
00010000
,  // measure 25
00000000
00001000
00010000
00001000
01000000
00000000
00000000
00100000
,  // measure 26
00000000
00000000
10000000
00000000
00000000
00010000
00000000
00000000
,  // measure 27
01000000
01000000
10010000
00000000
,  // measure 28
10000000
00000000
00010000
00010000
00000000
01000000
00000000
00001000
,  // measure 29
00000000
00010000
00000000
01000000
00000000
00000000
00000000
00000000
,  // measure 30
10000000
10000000
00000000
00100000
00000000
00010000
00000000
00001000
,  // measure 31
00000000
00000010
00000000
00000001
00000100
00000000
00000000
00000100
,  // measure 32
00000010
00000000
00000000
00000010
00010000
00000000
00000000
00001000
,  // measure 33
00000000
00010000
01000000
00000000
11000000
00000000
00000000
00110000
,  // measure 34
00000000
00000000
01010000
00000000
00000000
10100000
00000000
00000000
,  // measure 35
10000000
00010000
20020000
00000000
,  // measure 36
00000000
00000000
00000000
00000000
30030000
00000000
00000000
00000000
00000000
00000000
00010000
00000000
10000000
00000000
00000000
01000000
,  // measure 37
00000000
00000000
00010000
00000000
00000000
00000000
00001000
00000000
00000000
00000000
00010000
00000000
00000010
00000000
00000000
00001000
,  // measure 38
00000000
00000000
00000100
00000000
00000010
00000000
00000001
00000000
00000000
00000000
00000100
00000000
00000010
00000000
00000000
00010000
,  // measure 39
00000000
00000000
00000100
00000000
00000000
00000000
00001000
00000000
00000000
00000000
00000010
00000000
00010000
00000000
00000000
00001000
,  // measure 40
00000000
00000000
00100000
00000000
01000000
00000000
10000000
00000000
00000000
00000000
01000000
00000000
00010000
00000000
00000000
01000000
,  // measure 41
00000000
00000000
10000000
00000000
00000000
00000000
00100000
00000000
00000000
00000000
00010000
00000000
00001000
00000000
00000000
00010000
,  // measure 42
00000000
00000000
00100000
00000000
01000000
00000000
00001000
00000000
00000000
00000000
00010000
00000000
00001000
00000000
00000000
00100000
,  // measure 43
00000000
00000000
01000000
00000000
00000000
00000000
10000000
00000000
00000000
00000000
00010000
00000000
01000000
00000000
00000000
00001000
,  // measure 44
00000000
00010000
00001000
00000100
00000001
00000010
00000001
00000100
,  // measure 45
00000010
00010000
00001000
00000010
00000001
00000100
00000010
00010000
,  // measure 46
00001000
00100000
00001000
01000000
00000000
01000000
00010000
10000000
,  // measure 47
01000000
10000000
00100000
01000000
00001000
00010000
00001000
00100000
,  // measure 48
01000000
10000000
00010000
01000000
00000000
01000000
10000000
01000000
,  // measure 49
00001000
00010000
00100000
10000000
01000000
00100000
00001000
00010000
,  // measure 50
00001000
01000000
00100000
00010000
00001000
00000010
00001000
00010000
,  // measure 51
00001000
00000100
00000001
00000010
00000100
00010000
00001000
00000100
,  // measure 52
00000001
00000010
00000100
00010000
00002000
00000000
00023000
00000000
,  // measure 53
02030000
00000000
13000000
01000000
00000000
00100000
00000000
00001000
,  // measure 54
01000000
00100000
01000000
00000000
00020000
00000000
20030000
00000000
,  // measure 55
32000000
00000000
03100000
01000000
00000000
10000000
00000000
00010000
,  // measure 56
01000000
00100000
01000000
00000000
00002000
00000000
00023000
00000000
,  // measure 57
00030200
00000000
00000310
00000100
00000000
00001000
00000000
00000001
,  // measure 58
00000100
00000010
00000100
00000000
00000002
00000000
00002003
00000000
,  // measure 59
00003200
00000000
00000301
00000100
00000000
00000010
00000000
00000001
,  // measure 60
00000100
00001000
00010000
00001000
00000100
00000010
00001000
00000100
,  // measure 61
00000010
00000001
00001000
00000100
00010000
00001000
01000000
00001000
,  // measure 62
00010000
00000010
00001000
00000100
00001000
00000001
00000010
00000100
,  // measure 63
00010000
00001000
00010000
00000010
00000100
00000001
00000010
00001000
,  // measure 64
00010000
00001000
00000100
00000001
00000100
00000010
00010000
00001000
,  // measure 65
00100000
01000000
10000000
00100000
01000000
00001000
00010000
01000000
,  // measure 66
10000000
00100000
01000000
10000000
01000000
00010000
10000000
01000000
,  // measure 67
00100000
00001000
00100000
00010000
01000000
00100000
10000000
01000000
,  // measure 68
00010000
00001000
00000100
00000001
00000020
00000000
00000200
00000000
,  // measure 69
00000000
00000000
00000000
00000030
,  // measure 70
00000300
00010000
00001000
01000000
00100000
00000000
01100000
00000000
,  // measure 71
01000000
10000000
02000000
00010000
00000000
00010000
00000000
03010000
,  // measure 72
01000000
00010000
10000000
01000000
00020000
00000000
00032000
00000000
,  // measure 73
00003020
00002030
00023000
00230000
,  // measure 74
00320000
00032000
00003010
00000110
,  // measure 75
00000100
00000001
00000200
00001000
00000000
00001000
00000000
00001300
,  // measure 76
00000100
00001000
00000001
00000100
00002000
00000000
01003000
00001000
,  // measure 77
00200000
00000000
00310000
01000000
00000000
01000000
00010000
00200000
,  // measure 78
00000000
01300000
00010000
00001000
00000000
00000000
00001001
00000000
,  // measure 79
00000010
00000001
00000020
00001000
00000000
00001000
00000000
00001030
,  // measure 80
00000010
00001000
00000001
00000010
00002000
00000000
00000000
00000000
,  // measure 81
00000000
00000000
00000000
00000000
00013000
00010000
00100000
00100000
,  // measure 82
10000000
10000000
01000000
00100000
01000000
00000000
10010000
00000000
,  // measure 83
00100000
10000000
00200000
00010000
00000000
00010000
00000000
00310000
,  // measure 84
00100000
00010000
10000000
00100000
01100000
00000000
01001000
00000000
,  // measure 85
00101000
00000000
01100000
00000000
01000000
00010000
00001000
00000020
,  // measure 86
00000000
00000000
00000000
00000000
00000030
00000001
00000000
00000000
00000010
00000000
00000000
00000000
00000000
00000100
00000000
00000000
00001000
00000000
00000000
00000000
00000000
00001000
00000000
00000000
00000020
00000000
00000000
00000000
00000000
00000000
00000000
00000000
,  // measure 87
00000000
00000000
00000000
00000000
00000000
00000000
00000000
00000000
00000000
00000000
00000030
00000000
00000000
00000100
00000000
00000000
00000000
00000000
00000000
00000000
00000000
00000100
00000000
00000000
00000010
00000000
00000000
00000000
00000000
00001000
00000000
00000000
,  // measure 88
00000001
00000000
00000000
00000000
00000000
00000020
00000000
00000000
00000000
00000000
00000000
00000000
00000000
00000000
00000000
00000000
00000130
00000000
00000000
00000000
00000000
00000000
00000000
00000000
00000001
00000000
00000000
00000000
00000000
00000100
00000000
00000000
,  // measure 89
00002000
00000000
00000000
00000000
00003001
00000000
00000000
00000000
00000200
00000000
00000000
00000000
00000000
00000000
00000000
00000301
,  // measure 90
00000000
00000000
00000000
00000000
00000000
00000100
00000000
00000000
00001000
00000000
00000000
00000000
00000000
00010000
00000000
00000000
00000000
00000000
00000000
00000000
00000000
00100000
00000000
00000000
00010000
00000000
00000000
00000000
00000000
00010000
00000000
00000000
,  // measure 91
00001000
00000000
00000000
00000000
00000000
00000200
00000000
00000000
00000000
00000000
00000000
00000000
00000000
00000001
00000300
00000000
00000010
00000000
00000000
00000000
00000000
00000010
00000000
00000000
00001000
00000000
00000000
00000000
00000000
00001000
00000000
00000000
,  // measure 92
00010000
00000000
00000000
00000000
00000000
02000000
00000000
00000000
00000000
00000000
00000000
00000000
00000000
10000000
03000000
00000000
00000000
00000000
00000000
00000000
00000000
00100000
00000000
00000000
01000000
00000000
00000000
00000000
00000000
01000000
00000000
00000000
,  // measure 93
00001000
00000000
00000000
00000000
00000000
00020000
00000000
00000000
00000000
00000000
00000000
00000000
00000000
00002000
00030000
00000000
00000000
00000000
00000000
00000000
00000000
00020000
00003000
00000000
00000000
00000000
00000000
00000000
00031000
00000000
00000000
00000000
,  // measure 94
00010000
00001000
00000100
00000010
00000011
00000000
00000110
00000000
,  // measure 95
00001000
00000100
00000001
00000020
00000000
00002030
00000000
00003010
,  // measure 96
00000100
00000001
00000100
00010000
00010100
00000000
00011000
00000000
,  // measure 97
00010000
00100000
10000000
02000000
00000000
03020000
00000000
01030000
,  // measure 98
00100000
10000000
00100000
00001000
00101000
00000000
00011000
00000000
,  // measure 99
00001000
00000100
00000001
00000020
00000000
00002030
00000000
00003010
,  // measure 100
00000001
00000100
00000010
00000100
00001001
00000000
00000110
00000000
,  // measure 101
00000010
00000100
00001000
00000000
00010000
00100000
01000000
00010000
,  // measure 102
00000000
10000000
00000000
00010000
00100000
00000000
00001000
00010000
,  // measure 103
02000000
00000000
03010000
00001000
00000200
00000000
00001300
00010000
,  // measure 104
01001000
00000000
00000000
00000000
00000000
00000000
00000000
00000000
00010100
00000000
00000000
00000000
00000000
00000000
00000000
00000000
00010000
00000000
00000000
00000000
00000000
00000010
00000000
00000000
00001000
00000000
00000000
00000000
00000000
00000200
00000000
00000000
,  // measure 105
00000000
00000000
00000000
00000000
00000000
00000002
00000300
00000000
00000000
00000000
00000000
00000000
00000000
00000200
00000003
00000000
00000000
00000000
00000000
00000000
00000000
00002000
00000300
00000000
00000000
00000000
00000000
00000000
00003000
00000010
00000000
00000000
,  // measure 106
00000200
00000000
00000000
00000000
00000000
00000000
00000000
00000000
00002300
00000000
00000000
00000000
00000000
00000000
00000000
00000000
00013000
00000000
00000000
00000000
00000000
00001000
00000000
00000000
01000000
00000000
00000000
00000000
00000000
00200000
00000000
00000000
,  // measure 107
00000000
00000000
00000000
00000000
00000000
00020000
00300000
00000000
00000000
00000000
00000000
00000000
00000000
00200000
00030000
00000000
00000000
00000000
00000000
00000000
00000000
20000000
00300000
00000000
00000000
00000000
00000000
00000000
30000000
01000000
00000000
00000000
,  // measure 108
00200000
02300000
03010000
00000010
,  // measure 109
00001000
00010000
00100000
00000100
,  // measure 110
00010000
00000000
00000000
00000000
00000000
00000000
00000000
00000000
00000000
00000000
00000000
00000000
00000000
00000000
00000000
00000000
00001000
00000000
00000000
00000000
00000000
00000000
00000000
00000000
00000000
00000000
00000000
00000000
00000000
00000000
00000000
00000000
00010000
00000000
00000000
00000000
00000000
00001000
00000000
00000000
00000000
00000000
00010000
00000000
00000000
00000000
00001000
00000000
00000000
00000000
00000000
00000000
00000000
00000000
00000000
00000000
00000000
00000000
00001000
00000000
00000000
00000000
00000000
00000000
,  // measure 111
00100000
00000000
00000000
00000000
00000000
00000000
00000000
00000000
00000000
00000000
00100000
00000000
00000000
00000000
00000000
00000000
00010000
00000000
00000000
00000000
00000000
00000000
00000000
00000000
00000000
00000000
00010000
00000000
00000000
00000000
00000000
00000000
10000000
00000000
00000000
00000000
00000000
00010000
00000000
00000000
00000000
00000000
10000000
00000000
00000000
00000000
00010000
00000000
00000000
00000000
00000000
00000000
00000000
00000000
00000000
00000000
00000000
00000000
00010000
00000000
00000000
00000000
00000000
00000000
,  // measure 112
01000000
00000000
00000000
00000000
00000000
00000000
00000000
00000000
00000000
00000000
01000000
00000000
00000000
00000000
00001000
00000000
00000000
00000000
00000000
00000000
00000000
00000000
00000000
00000000
00000000
00000000
00001000
00000000
00000000
00000000
00000000
00000000
00010000
00000000
00000000
00000000
00000000
00001000
00000000
00000000
00000000
00000000
00010000
00000000
00000000
00000000
00001000
00000000
00000000
00000000
00000000
00000000
00000000
00000000
00000000
00000000
00000000
00000000
00000100
00000000
00000000
00000000
00000010
00000000
,  // measure 113
00000000
00000000
00000000
00000000
00000000
00000100
00000000
00000000
00000000
00000000
00000010
00000000
00000000
00000000
00001000
00000000
00000000
00000000
00000000
00000000
00000000
00000000
00000000
00000000
00000000
00000000
00000100
00000000
00000000
00000000
00000000
00000000
00010000
00000000
00000000
00000000
00000000
00001000
00000000
00000000
00000000
00000000
00010000
00000000
00000000
00000000
00001000
00000000
00000000
00000000
00000000
00000000
00000000
00000000
00000000
00000000
00000000
00000000
00010000
00000000
00000000
00000000
00000000
00000000
,  // measure 114
00001000
00000000
00000000
00000000
00000000
00010000
00000000
00000000
00000000
00000000
00001000
00000000
00000000
00000000
00100000
00000000
00000000
00000000
00000000
00000000
00000000
00000000
00000000
00000000
00000000
00000000
00100000
00000000
00000000
00000000
00000000
00000000
01000000
00000000
00000000
00000000
00000000
00000000
00000000
00000000
10000000
00000000
00000000
00000000
00000000
00000000
00000000
00000000
01000000
00000000
00000000
00000000
00000000
00000000
00000000
00000000
10000000
00000000
00000000
00000000
00000000
00000000
00000000
00000000
,  // measure 115
00010000
01000000
00010000
01000000
00100000
00010000
00001000
00000100
,  // measure 116
00000010
00001000
00000010
00001000
00000001
00000010
00001000
00010000
,  // measure 117
00100000
00000000
00100000
00000000
00010000
00000000
00001000
00000000
00000010
00000000
00001000
00000000
00010000
00000000
00000000
02000000
,  // measure 118
00000000
00000000
00000000
00000000
00000000
00000000
00200000
00000000
00000000
00000000
00000000
00000000
03300000
00000000
00000000
01100000
00000000
00000000
00000000
00000000
00000000
00000000
00000000
00000000
00000000
00000000
00000000
00000000
00000000
00000000
00000000
00000000
,  // measure 119
00000000
00000000
00000000
00000000
,  // measure 120
00000000
00000000
00000000
00000000
01100000
00010000
10000000
00010000
,  // measure 121
00100000
00001000
00100000
00001000
00010000
00000010
00010000
00000010
,  // measure 122
00001000
00000001
00001000
00000001
00000200
00000000
00000320
00000000
,  // measure 123
00002030
00000000
00003002
00000023
,  // measure 124
00002030
00000000
00000000
00000000
00103000
00010000
10000000
00000000
,  // measure 125
00110000
00010000
10000000
01000000
11000000
01000000
00010000
00001000
,  // measure 126
00011000
00010010
00002000
00003002
,  // measure 127
00002003
00000000
00003002
00000000
00000013
00000001
00000100
00001000
,  // measure 128
00010000
00000000
00100000
00000000
10000000
00000000
01000000
00000000
00010000
00000000
00000000
00001000
00010000
00000000
00010000
00000000
,  // measure 129
00001000
00000100
00000000
00000001
00000010
00000000
00001000
00010000
00100000
00000000
00000000
00001000
00000100
00000000
00010000
00000000
,  // measure 130
01000000
10000000
00000000
00100000
02000000
00000000
00010000
03000000
10000000
00000000
00000000
00010000
00001000
00000000
00000000
00000000
,  // measure 131
00000001
00000000
00000000
00000010
00000100
00000000
00010000
00000000
00001000
00000000
00000000
00100000
10000000
00000000
00010000
00000000
,  // measure 132
10000000
01000000
00000000
00100000
01000000
00000000
00001000
00000000
00000100
00000000
00000000
00000000
00000000
00000000
00000001
00000000
,  // measure 133
00001000
00000000
00000001
00000010
00000100
00001000
00000100
00001000
,  // measure 134
00000001
00000100
00000001
00000100
00001000
00010000
00001000
00010000
,  // measure 135
00100000
10000000
00100000
10000000
01000000
00010000
01000000
00010000
,  // measure 136
00001000
00000000
00000000
00000000
00010000
00000000
00000000
00000000
00001000
00000000
00000000
00000000
00010000
00000000
00000000
00000000
00011000
00000000
00000000
00000000
00000000
00020000
00000000
00000000
00000000
00000000
00000000
00000000
00000000
00000000
00000000
00000000
,  // measure 137
02030000
00000000
00000000
00000000
00000000
00000000
00000000
00000000
23000000
00000000
00000000
00000000
00000000
00000000
00000000
00000000
30020000
00000000
00000000
00000000
00000000
00000000
00000000
00000000
10030000
00000000
00000000
00000000
00000000
01000000
00000000
00000000
,  // measure 138
00010000
00000000
00000000
00000000
00000000
00000000
00000000
00000000
00001000
00000000
00000000
00000000
00000000
00000100
00000000
00000000
00000001
00000000
00000000
00000000
00000000
00000000
00000000
00000000
00000001
00000000
00000000
00000000
00000000
00000100
00000000
00000000
,  // measure 139
00001000
00000000
00000000
00000000
00000000
00001000
00000000
00000000
00010000
00000000
00000000
00000000
00000000
00001000
00000000
00000000
00000110
00000000
00000000
00000000
00000000
00000000
00000000
00000000
00000000
00000000
00000000
00000000
00000000
00001001
00000000
00000000
,  // measure 140
00000000
00000000
00000000
00000000
00000000
00000000
00000000
00000000
00000001
00000000
00000000
00000000
00000000
00000100
00000000
00000000
00001000
00000000
00000000
00000000
00000000
00000000
00000000
00000000
00010000
00000000
00000000
00000000
00000000
00000000
00000000
00000000
,  // measure 141
00100000
00000000
00000000
00000000
00000000
00000000
00000000
00000000
00000000
00000000
10000000
00000000
00000000
00000000
00000000
00000000
00000000
00000000
00000000
00000000
00000000
01000000
00000000
00000000
00000000
00000000
00000000
00000000
00000000
00000000
00000000
00000000
00100000
00000000
00000000
00000000
00000000
00000000
00000000
00000000
00000000
00000000
00010000
00000000
00000000
00000000
00000000
00000000
10000000
00000000
00000000
00000000
00000000
00000000
00000000
00000000
00000000
00000000
00010000
00000000
00000000
00000000
00000000
00000000
,  // measure 142
00000000
00000000
00000000
00000000
00000000
00000000
00000000
00000000
10000000
00000000
00000000
00000000
00000000
10000000
00000000
00000000
01000000
00000000
00000000
00000000
00000000
00000000
00000000
00000000
00010000
00000000
00000000
00000000
00000000
00000000
00000000
00000000
,  // measure 143
00001000
00000000
00000000
00000000
00000000
00000000
00000000
00000000
00000000
00000000
00000000
00000000
00000000
00000000
00000000
00000000
00000100
00000000
00000000
00000000
00000000
00000000
00000000
00000000
00000000
00000000
00000000
00000000
00000000
00000000
00000000
00000001
00000000
00000000
00000000
00000000
00000000
00000000
00000000
00000000
00000000
00000000
00000000
00000000
00000000
00000000
00000000
00000000
00000010
00000000
00000000
00000000
00000000
00000000
00000000
00000000
00000001
00000000
00000000
00000000
00000000
00000000
00000000
00000000
,  // measure 144
00000100
00000000
00001000
00000000
00010000
00001000
00010000
00001000
00010000
00000000
00000000
00000000
00001000
00000000
00010000
00000000
,  // measure 145
00001000
00000000
00000000
00000000
00010000
00000000
01000000
00000000
10000000
00000000
00100000
00000000
10000000
00010000
10000000
00010000
,  // measure 146
10000000
00000000
00010000
10000000
01000000
00010000
00001000
00000010
,  // measure 147
00000001
00000000
00000100
00000000
00001000
00000000
00010000
00000000
01000000
00000000
00000000
00000000
10000000
01000000
10000000
01000000
,  // measure 148
10000000
00000000
01000000
00100000
00010000
00000000
00100000
00001000
,  // measure 149
00010000
00001000
00010000
00001000
00000100
00000001
00000010
00000100
,  // measure 150
00000010
00000100
00001000
00000001
00001001
00000000
00000001
00000010
,  // measure 151
00000100
00001000
00000100
00001000
00000100
00010000
00001000
00010000
,  // measure 152
00011000
00000000
00010000
00100000
01000000
00000000
00100000
10000000
,  // measure 153
01000000
10000000
01000000
10000000
00010000
00100000
00001000
00010000
,  // measure 154
00001000
00010000
00001000
00000010
00000110
00000000
00000010
00000100
,  // measure 155
00001000
00000001
00001000
00000001
00001000
00000100
00000010
00000001
,  // measure 156
00002002
00000000
00000003
00000000
00003001
00000100
00001000
00010000
,  // measure 157
02000000
00000000
00000000
13000000
01000000
00010000
00001000
00000100
,  // measure 158
00000001
00000100
00000001
00000000
00000100
00000000
00000000
00000000
00001000
00000100
00001000
00000000
00000100
00000000
00000000
00000000
,  // measure 159
00000001
00000100
00000001
00000000
00000100
00000000
00000000
00000000
00001000
00000100
00001000
00000000
00000200
00000000
00000000
00000000
,  // measure 160
00000000
00000000
00000300
00000000
00000001
00000100
00001000
00010000
,  // measure 161
02000000
00000000
00000000
03010000
01000000
10000000
00100000
10000000
,  // measure 162
01000000
10000000
01000000
00000000
10000000
00000000
00000000
00000000
01000000
00010000
01000000
00000000
00010000
00000000
00000000
00000000
,  // measure 163
01000000
10000000
01000000
00000000
10000000
00000000
00000000
00000000
01000000
00010000
01000000
00000000
00010000
00000000
00000000
00000000
,  // measure 164
00001000
00010000
00001000
00010000
00001000
00000000
00000000
00000000
00011000
00000000
00001000
00000000
00000000
01000000
00000000
00000000
,  // measure 165
00100000
00000000
00000000
10000000
00000000
00000000
10100000
00000000
00000000
00000000
01000000
00000000
00000000
00010000
00000000
00000000
,  // measure 166
00001000
00000000
00000000
00000100
00000000
00000000
00000101
00000000
00000000
00000000
00001000
00000000
00000000
00000010
00000000
00000000
,  // measure 167
00000100
00000000
00000000
00001000
00000000
00000000
00010000
00000000
00100000
00000000
00000000
10000000
00000000
00000000
00010000
00000000
,  // measure 168
00000000
01000000
00000000
00000000
00001000
00000000
00010000
00000000
00001000
00010000
00001000
00000000
00000000
00001000
00000000
00000000
,  // measure 169
00000100
00000000
00000000
00000001
00000000
00001000
00000000
00000000
00000001
00000000
00000100
00000000
00001000
00000000
00000000
00010000
,  // measure 170
00001000
00000000
00010000
00000000
01000000
00000000
10000000
01000000
00000000
00000000
00000000
00100000
01000000
00000000
00010000
00000000
,  // measure 171
10000000
00010000
10000000
01000000
00010000
00001000
00010000
00001000
,  // measure 172
00000100
00000010
00000100
00000000
00000001
00000100
00000001
00000100
,  // measure 173
00001000
00010000
00100000
00010000
00100000
10000000
01000000
10000000
,  // measure 174
01000000
00010000
01000000
00010000
00001000
00010000
00001000
00010000
,  // measure 175
00001000
00000100
00000001
00000100
00001000
00010000
01000000
10000000
,  // measure 176
01000000
00010000
00001000
00000100
00000001
00000010
00001000
00000000
,  // measure 177
00010000
00100000
10000000
00000000
01000000
00010000
00001000
00000100
,  // measure 178
00001000
00010000
00100000
00000000
00010000
00001000
00000010
00000000
,  // measure 179
00001000
00000001
00000100
00000000
00000010
00000001
00000100
00001000
,  // measure 180
00010000
01000000
00100000
00000000
10010000
00000000
00000000
11000000
,  // measure 181
00000000
00000000
01100000
00000000
00000000
00110000
00000000
00000000
,  // measure 182
00011000
00000000
00000010
00000000
00000100
00000000
00000000
00000101
,  // measure 183
00000000
00000000
00000110
00000000
00000000
00001100
00000000
00000000
,  // measure 184
00011000
00000000
00100000
00000000
01000000
00000000
00100000
20000000
,  // measure 185
00000000
31000000
00020000
00000000
00031000
00100000
00001000
00000000
,  // measure 186
00010010
00000000
00011000
00000000
00001000
00000000
00000010
00000002
,  // measure 187
00000000
00000103
00002000
00000000
00013000
00001000
00100000
00010000
,  // measure 188
10000000
01000000
10000000
00000000
00010000
00100000
00001000
00010000
,  // measure 189
00001000
00100000
00001000
00010000
00000010
00001000
00000010
00010000
,  // measure 190
00000100
00001000
00000010
00000000
00001000
00000100
00010000
00001000
,  // measure 191
00010000
00000100
00010000
00001000
01000000
00010000
01000000
00001000
,  // measure 192
00100000
00010000
01000000
00000000
00100000
10000000
00100000
10000000
,  // measure 193
01000000
00010000
01000000
00000000
00000000
00000000
00000000
00000000
,  // measure 194
00000000
00000000
00000000
00000000
00000010
00000001
00000010
00000001
,  // measure 195
00000100
00001000
00000100
00000000
00010000
00100000
01000000
10000000
,  // measure 196
01000000
00010000
00001000
00000100
00000001
00000010
00000010
00000100
,  // measure 197
00001000
00000000
00000000
00000000
00010000
00001000
00000000
00000000
00020000
00000000
00000000
00000000
00100000
00000000
00000000
00000000
,  // measure 198
00001000
00000000
00000000
00000000
00130000
00000000
10000000
00000000
00000000
00000000
00010000
00000000
10000000
01000000
00000000
00100000
,  // measure 199
00000000
00000000
01000000
00000000
10000000
01000000
00000000
00100000
00000000
00000000
01000000
00000000
00010000
00000000
00001000
00010000
,  // measure 200
00000000
00000000
00001000
00000000
00001000
00000000
00000000
00000000
00000000
00000000
00000001
00000000
00001000
00000000
00000010
00000100
,  // measure 201
00000000
00000000
00000001
00000000
00001000
00000000
00000100
00000000
00000010
00000000
00000001
00000000
00000010
00000001
00000000
00000000
,  // measure 202
00000100
00000000
00001000
00000000
00010000
00000000
01000000
00000000
00000000
00000000
10000000
00000000
00100000
00000000
00100000
01000000
,  // measure 203
00000000
00000000
01000000
00010000
01000000
00010000
00000000
00000000
00202000
00000000
00000000
00000000
00303000
00000000
00000000
00000000
,  // measure 204
00000000
00000000
00000000
00000000
,  // measure 205
00000000
00000000
00000000
00000000
00000000
00000001
00000000
00000100
,  // measure 206
00000000
00000001
00000000
00000010
00000000
00000001
00000000
00000100
,  // measure 207
00000000
00001000
00000000
00010000
00000000
01000000
00000000
10000000
,  // measure 208
00000000
01000000
00000000
10000000
00000000
00010000
01000000
00000000
,  // measure 209
00010000
00100000
00001000
00010000
00000000
00000100
00000000
00001000
,  // measure 210
00000000
00000010
00000000
00001000
00000000
00000001
00000000
00000100
,  // measure 211
00000000
00001000
00000100
00001000
00000100
00000010
00000000
00010000
,  // measure 212
00000000
00000010
00000000
00010000
00000000
00001000
00100000
00000000
,  // measure 213
00100000
00001000
01000000
00010000
00000000
10000000
00000000
01000000
,  // measure 214
00000000
10000000
00000000
00100000
00000000
10000000
00000000
01000000
,  // measure 215
00000000
00010000
00000000
00001000
00000000
00000100
00000000
00000000
,  // measure 216
00000000
00001001
00000000
00000000
00000000
00000010
00000000
00000000
,  // measure 217
00000000
00001001
00000000
00000000
00000000
00000000
00000000
00001010
,  // measure 218
00000000
00010000
00001000
00000000
00000000
00110000
00000000
00001000
,  // measure 219
00010000
00000000
00000000
02000000
00000000
00000000
00000000
00000000
,  // measure 220
00000000
00000000
00000000
00000000
,  // measure 221
00000000
03000000
00000000
00000000
00000000
00000000
00000000
00000000
;

//---------------dance-double - ----------------
#NOTES:
     dance-double:
     :
     Beginner:
     1:
     0.154,0.243,0.048,0.035,0.000:
00000000
00000000
00000000
00000000
,
00000000
00000000
00000000
00000000
,
00000000
00000000
10000000
00000000
,
10000000
00000000
10000000
00000000
,
10000000
00000000
00000000
00000000
,
00000000
00000000
01000000
00000000
,
00000000
00000000
00010000
00000000
,
00010000
00000000
00010000
00000000
,
00010000
00000000
00000000
00000000
,
00000000
00000000
00001000
00000000
,
00000000
00000000
00010000
00010000
,
00000000
00000000
00000010
00000010
,
00000000
00000000
00001000
00001000
,
00000000
00000000
00000001
00000001
,
00000000
00000000
00000100
00000000
,
00000100
00000000
00000000
00000000
,
00000010
00000000
00000010
00000000
,
00000000
00000000
00010000
00000000
,
00001000
00000000
00011000
00000000
,
00000000
00000000
00000000
00000000
,
00000000
00000000
00200000
00000000
,
00000000
00300000
00000000
00000000
,
00000000
00000000
02000000
00000000
,
00000000
03000000
00000000
00000000
,
00000000
00000000
10000000
00000000
,
00000000
00000000
00010000
00000000
,
00000000
00000000
10010000
00000000
,
00000000
00000000
00000000
00000000
,
00000000
00000000
00100000
00000000
,
00000000
00000000
01000000
00000000
,
00000000
00000000
01100000
00000000
,
00000000
00000000
00000000
00000000
,
00000000
00000000
00010000
00000000
,
00000000
00000000
00001000
00000000
,
00000000
00000000
00011000
00000000
,
00000000
00000000
00010000
00010000
,
00010000
00000000
00001000
00001000
,
00001000
00000000
00000000
00000000
,
00000000
00000000
00000000
00000000
,
00000000
00000000
00000010
00000010
,
00000010
00000000
00000000
00000000
,
00000000
00000000
00000001
00000000
,
00000001
00000000
00000001
00000000
,
00000000
00000000
00001000
00000000
,
00001000
00000000
00001000
00000000
,
00000000
00000000
00000001
00000000
,
00000001
00000000
00000001
00000000
,
00000000
00000000
00000100
00000000
,
00000100
00000000
00000100
00000000
,
00000000
00000000
00001000
00000000
,
00001000
00000000
00010000
00000000
,
00000000
00000000
00001000
00000000
,
00001000
00000000
00001000
00000000
,
00000000
00000000
00010000
00000000
,
00010000
00000000
00010000
00000000
,
00000000
00000000
00100000
00000000
,
00100000
00000000
00100000
00000000
,
00000000
00000000
01000000
00000000
,
01000000
00000000
01000000
00000000
,
00000000
00000000
00010000
00000000
,
00000000
00000000
10000000
00000000
,
00000000
00000000
00010000
00000000
,
00000000
00000000
10000000
00000000
,
00000000
00000000
00100000
00100000
,
00000000
00000000
01000000
00000000
,
00000000
00000000
00100000
00000000
,
00000000
00000000
01000000
00000000
,
00000000
00000000
10010000
00000000
,
00000000
00000000
00000000
00000000
,
00000000
00000000
00001001
00000000
,
00000000
00001000
00000000
00000001
,
00000000
00000100
00000100
00000100
,
00000000
00000100
00000100
00000100
,
00000100
00000000
00000000
00001000
,
00000000
00001000
00000000
00010000
,
00000000
00010000
00010000
00000000
,
00001000
00000000
00200000
00000000
,
00300000
00000000
00100000
00000000
,
00000000
00010000
00000000
00010000
,
00000000
00010000
00020000
00000000
,
00000000
00030000
00000000
00000000
,
00000000
00000000
10010000
00000000
,
00000000
10000000
00000000
10000000
,
00000000
01000000
01000000
00000000
,
01000000
00000000
00100000
00000000
,
00000000
00000000
01000000
01000000
,
01000000
00000000
00010000
00000000
,
00010000
00000000
00001000
00000000
,
00001000
00000000
00001000
00000000
,
00001000
00000000
00000100
00000100
,
00000100
00000000
00000100
00000000
,
00000100
00000000
00000010
00000010
,
00000010
00000000
00001000
00000000
,
00001000
00000000
00000001
00000000
,
00000001
00000000
00000100
00000000
,
00000100
00000000
00001000
00000000
,
00001000
00000000
00001000
00000000
,
00001000
00000000
00010000
00010000
,
00000000
00001000
00000000
00001000
,
00000000
00010000
00010000
00010000
,
00000000
00100000
00200000
00000000
,
00000000
00300000
00100000
00000000
,
00000000
00000000
10000000
00000000
,
10000000
00000000
00020000
00000000
,
00000000
00030000
00000000
00000000
,
00000000
00000000
20000000
00000000
,
00000000
30000000
00000000
00000000
,
00000000
00000000
01000000
00000000
,
01000000
00000000
00010000
00000000
,
00010000
00000000
00001000
00000000
,
00000000
00000000
00010000
00000000
,
00000000
00000000
00000010
00000000
,
00000000
00000000
00001000
00000000
,
00000000
00000000
00001001
00000000
,
00000000
00000000
00001001
00000000
,
00000000
00000000
00000100
00000000
,
00000100
00000000
00000100
00000000
,
00000000
00000000
00001000
00000000
,
00000000
00000000
00100000
00000000
,
00000000
00000000
01000000
00000000
,
00000000
00000000
10000000
00000000
,
00000000
00000000
00010000
00010000
,
00010000
00000000
00010000
00000000
,
00000000
00000000
00001000
00000000
,
00001000
00000000
00000100
00000000
,
00000100
00000000
00000001
00000000
,
00000001
00000000
00000010
00000000
,
00000010
00000000
00000100
00000000
,
00000000
00000000
00010000
00000000
,
00000000
00000000
01000000
00000000
,
01000000
00000000
10000000
00000000
,
10000000
00000000
00010000
00000000
,
00000000
00000000
10010000
00000000
,
00000000
00000000
00000000
00000000
,
00000000
00000000
00011000
00000000
,
00000000
00000000
00000000
00000000
,
00000000
00000000
00001000
00000000
,
00010000
00000000
00001000
00000000
,
00000000
00000000
00000100
00000000
,
00000001
00000000
00000100
00000000
,
00000000
00000000
00001000
00000000
,
00010000
00000000
00001000
00000000
,
00000000
00000000
00011000
00000000
,
00000000
00000000
01000000
00000000
,
01000000
00000000
10000000
00000000
,
00000000
00000000
00010000
00000000
,
00000000
00000000
00100000
00000000
,
00000000
00000000
00001000
00000000
,
00000000
00000000
00010000
00000000
,
00010000
00000000
00001000
00000000
,
00000000
00000000
00000100
00000000
,
00000100
00000000
00000001
00000000
,
00000000
00000000
00000100
00000000
,
00000100
00000000
00001000
00000000
,
00000000
00000000
00010000
00000000
,
01000000
00000000
00010000
00000000
,
00000000
00000000
10000000
00000000
,
00000000
00000000
01000000
00000000
,
01000000
00000000
00010000
00000000
,
00010000
00000000
10000000
00000000
,
00000000
00000000
00010000
00000000
,
00000000
00000000
00000100
00000000
,
00000100
00000000
00000010
00000000
,
00000010
00000000
00000100
00000000
,
00000100
00000000
00000100
00000000
,
00000000
00000000
00010000
00000000
,
00010000
00000000
00010000
00000000
,
00000000
00000000
00001000
00000000
,
00000000
00000000
00001000
00000000
,
00000000
00000000
00010000
00000000
,
00000000
00000000
00010000
00000000
,
00000000
00000000
00001000
00000000
,
00001000
00000000
00000100
00000000
,
00000100
00000000
00000100
00000000
,
00000100
00000000
00000002
00000000
,
00000000
00000003
00000001
00000001
,
00000000
00000000
00001000
00001000
,
00000000
00000000
00000100
00000100
,
00000000
00000000
00010000
00010000
,
00000000
00000000
00002000
00000000
,
00000000
00003000
00001000
00000000
,
00000000
00000000
00020000
00000000
,
00000000
00030000
00010000
00000000
,
00000000
00000000
00011000
00000000
,
00000000
00000000
00010000
00000000
,
00000000
00000000
00100000
00000000
,
00000000
00000000
02000000
00000000
,
00000000
03000000
01000000
01000000
,
01000000
00000000
00100000
00100000
,
00100000
00000000
10000000
10000000
,
10000000
00000000
00010000
00010000
,
00010000
00000000
10000000
10000000
,
10000000
10000000
00000000
00000000
,
00000000
00000000
10000000
10000000
,
10000000
00000000
00010000
00000000
,
00010000
00000000
00010000
00000000
,
00000000
00000000
10000000
00000000
,
00000000
00000000
01000000
00000000
,
00000000
00000000
01000000
00000000
,
00000000
00000000
00010000
00000000
,
00000000
00000000
00010000
00000000
,
00000000
00000000
00001000
00000000
,
00000000
00000000
00000000
00000000
,
00000000
00010000
00000000
00000000
00000000
00010000
00000000
00000000
,
00000000
00000000
00000000
00000000
00000000
10000000
00000000
00000000
,
00000000
10000000
00000000
00000000
00000000
10000000
00000000
00000000
,
00000000
00000000
00000000
00000000
00000000
01000000
00000000
00000000
,
00000000
01000000
00000000
00000000
00000000
01000000
00000000
00000000
,
00000000
00000000
00000000
00000000
00000000
00010000
00000000
00000000
,
00000000
00010000
00000000
00000000
00000000
00000000
00000000
00000000
,
00000000
00000000
00000000
00000000
00000000
00001000
00000000
00000000
,
00000000
00001000
00000000
00000000
00000000
00001000
00000000
00000000
,
00000000
00000000
00000000
00000000
00000000
00000100
00000000
00000000
,
00000000
00000100
00000000
00000000
00000000
00000100
00000000
00000000
,
00000000
00000000
00000000
00000000
00000000
00000001
00000000
00000000
,
00000000
00001000
00000000
00000000
00000000
00000001
00000000
00000000
,
00000000
00001000
00000000
00000000
00000000
00000000
00000000
00001001
,
00000000
00000000
00000000
00000000
,
00000000
00000000
00000000
00001001
00000000
00000000
00000000
00000000
;

//---------------dance-double - ----------------
#NOTES:
     dance-double:
     :
     Easy:
     3:
     0.219,0.312,0.057,0.178,0.000:
00000000
00000000
00000000
00000000
,
00000000
00000000
00000000
00000000
,
00000000
00000000
10000000
00000000
,
00100000
00000000
01000000
00000000
,
00010000
00000000
00000000
00001000
,
00000000
00001000
00000000
00001000
,
00000000
00001000
00010000
00000000
,
00000100
00000000
00000010
00000000
,
00000001
00000000
00000000
00001000
,
00000000
00001000
00000000
00001000
,
00000000
00001000
00000100
00000000
,
00000100
00000000
00010000
00001000
,
00010000
00001000
00000000
01000000
,
00000000
01000000
00000000
01000000
,
00000000
01000000
00100000
00000000
,
00100000
00000000
10000000
00010000
,
10000000
00010000
00000000
01000000
,
00000000
01000000
00010000
00000000
,
00000000
00000000
00012000
00000000
,
00000000
00003000
00000000
00000000
,
00000000
00000000
00000020
00000000
,
00000000
00000030
00000000
00000000
,
00000000
00000000
00000002
00000000
,
00000000
00000003
00000000
00000000
,
00000000
00000000
00000200
00000000
,
00000000
00000300
00000000
00000000
,
00000000
00000000
00011000
00000000
,
00100000
00000000
00000000
00000000
,
10000000
00000000
00000000
00000000
,
01000000
00000000
00000000
00000000
,
00010000
00000000
00000000
00000000
,
00001000
00000000
00000000
00000000
,
00010000
00000000
00000000
00000000
,
00000010
00000000
00000000
00000000
,
00001000
00000000
00001001
00000000
,
00000000
00000000
00000001
00000000
,
00000010
00000000
00000001
00000000
,
00001000
00001000
00001000
00000000
,
00000100
00000000
00010000
00000000
,
00001000
00001000
00001000
00000000
,
01000000
00000000
00010000
00000000
,
01000000
00000000
00200000
00000000
,
00000000
00300000
00000000
00000000
,
00000000
00000000
10000000
00000000
,
10000000
00000000
00010000
00000000
,
00010000
00000000
00100000
00100000
,
00100000
00000000
01000000
01000000
,
01000000
00000000
00010000
00000000
,
00010000
00000000
00001000
00000000
,
00001000
00000000
00010000
00001000
,
00010000
00001000
00011000
00000000
,
00000000
00000000
00000010
00000000
,
00000100
00000000
00000010
00000000
,
00001000
00001000
00000001
00000000
,
00000100
00000000
00001000
00000000
,
00010000
00010000
00001000
00000000
,
01000000
00000000
00010000
00000000
,
01000000
01000000
00100000
00000000
,
10000000
00000000
01000000
00000000
,
00010000
00010000
00011000
00000000
,
00000110
00000000
00001001
00000000
,
00000110
00000000
00000100
00000000
,
00001000
00000000
00010000
00000000
,
00011000
00000000
00010000
00000000
,
01000000
00000000
00100000
00000000
,
01100000
00000000
10000000
10000000
,
00010000
00010000
10000000
01000000
,
00010000
00001000
00011000
00000000
,
00000000
00000000
00000000
00000000
,
00000000
00000000
10000000
00000000
,
01000000
00000000
00010000
00000000
,
00001000
00000000
00010000
00010000
,
00010000
00001000
00010000
00010000
,
00010000
00000000
00001000
00000000
,
00000100
00000000
00000001
00000000
,
00000100
00000000
00002000
00003000
,
00000002
00000003
00000020
00000000
,
00000030
00000000
00000010
00000100
,
00000000
00010000
00000000
00001000
,
00000000
00001000
00020000
00000000
,
00000000
00000000
00000000
00000000
,
00000000
00030000
00001000
00000000
,
00100000
00000000
00010000
00000000
,
00100000
00000000
02000000
03000000
,
02000000
03000000
20000000
00000000
,
30000000
00000000
02000000
00000000
,
03020000
00000000
00032000
00000000
,
00023000
00000000
00031000
00010000
,
00001000
00010000
00000000
00000000
,
00000000
00000000
00000120
00000000
,
00001000
00000000
00000031
00000000
,
00001000
00000000
00010000
00000000
,
00001000
00000000
00100000
00010000
,
10000000
01000000
00100000
00000000
,
00100000
00000000
01000000
00000000
,
01000000
00000000
00010000
00000000
,
00010000
00000000
00001000
00000000
,
00001000
00000000
00000100
00000100
,
00000000
00000100
00000000
00000001
,
00000000
00000001
00001000
00001000
,
00000001
00001000
00000200
00000000
,
00000000
00000300
00010000
00000000
,
00000000
00000000
00100000
00000000
,
10000000
00000000
02000000
00000000
,
00000000
03000000
00010000
00000000
,
00001000
00000000
00000200
00000000
,
00000000
00000300
00001000
00000000
,
00010000
00000000
00001000
00000000
,
00000010
00000000
00000001
00000000
,
00001000
00000000
00000002
00000000
,
00000000
00000003
00000200
00000000
,
00000000
00000300
00002000
00000000
,
00000000
00003000
00020000
00000000
,
00000000
00030000
02000000
00000000
,
00000000
03000000
20000000
00000000
,
00000000
30000000
10000000
00000000
,
00010000
00000000
00001000
00000000
,
00000000
00000000
00011000
00000000
,
00000000
00000000
00001000
00010000
,
00001000
00000000
00010000
00000000
,
01000000
00000000
10000000
00000000
,
01000000
00000000
10000000
00010000
,
10000000
00000000
00010000
10000000
,
00010000
00000000
01000000
00000000
,
00010000
00000000
00001000
00000000
,
00010000
00000000
00000100
00000000
,
00001000
00000000
00000010
00000100
,
00000010
00000100
00000020
00000000
,
00000000
00000030
00002000
00000000
,
00000000
00003000
00010000
01000000
,
10000000
00100000
00020000
00030000
,
00002000
00003000
00000010
00000000
,
00000001
00000000
00002002
00000000
,
00000000
00000000
00000000
00000000
,
00000000
00000000
00000000
00000000
,
00000000
00000000
00003003
00000000
,
00000000
00000000
00000001
00000000
,
00001000
00000000
00000001
00000000
,
00000100
00001000
00020000
00000000
,
00000000
00030000
01000000
00000000
,
10000000
01000000
00200000
00000000
,
00000000
00300000
00010000
00000000
,
10000000
01000000
00010000
00000000
,
00000000
00000000
00001000
00000000
,
00000100
00000000
00000001
00000000
,
00000000
00000000
00000001
00000001
,
00000100
00001000
00010000
01000000
,
10000000
00000000
20000000
30000000
,
00020000
00030000
10000000
01000000
,
00010000
00001000
00000200
00000300
,
00000020
00000030
00001000
00000001
,
00001000
00000000
00000002
00000003
,
00002000
00003000
00000001
00000100
,
00001000
00010000
02000000
03000000
,
00200000
00300000
00010000
10000000
,
00010000
00000000
10000000
01000000
,
00010000
00000000
00010000
00001000
,
00020000
00030000
00002000
00003000
,
00020000
00030000
00002000
00003000
,
00000000
00000000
00000001
00000100
,
00001000
00000000
00010000
00001000
,
00020000
00030000
00002000
00003000
,
00020000
00030000
00002000
00000000
,
00000000
00003000
00001000
00000000
,
00001000
00000000
00010000
00000000
,
00010000
00000000
00100000
00000000
,
00100000
00000000
10000000
00000000
,
10000000
00000000
01000000
00000000
,
00000000
00000000
00010000
00001000
,
00010000
00000100
00000010
00000000
,
00000010
00000000
00000020
00000000
,
00000000
00000030
00000001
00000000
,
00000000
00000000
00001000
00000001
,
00001000
00000001
00001000
00000000
,
00010000
00000000
00001000
00010000
,
00001000
00010000
00001000
00000000
,
00100000
00000000
00010000
00000000
,
10000000
00000000
00010000
00000000
,
10000000
00000000
00020000
00000000
,
00000000
00030000
10010000
00000000
,
00000000
00000000
01000000
00000000
,
00000000
00000000
00010000
00000000
,
00000000
00000000
00001000
00000000
,
00000000
00000000
00000100
00000000
,
00000000
00000000
00000001
00000000
,
00000000
00000000
00001000
00000000
,
00000000
00000000
00020000
00000000
,
00000000
00030000
00001000
00000000
,
00000000
00000000
00100000
00010000
,
00000000
00000000
10000000
01000000
,
10000000
00000000
00100000
00001000
,
00010000
00001000
00010000
00000010
,
00000100
00000010
00000000
00000000
,
00000000
00000000
00001000
00000001
,
00000010
00000010
00002000
00000000
,
00000000
00003000
00010000
00000000
,
00010000
00000000
00001000
00000000
,
00001000
00000000
00100000
00000000
,
00100000
00000000
10000000
00000000
,
10000000
00000000
01000000
00000000
,
01000000
00000000
00010000
00000000
,
00010000
00000000
00001000
00000000
,
00001000
00000000
00000000
00000000
00200000
00300000
00000000
00000000
,
00000000
00100000
00000000
00000000
00000000
00100000
00000000
00000000
,
00000000
00000000
00000000
00000000
00000000
01000000
00000000
00000000
,
00000000
01000000
00000000
00000000
00000000
01000000
00000000
00000000
,
00000000
00000000
00000000
00000000
00000000
10000000
00000000
00000000
,
00000000
10000000
00000000
00000000
00000000
10000000
00000000
00000000
,
00000000
00000000
00000000
00000000
00000000
10010000
00000000
00000000
,
00000000
00000000
00000000
00000000
,
00000000
00000000
00000000
00000000
00000000
00010000
00000000
00000000
,
00000000
00001000
00000000
00000000
00000000
00000010
00000000
00000000
,
00000000
00000000
00000000
00000000
00000000
00001000
00000000
00000000
,
00000000
00010000
00000000
00000000
00000000
00100000
00000000
00000000
,
00000000
00000000
00000000
00000000
00000000
00001000
00000000
00000000
,
00000000
00011000
00000000
00000000
00000000
00010000
00000000
00000000
,
00000000
00011000
00000000
00000000
00000000
00000000
00000000
00000020
,
00000000
00000000
00000000
00000000
00000000
00000000
00000000
00000030
;

//---------------dance-double - ----------------
#NOTES:
     dance-double:
     :
     Medium:
     6:
     0.450,0.556,0.312,0.223,0.002:
00000000
00000000
00000000
00000000
,
00000000
00000000
00000000
00000000
,
00000000
00000000
00100000
00100000
,
00100000
00000000
10000000
01000000
00000000
10000000
00000000
01000000
,
01000000
00100000
00001000
00000000
00010000
00000000
00010000
00000000
,
00001000
00001000
00000100
00000001
,
00001000
00000100
00000010
00000010
,
00000010
00000000
00000001
00000100
00000000
00000001
00000000
00000100
,
00000100
00000010
00010000
00000000
00001000
00000000
00001000
00000000
,
00010000
00010000
01000000
10000000
,
00010000
00000000
01000000
00000000
00000000
00100000
00000000
10000000
,
00000000
00100000
00000000
10000000
00000000
00100000
00000000
10000000
,
00000000
01000000
01000000
01000000
00000000
00010000
00000000
00001000
,
00000000
00010000
00000000
00001000
00000000
00010000
00000000
00001000
,
00000000
00000100
00000100
00000100
00000000
00000001
00000000
00000010
,
00000000
00000001
00000000
00000010
00000000
00000001
00000000
00000010
,
00000000
00000100
00000100
00000100
00000000
00010000
00000000
00001000
,
00000000
00010000
00000000
00001000
00010000
00001000
01000000
00010000
,
01000000
00001000
00010000
00001000
00010000
00000000
00000000
00000000
,
01000000
00000000
10000000
00100000
00000000
10000000
00000000
02000000
,
00000000
00000000
00000000
03100000
00010000
00000000
00100000
00010000
,
00000000
00100000
00000000
00001000
00000000
00010000
00000000
00002000
,
00000000
00000000
00003100
00000000
,
00000001
00000000
00000000
00000000
00001000
00000000
00000000
00000001
,
00000000
00001000
00000100
00000000
00000010
00000000
00000000
00000001
,
00000000
00000000
00000100
00000000
00000000
00001000
00000000
00000000
,
00010000
00001000
00011000
00000000
,
00010000
00000000
01000000
10000000
00000000
00010000
00000000
10000000
,
00000000
00010000
00000000
01000000
00000000
00000000
00000000
00000000
,
00100000
10000000
00000000
01000000
00000000
00010000
00000000
00001000
,
00000000
00000100
00000000
00000001
00000010
00000000
00000000
00000000
,
00000010
00000000
00000000
00000000
00000010
00000000
00000000
00000100
,
00000000
00001000
00000001
00000000
00002002
00000000
00000000
00000000
,
00000000
00003003
00000220
00000000
,
00000000
00000330
00002002
00000000
,
00000000
00003003
00000001
00000101
,
00000100
00001100
00001000
00011000
,
00010000
00000000
01000000
10000000
00100000
00000000
10100000
00000000
,
10000000
10010000
00010000
00110000
,
00100000
00000000
00001000
00010000
00000020
00000000
00000230
00000000
,
00000302
00000000
00000003
00001000
00000100
00001000
00000000
00001001
,
00000000
00000000
00000000
00000001
00000100
00000000
00001000
00010000
,
00000000
00001000
00000000
00011000
00000000
00000000
00000000
00000000
,
00010000
00001000
01000000
00010000
00100000
00000000
01100000
00000000
,
01000000
11000000
10000000
10100000
,
00100000
00000000
01000000
00001000
00010000
00000000
00010100
00000000
,
00000100
00001100
00001000
00001010
,
00000010
00000000
00000100
00000001
00001000
00000000
00000000
00000000
,
00000001
00000100
00000000
00000001
00000000
00001000
00000000
00000100
,
00000000
00000010
00000000
00000000
00000001
00000000
00001000
00000100
,
00000000
00010000
00000000
00022000
00000000
00000000
00000000
00000000
,
00000000
00033000
00011000
00001000
,
00001000
00000000
00010000
00001000
00000000
00100000
00000000
00010000
,
01000000
00010000
01000000
00000000
01100000
00000000
00100000
00000000
,
00100000
00000000
10000000
00010000
00000000
00100000
00000000
00001000
,
00010000
00001000
00010000
00000000
00001100
00000000
00000100
00000000
,
00000100
00000000
00000010
00000001
00000000
00001000
00000000
00000001
,
00000100
00000001
00000100
00000000
00000010
00000000
00000010
00000000
,
00000010
00000000
00010000
00001000
00000000
00010000
00000000
00000100
,
00001000
00000100
00001000
00000000
00000000
00000001
00000000
00000100
,
00000000
00000001
00000000
00000100
00000000
00000001
00000000
00000100
,
00000000
00000010
00000100
00000010
00000000
00010000
00000000
00001000
,
00000000
00010000
00000000
00001000
00000000
00010000
00000000
00001000
,
00000000
00100000
01000000
00100000
00000000
01000000
00000000
10000000
,
00000000
01000000
00000000
10000000
00000000
01000000
00000000
10000000
,
00000000
00100000
01000000
00100000
00000000
00010000
00000000
00001000
,
00000000
00010000
00000000
00001000
00020000
00000000
00000000
00000000
,
00032000
00000000
00023000
20000000
,
00000000
00000000
00000000
00000000
,
00000000
30030000
00010000
00110000
,
10000000
01000000
00010000
00011000
,
00001000
00000100
00000001
00000011
,
00001000
00001010
00000001
00000101
,
00001000
00001100
00000101
00001000
,
00001010
00010000
00001000
00010000
,
00100000
10000000
01000000
00010000
,
01000000
00020000
00001000
00030010
,
00001000
00000000
00001000
00001001
,
00000010
00000110
00000010
00000001
,
00000100
00001000
00020000
00001000
,
00000010
00000000
00031000
00000000
00001000
00010000
00001000
00100000
,
00010000
00000000
10000000
10010000
,
10000000
01000000
10000000
00000000
00010000
00000000
10010000
00000000
,
00010000
00100000
00010000
00000000
00001000
00000000
00011000
00000000
,
00010000
00011000
00011000
00000000
,
00000000
00000000
00000010
00000001
,
00000100
00001000
00010000
00001000
,
00000100
00001000
00010000
00100000
,
10000000
02000000
00100000
00000000
,
03100000
00000000
00100000
10000000
,
01000000
00010000
00001000
00010000
,
01000000
00010000
00001000
00000100
,
00000001
00000010
00001000
00010000
,
00001000
00100000
00010000
01010000
,
10000000
11000000
00010000
00110000
,
10000000
10100000
00010000
01000000
,
00001000
00010000
00000010
00001000
,
00000001
00000100
00000001
00000011
,
00001000
00001010
00000001
00000101
,
00001000
00001100
00000001
00000100
,
00001000
00010000
00000000
00000000
00100000
01000000
00100000
01000000
,
00000000
00000000
00000000
10020000
00000000
00000000
00000000
00000000
,
01000000
00000000
00100000
00000000
,
01030000
01000000
00010000
10000000
,
01000000
00010000
00001000
00000100
,
00000001
00000001
00001000
00000010
,
00000100
00001000
00010000
01000000
,
10000000
00000000
10000000
00000000
00020000
00000000
00000000
00030000
,
00020000
00000000
00000000
00030000
20000000
00000000
00000000
30000000
,
20000000
00000000
00000000
30000000
02000000
00000000
03010000
00000000
,
00002000
00013000
00000200
00000310
,
00000002
00001003
00000200
00010300
,
00002000
00103000
00020000
01030000
,
20000000
31000000
00200000
00310000
,
02000000
03010000
00002000
00013000
,
00020000
00031000
00001010
00000000
,
00001001
00000000
00001100
00000000
,
00000000
00000000
00000000
00000001
00000000
00000000
00000000
00000000
00000110
00000000
00000000
00000000
00000000
00000000
00000000
00000000
,
00000000
00000000
00000000
00000000
,
00000000
00000000
00000000
00000000
00000001
00000100
00001000
00000000
,
00000100
00001000
00010000
00000000
00001000
00010000
01000000
00000000
,
00010000
01000000
10000000
00000000
11000000
00000000
01010000
00000000
,
00110000
00000000
00001010
00001100
,
00000101
00000000
00000000
00000000
00000001
00000100
00001000
00000100
,
00000100
00001000
00010000
00010000
00001000
00010000
01000000
01000000
,
10000000
00010000
10000000
00010000
,
10000000
00000000
00010000
00000000
00010000
10000000
01000000
00010000
,
00001000
00010000
01000000
10000000
00020000
00000000
02030000
00000000
,
03002000
00000000
00013000
00000100
00000020
00000000
00000032
00000000
,
00000023
00000000
00000031
00000100
00001000
00000000
01000000
00100000
,
10000000
00100000
01000000
00010000
01000000
00000000
00001000
00010000
,
00001000
00000000
00010000
00000100
00001000
00000000
00000100
00000000
,
00000010
00000001
00002001
00000001
,
00000001
00003001
00000200
00010000
,
00010000
00010300
00002000
01000000
,
01000000
01003000
10010000
00000000
,
10000000
00100000
00010000
00001000
,
00000010
00000001
00000010
00001000
,
00010000
00100000
10010000
00000000
,
01100000
00000000
10000000
01000000
,
00010000
00001000
00011000
00000000
,
01001000
00000000
00001000
00000100
,
00000001
00000010
00001001
00000000
,
00000000
00000000
00000000
00000000
00000110
00000000
00000001
00000100
,
00001000
00000000
00011000
00000000
00010000
01000000
10000000
01000000
,
00010000
00000000
00000000
00000000
00010000
01000000
00010000
00001000
,
00000100
00001000
00010000
00000000
00002000
00000000
00003200
00000000
,
00000302
00000003
00000011
00000001
,
00000011
00000001
00000110
00001100
,
00011000
00000000
10100000
10000000
,
10100000
10000000
01100000
01010000
,
00011000
00000000
00001100
00000100
,
00001100
00000100
00000110
00001001
,
00011000
00000000
01010000
01000000
,
01010000
01000000
01100000
10010000
,
00011000
00000000
00000000
00000000
00001000
00010000
00001000
00010000
,
00001000
00000000
00000000
00010000
02000000
00000000
23000000
00000000
,
30200000
00000000
00320000
00000000
,
00032000
00000000
00003020
00000000
,
00000000
00000000
00000030
00000000
00001000
00000001
00001000
00000001
,
00001000
00000000
00000000
00000001
00000200
00000000
00002300
00000000
,
00023000
00000000
02030000
00000000
,
23000000
00000000
30200000
00000000
,
10300000
01000000
00010000
00000000
00000010
00000000
00000001
00000000
,
00001000
00000000
00001000
00100000
,
00010000
00000000
01000000
00010000
,
10000000
00100000
01000000
00010000
,
00001000
00000100
00000010
00000000
,
00001000
00001000
00000001
00000100
,
00000010
00001000
00010000
01000000
,
00100000
00000000
20000000
00000000
,
00000000
30000000
00010000
00100000
,
00100000
10000000
01000000
00010000
,
00010000
00001000
00010000
00000000
,
00000010
00000010
00001000
00000001
,
00001000
00000100
00000010
00000010
,
00000100
00000100
00001000
00000001
,
00000100
00001000
00010000
01000000
,
10000000
00010000
00200000
02000000
,
00000000
00000000
03300000
00000000
00100000
00000000
00000000
00010000
,
00000000
00000000
00001000
00000000
00000000
00000010
00000000
00000000
,
00000011
00000000
00000011
00000000
00000100
00000000
00000000
00001000
,
00000000
00000000
00010000
00000000
00000000
01000000
00000000
00000000
,
11000000
00000000
11000000
00000000
00100000
00000000
00000000
00010000
,
00000000
00000000
00001000
00000000
00000000
00010000
00000000
00000000
,
00011000
00000000
00010010
00000000
00000100
00000000
00000000
00000001
,
00000000
00001000
00002002
00000000
,
00000000
00000000
00003003
00000000
00000010
00001000
00000001
00000000
,
00000100
00001000
00010000
00000000
00001000
00100000
00010000
00000000
,
00100000
01000000
10000000
00000000
00010000
00000000
00010000
00000000
,
10000000
00000000
10000000
00000000
00100000
00010000
00100000
00010000
,
00100000
00010000
00100000
00000000
00001000
00010000
00001000
00010000
,
00001000
00010000
00001000
00000000
00000000
00000000
00000000
00000000
,
00000000
00000000
00000000
00000000
00000001
00000010
00000001
00000010
,
00000001
00000010
00000001
00000000
00001000
00000000
00000100
00000000
,
00010000
00010000
00010000
00000000
00002000
00000000
00010000
00000000
,
00100000
00000000
00013000
00000000
00001000
00010000
00001000
00000000
,
00100000
00010000
00100000
00000000
20000000
00000000
01000000
00000000
,
00100000
00000000
31000000
00000000
00010000
01000000
00010000
00000000
,
10000000
01000000
10000000
00000000
00000000
00000000
00010000
00000000
,
01000000
00001000
00010000
00000100
,
00000010
00000100
00000010
00000100
00000000
00001000
00000001
00000000
,
00000100
00000000
00000000
00000000
00000010
00000000
00000000
00000000
00002000
00000000
00000000
00003000
00000000
00000000
00000000
00000000
,
00000000
00010000
00000000
01000000
00000000
10000000
00000000
01000000
,
00000000
00010000
00000000
00000000
00000000
00011000
00000000
00000000
,
00000000
00001000
00000000
00000100
00000000
00000001
00000000
00000100
,
00000000
00001000
00000000
00000000
00000000
00011000
00000000
00000000
,
00000000
00100000
00000000
00010000
00000000
01000000
00000000
00010000
,
00000000
00100000
00000000
01000000
00000000
10000000
00000000
00020000
,
00000000
00000000
00000000
00000000
00000000
10030000
00000000
00000000
,
00000000
10000000
00000000
00000000
00000000
01000000
00000000
00010000
,
00000000
00001000
00000000
00010000
00000000
00000010
00000000
00001000
,
00000000
00000010
00000000
00000000
00000000
00000001
00000000
00000100
,
00000000
00000001
00000000
00001000
00000000
00000100
00000000
00000010
,
00000000
00000100
00000000
00000001
00000000
00001000
00000000
00000000
,
00000000
00001100
00000000
00000000
00000000
00010000
00000000
00000000
,
00000000
00011000
00000000
00000000
00000000
00000000
00000000
01100000
,
00000000
00000000
00000000
00000000
,
00000000
00000000
00000000
10010000
00000000
00000000
00000000
00000000
;

//---------------dance-single - ----------------
#NOTES:
     dance-single:
     :
     Challenge:
     10:
     0.702,0.806,0.468,0.372,0.224:
0000
0000
0000
0000
,
0000
0000
0000
0000
,
0000
0000
2000
3002
,
0103
0000
0001
0011
0000
1100
0000
1000
,
0010
0100
0001
0010
1000
0010
0001
0000
,
0100
1000
0100
0000
0001
0010
0001
0000
,
0100
0010
0100
0000
0020
0000
0230
0000
,
0301
0000
1000
1100
0000
0011
0000
0001
,
0010
0100
1000
0100
0001
0100
1000
0000
,
0010
0001
0010
0000
1000
0100
1000
0000
,
0010
0001
0010
0000
2000
0000
3002
0000
,
0013
0000
0001
0011
0000
1100
0000
1000
,
0100
0010
0001
0101
0000
1001
0000
1010
,
0000
1100
0000
0011
0000
0101
0000
1001
,
0000
1000
0001
1000
0200
0000
0320
0000
,
0031
0000
1000
1001
0000
0110
0000
0001
,
0100
0010
1000
1010
0000
1001
0000
1010
,
0000
1001
0000
0001
1000
0100
0001
0100
,
0010
0001
1000
0000
0120
0000
0000
0031
,
0020
0000
1030
0020
0000
0031
0000
0200
,
0000
0000
0000
1300
0200
0000
0301
0100
,
0000
0010
0000
1000
0000
0100
0000
0001
,
0000
0010
0010
0100
1000
0000
0000
0001
,
0200
0000
0000
1300
0200
0000
0000
0301
,
0000
0010
0100
0010
0110
0000
0000
1001
,
0000
0000
0101
0000
0000
0110
0000
0000
,
0010
0100
1001
0000
,
0010
0000
0100
1000
0000
0010
0000
0001
,
0000
0100
0000
1000
0000
0000
0000
0000
,
0001
0010
0000
0001
0000
1000
0000
0010
,
0000
0100
0000
0001
0020
0000
0000
1030
,
0020
0000
0000
0031
0200
0000
0000
1300
,
0000
0100
0001
0010
0011
0000
0000
1100
,
0000
0000
1010
0000
0000
0101
0000
0000
,
1001
0100
2002
3003
,
0100
0000
0000
0000
0010
0000
1000
0000
0001
0000
1000
0000
0100
0000
0000
0010
,
0000
0000
0001
0000
0000
0000
1000
0000
0000
0000
0001
0000
0010
0000
0100
1000
,
0000
1000
0100
0000
0010
0000
0001
0000
0000
0000
0100
0000
0010
0000
0000
1000
,
0000
0000
0001
0000
0000
0000
0100
0000
0000
0000
0010
0000
1000
0000
0010
0100
,
0000
0100
0010
0000
0100
0000
0001
0000
0000
0000
0100
0000
0001
0000
0000
1000
,
0000
0000
0100
0000
0000
0000
0010
0000
0000
0000
0001
0000
1000
0000
0001
0010
,
0000
0010
0001
0000
0100
0000
1000
0000
0000
0000
0100
0000
0001
0000
0000
0010
,
0000
0000
0001
0000
0000
0000
0100
0000
0000
0000
1000
0000
0001
0000
0010
0100
,
0000
0100
0010
0000
0001
0000
0100
0000
0010
0000
0001
0000
0010
0000
0100
1000
,
0000
1000
0100
0000
0010
0000
1000
0000
0001
0000
1000
0000
0100
0000
0010
0001
,
0000
0001
0010
0000
0100
0000
1000
0000
0001
0000
0010
0000
0100
0000
1000
0010
,
0000
0010
1000
0000
0010
0000
0100
0000
0001
0000
0010
0000
0100
0000
1000
0100
,
0000
0100
1000
0000
0001
0000
0100
0000
0010
0000
0001
0000
0010
0000
1000
0000
,
0100
0010
0001
0010
0100
1000
0010
0100
,
0001
0100
1000
0100
0010
1000
0100
0010
,
0001
1000
0010
1000
0001
0010
0001
1000
,
0100
0010
0001
1000
0002
0000
2003
0000
,
3100
0000
0010
0011
0000
1100
0000
0001
,
1000
0010
0100
0000
0020
0000
0230
0000
,
0301
0000
1000
1010
0000
0101
0000
1000
,
0001
0100
0010
0000
2000
0000
3002
0000
,
1003
0000
0100
0110
0000
1001
0000
0010
,
0100
0001
1000
0000
0020
0000
0230
0000
,
0301
0000
1000
1001
0000
0110
0000
0010
,
0100
0001
0010
0100
1000
0010
0100
0001
,
1000
0100
0010
0100
1000
0010
0100
0001
,
0010
0001
1000
0001
1000
0100
1000
0010
,
0100
0001
0010
0100
1000
0100
0010
0001
,
0100
0001
1000
0010
1000
0100
0010
0100
,
1000
0001
1000
0010
0100
0001
1000
0010
,
0100
0001
0010
0100
1000
0001
0100
0010
,
1000
0010
0100
0001
0010
1000
0010
0001
,
0010
0100
1000
0100
0020
0000
0200
0000
,
0000
0000
0000
0000
0000
0000
0000
0030
,
0300
0001
0100
1000
0010
0000
1100
0000
,
1000
0001
0020
0100
0000
0100
0000
0130
,
0100
1000
0001
0100
0002
0000
0010
0000
,
0100
0013
2100
3010
,
0102
0000
0013
0000
1000
0001
0100
0000
,
0010
1000
0002
0100
0000
0100
0000
0103
,
0100
0010
1000
0001
0020
0000
0130
0010
,
0002
0000
0013
1000
0000
1000
0010
0002
,
0000
0103
0001
1000
0000
0000
1001
0000
,
0001
0000
2000
0100
0000
0100
0000
3100
,
1000
0010
0100
0001
2000
0000
0000
0000
,
0001
0000
0001
0000
3001
0001
0010
0010
,
0100
0100
1000
0001
1000
0000
0110
0000
,
0001
0010
0200
1000
0000
1000
0000
1300
,
0100
0000
0010
0000
1000
0000
0010
0000
0001
0100
0000
0000
0100
0001
0000
0000
,
0010
1000
0000
0000
1000
0010
0000
0000
0100
0000
1000
0000
0010
0000
2000
0000
,
0000
0000
0000
0000
0001
0000
0000
0000
0001
0000
0000
0000
3001
0000
0000
0000
1001
0000
0000
0000
0000
0100
0000
0000
1000
0000
0000
0000
0000
0000
0000
0000
,
1001
0000
0000
0000
0000
0100
0000
0000
0001
0000
0000
0000
0000
0000
0000
0000
1000
0000
0000
0000
0000
1000
0000
0000
0010
0000
0000
0000
0000
0010
0000
0000
,
0100
0000
0000
0000
0000
0001
0000
0000
0010
0000
0000
0000
0000
0010
0000
0000
0100
0000
0000
0000
0000
0000
0000
0000
1000
0000
0000
0000
0010
0000
0000
0000
,
0200
0310
0220
0000
,
0000
0000
0000
0000
0000
0000
0000
0000
0000
0000
0000
0000
0000
0000
0000
0000
0330
0000
0000
0000
0000
0000
0000
0000
0000
0000
0000
0000
0000
0000
0010
0000
0000
0000
0000
0000
0000
0000
0000
0000
0000
0000
0000
0000
0000
0000
0000
0000
1000
0000
0000
0000
0000
0000
0000
0000
0000
0000
0000
0000
0000
0000
0000
0000
0000
0000
0000
0000
0000
0000
0000
0000
0000
0000
0000
0000
0000
0000
1000
0000
0000
0000
0000
0000
0000
0000
0000
0000
0000
0000
0000
0000
0000
0000
0000
0000
0100
0000
0000
0000
0000
0000
0000
0000
0000
0000
0000
0000
0000
0000
0000
0000
0000
0000
0000
0000
0000
0000
0000
0000
0000
0000
0000
0000
0000
0000
0100
0000
0000
0000
0000
0000
0000
0000
0000
0000
0000
0000
0000
0000
0000
0000
0000
0000
0010
0000
0000
0000
0000
0000
0000
0000
0000
0000
0000
0000
0000
0000
0000
0000
0000
0000
0000
0000
0000
0000
0000
0000
0000
0000
0000
0000
0000
0000
0001
0000
0000
0000
0000
0000
0000
0000
0000
0000
0000
0000
0000
0000
0000
0000
0000
0000
,
0100
0000
0000
0000
0000
0000
0000
0000
0000
0000
0000
0000
0000
0000
0000
0000
0000
0000
0000
0000
0000
0000
0000
0000
0000
0000
0000
0000
0000
0000
0002
0000
0000
0000
0000
0000
0000
0000
0000
0000
0000
0000
0000
0000
0000
0000
0000
0000
0000
0000
0000
0000
0000
0000
0000
0000
0000
0000
0000
0000
0000
0000
0000
0000
0000
0000
0000
0000
0000
0000
0000
0000
0000
0000
0000
0000
0000
0000
0010
0000
0003
0000
0000
0000
0000
0000
0000
0000
0000
0000
0000
0000
0000
0000
0000
0000
0001
0000
0000
0000
0000
0000
0000
0000
0000
0000
0000
0000
0000
0000
0000
0000
0000
0000
0000
0000
0000
0000
0000
0000
0000
0000
0000
0000
0000
0000
0001
0000
0000
0000
0000
0000
0000
0000
0000
0000
0000
0000
0000
0000
0000
0000
0000
0000
1000
0000
0000
0000
0000
0000
0000
0000
0000
0000
0000
0000
0000
0000
0000
0000
0000
0000
0000
0000
0000
0000
0000
0000
0000
0000
0000
0000
0000
0000
1000
0000
0000
0000
0000
0000
0000
0000
0000
0000
0000
0000
0000
0000
0000
0000
0000
0000
,
0100
0000
0000
0000
0000
0000
0000
0000
0000
0000
0000
0000
0000
0000
0000
0000
0000
0000
0000
0000
0000
0000
0000
0000
0000
0000
0000
0000
0000
0000
0020
0000
0000
0000
0000
0000
0000
0000
0000
0000
0000
0000
0000
0000
0000
0000
0000
0000
0000
0000
0000
0000
0000
0000
0000
0000
0000
0000
0000
0000
0000
0000
0000
0000
0000
0000
0000
0000
0000
0000
0000
0000
0000
0000
0000
0000
0000
0000
0001
0000
0030
0000
0000
0000
0000
0000
0000
0000
0000
0000
0000
0000
0000
0000
0000
0000
0000
0000
0000
0000
0000
0000
0000
0000
0000
0000
0000
0000
0000
0000
0000
0000
0000
0000
0000
0000
0000
0000
0000
0000
0000
0000
0000
0000
0000
0000
1000
0000
0000
0000
0000
0000
0000
0000
0000
0000
0000
0000
0000
0000
0000
0000
0000
0000
0010
0000
0000
0000
0000
0000
0000
0000
0000
0000
0000
0000
0000
0000
0000
0000
0000
0000
0000
0000
0000
0000
0000
0000
0000
0000
0000
0000
0000
0000
0010
0000
0000
0000
0000
0000
0000
0000
0000
0000
0000
0000
0000
0000
0000
0000
0000
0000
,
0100
0000
0000
0000
0000
0000
0000
0000
0000
0000
0000
0000
0000
0000
0000
0000
0000
0000
0000
0000
0000
0000
0000
0000
0000
0000
0000
0000
0000
0000
0002
0000
0000
0000
0000
0000
0000
0000
0000
0000
0000
0000
0000
0000
0000
0000
0000
0000
0000
0000
0000
0000
0000
0000
0000
0000
0000
0000
0000
0000
0000
0000
0000
0000
0000
0000
0000
0000
0000
0000
0000
0000
0000
0000
0000
0000
0000
0000
2000
0000
0003
0000
0000
0000
0000
0000
0000
0000
0000
0000
0000
0000
0000
0000
0000
0000
0000
0000
0000
0000
0000
0000
0000
0000
0000
0000
0000
0000
0000
0000
0000
0000
0000
0000
0000
0000
0000
0000
0000
0000
0000
0000
0000
0000
0000
0000
0002
0000
3000
0000
0000
0000
0000
0000
0000
0000
0000
0000
0000
0000
0000
0000
0000
0000
0000
0000
0000
0000
0000
0000
0000
0000
0000
0000
0000
0000
0000
0000
0000
0000
0000
0000
0000
0000
0000
0000
0000
0000
1003
0000
0000
0000
0000
0000
0000
0000
0000
0000
0000
0000
0000
0000
0000
0000
0000
0000
0000
0000
0000
0000
0000
0000
,
0001
0001
1000
1000
1100
0000
0101
0000
,
0010
0100
0001
0200
0000
0320
0000
0031
,
0010
0100
0001
0010
0011
0000
1010
0000
,
0100
0010
1000
0020
0000
0230
0000
1300
,
0100
0010
1000
0100
1100
0000
0011
0000
,
0100
1000
0010
0200
0000
0320
0000
0130
,
0001
0010
0100
1000
1001
0000
0110
0000
,
1001
1001
0000
0000
1000
0010
0200
0002
,
0000
0000
0300
0000
0003
0000
1000
0100
2000
0000
0000
0000
3001
0000
0100
0000
,
0002
0000
1003
0100
2000
0000
3001
0100
,
0101
0000
1100
0000
0001
0010
0100
1100
,
0000
0000
0000
0000
0000
1001
0000
0000
0000
0000
0000
0000
0000
0110
0000
0000
0000
0000
0000
0000
0000
0011
0000
0000
0000
0000
0000
0000
0100
0000
0000
0000
,
1000
0000
0001
0000
1000
0010
0100
0101
,
0000
0000
0000
0000
0000
1001
0000
0000
0000
0000
0000
0000
0000
0110
0000
0000
0000
0000
0000
0000
0000
1010
0000
0000
0000
0000
0000
0000
0100
0000
0000
0000
,
0001
0020
0100
0100
,
0100
0130
1000
0001
,
1000
0000
0000
0001
0000
0000
1000
0100
1000
0100
1000
0100
,
0010
0001
0010
0001
0010
0001
1000
0100
1000
0001
0010
0001
,
1000
0000
0100
0000
1000
0000
0001
0000
0010
0000
0001
0000
1000
0000
0000
0010
0000
0000
0001
0000
0000
0010
0000
0000
,
0100
1000
0100
0001
0010
1000
0010
0100
,
0001
0000
0000
0100
0000
0000
1000
0000
0000
0010
0000
0000
0100
0000
0001
0000
0100
0000
0001
0000
0100
0000
0001
0000
,
1000
0010
1000
0010
1000
0010
0100
0001
0100
0010
1000
0010
,
0100
0000
0001
0000
0100
0000
0010
0000
1000
0000
0010
0000
0100
0000
0000
0001
0000
0000
0010
0000
0000
1000
0000
0000
,
0010
0000
0100
0001
0100
0010
0001
1000
,
0000
0001
0000
0000
1000
0000
0000
0001
,
0000
1000
0000
0000
,
0000
0000
0000
0000
0110
0001
1000
0001
,
0100
1000
0100
0010
1000
0100
0010
0100
,
1000
0001
1000
0001
2001
3000
0201
0300
,
0022
0000
0033
0000
1002
0003
1200
0300
,
2020
0000
3030
0000
0101
1000
0001
0000
,
0110
0001
1000
0001
0010
0100
1000
0001
,
0210
0300
2001
3000
0021
0030
0201
0300
,
1020
0030
1200
0300
1000
0001
1000
0100
,
1000
0000
0010
0000
0001
0000
0100
0000
1000
0000
0000
0100
0001
0000
0002
0000
,
0100
0103
0000
0010
2000
0000
0100
3100
0020
0000
0000
0001
0031
0000
2000
0000
,
0100
3100
0000
0001
0100
0000
1000
0000
0010
0000
0000
0100
0002
0000
0000
0000
,
2003
0000
0000
0010
3010
0000
0100
0000
0020
0000
0000
1000
1030
0000
0001
0000
,
0100
0100
0000
0010
0010
0000
0100
0000
0001
0000
0000
0000
0000
0000
1000
0000
,
1000
0000
0001
0001
1000
0100
1000
0100
,
1000
0001
1000
0001
0100
0010
0100
0010
,
1000
0010
1000
0010
0100
0001
0100
0001
,
1000
0000
0001
0000
1000
0000
0001
0000
2001
0000
0000
3100
0000
0000
0000
0000
,
1001
0000
0000
0000
0000
0000
0000
0000
1100
0000
0000
0000
0000
0000
0000
0000
0101
0000
0000
0000
0000
0000
0000
0000
1000
0000
0000
0000
0000
0100
0000
0000
,
0001
0000
0000
0000
0000
0000
0000
0000
0001
0000
0000
0000
0000
0100
0000
0000
1000
0000
0000
0000
0000
0000
0000
0000
1000
0000
0000
0000
0000
0010
0000
0000
,
0001
0000
0000
0000
0000
0001
0000
0000
0010
0000
0000
0000
0000
1000
0000
0000
1001
0000
0000
0000
0000
0000
0000
0000
0000
0000
0000
0000
0000
0110
0000
0000
,
0000
0000
0000
0000
0000
0000
0000
0000
1000
0000
0000
0000
0000
0001
0000
0000
0100
0000
0000
0000
0000
0000
0000
0000
1000
0000
0000
0000
0000
0000
0000
0000
,
1000
0000
0000
0000
0000
0100
0000
0000
0000
0000
0000
0001
0000
0000
0000
0000
0010
0000
0000
0000
0000
0001
0000
0000
1000
0000
0000
0000
0000
0001
0000
0000
,
0000
1000
1100
0001
,
0101
0000
0000
0000
0000
0000
0000
0000
0000
0000
0000
0001
0000
0000
0000
0000
1001
0000
0000
0000
0000
0000
0000
0000
1000
0000
0000
0000
0100
0000
0000
0000
,
0010
0000
0001
0000
1000
0001
1000
0001
1000
0000
0000
0000
0010
0000
0100
0000
,
0001
0000
0000
0000
0010
0000
0100
0000
1000
0000
0100
0000
0010
0100
0010
0100
,
0010
0000
0001
1000
0001
0010
1000
0100
,
0001
0010
1000
0100
1001
0000
0101
0000
,
1100
0000
0100
0010
1001
0000
0010
0100
,
1001
1000
0100
0010
0001
0100
0010
0100
,
0010
0100
0010
1000
1001
0000
0100
0010
,
1001
0001
0010
0100
1000
0100
0010
0001
,
1001
0000
1000
0100
1100
0000
0001
0100
,
0110
0010
1000
0001
0100
0010
1000
0001
,
0100
1000
0100
0001
0110
0000
1000
0100
,
0110
0001
1000
0100
0010
0001
1000
0001
,
2002
0000
0003
0000
3001
0010
1000
0100
,
0002
0000
0000
0103
1000
0010
0100
0001
,
0220
0330
0202
0303
,
2200
3300
0202
0303
,
0001
0100
0001
0100
0001
0000
0000
0000
1000
0000
0010
0000
0001
0000
0100
0000
,
2000
0000
3000
0100
1000
0010
0001
0100
,
2000
0000
3000
0100
0002
0000
0003
0100
,
0020
0000
0030
1000
0001
0000
1000
0000
,
1001
0000
0000
0000
0000
0000
0000
0000
0000
0000
0001
0000
0000
1000
0000
0000
,
0100
0000
0000
0010
0000
0000
0011
0000
0000
0000
0001
0000
0000
0100
0000
0000
,
0010
0000
0000
1000
0000
0000
1010
0000
0000
0000
0100
0000
0000
0001
0000
0000
,
0010
0000
0000
0100
0000
0000
1000
0000
0100
0000
0000
0010
0000
0000
0001
0000
,
0000
0100
0000
0000
0001
0000
1000
0000
0010
0100
0010
0000
0000
0001
0000
0000
,
0001
0000
0000
1000
0000
0100
0000
0000
1000
0000
0010
0000
0100
0000
0000
0001
,
0100
0000
0001
0000
0010
0000
0100
1000
0000
0000
0000
0010
0100
0000
0010
0000
,
0100
0001
1000
0010
0100
0001
1000
0100
,
0010
0100
1000
0001
1000
0100
1000
0100
,
0010
0001
0100
1000
0100
0001
0010
0001
,
0010
0001
0100
0001
0100
0010
1000
0010
,
1000
0100
0001
0100
1000
0100
1000
0010
,
1000
0100
1000
0010
0001
1000
0001
0000
,
1000
0001
1000
0000
0001
0100
1000
0100
,
0001
0100
1000
0000
0010
1000
0100
0000
,
0010
0001
0100
0000
0010
0100
0001
0010
,
0100
1000
0001
0000
1001
0000
0000
0011
,
0000
0000
1100
0000
0000
0110
0000
0000
,
0011
0000
1001
0000
1100
0000
0000
1010
,
0000
0000
0110
0000
0000
0101
0000
0000
,
1010
0000
0110
0000
0101
0000
0010
0002
,
0000
0103
0002
0000
0013
0100
1000
0000
,
1010
0000
1001
0000
0010
0000
0001
2000
,
0000
3100
2000
0000
3010
0100
0001
0100
,
1000
0100
0010
1000
0001
0100
0001
1000
,
0100
1000
0001
0100
0010
0100
0010
0001
,
1000
0001
1000
0000
1000
0100
1000
0001
,
0100
0001
1000
0100
0010
0100
0010
1000
,
0001
1000
0001
0000
0010
1000
0010
1000
,
0100
0001
0200
0000
0000
0000
0000
0000
,
0000
0000
0300
0000
0010
0001
0010
0001
,
0100
1000
0100
0000
0001
0100
1000
0100
,
1000
0001
0010
0001
0010
1000
0001
0100
,
0010
0000
0000
0000
0100
0010
0000
0000
0200
0000
0000
0000
1000
0000
0000
0000
,
0001
0000
0000
0000
1300
0000
0001
0000
0000
0000
0010
0000
0100
1000
0000
0001
,
0000
0000
1000
0000
0001
0100
0000
0010
0000
0000
0100
0000
0001
0000
1000
0010
,
0000
0000
0001
0000
0001
0000
0000
0000
0000
0000
0010
0000
0010
0000
0100
1000
,
0000
0000
0010
0000
1000
0000
0100
0000
1000
0000
0001
0000
1000
0100
0000
0000
,
0001
0000
0100
0000
1000
0000
0010
0000
0000
0000
0100
0000
0001
0000
0010
0100
,
0000
0000
1000
0100
1000
0100
0000
0000
0220
0000
0000
0000
0330
0000
0000
0000
,
0000
0010
0000
0200
0001
0000
0001
0300
,
0001
0100
0000
0010
0000
1000
0000
1100
,
0000
0001
0000
0101
0000
1000
0000
1100
,
0000
0001
0000
0101
0000
0010
0000
1000
,
0000
0100
0000
0020
0001
0000
0001
0030
,
0001
0010
0000
0100
0000
1000
0000
1010
,
0000
0001
0000
0011
0000
1000
0000
1010
,
0000
0001
0000
0011
0000
0100
1000
0010
,
0000
0100
0010
2000
0001
0000
0001
3000
,
0001
1000
0100
0010
0001
1000
0000
1010
,
0000
0100
0000
0101
0000
0010
0000
1010
,
0000
0100
0000
0101
0000
0020
0000
0030
,
0000
2200
0000
3300
0000
0020
0000
0030
,
0000
0202
0000
0303
0000
0000
0000
1010
,
0000
0101
1001
0000
0000
0011
0000
1100
,
1001
0000
0000
0200
0000
0000
0000
0000
,
0000
0000
0000
0000
,
0000
0300
0000
0000
0000
0000
0000
0000
;

//---------------dance-double - ----------------
#NOTES:
     dance-double:
     :
     Challenge:
     10:
     0.685,0.700,0.280,0.175,0.189: // measure 1
00000000
00000000
00000000
00000000
,  // measure 2
00000000
00000000
00000000
00000000
,  // measure 3
00000000
00000000
20000000
30020000
,  // measure 4
01030000
00000000
00010000
00110000
00000000
11000000
00000000
10000000
,  // measure 5
00100000
01000000
00001000
00010000
01000000
10000000
01000000
00000000
,  // measure 6
00100000
00001000
00100000
00000000
00001000
00010000
00001000
00000000
,  // measure 7
00000100
00000001
00000100
00000000
00000020
00000000
00000230
00000000
,  // measure 8
00000301
00000000
00001000
00001100
00000000
00000011
00000000
00000001
,  // measure 9
00001000
00000100
00000010
00000001
00000100
00000010
00000100
00000000
,  // measure 10
00000010
00010000
00000010
00000000
00001000
00000100
00001000
00000000
,  // measure 11
00000001
00001000
00000001
00000000
00002000
00000000
00003200
00000000
,  // measure 12
00000310
00000000
00000001
00001001
00000000
00001001
00000000
00001000
,  // measure 13
00000100
00000010
00000001
00000101
00000000
00001001
00000000
00001100
,  // measure 14
00000000
00001001
00000000
00000011
00000000
00001001
00000000
00001010
,  // measure 15
00000000
00001000
00000001
00001000
00000200
00000000
00020300
00000000
,  // measure 16
00031000
00000000
00010000
00011000
00000000
00011000
00000000
00001000
,  // measure 17
01000000
00010000
00100000
00110000
00000000
10010000
00000000
10100000
,  // measure 18
00000000
10010000
00000000
10000000
00100000
01000000
00001000
00010000
,  // measure 19
00000010
00000100
00000001
00000010
00000100
00000000
00000000
00001000
,  // measure 20
00000001
00000000
00001000
00000100
00000000
00000010
00000000
00000100
,  // measure 21
00000000
00000000
00000000
00010000
00001000
00000000
00000010
00000001
,  // measure 22
00000000
00000100
00000000
00000010
00000000
00010000
00000000
00001000
,  // measure 23
00000000
00010000
01000000
00100000
00010000
00000000
00000000
10000000
,  // measure 24
00100000
00000000
00000000
10000000
01000000
00000000
00000000
00100000
,  // measure 25
00000000
00001000
00010000
00001000
00101000
00000000
00000000
00011000
,  // measure 26
00000000
00000000
00010010
00000000
00000000
00011000
00000000
00000000
,  // measure 27
00001000
01000000
10010000
00000000
,  // measure 28
00100000
00000000
01000000
00001000
00000000
00010000
00000000
00001000
,  // measure 29
00000000
00100000
00000000
01000000
00000000
00000000
00000000
00000000
,  // measure 30
10000000
00010000
00000000
10000000
00000000
00100000
00000000
01000000
,  // measure 31
00000000
00001000
00000000
00010000
00000100
00000000
00000000
00000010
,  // measure 32
00000100
00000000
00000000
00001000
00000001
00000000
00000000
00001000
,  // measure 33
00000000
00000010
00000100
00000001
00000011
00000000
00000000
00001100
,  // measure 34
00000000
00000000
00001010
00000000
00000000
00000101
00000000
00000000
,  // measure 35
00000001
00001000
00002002
00003003
,  // measure 36
00000001
00000000
00000100
00000000
00000010
00000000
00001000
00000000
00000001
00000000
00001000
00000000
00000100
00000000
00000010
00000001
,  // measure 37
00000000
00000001
00000100
00000000
00000000
00000000
00000010
00000000
00000000
00000000
00010000
00000000
00000100
00000000
00001000
00000010
,  // measure 38
00000000
00001000
00000010
00000000
00000100
00000000
00000001
00000000
00000000
00000000
00000010
00000000
00000100
00000000
00010000
00001000
,  // measure 39
00000000
00001000
01000000
00000000
00000000
00000000
00010000
00000000
00000000
00000000
00100000
00000000
00001000
00000000
01000000
00010000
,  // measure 40
00000000
01000000
00010000
00000000
10000000
00000000
00100000
00000000
00000000
00000000
10000000
00000000
01000000
00000000
00100000
00001000
,  // measure 41
00000000
00001000
00010000
00000000
00000000
00000000
01000000
00000000
00000000
00000000
10000000
00000000
00100000
00000000
01000000
00010000
,  // measure 42
00000000
00010000
10000000
00000000
01000000
00000000
00100000
00000000
00000000
00000000
00001000
00000000
01000000
00000000
00010000
00100000
,  // measure 43
00000000
00100000
01000000
00000000
00000000
00000000
10000000
00000000
00000000
00000000
00100000
00000000
01000000
00000000
00001000
00010000
,  // measure 44
00000000
00001000
00010000
00000000
00100000
00000000
10000000
00000000
01000000
00000000
00100000
00000000
00010000
00000000
10000000
01000000
,  // measure 45
00000000
01000000
10000000
00000000
00100000
00000000
01000000
00000000
00001000
00000000
00010000
00000000
01000000
00000000
00100000
00001000
,  // measure 46
00000000
00001000
00100000
00000000
00010000
00000000
10000000
00000000
01000000
00000000
00010000
00000000
00001000
00000000
00000100
00000001
,  // measure 47
00000000
00000001
00000100
00000000
00000010
00000000
00010000
00000000
00001000
00000000
00000100
00000000
00001000
00000000
00010000
00001000
,  // measure 48
00000000
00001000
00010000
00000000
00000010
00000000
00000100
00000000
00000001
00000000
00000010
00000000
00000100
00000000
00001000
00000000
,  // measure 49
00000001
00000100
00000010
00010000
00001000
00000010
00000001
00000010
,  // measure 50
00000100
00001000
00000010
00000100
00000010
00010000
00001000
00100000
,  // measure 51
01000000
10000000
00100000
01000000
00001000
00100000
00010000
01000000
,  // measure 52
00001000
00010000
00000100
00000010
00000002
00000000
00002003
00000000
,  // measure 53
00003100
00000000
00000010
00000011
00000000
00001100
00000000
00001000
,  // measure 54
00000001
00000010
00001000
00000000
00020000
00000000
02030000
00000000
,  // measure 55
13000000
00000000
00100000
10100000
00000000
01010000
00000000
00010000
,  // measure 56
10000000
01000000
00100000
00000000
02000000
00000000
03020000
00000000
,  // measure 57
10030000
00000000
01000000
01100000
00000000
10010000
00000000
00010000
,  // measure 58
01000000
00001000
00010000
00000000
00002000
00000000
00003020
00000000
,  // measure 59
00000031
00000000
00000100
00000110
00000000
00001001
00000000
00000001
,  // measure 60
00000010
00000100
00010000
00001000
00000010
00000001
00000100
00000010
,  // measure 61
00010000
00001000
00000100
00000001
00000010
00000100
00010000
00001000
,  // measure 62
00100000
00001000
00010000
01000000
00100000
00010000
01000000
00100000
,  // measure 63
00010000
00100000
10000000
01000000
10000000
00010000
01000000
00001000
,  // measure 64
00010000
00100000
10000000
01000000
01000000
00010000
00001000
00000100
,  // measure 65
00000001
00000010
00000001
00000100
00000010
00001000
00000001
00001000
,  // measure 66
00000100
00001000
00000001
00000100
00000100
00001000
00010000
00100000
,  // measure 67
00010000
00001000
00010000
01000000
10000000
00100000
10000000
01000000
,  // measure 68
00010000
00001000
00000100
00000001
00000110
00000000
00001001
00000000
,  // measure 69
00000000
00000000
00011000
00000000
,  // measure 70
00000000
10000000
01000000
00100000
00010000
01000000
00010000
00100000
,  // measure 71
01000000
00010000
00001000
00000100
00000010
00001000
00000100
00001000
,  // measure 72
00000010
00000100
00001000
00010000
01000000
10000000
01000000
10000000
,  // measure 73
00100000
00010000
00100000
00010000
00001000
00000010
00001000
00000010
,  // measure 74
00000001
00000100
00000001
00000100
00000101
00000000
00001100
00000000
,  // measure 75
00010000
00001000
00000100
00000001
00000100
00001000
00010000
01000000
,  // measure 76
10000000
01000000
00010000
00001000
00000010
00001000
00010000
00100000
,  // measure 77
00010000
00001000
00000100
00001000
00000000
00000001
00000100
00001000
,  // measure 78
00000000
00000001
00000010
00001000
00010000
00000000
00000110
00000000
,  // measure 79
00000001
00000100
00001000
00010000
01000000
00010000
00001000
00100000
,  // measure 80
00000010
00010000
00000100
01000000
00002000
00000000
00203000
00000000
,  // measure 81
00300020
00000000
00020030
00000000
00030100
00001000
00000010
00001000
,  // measure 82
00000001
00000010
00000001
00000100
00001000
00000000
10010000
00000000
,  // measure 83
10000000
01000000
00010000
00001000
00000100
00000001
00000010
00000001
,  // measure 84
00000010
00000001
00000100
00001000
00100000
00001000
01000000
00010000
,  // measure 85
00100000
00001000
01000000
00010000
00100000
00001000
00000010
00000001
,  // measure 86
00000000
00000100
00000010
00001000
00001001
00000000
00000100
00000000
,  // measure 87
00001001
00000000
00000000
00000000
00000000
00000000
00000000
00000000
00000010
00000000
00000000
00000000
00000000
00000000
00000000
00000000
00001000
00000000
00000000
00000000
00000000
00000001
00000000
00000000
00000100
00000000
00000000
00000000
00000000
00000010
00000000
00000000
,  // measure 88
00000100
00000000
00000000
00000000
00000000
00001000
00000000
00000000
00010000
00000000
00000000
00000000
00000000
00100000
00000000
00000000
01000000
00000000
00000000
00000000
00000000
00000000
00000000
00000000
10010000
00000000
00000000
00000000
00000000
00000000
00000000
00000000
,  // measure 89
00100000
00000000
00000000
00000000
00000000
00000000
00000000
00000000
10010000
00000000
00000000
00000000
00000000
00000000
00000000
00000000
01000000
00000000
00000000
00000000
00000000
00100000
00000000
00000000
10000000
00000000
00000000
00000000
00000000
01000000
00000000
00000000
,  // measure 90
00010000
00000000
00000000
00000000
00000000
00001000
00000000
00000000
00000010
00000000
00000000
00000000
00000000
00000001
00000000
00000000
00000010
00000000
00000000
00000000
00000000
00000100
00000000
00000000
00001000
00000000
00000000
00000000
00000000
00000010
00000000
00000000
,  // measure 91
00000100
00000000
00000000
00000000
00000000
00001000
00000000
00000000
00010000
00000000
00000000
00000000
00000000
00100000
00000000
00000000
10000000
00000000
00000000
00000000
00000000
01000000
00000000
00000000
00010000
00000000
00000000
00000000
00000000
00001000
00000000
00000000
,  // measure 92
00010000
00000000
00000000
00000000
00000000
00000000
00000010
00000000
00001000
00000000
00000000
00000000
00000000
00000100
00000000
00000000
00000010
00000000
00000000
00000000
00000000
00000001
00000000
00000000
00000100
00000000
00000000
00000000
00000000
00001000
00000000
00000000
,  // measure 93
00010000
00000000
00000000
00000000
00000000
00001000
00000000
00000000
00010000
00000000
00000000
00000000
00000000
00000100
00000000
00000000
00000010
00000000
00000000
00000000
00000100
00000000
00000000
00000000
00000000
00000000
00000000
00000000
00010000
00000000
00000000
00000000
,  // measure 94
00001000
01000000
00100000
01000000
10010000
00000000
01100000
00000000
,  // measure 95
10000000
00010000
01000000
00100000
10000000
01000000
00010000
00001000
,  // measure 96
00100000
00010000
10000000
01000000
00010000
00001000
00000100
00000001
,  // measure 97
00000010
00001000
00010000
00000100
00000010
00000001
00000010
00000100
,  // measure 98
00001000
00000010
00010000
00001000
00011000
00000000
00110000
00000000
,  // measure 99
00010000
00100000
10000000
01000000
00001000
00000100
00010000
00001000
,  // measure 100
00000100
00000010
00001000
00000001
00001001
00000000
00011000
00000000
,  // measure 101
00010000
10000000
00000000
00000000
10000000
00010000
00001000
00000001
,  // measure 102
00000000
00000000
00000000
00000000
00000000
00000000
00001000
00000000
00010000
00000000
00000000
00000000
00000100
00000000
00001000
00000010
,  // measure 103
00001000
00000000
00000000
00000000
00000100
00000000
00000010
00000001
00000010
00000000
00000000
00000000
00000100
00000000
00010000
00001000
,  // measure 104
00100000
00000000
00010000
00100000
01000000
00000000
00000000
00000000
00010000
00000000
01000000
00000000
00010000
00000000
00100000
00000000
,  // measure 105
01000000
00010000
00001000
00000100
00000001
00001000
00000010
00000001
,  // measure 106
00000010
00001000
00000100
00010000
00001000
00100000
00010000
01000000
,  // measure 107
10000000
01000000
00010000
00100000
01000000
10000000
00010000
10000000
,  // measure 108
01000000
00010000
00001000
00000100
00000010
00001000
00000010
00001000
,  // measure 109
00000100
00010000
00000100
00010000
00001000
00000100
00001000
00000100
,  // measure 110
00000010
00000001
00000010
00000000
00000001
00000010
00000100
00001000
,  // measure 111
00010000
00100000
01000000
10000000
01000000
00100000
00010000
00001000
,  // measure 112
00000100
00000010
00000001
00000010
00000100
00001000
00010000
00100000
,  // measure 113
01000000
00100000
00010000
00001000
00000100
00001000
00010000
00100000
,  // measure 114
01000000
00100000
00010000
00001000
00000100
00000010
00001000
00000100
,  // measure 115
00000010
00001000
00010000
01000000
00100000
00010000
01000000
00100000
,  // measure 116
00010000
00001000
00000100
00000010
00000100
00001000
00010000
01000000
,  // measure 117
10000000
00000000
01000000
00000000
00010000
00000000
00001000
00000000
00000100
00000000
00000001
00000000
00000100
00000000
00000000
00001000
,  // measure 118
00000000
00000000
00000000
00000000
00000000
00000000
00000100
00000000
00000000
00000000
00000000
00000000
00000000
00000000
00000000
00000001
00000000
00000000
00000000
00000000
00000000
00000000
00000000
00000000
00000000
00000000
00000000
00000000
00001000
00000000
00000000
00000000
,  // measure 119
00000000
00011000
00000000
00000000
,  // measure 120
00000000
00000000
00000000
00000000
01100000
00010000
10000000
00010000
,  // measure 121
00100000
00001000
00100000
00001000
00010000
00000010
00010000
00000010
,  // measure 122
00001000
00000001
00001000
00000001
00000200
00000000
00000320
00000000
,  // measure 123
00002030
00000000
00003002
00000023
,  // measure 124
00002030
00000000
00000000
00000000
00103000
00010000
10000000
00000000
,  // measure 125
00110000
00010000
10000000
01000000
11000000
01000000
00010000
00001000
,  // measure 126
00011000
00010010
00002000
00003002
,  // measure 127
00002003
00000000
00003002
00000000
00000013
00000001
00000100
00001000
,  // measure 128
00010000
00000000
00100000
00000000
10000000
00000000
01000000
00000000
00010000
00000000
00000000
00001000
00010000
00000000
00010000
00000000
,  // measure 129
00001000
00000100
00000000
00000001
00000010
00000000
00001000
00010000
00100000
00000000
00000000
00001000
00000100
00000000
00010000
00000000
,  // measure 130
01000000
10000000
00000000
00100000
02000000
00000000
00010000
03000000
10000000
00000000
00000000
00010000
00001000
00000000
00000000
00000000
,  // measure 131
00000001
00000000
00000000
00000010
00000100
00000000
00010000
00000000
00001000
00000000
00000000
00100000
10000000
00000000
00010000
00000000
,  // measure 132
10000000
01000000
00000000
00100000
01000000
00000000
00001000
00000000
00000100
00000000
00000000
00000000
00000000
00000000
00000001
00000000
,  // measure 133
00001000
00000000
00000001
00000010
00000100
00001000
00000100
00001000
,  // measure 134
00000001
00000100
00000001
00000100
00001000
00010000
00001000
00010000
,  // measure 135
00100000
10000000
00100000
10000000
01000000
00010000
01000000
00010000
,  // measure 136
00001000
00000000
00000000
00000000
00010000
00000000
00000000
00000000
00001000
00000000
00000000
00000000
00010000
00000000
00000000
00000000
00011000
00000000
00000000
00000000
00000000
00020000
00000000
00000000
00000000
00000000
00000000
00000000
00000000
00000000
00000000
00000000
,  // measure 137
02030000
00000000
00000000
00000000
00000000
00000000
00000000
00000000
23000000
00000000
00000000
00000000
00000000
00000000
00000000
00000000
30020000
00000000
00000000
00000000
00000000
00000000
00000000
00000000
10030000
00000000
00000000
00000000
00000000
01000000
00000000
00000000
,  // measure 138
00010000
00000000
00000000
00000000
00000000
00000000
00000000
00000000
00001000
00000000
00000000
00000000
00000000
00000100
00000000
00000000
00000001
00000000
00000000
00000000
00000000
00000000
00000000
00000000
00000001
00000000
00000000
00000000
00000000
00000100
00000000
00000000
,  // measure 139
00001000
00000000
00000000
00000000
00000000
00001000
00000000
00000000
00010000
00000000
00000000
00000000
00000000
00001000
00000000
00000000
00000110
00000000
00000000
00000000
00000000
00000000
00000000
00000000
00000000
00000000
00000000
00000000
00000000
00001001
00000000
00000000
,  // measure 140
00000000
00000000
00000000
00000000
00000000
00000000
00000000
00000000
00000001
00000000
00000000
00000000
00000000
00000100
00000000
00000000
00001000
00000000
00000000
00000000
00000000
00000000
00000000
00000000
00010000
00000000
00000000
00000000
00000000
00000000
00000000
00000000
,  // measure 141
00100000
00000000
00000000
00000000
00000000
00000000
00000000
00000000
00000000
00000000
10000000
00000000
00000000
00000000
00000000
00000000
00000000
00000000
00000000
00000000
00000000
01000000
00000000
00000000
00000000
00000000
00000000
00000000
00000000
00000000
00000000
00000000
00100000
00000000
00000000
00000000
00000000
00000000
00000000
00000000
00000000
00000000
00010000
00000000
00000000
00000000
00000000
00000000
10000000
00000000
00000000
00000000
00000000
00000000
00000000
00000000
00000000
00000000
00010000
00000000
00000000
00000000
00000000
00000000
,  // measure 142
00000000
00000000
00000000
00000000
00000000
00000000
00000000
00000000
10000000
00000000
00000000
00000000
00000000
10000000
00000000
00000000
01000000
00000000
00000000
00000000
00000000
00000000
00000000
00000000
00010000
00000000
00000000
00000000
00000000
00000000
00000000
00000000
,  // measure 143
00001000
00000000
00000000
00000000
00000000
00000000
00000000
00000000
00000000
00000000
00000000
00000000
00000000
00000000
00000000
00000000
00000100
00000000
00000000
00000000
00000000
00000000
00000000
00000000
00000000
00000000
00000000
00000000
00000000
00000000
00000000
00000001
00000000
00000000
00000000
00000000
00000000
00000000
00000000
00000000
00000000
00000000
00000000
00000000
00000000
00000000
00000000
00000000
00000010
00000000
00000000
00000000
00000000
00000000
00000000
00000000
00000001
00000000
00000000
00000000
00000000
00000000
00000000
00000000
,  // measure 144
00000100
00000000
00001000
00000000
00010000
00001000
00010000
00001000
00010000
00000000
00000000
00000000
00001000
00000000
00010000
00000000
,  // measure 145
00001000
00000000
00000000
00000000
00010000
00000000
01000000
00000000
10000000
00000000
00100000
00000000
10000000
00010000
10000000
00010000
,  // measure 146
10000000
00000000
00010000
10000000
01000000
00010000
00001000
00000010
,  // measure 147
00000001
00000000
00000100
00000000
00001000
00000000
00010000
00000000
01000000
00000000
00000000
00000000
10000000
01000000
10000000
01000000
,  // measure 148
10000000
00000000
01000000
00100000
00010000
00000000
00100000
00001000
,  // measure 149
00010000
00001000
00010000
00001000
00000100
00000001
00000010
00000100
,  // measure 150
00000010
00000100
00001000
00000001
00001001
00000000
00000001
00000010
,  // measure 151
00000100
00001000
00000100
00001000
00000100
00010000
00001000
00010000
,  // measure 152
00011000
00000000
00010000
00100000
01000000
00000000
00100000
10000000
,  // measure 153
01000000
10000000
01000000
10000000
00010000
00100000
00001000
00010000
,  // measure 154
00001000
00010000
00001000
00000010
00000110
00000000
00000010
00000100
,  // measure 155
00001000
00000001
00001000
00000001
00001000
00000100
00000010
00000001
,  // measure 156
00002002
00000000
00000003
00000000
00003001
00000100
00001000
00010000
,  // measure 157
02000000
00000000
00000000
13000000
01000000
00010000
00001000
00000100
,  // measure 158
00000001
00000100
00000001
00000000
00000100
00000000
00000000
00000000
00001000
00000100
00001000
00000000
00000100
00000000
00000000
00000000
,  // measure 159
00000001
00000100
00000001
00000000
00000100
00000000
00000000
00000000
00001000
00000100
00001000
00000000
00000200
00000000
00000000
00000000
,  // measure 160
00000000
00000000
00000300
00000000
00000001
00000100
00001000
00010000
,  // measure 161
02000000
00000000
00000000
03010000
01000000
10000000
00100000
10000000
,  // measure 162
01000000
10000000
01000000
00000000
10000000
00000000
00000000
00000000
01000000
00010000
01000000
00000000
00010000
00000000
00000000
00000000
,  // measure 163
01000000
10000000
01000000
00000000
10000000
00000000
00000000
00000000
01000000
00010000
01000000
00000000
00010000
00000000
00000000
00000000
,  // measure 164
00001000
00010000
00001000
00010000
00001000
00000000
00000000
00000000
00011000
00000000
00001000
00000000
00000000
01000000
00000000
00000000
,  // measure 165
00100000
00000000
00000000
10000000
00000000
00000000
10100000
00000000
00000000
00000000
01000000
00000000
00000000
00010000
00000000
00000000
,  // measure 166
00001000
00000000
00000000
00000100
00000000
00000000
00000101
00000000
00000000
00000000
00001000
00000000
00000000
00000010
00000000
00000000
,  // measure 167
00000100
00000000
00000000
00001000
00000000
00000000
00010000
00000000
00100000
00000000
00000000
10000000
00000000
00000000
00010000
00000000
,  // measure 168
00000000
01000000
00000000
00000000
00001000
00000000
00010000
00000000
00001000
00010000
00001000
00000000
00000000
00001000
00000000
00000000
,  // measure 169
00000100
00000000
00000000
00000001
00000000
00001000
00000000
00000000
00000001
00000000
00000100
00000000
00001000
00000000
00000000
00010000
,  // measure 170
00001000
00000000
00010000
00000000
01000000
00000000
10000000
01000000
00000000
00000000
00000000
00100000
01000000
00000000
00010000
00000000
,  // measure 171
10000000
00010000
10000000
01000000
00010000
00001000
00010000
00001000
,  // measure 172
00000100
00000010
00000100
00000000
00000001
00000100
00000001
00000100
,  // measure 173
00001000
00010000
00100000
00010000
00100000
10000000
01000000
10000000
,  // measure 174
01000000
00010000
01000000
00010000
00001000
00010000
00001000
00010000
,  // measure 175
00001000
00000100
00000001
00000100
00001000
00010000
01000000
10000000
,  // measure 176
01000000
00010000
00001000
00000100
00000001
00000010
00001000
00000000
,  // measure 177
00010000
00100000
10000000
00000000
01000000
00010000
00001000
00000100
,  // measure 178
00001000
00010000
00100000
00000000
00010000
00001000
00000010
00000000
,  // measure 179
00001000
00000001
00000100
00000000
00000010
00000001
00000100
00001000
,  // measure 180
00010000
01000000
00100000
00000000
10010000
00000000
00000000
11000000
,  // measure 181
00000000
00000000
01100000
00000000
00000000
00110000
00000000
00000000
,  // measure 182
00011000
00000000
00000010
00000000
00000100
00000000
00000000
00000101
,  // measure 183
00000000
00000000
00000110
00000000
00000000
00001100
00000000
00000000
,  // measure 184
00011000
00000000
00100000
00000000
01000000
00000000
00100000
20000000
,  // measure 185
00000000
31000000
00020000
00000000
00031000
00100000
00001000
00000000
,  // measure 186
00010010
00000000
00011000
00000000
00001000
00000000
00000010
00000002
,  // measure 187
00000000
00000103
00002000
00000000
00013000
00001000
00100000
00010000
,  // measure 188
10000000
01000000
10000000
00000000
00010000
00100000
00001000
00010000
,  // measure 189
00001000
00100000
00001000
00010000
00000010
00001000
00000010
00010000
,  // measure 190
00000100
00001000
00000010
00000000
00001000
00000100
00010000
00001000
,  // measure 191
00010000
00000100
00010000
00001000
01000000
00010000
01000000
00001000
,  // measure 192
00100000
00010000
01000000
00000000
00100000
10000000
00100000
10000000
,  // measure 193
01000000
00010000
01000000
00000000
00000000
00000000
00000000
00000000
,  // measure 194
00000000
00000000
00000000
00000000
00000010
00000001
00000010
00000001
,  // measure 195
00000100
00001000
00000100
00000000
00010000
00100000
01000000
10000000
,  // measure 196
01000000
00010000
00001000
00000100
00000001
00000010
00000010
00000100
,  // measure 197
00001000
00000000
00000000
00000000
00010000
00001000
00000000
00000000
00020000
00000000
00000000
00000000
00100000
00000000
00000000
00000000
,  // measure 198
00001000
00000000
00000000
00000000
00130000
00000000
10000000
00000000
00000000
00000000
00010000
00000000
10000000
01000000
00000000
00100000
,  // measure 199
00000000
00000000
01000000
00000000
10000000
01000000
00000000
00100000
00000000
00000000
01000000
00000000
00010000
00000000
00001000
00010000
,  // measure 200
00000000
00000000
00001000
00000000
00001000
00000000
00000000
00000000
00000000
00000000
00000001
00000000
00001000
00000000
00000010
00000100
,  // measure 201
00000000
00000000
00000001
00000000
00001000
00000000
00000100
00000000
00000010
00000000
00000001
00000000
00000010
00000001
00000000
00000000
,  // measure 202
00000100
00000000
00001000
00000000
00010000
00000000
01000000
00000000
00000000
00000000
10000000
00000000
00100000
00000000
00100000
01000000
,  // measure 203
00000000
00000000
01000000
00010000
01000000
00010000
00000000
00000000
00202000
00000000
00000000
00000000
00303000
00000000
00000000
00000000
,  // measure 204
00000000
00010000
00000000
00000010
00000000
00001000
00000000
00000100
,  // measure 205
00000000
00010000
00000000
00001000
00000000
01000000
00000000
00010000
,  // measure 206
00000000
00100000
00000000
00001000
00000000
00010000
00000000
00000010
,  // measure 207
00000000
00001000
00000001
00000010
00000000
00000200
00000000
00000001
,  // measure 208
00000000
00000010
00000000
00001300
00000000
02000000
00000000
10000000
,  // measure 209
00000000
00100000
00000000
03010000
00000000
00000200
00000000
00000001
,  // measure 210
00000000
00000010
00000000
00001300
00000000
00000010
00000000
00000100
,  // measure 211
00000000
00001000
00010000
00001000
00010000
00001000
00000100
00000010
,  // measure 212
00000100
00001000
00010000
01000000
00100000
00000000
01100000
00000000
,  // measure 213
10000000
00010000
01000000
00100000
01000000
00001000
00100000
00001000
,  // measure 214
00010000
00000100
00010000
00000010
00000100
00000000
00000110
00000000
,  // measure 215
00000001
00001000
00000100
00000001
00000000
00001000
00000000
00000000
,  // measure 216
00000000
00002001
00000000
00000000
00000000
00013000
00000000
00000000
,  // measure 217
00000000
10020000
00000000
00000000
00000000
00030000
00000000
00011000
,  // measure 218
00000000
00001000
00000001
00000000
00000000
00011000
00000000
00010000
,  // measure 219
10000000
00000000
00000000
02000000
00000000
00000000
00000000
00000000
,  // measure 220
00000000
00000000
00000000
00000000
,  // measure 221
00000000
03000000
00000000
00000000
00000000
00000000
00000000
00000000
;
