#TITLE:Playa;
#SUBTITLE:(Original Mix);
#ARTIST:Hamel and St. Croix feat. Jules Mari;
#TITLETRANSLIT:;
#SUBTITLETRANSLIT:;
#ARTISTTRANSLIT:;
#CREDIT:;
#BANNER:Playa (Original Mix).png;
#BACKGROUND:Playa (Original Mix)-bg.png;
#LYRICSPATH:;
#CDTITLE:DanceDanceRevolutionX.png;
#MUSIC:Playa (Original Mix).mp3;
#OFFSET:-0.060;
#SAMPLESTART:49.947;
#SAMPLELENGTH:15.360;
#SELECTABLE:YES;
#BPMS:0.000=125.000;
#STOPS:;
#BGCHANGES:;

//---------------dance-single - ----------------
#NOTES:
     dance-single:
     :
     Beginner:
     2:
     0.122,0.123,0.000,0.000,0.000:
0000
0000
0000
0000
,
0000
0000
0000
0000
,
1000
0000
0000
0000
,
0010
0000
0010
0000
,
0010
0000
0000
0000
,
0100
0000
0100
0000
,
0100
0000
0000
0000
,
0001
0000
0001
0000
,
0001
0000
0000
0000
,
1000
0000
1000
0000
,
1000
0000
0001
0000
,
1000
0000
0001
0000
,
0010
0000
0100
0000
,
0010
0000
0100
0000
,
1000
0000
1000
0000
,
0001
0000
0001
0000
,
0010
0000
0000
0000
,
0100
0000
0000
0000
,
0100
0000
1000
0000
,
0100
0000
1000
0000
,
0001
0000
0100
0000
,
0001
0000
0100
0000
,
0010
0000
1000
0000
,
0010
0000
1000
0000
,
0001
0000
0010
0000
,
0001
0000
0010
0000
,
0100
0100
0000
0000
,
1000
0000
0010
0000
,
0100
0100
0000
0000
,
0001
0000
1000
0000
,
0100
0100
0000
0000
,
0001
0000
0100
0000
,
0010
0000
1000
0000
,
0100
0000
0001
0000
,
0100
0000
0000
0000
,
1000
0000
0010
0000
,
0100
0000
0000
0000
,
0001
0000
0010
0000
,
0100
0000
0000
0000
,
1000
0000
0001
0000
,
0100
0000
0000
0000
,
0001
0000
1000
0000
,
0100
0000
0100
0000
,
0010
0000
0010
0000
,
0001
0000
0001
0000
,
1000
0000
1000
0000
,
0010
0000
0010
0000
,
0100
0000
0100
0000
,
0001
0000
0001
0000
,
1000
0000
0001
0000
;

//---------------dance-single - ----------------
#NOTES:
     dance-single:
     :
     Easy:
     4:
     0.218,0.223,0.040,0.080,0.000:
0000
0000
0000
0000
,
0000
0000
0000
0000
,
0010
0000
0010
0000
,
1000
1000
0010
0010
,
0100
0000
0001
0000
,
0100
0100
0001
0001
,
0010
0000
0010
0000
,
0100
0100
1000
1000
,
0001
0000
0001
0000
,
1000
1000
1001
0000
,
0001
1000
0001
1000
,
0001
0000
1000
0000
,
0010
0100
0010
0100
,
0010
0000
0100
0000
,
0001
0010
0001
0010
,
0001
0000
0100
0000
,
1000
0010
0100
0000
,
0001
0010
0100
0000
,
1000
0100
1000
0100
,
1000
0000
0001
0000
,
0100
0001
0100
0001
,
0100
0000
0010
0000
,
1000
0010
1000
0010
,
1000
0000
0100
0000
,
0010
0001
0010
0001
,
0010
0000
0100
0000
,
1000
0001
1000
0100
,
0010
0000
0001
0000
,
1000
0001
1000
0010
,
0100
0000
0001
0000
,
0010
0100
0010
0000
,
1000
0100
1000
0000
,
0001
0100
0001
0000
,
1001
0000
0110
0000
,
0010
0000
0010
0000
,
1000
1000
0010
0010
,
0100
0000
0001
0000
,
0100
0100
0001
0001
,
0010
0000
0010
0000
,
0100
0100
1000
1000
,
0001
0000
0001
0000
,
1000
1000
1001
0000
,
2000
3000
2000
3000
,
0100
1000
0100
1000
,
0020
0030
0020
0030
,
0100
0010
0100
0010
,
0002
0003
0002
0003
,
0010
0001
0010
0001
,
0200
0300
0200
0300
,
0010
0100
0010
0100
;

//---------------dance-single - ----------------
#NOTES:
     dance-single:
     :
     Medium:
     7:
     0.357,0.349,0.189,0.080,0.000:
0000
0000
0000
0000
,
0000
0000
0000
0000
,
0100
0000
0100
0000
0001
0100
1000
0000
,
0010
0000
0010
0000
0001
0010
1000
0000
,
0001
0000
0001
0000
0010
0001
0100
0000
,
1000
0010
0001
0100
,
0010
0000
0010
0000
1000
0100
0001
0000
,
0100
0000
0100
0000
0001
0010
1000
0000
,
0100
0000
0100
0000
0010
1000
0100
0000
,
0001
0010
1000
0100
,
0001
0010
0001
0010
,
0100
1000
0100
1000
0000
0001
0100
0000
,
0010
1000
0010
1000
,
0001
0000
0100
0000
0010
0010
0010
0000
,
1000
0100
1000
0100
,
0010
0000
0001
0000
1000
0100
0010
0000
,
0001
0100
0001
0100
0001
0000
0010
0000
,
0100
1000
0100
1000
0100
0000
1001
0000
,
0010
0011
0010
0011
,
1000
0101
0001
1100
,
1000
1010
1000
1010
,
0001
0000
1100
0000
1000
0000
0101
0001
,
0001
1000
0001
1000
,
0100
0010
0100
0000
1000
0000
0001
0000
,
0100
0010
0100
0010
,
1000
0001
1000
0000
0001
0000
0110
0000
,
0101
0101
0001
0010
,
1000
0100
1000
0000
0001
0100
0001
0000
,
1010
1010
0100
0001
,
0010
0001
0010
0000
1000
0010
1000
0000
,
1001
1001
0010
0001
,
0100
0010
0100
0000
0001
1000
0001
0000
,
0010
0010
0100
0100
,
1000
0001
0100
0010
0100
0000
0110
0000
,
1002
1000
1000
0013
,
2000
3100
0002
0103
,
2000
0010
0001
3001
,
0100
1000
0010
0001
,
0200
1000
1000
0310
,
2000
3010
0002
0103
,
0020
1000
1000
0130
,
0010
0001
0100
1000
,
0100
0000
0100
0000
0001
0100
1000
0000
,
0010
0000
0010
0000
0001
0010
1000
0000
,
0001
0000
0001
0000
0010
0001
0100
0000
,
1000
0010
0001
0100
,
0010
0000
0010
0000
1000
0100
0001
0000
,
0100
0000
0100
0000
0001
0010
1000
0000
,
0100
0000
0100
0000
0010
1000
0100
0000
,
0001
0010
1000
0100
,
1001
0000
0000
0000
;

//---------------dance-single - ----------------
#NOTES:
     dance-single:
     :
     Hard:
     11:
     0.522,0.480,0.289,0.070,0.309:
0000
0000
0000
0000
,
0000
0000
0000
0000
,
1000
0100
0000
0010
0000
0000
0100
0000
1000
0100
0000
0010
0000
0000
0001
0000
,
0100
0010
0000
1000
0000
0000
0010
0000
0100
0010
0000
1000
0000
0000
0001
0000
,
0100
1000
0000
0100
0000
0000
0010
0000
0100
1000
0000
0100
0000
0000
0010
0000
,
1000
0000
0001
0010
0000
0000
1000
0010
0000
0000
0001
0010
0000
0000
0100
0000
,
0100
1000
0000
0010
0000
0000
0100
0000
0100
0001
0000
0010
0000
0000
0001
0000
,
0001
0100
0000
0010
0000
0000
1000
0000
1000
0100
0000
0010
0000
0000
0001
0000
,
0001
1000
0000
0010
0000
0000
1000
0000
1000
0001
0000
0010
0000
0000
1000
0000
,
0010
0000
0001
1000
0000
0000
0010
0100
0000
0000
0001
0010
0000
0000
0100
1000
,
0001
0000
0001
0000
0001
0000
0001
0100
,
0010
0100
0001
1000
0000
0010
0100
0001
,
1000
0100
0010
0100
0010
0100
0000
0001
,
0100
1000
0000
0010
0100
0001
1001
0000
,
0100
0001
0010
0001
1000
0010
1000
0100
,
0001
0100
0000
1000
0001
1000
0000
0000
,
0100
0001
0010
0100
1000
0001
0000
0000
,
0100
1000
0010
0100
0001
1000
0000
0100
,
1001
0000
0101
0000
1100
0000
1001
0100
,
0001
0010
1000
0010
0001
0010
1000
0010
,
1001
0000
1010
0000
0101
0000
1001
0010
,
1000
0100
0001
0100
1000
0100
0010
0001
,
0001
0100
0010
1000
1000
0100
0010
0001
,
1100
0000
0011
0000
1100
0000
0011
0100
,
1000
0010
1000
0001
0010
0001
0100
1000
,
0100
0001
1010
0000
0101
0000
1010
0000
,
0001
0100
0001
0010
0001
1000
0100
0010
,
0001
1000
0001
0000
1000
0000
0011
0000
,
1000
0100
1000
0010
1000
0001
0010
1000
,
0010
0001
1000
0000
0001
0000
1010
0000
,
0100
0001
0100
1000
0100
0010
1000
0100
,
0010
0001
0100
0000
0001
0000
1100
0000
,
0010
1000
0010
0001
0010
0100
0001
0010
,
0100
1000
0000
0010
0100
0010
1001
0000
,
0210
0000
0001
0000
0310
1000
1000
0000
,
1200
0000
0010
0000
1300
0001
0001
0010
,
0102
0000
1000
0000
0103
0100
0010
0000
,
1000
1000
0001
0001
1000
0100
0010
0001
,
0102
0000
1000
0000
0103
0001
0001
0000
,
2100
0000
0001
0000
3100
1000
1000
0001
,
0102
0000
0010
0000
1003
0001
0010
0000
,
0100
1100
0101
1100
,
0001
0010
0000
0100
0000
0000
0010
0000
0001
0010
0000
0100
0000
0000
1000
0000
,
0010
0100
0000
0001
0000
0000
0100
0000
0010
0100
0000
0001
0000
0000
1000
0000
,
0010
0001
0000
0010
0000
0000
0100
0000
0010
0001
0000
0010
0000
0000
0100
0000
,
0001
0000
1000
0100
0000
0000
0001
0100
0000
0000
1000
0100
0000
0000
0010
0000
,
0010
0001
0000
0100
0000
0000
0010
0000
0010
1000
0000
0100
0000
0000
1000
0000
,
1000
0010
0000
0100
0000
0000
0001
0000
0001
0010
0000
0100
0000
0000
1000
0000
,
1000
0001
0000
0100
0000
0000
0001
0000
0001
1000
0000
0100
0000
0000
0001
0000
,
0100
0000
1000
0001
0000
0000
0100
0010
0000
0000
1000
0100
0000
0000
0010
0001
,
0200
0000
0000
0300
;

//---------------dance-double - ----------------
#NOTES:
     dance-double:
     :
     Easy:
     4:
     0.193,0.173,0.000,0.000,0.000:
00000000
00000000
00000000
00000000
,
00000000
00000000
00000000
00000000
,
00010000
00000000
00001000
00000000
,
00010000
00010000
00100000
00000000
,
00010000
00000000
00001000
00000000
,
00010000
00010000
01000000
00000000
,
00010000
00000000
00001000
00000000
,
00000100
00000100
00001000
00000000
,
00010000
00000000
00001000
00000000
,
00000010
00000010
00000001
00000000
,
00001000
00001000
00000001
00000001
,
00000100
00000000
00001000
00000000
,
00010000
00010000
00001000
00001000
,
00010000
00000000
01000000
00000000
,
10000000
10000000
00010000
00010000
,
01000000
00000000
10000000
00000000
,
01000000
00010000
00001000
00000000
,
00010000
00001000
00000100
00000000
,
00000010
00000100
00000010
00000100
,
00000010
00000000
00001000
00000000
,
00000100
00001000
00000100
00001000
,
00000100
00000000
00010000
00000000
,
00001000
00010000
00001000
00010000
,
00001000
00000000
01000000
00000000
,
00010000
01000000
00010000
01000000
,
00010000
00000000
00100000
00000000
,
01000000
10000000
00010000
00000000
,
01000000
00010000
00100000
00000000
,
00001000
00010000
00001000
00000000
,
00000100
00001000
00000010
00000000
,
00000100
00000001
00001000
00000000
,
00000010
00001000
00000100
00000000
,
00010000
00001000
00010000
00000000
,
00100000
00010000
01000000
00000000
,
00100000
00000000
10000000
00000000
,
01000000
10000000
00100000
00000000
,
00010000
00000000
00001000
00000000
,
00000100
00000001
00000010
00000000
,
00000100
00000000
00001000
00000000
,
00000100
00010000
00001000
00000000
,
00100000
00000000
00010000
00000000
,
01000000
00001000
00010000
00000000
,
00000100
00000000
00001000
00000000
,
00000010
00000010
00001000
00000001
,
00000100
00000000
00000100
00000000
,
00001000
00001000
00010000
00001000
,
00010000
00000000
00010000
00000000
,
00100000
00100000
01000000
00010000
,
10000000
00000000
10000000
00000000
,
01000000
01000000
00010000
00001000
;

//---------------dance-double - ----------------
#NOTES:
     dance-double:
     :
     Medium:
     7:
     0.357,0.398,0.259,0.080,0.000:
00000000
00000000
00000000
00000000
,
00000000
00000000
00000000
00000000
,
10000000
00100000
10000000
01010000
,
00001000
00000000
00010000
00000000
00000100
00001000
00000100
00000000
,
00000001
00000100
00000001
00001100
,
00010000
00001000
01000000
00100000
,
10000000
00000000
00010000
00000000
10000000
01000000
00100000
00000000
,
00001000
00000000
00010000
00000000
00001000
00000100
00000010
00000000
,
00001000
00000000
00000001
00000000
00000010
00000100
00001000
00000000
,
00000001
00000100
00001000
00010000
,
00001000
00001000
00001000
00001000
,
00100000
00001000
00100000
00010000
00000000
00010000
01000000
00000000
,
00100000
00100000
00100000
00100000
,
10000000
00000000
01000000
00000000
00010000
00001000
00010000
00000000
,
00000100
00000100
00000100
00000100
,
00000010
00000000
00000001
00000000
00001000
00000100
00000010
00000000
,
00000001
00001000
00000101
00001100
,
00010000
00001000
00010100
00011000
,
00100000
00010000
01000000
10100000
,
01000000
00010000
00100000
11000000
,
00010000
00100000
00001000
00011000
,
00010000
00000000
00000010
00000000
00001000
00000000
00000101
00000010
,
00000100
00000001
00001000
00000100
,
00010000
00001000
00010000
00000000
00001000
00010000
00001000
00000000
,
01000000
00010000
00100000
01000000
,
10000000
00100000
10000000
00000000
00010000
01000000
00010000
00000000
,
00110000
00110000
00101000
00110000
,
00001000
00010000
00000100
00000000
00000010
00001000
00000100
00000000
,
00000011
00000011
00001001
00000011
,
00000100
00001000
00000010
00000000
00010000
00001000
00100000
00000000
,
00110000
00110000
01100000
11000000
,
00010000
00100000
01000000
00000000
10000000
00100000
01000000
00000000
,
00100000
00010000
00001000
00000100
,
00000001
00000010
00000000
00000100
00000000
00001000
00000001
00000000
,
00001002
00001000
00001000
00000103
,
00002000
00003100
00020000
00031000
,
02000000
00010000
00010000
03100000
,
10000000
01000000
00100000
00010000
,
02000000
00100000
00100000
03010000
,
00200000
00301000
00020000
00030100
,
00002000
00000010
00000010
00003001
,
00000100
00001000
00010000
01000000
,
10000000
00100000
10000000
01010000
,
00001000
00000000
00010000
00000000
00000100
00001000
00000100
00000000
,
00000001
00000100
00000001
00001100
,
00010000
00001000
01000000
00100000
,
10000000
00000000
00010000
00000000
10000000
01000000
00100000
00000000
,
00001000
00000000
00010000
00000000
00001000
00000100
00000010
00000000
,
00001000
00000000
00000001
00000000
00000010
00000100
00001000
00000000
,
00000001
00000100
00001000
00010000
,
00011000
00000000
00000000
00000000
;

//---------------dance-double - ----------------
#NOTES:
     dance-double:
     :
     Hard:
     11:
     0.491,0.430,0.139,0.010,0.000:
00000000
00000000
00000000
00000000
,
00000000
00000000
00000000
00000000
,
00001000
01000000
00010000
01000000
00001000
01000000
00010000
00100000
,
00001000
00010000
00000010
00010000
00001000
00010000
00000010
00001000
,
00000100
00010000
00001000
00010000
00000100
00010000
00001000
01000000
,
00001000
00010000
01000000
10000000
00100000
00010000
00001000
00000010
,
00000100
00010000
00001000
00010000
00000100
00010000
00001000
01000000
,
00010000
00100000
00001000
00100000
00010000
00100000
00001000
00010000
,
00000010
00010000
00001000
00010000
00000010
00010000
00001000
01000000
,
00001000
00010000
00100000
10000000
01000000
00100000
00010000
10000000
,
01000000
10010000
01000000
10010000
,
00100000
00001000
00010000
00000010
00000000
00001000
00000100
00000000
,
00000010
00001001
00000010
00001001
,
00000100
00010000
00001000
01000000
00100000
01000000
00010000
10000000
,
10000000
01010000
10000000
01010000
,
10000000
00100000
00010000
00001000
00000100
00000001
00001000
00000000
,
00000010
00010000
00001000
00000100
00001000
00010000
00100000
00000000
,
01000000
00001000
00010000
01000000
00010000
00001000
00000010
00000001
,
00000001
00000100
00000100
00000010
00000010
00001000
00001000
00000100
,
00000100
00010000
00001000
00000000
01000000
00001000
00010000
00001000
,
00001000
00100000
00100000
00010000
00010000
10000000
10000000
00100000
,
00100000
01000000
00001000
00000000
00010000
00000100
00000010
00000000
,
00000001
00000100
00000010
00001000
00010000
01000000
00100000
10000000
,
01000000
01000000
01000000
00000000
00100000
00000000
10010000
00000000
,
10000000
01000000
00100000
00010000
00001000
00000100
00000010
00000001
,
00000100
00000100
00000100
00000000
00000010
00000000
00001001
00000000
,
00000110
00000000
00000110
00000000
00000001
00000100
00001000
00000100
,
00000001
00000010
00001000
00000000
00010000
00000000
01000000
00000000
,
11000000
00000000
11000000
00000000
00010000
00100000
01000000
10000000
,
01000000
00010000
00001000
00000000
00000010
00000000
00000001
00000000
,
00001100
00000000
00000011
00000000
00001000
00000010
00010000
00000100
,
00001000
00000010
00000100
00000000
00001000
00000000
00010000
00000000
,
00100000
01000000
10000000
01000000
00100000
10000000
00010000
00100000
,
01000000
00010000
00000000
00001000
00000100
00000010
00001000
00000000
,
00000001
00000010
00000001
00000000
00001000
00000100
00000010
00000000
,
00001000
00010000
00001000
00000000
00100000
00010000
10000000
00000000
,
01000000
10000000
01000000
00000000
00100000
00010000
10000000
00000000
,
01000000
10000000
00100000
00010000
00001000
00000010
00000001
00000000
,
00001000
00000010
00001000
00000000
00000001
00000100
00000010
00000000
,
00010000
00000010
00010000
00000000
00001000
00100000
00001000
00000000
,
01000000
00010000
10000000
00000000
00100000
10000000
01000000
00000000
,
00010000
01000000
10000000
00100000
00010000
00001000
00000010
00000100
,
00010000
00000100
00001000
00000100
00010000
00000100
00001000
00000010
,
00010000
00001000
00100000
00001000
00010000
00001000
00100000
00010000
,
01000000
00001000
00010000
00001000
01000000
00001000
00010000
00000100
,
00010000
00001000
00000100
00000001
00000010
00001000
00010000
00100000
,
01000000
00001000
00010000
00001000
01000000
00001000
00010000
00000100
,
00001000
00000010
00010000
00000010
00001000
00000010
00010000
00001000
,
00100000
00001000
00010000
00001000
00100000
00001000
00010000
00000100
,
00010000
00001000
00000010
00000001
00000100
00001000
00010000
01000000
,
20000000
00000000
00000000
30000000
;

//---------------dance-single - ----------------
#NOTES:
     dance-single:
     :
     Challenge:
     8:
     0.442,0.573,0.060,0.249,0.224: // measure 1
0000
0000
0000
0000
,  // measure 2
0000
0000
0000
0000
,  // measure 3
0020
0000
0000
2030
,  // measure 4
3020
0000
0230
0000
,  // measure 5
0320
0000
0000
0000
,  // measure 6
2030
0000
0000
3002
0000
0000
0000
0000
,  // measure 7
0023
0000
0000
0032
,  // measure 8
0023
0000
0230
0000
,  // measure 9
0320
0000
0000
0000
,  // measure 10
0032
0000
0000
2003
0000
0000
0000
3100
,  // measure 11
0010
0000
0100
0000
0010
0001
0100
0000
0010
0000
0100
0000
0001
0000
1000
0000
,  // measure 12
0100
0100
1000
0001
0000
0001
0001
0001
,  // measure 13
1000
0100
0001
0100
1000
0100
0000
0100
,  // measure 14
0100
0010
0000
0010
1000
0001
0100
0010
,  // measure 15
0001
0100
0010
1000
0010
0100
1000
0001
,  // measure 16
1000
0100
0001
0010
1000
0010
0000
0000
,  // measure 17
1000
0010
0001
0001
0100
1000
0000
0000
,  // measure 18
1000
0100
0001
0010
0010
1000
0000
1000
,  // measure 19
0010
0001
0100
0001
0010
0001
0100
0001
,  // measure 20
1000
0010
1000
0100
1000
0010
1000
0100
,  // measure 21
0001
0100
0001
0100
0010
0001
0010
0001
,  // measure 22
1000
0010
0001
0010
1000
0001
0100
1000
,  // measure 23
0100
0001
0010
0100
0001
0100
0010
0001
,  // measure 24
1000
1000
2000
0000
0000
3000
0000
0100
,  // measure 25
0010
1000
0010
0100
0010
0001
1000
0100
,  // measure 26
0010
0010
0020
0000
0000
0030
0000
0000
,  // measure 27
0011
0000
0011
0000
0001
0100
1000
0100
,  // measure 28
0001
0010
1000
0000
0000
0000
0000
0000
,  // measure 29
1010
0000
1010
0000
1000
0010
0001
0010
,  // measure 30
1000
0100
0001
0000
0000
0000
0000
0000
,  // measure 31
0101
0000
0101
0000
0001
0100
1000
0100
,  // measure 32
0001
0010
1000
0000
0000
0000
0000
0010
,  // measure 33
0001
0001
0001
0100
0010
0010
1000
0100
,  // measure 34
0001
0100
0000
0010
0002
2000
0003
3000
,  // measure 35
0002
0010
0100
2003
,  // measure 36
3200
0001
0320
1000
,  // measure 37
0032
0100
0010
1000
,  // measure 38
0203
0000
0010
0302
1000
0000
0010
0000
,  // measure 39
0103
0000
0000
0100
0000
0000
0001
0000
1000
0000
0000
1000
0000
0000
0100
0000
,  // measure 40
0010
0000
0000
0010
0000
0000
0100
0000
0001
0000
0000
0001
0000
0000
0100
0000
,  // measure 41
1000
0000
0000
1000
0000
0000
0010
0000
0000
0010
0000
0000
0100
0000
0001
0000
,  // measure 42
0010
0010
0010
0010
,  // measure 43
0001
0100
0000
0100
0000
0000
0010
0000
1000
0100
0000
0100
0000
0000
0010
0000
,  // measure 44
0001
1000
0000
1000
0000
0000
0100
0000
0010
0001
0000
0001
0000
0000
0100
0000
,  // measure 45
0010
1000
0000
1000
0000
0000
1000
0000
0000
0001
0000
0001
0100
0000
0010
0000
,  // measure 46
0100
0000
0001
0000
0000
0000
1000
0000
0000
0000
0001
0000
0000
0000
1000
0100
,  // measure 47
1000
0100
0000
1000
0000
0000
0001
0100
0001
0100
0000
0001
0000
0000
1000
0010
,  // measure 48
1000
0010
0000
0100
0000
0000
0001
0010
0001
0010
0000
0100
0000
0000
1000
0100
,  // measure 49
0010
0001
0000
0100
0000
0010
1000
0000
0000
0001
0000
0001
0010
0000
0100
0000
,  // measure 50
1000
0001
1000
0100
0000
0010
0001
0100
0000
0010
1000
0100
0000
0010
0001
1000
,  // measure 51
0001
0000
0000
0000
;
