#TITLE:PASSION OF LOVE;
#SUBTITLE:;
#ARTIST:NAOKI feat. PAULA TERRY;
#TITLETRANSLIT:;
#SUBTITLETRANSLIT:;
#ARTISTTRANSLIT:;
#CREDIT:;
#BANNER:PASSION OF LOVE.png;
#BACKGROUND:PASSION OF LOVE-bg.png;
#LYRICSPATH:;
#CDTITLE:Dance Dance Revolution Extreme 2.png;
#MUSIC:PASSION OF LOVE.ogg;
#OFFSET:0.000;
#SAMPLESTART:27.100;
#SAMPLELENGTH:15.000;
#SELECTABLE:YES;
#DISPLAYBPM:78.000:155.000;
#BPMS:0.000=157.205,4.000=155.024,40.000=77.503,48.000=154.999;
#STOPS:;
#BGCHANGES:0.000=PASSION OF LOVE.avi=1.000=0=0=0,
239.000=PASSION OF LOVE-bg.png=1.000=0=0=1,
99999=-nosongbg-=1.000=0=0=0 // don't automatically add -songbackground-
;

//---------------dance-single - ----------------
#NOTES:
     dance-single:
     :
     Beginner:
     1:
     0.141,0.173,0.000,0.000,0.000:
0000
0000
0000
0000
,
0000
0000
0000
0000
,
0000
0000
0000
0000
,
0000
0000
0000
0000
,
0000
0000
0000
0000
,
0000
0000
0000
0000
,
0010
0000
0010
0000
,
0001
0000
0001
0000
,
1000
0000
1000
0000
,
0010
0000
0010
0000
,
1000
0000
1000
0000
,
0001
0001
0001
0000
,
0100
0000
0100
0000
,
0010
0000
0010
0000
,
0100
0000
0100
0000
,
0001
0000
0001
0000
,
1000
1000
0000
0000
,
0001
0000
0001
0000
,
0100
0100
0000
0000
,
0010
0000
0010
0000
,
1000
1000
0000
0000
,
0001
0000
0001
0000
,
0100
0000
0100
0000
,
0010
0000
0010
0000
,
1000
0000
0000
0000
,
0100
0000
0000
0000
,
0001
0000
0000
0000
,
0010
0000
0000
0000
,
1000
1000
1000
0000
,
0001
0000
0001
0000
,
0010
0010
0010
0000
,
0100
0000
0100
0000
,
1000
0000
1000
0000
,
0001
0000
0001
0000
,
1000
0000
0001
0000
,
1000
0000
0001
0000
,
0100
0000
0010
0000
,
0100
0000
0010
0000
,
1000
0000
0100
0000
,
1000
0000
0100
0000
,
0001
0000
0000
0000
,
0010
0000
1000
1000
,
1000
0000
0000
0000
,
0100
0000
0000
0000
,
0100
0000
0100
0000
,
0010
0000
0010
0000
,
0100
0000
0100
0000
,
0010
0000
0010
0000
,
1000
0000
1000
0000
,
0001
0000
0001
0000
,
1000
0000
1000
0000
,
0001
0000
0001
0000
,
0100
0000
0010
0000
,
0100
0000
0010
0000
,
1000
0000
0001
0000
,
1000
0000
0001
0000
,
1000
0000
0000
0000
,
0010
0000
0000
0000
,
0100
0000
0000
0000
,
0001
0000
0000
0000
;

//---------------dance-single - ----------------
#NOTES:
     dance-single:
     :
     Easy:
     4:
     0.240,0.263,0.059,0.117,0.000:
0000
0000
0000
0000
,
0000
0000
0000
0000
,
0000
0000
0000
0000
,
0000
0000
0000
0000
,
0000
0000
0000
0000
,
0000
0000
0000
0000
,
2002
0000
0000
3003
,
1000
0000
0001
0000
,
0010
0100
0010
0000
,
0220
0000
0000
0330
,
0010
0001
0100
1000
,
0100
0001
0010
0100
,
1000
1000
0001
0001
,
1000
0000
0001
0000
,
0010
0100
0010
0000
,
0001
0000
1000
0000
,
0001
0100
1000
0100
,
0001
0000
0010
0100
,
1000
0001
0010
0100
,
1000
0000
0010
1000
,
0100
0001
0100
1000
,
0010
0000
1000
0010
,
1000
0100
0010
0001
,
1000
0000
1001
0000
,
0010
0001
0010
0001
,
0010
0000
0000
0000
,
1000
0100
1000
0100
,
1000
0000
1001
0000
,
1000
0001
1000
0000
,
0100
0010
0100
0000
,
0010
0001
0010
0000
,
0100
1000
0100
0010
,
0001
0010
0100
0000
,
0001
1000
0001
0000
,
1000
0100
0001
0100
,
1000
0000
0110
0000
,
0010
0001
0100
0000
,
0010
1000
0100
0000
,
1000
0100
0001
0100
,
1000
0000
0010
1000
,
0002
0000
0000
1003
,
0200
0000
1300
1000
,
0020
0000
0000
0130
,
0002
0000
1003
0100
,
0010
0001
0010
0000
,
1000
0100
1000
0000
,
0001
0100
1000
0100
,
0001
0000
1001
0000
,
0010
1000
0100
0000
,
0010
0001
0100
0000
,
0001
0100
1000
0100
,
0001
0000
1000
0100
,
0010
0001
1000
0000
,
0001
1000
0001
0000
,
0100
1000
0100
0000
,
0010
0001
0010
0100
,
2000
0000
0000
3000
,
0020
0000
0000
0030
,
0200
0000
0000
0300
,
0002
0000
0000
0003
;

//---------------dance-single - ----------------
#NOTES:
     dance-single:
     :
     Medium:
     6:
     0.344,0.380,0.029,0.186,0.000:
0000
0000
0000
0000
,
0000
0000
0000
0000
,
0000
0000
0000
0000
,
0000
0000
0000
0000
,
0000
0000
0000
0000
,
0000
0000
0000
0000
,
0010
1000
0001
1000
,
0010
0100
0001
0010
,
1000
0010
0001
1000
,
0100
1000
0001
1000
,
0010
0010
1000
0000
0100
0100
0010
0000
,
0001
0001
1000
0000
1000
1000
0001
0000
,
0001
0100
0001
0000
0100
0000
0001
0000
,
0010
1000
0010
0001
,
1000
0100
1000
0000
0100
0000
1000
0000
,
0010
0001
0010
1000
,
0001
1000
0001
1000
0000
0100
0010
0000
,
0001
0010
0100
1000
,
0010
0000
0100
0001
0000
0100
0010
0000
,
1000
1000
0010
0100
,
0001
1000
0001
1000
0000
0100
0010
0000
,
0001
0010
0100
1000
,
0001
0100
1000
0000
1000
0100
0001
0000
,
1001
0000
0000
0000
,
0001
0010
0100
2000
0000
0000
3001
0000
,
0000
0001
1000
0000
,
1000
0010
0100
0002
0000
0000
1003
0000
,
0000
1000
0001
0000
,
0001
0010
0100
0010
0000
0000
0001
0000
,
1000
0010
0100
0010
0000
0000
1000
0000
,
0001
0100
0001
0000
1000
0100
1000
0000
,
2002
0000
0000
3003
,
0010
1000
0100
0000
0001
0000
0100
0000
,
1000
0001
0100
0001
,
0010
0001
0100
0000
1000
0000
0100
0000
,
0001
1000
0100
1000
,
0001
0100
0010
0000
0100
0000
0001
0000
,
1000
0100
0010
0000
0100
0000
1000
0000
,
0002
0000
0023
0000
,
0030
0000
0100
1000
,
0002
0000
2003
0000
3000
0100
0010
0000
,
0002
0003
0001
1000
,
0020
0000
0230
0000
0300
0001
1000
0000
,
0200
0300
0001
0100
,
0001
1000
0001
1000
0000
0100
0010
0000
,
0001
0010
0100
1000
,
0001
0100
1000
0000
1000
0100
0001
0000
,
1001
0000
0000
0000
,
0010
1000
0010
1000
0000
0001
0100
0000
,
0001
0001
1000
0001
,
0010
0000
0001
2000
0000
3020
0000
1030
,
0010
1000
0100
1000
,
0001
0100
0001
0100
0000
1000
0100
0000
,
0001
1000
0100
0100
,
1000
0100
0001
0000
1000
0100
0001
0000
,
0100
0000
1000
0000
0001
0100
0001
0100
,
0002
0000
0000
1003
,
0200
0000
0020
0300
,
0230
0000
0000
1300
,
0002
0000
0000
0003
;

//---------------dance-single - ----------------
#NOTES:
     dance-single:
     :
     Hard:
     7:
     0.442,0.497,0.039,0.215,0.015:
0000
0000
0000
0000
,
0000
0000
0000
0000
,
0000
0000
0000
0000
,
0000
0000
0000
0000
,
0000
0000
0000
0000
,
0000
0000
0000
0000
,
0002
0000
0003
1000
0200
0000
0310
0000
,
0002
0000
0003
1000
0020
0000
0130
0000
,
0002
0000
0003
1000
0002
0000
0000
0000
,
0023
0000
0030
0000
0001
0010
0100
0010
,
0001
0000
0000
1000
0000
0000
0100
0000
0001
0000
0000
0100
0000
0000
0010
0000
,
1000
0000
0000
0010
0000
0000
0001
0000
1000
0000
0010
0000
0001
0000
0010
0000
,
0100
0001
0010
0001
1000
0100
1000
0000
,
0100
1000
0100
0010
0001
0100
0001
0000
,
0020
0000
0000
0031
2000
0000
3000
0000
,
0010
0000
0100
0000
0100
0001
1000
0000
,
0001
0100
1000
0100
0000
0001
1000
0100
,
1000
0010
0100
1000
0100
0010
1000
0000
,
0001
0010
0100
0010
0000
0001
1000
0100
,
0001
0100
1000
0100
0010
0100
1000
0000
,
0001
1000
0100
1000
0000
0010
1000
0010
,
0100
0001
0010
0100
0001
0100
1000
0000
,
0001
1000
0010
0000
0100
0001
0010
0000
,
0200
0000
0300
0000
,
0010
0001
1000
0001
0000
0010
1000
0100
,
2000
0000
0000
3000
,
0100
1000
0001
1000
0000
0100
0001
0010
,
0002
0000
0000
0003
,
1000
0001
0010
0001
1000
0100
1001
0000
,
0001
1000
0010
1000
0001
0100
1001
0000
,
1000
0100
0001
0100
0010
0001
0100
1000
,
0100
0001
0010
0100
1000
0100
0010
0001
,
2000
0000
3010
0100
0000
0000
0200
0000
,
0301
0000
0010
0100
0000
0000
0200
0000
,
1300
0000
0100
0001
0000
0000
0002
0000
,
0103
0000
1000
0010
0000
0000
0000
0000
,
0010
0001
0100
1000
0100
0001
0010
0000
,
0010
1000
0100
0001
0100
1000
0010
0000
,
1000
0010
0001
0000
0001
0010
1000
0000
,
0001
0010
0001
1000
0100
1000
0001
0000
,
0100
0010
1000
0001
0000
1000
0001
1000
,
0000
0000
0110
1001
,
0100
0000
0001
1000
0000
0010
0000
1000
,
0100
0000
1000
0001
,
0010
0001
1000
0001
1000
0100
0001
0000
,
0010
1000
0001
1000
0001
0100
1000
0000
,
0100
0001
0010
0001
1000
0100
1000
0010
,
0100
0000
0000
0100
0000
0000
0000
0000
,
1000
0100
0001
0100
0010
0001
0100
0010
,
0001
0010
0100
1000
,
1000
0100
0001
0010
0100
1000
0010
0100
,
1000
0100
0010
0001
,
0010
1000
0100
0001
0100
1000
0010
0000
,
0010
0001
0100
1000
0100
0001
0010
0000
,
0001
0010
1000
0000
0001
0010
1000
0000
,
0010
0001
1000
0001
1000
1000
0001
0001
,
0200
0000
0000
0302
0000
0000
0003
0100
,
2000
3000
0200
0301
,
0020
0000
0000
0000
0000
0000
0030
0100
,
2000
0000
0000
3000
;

//---------------dance-double - ----------------
#NOTES:
     dance-double:
     :
     Easy:
     5:
     0.275,0.497,0.059,0.294,0.000:
00000000
00000000
00000000
00000000
,
00000000
00000000
00000000
00000000
,
00000000
00000000
00000000
00000000
,
00000000
00000000
00000000
00000000
,
00000000
00000000
00000000
00000000
,
00000000
00000000
00000000
00000000
,
00000220
00000000
00000000
00000330
,
00000001
00000000
00000100
00000000
,
00001000
00010000
00001000
00000000
,
02000000
00000000
00000000
03000000
,
20000000
32000000
03020000
00032000
,
00003200
00000302
00000203
00002300
,
00013000
00010000
00001000
00001000
,
00010000
00000000
01000000
00000000
,
10000000
01000000
10000000
00000000
,
00100000
00000000
10000000
01000000
,
10000000
01000000
00010000
00001000
,
00000100
00000000
00000001
00000100
,
00000001
00000100
00001000
00010000
,
01000000
00000000
10000000
01000000
,
00010000
01000000
10000000
01000000
,
00010000
00000000
00001000
00000100
,
00000002
00000000
00000000
00000003
,
00000100
00000000
00001000
00000000
,
00010000
01000000
10000000
01000000
,
00020000
00000000
00000000
00030000
,
00001000
00000100
00000001
00000100
,
00002000
00000000
00000000
00003000
,
00010000
00010000
01000000
01000000
,
10000000
01000000
00010000
00001000
,
00000100
00000100
00000001
00000001
,
00001001
00000000
00001100
00000101
,
00000001
00000100
00002000
00000000
,
00013000
00001000
00020000
00000000
,
01030000
01000000
10000000
10000000
,
10010000
00000000
11000000
00000000
,
10000000
01000000
00020000
00000000
,
00031000
00010000
00002000
00000000
,
00003100
00000100
00000001
00000001
,
00001000
00000000
00000010
00000001
,
00000200
00000000
00000000
00001300
,
00020000
00000000
01030000
01000000
,
00020000
00000000
00000000
00031000
,
00000200
00000000
00001300
00000100
,
00000001
00000010
00000001
00000000
,
00001000
00000100
00001000
00000000
,
00000001
00000100
00001000
00000100
,
00000002
00000003
00002000
00003000
,
00000010
00000010
00000100
00000100
,
00001000
00010000
00001000
00010000
,
01000000
01000000
10000000
10000000
,
00100000
10000000
00100000
10000000
,
01000000
01000000
00010000
00010000
,
00001000
00000100
00001000
00000100
,
00000001
00000001
00000010
00000010
,
00000001
00001000
00000001
00001000
,
00000020
00000000
00000230
00000000
,
00002300
00000000
00023000
00000000
,
02030000
00000000
00000000
03000000
,
20000000
00000000
00000000
30000000
;

//---------------dance-double - ----------------
#NOTES:
     dance-double:
     :
     Medium:
     6:
     0.337,0.380,0.020,0.176,0.000:
00000000
00000000
00000000
00000000
,
00000000
00000000
00000000
00000000
,
00000000
00000000
00000000
00000000
,
00000000
00000000
00000000
00000000
,
00000000
00000000
00000000
00000000
,
00000000
00000000
00000000
00000000
,
00001000
00010000
01000000
10000000
,
00100000
10000000
00010000
01000000
,
00001000
00010000
00000100
00001000
,
00000001
00000010
00000001
00000100
,
00000010
00000010
00001000
00000000
00000100
00000100
00010000
00000000
,
00001000
00001000
00010000
00000000
01000000
10000000
00100000
00000000
,
10000000
01000000
10000000
00000000
01000000
00000000
00010000
00000000
,
00001000
00010000
00001000
00000000
00000100
00000000
00000001
00000000
,
00000010
00000100
00000010
00000000
00000001
00000000
00001000
00000000
,
00000001
00000100
00001000
00010000
,
00001000
00010000
00001000
00010000
00000000
01000000
00010000
00000000
,
01000000
10000000
00100000
00010000
,
00001000
00000000
00000100
00000010
00000000
00001000
00000001
00000000
,
00001000
00001000
00000001
00000100
,
00000001
00000100
00000001
00000100
00000000
00001000
00010000
00000000
,
01000000
10000000
00100000
00010000
,
00200000
00000000
00300000
00000000
,
00011000
00000000
00000000
00000000
,
00000010
00000001
00000100
00001000
00000000
00000000
00000100
00000000
,
00001000
00010000
01000000
10000000
,
00100000
10000000
01000000
00010000
00000000
00000000
01000000
00000000
,
00010000
00001000
00000100
00000001
,
00000010
00000001
00000100
00001000
00000000
00000000
00000100
00000000
,
00000010
00001000
00000100
00000001
00000000
00000000
00000100
00000000
,
00000010
00000001
00000100
00000000
00000100
00001000
00010000
00000000
,
00010000
01000000
01000000
10000000
,
00100000
00010000
00001000
00000010
,
00000001
00000010
00000100
00001000
,
00000001
00000100
00001000
00010000
,
00001000
01000000
00010000
10000000
,
00010000
10000000
01000000
00000000
00100000
00000000
00010000
00000000
,
10000000
00010000
01000000
00000000
00100000
00000000
00010000
00000000
,
00000200
00000300
00000020
00000030
,
00000001
00001000
00000010
00000010
,
00000200
00000000
00002300
00000000
00003000
00010000
00001000
00000000
,
00020000
00030000
01000000
01000000
,
20000000
00000000
30200000
00000000
00300000
00010000
00001000
00000000
,
00020000
00030000
00000100
00000100
,
00001000
00000100
00001000
00000100
00000000
00000010
00000001
00000000
,
00000100
00001000
00010000
01000000
,
20000000
00000000
30000000
00000000
,
01100000
00000000
00000000
00000000
,
00010000
10000000
00010000
10000000
00000000
01000000
10000000
00000000
,
00100000
00010000
00001000
00000010
,
00000001
00000000
00001000
00000002
00000000
00002003
00000000
00003010
,
00000200
00000300
00001000
00010000
,
01000000
00010000
01000000
00010000
00000000
00001000
00100000
00000000
,
00001000
00010000
01000000
10000000
,
00100000
01000000
00100000
00000000
10000000
00010000
10000000
00000000
,
01000000
00000000
00010000
00000000
00001000
00010000
00001000
00010000
,
00002000
00000000
00000000
00003100
,
00000002
00000000
00000020
00000003
,
00002000
00000030
00000000
01000000
,
00023000
00000000
00000000
00030000
;

//---------------dance-double - ----------------
#NOTES:
     dance-double:
     :
     Hard:
     7:
     0.433,0.497,0.039,0.186,0.015:
00000000
00000000
00000000
00000000
,
00000000
00000000
00000000
00000000
,
00000000
00000000
00000000
00000000
,
00000000
00000000
00000000
00000000
,
00000000
00000000
00000000
00000000
,
00000000
00000000
00000000
00000000
,
00000001
00000100
00001000
00000110
,
00000100
00001000
00010000
00011000
,
00010000
01000000
10000000
10010000
,
10000000
00000000
00010000
00000000
10000000
01000000
00010000
00001000
,
00010000
00000000
00000000
00001000
00000000
00000000
00000100
00000000
00000001
00000000
00000000
00001000
00000000
00000000
00000010
00000000
,
00010000
00000000
00000000
00001000
00000000
00000000
00100000
00000000
01000000
00000000
01000000
00000000
10000000
00000000
00100000
00000000
,
01000000
00010000
00100000
00001000
00010000
00000100
00001000
00000000
,
00000100
00000001
00000100
00000010
00001000
00010000
00001000
00000000
,
02000000
00000000
00000000
03001000
00020000
00000000
00030000
00000000
,
01000000
00000000
10000000
00000000
00100000
10000000
00010000
00000000
,
00100000
00001000
00100000
00010000
00000000
01000000
00100000
00010000
,
00001000
00010000
00000100
00001000
00000010
00000100
00000010
00000000
,
00001000
00000001
00001000
00000100
00000000
00000010
00000001
00000010
,
00000001
00000100
00000001
00001000
00000100
00010000
00001000
00000000
,
00010000
01000000
10000000
00100000
00000000
01000000
00010000
00100000
,
01000000
10000000
00100000
01000000
00010000
00100000
00001000
00000000
,
00010000
01000000
10000000
00000000
00010000
01000000
00001000
00000000
,
00011000
00000000
00000000
00000000
,
00000001
00001000
00000001
00000100
00000000
00000100
00010000
00001000
,
00010000
00000000
00000000
00000000
,
00100000
00010000
00100000
00001000
00000000
00001000
00000100
00000010
,
00000100
00000000
00000000
00000000
,
00000001
00000100
00000010
00001000
00000100
00010000
00001000
00000000
,
00100000
00010000
01000000
00100000
10000000
00100000
01000000
00000000
,
00010000
00100000
00001000
00010000
00000100
00001000
00000010
00000100
,
00000001
00001000
00000100
00000010
00000001
00000010
00000100
00001000
,
00000200
00000000
00000300
00010000
00000000
00000000
00001000
00000000
,
00020000
00000000
00030000
01000000
00000000
00000000
10000000
00000000
,
02000000
00000000
03000000
00010000
00000000
00000000
00001000
00000000
,
01000000
00000000
00000000
00100000
00000000
00000000
00000000
00000000
,
01000000
00010000
00100000
00001000
00010000
00000100
00001000
00000000
,
00000010
00000100
00000001
00001000
00000010
00000100
00000001
00000000
,
00000100
00001000
00010000
00000000
00001000
00010000
01000000
00000000
,
10000000
00100000
01000000
00010000
01000000
00100000
10000000
00000000
,
01000000
00010000
00001000
00010000
00000000
00000100
00001000
00000100
,
00000000
00000000
00000200
00000302
,
00000013
00000000
00000001
00001000
00000000
00000100
00000000
00000010
,
00000100
00000000
00000002
00000203
,
00000301
00000100
00000010
00001000
00000000
00000100
00010000
00001000
,
00100000
00010000
01000000
00100000
10000000
01000000
10000000
00000000
,
01000000
00010000
00001000
00000000
00000010
00001000
00010000
00000000
,
00000020
00000000
00000030
00002000
00000000
00003000
00000000
00000000
,
00000100
00001000
00010000
01000000
00000000
00100000
00001000
00010000
,
01000000
00100000
01000000
10000000
01000000
00000000
01000000
00000000
,
00010000
00001000
00000100
00000020
00000000
00002030
00000000
00003100
,
00000010
00000100
00000010
00000001
00000100
00000000
00000100
00000000
,
00000100
00000001
00000010
00000001
00000100
00000010
00001000
00000000
,
00000100
00010000
00001000
00100000
00010000
01000000
00100000
00000000
,
10000000
01000000
10000000
00000000
01000000
00010000
01000000
00000000
,
00100000
00010000
00100000
01000000
10000000
10000000
00100000
00100000
,
02000000
00000000
00000000
03002000
00000000
00000000
00003000
00010000
,
00000200
00000300
00000020
00000130
,
00020000
00000000
00000000
00000000
00000000
00000000
00030000
00001000
,
02000000
00000000
00000000
03000000
;

//---------------dance-double - ----------------
#NOTES:
     dance-double:
     :
     Challenge:
     9:
     0.496,0.684,0.196,0.108,0.157:
00000000
00000000
00000000
00000000
,
00000000
00000000
00000000
00000000
,
00000000
00000000
00000000
00000000
,
00000000
00000000
00000000
00000000
,
00000000
00000000
00000000
00000000
,
00000000
00000000
00000000
00000000
00000000
00000000
00000000
00001000
,
00000001
00000100
00001000
00000000
00000000
00000000
00010000
00000000
,
01000000
10000000
00010000
00000000
10000000
00000000
01000000
00000000
,
00010000
00001000
00000100
00000000
00000000
00000000
00000001
00000000
,
00001000
00000000
00001000
00000000
00000000
00000000
00000001
00000000
00000000
00000100
00000000
00000000
00001000
00000000
00000000
00000000
,
00010000
01000000
10000000
00200000
00000000
00000000
00300000
00000000
10000000
00100000
00010000
00002000
00000000
00000000
00003000
00000000
,
00010000
00001000
00000010
00000002
00000000
00000000
00000003
00000000
00000010
00000001
00000100
00002000
00000000
00000000
00003100
00000000
,
00001000
00010000
00001000
00010000
01000000
00100000
01000000
00000000
,
00100000
00010000
00100000
00010000
10000000
01000000
00010000
00000000
,
00001000
00010000
00001000
00000000
00010000
01000000
10000000
00000000
,
10100000
00000000
00000000
00000000
01010000
00000000
00000000
00000000
01000000
00100000
01000000
00100000
01000000
00100000
01000000
00100000
,
01000000
01000000
00010000
00000000
00000000
10000000
00100000
00000000
,
00010000
00000000
00010000
00000000
00100000
00000000
00000000
10000000
00000000
00000000
01000000
00000000
00100000
00000000
00000000
00000000
,
01000000
01000000
00010000
00000000
00000000
00001000
00010000
00000000
,
00001000
00000000
00001000
00000000
00000010
00000000
00000000
00000100
00000000
00000100
00000000
00000000
00000001
00000000
00000000
00000000
,
00000100
00000100
00000001
00000000
00000000
00000100
00001000
00000000
,
00000010
00000000
00000010
00000000
00010000
00000000
00000000
00001000
00000000
00001000
00000000
00000000
00010000
00000000
00000000
00000000
,
00100000
00100000
00010000
00000000
00000000
00100000
10000000
00000000
,
01000000
01000000
00010000
00000000
00000000
00001000
00010000
00000000
,
02000000
00000000
00000000
10000000
13000000
00000000
00000000
11000000
,
00000000
01010000
00000000
11000000
10000000
00000000
00000000
00000000
,
02000000
00000000
00000000
00010000
03010000
00000000
00000000
00010010
,
00000000
00010100
00000000
00010010
00000010
00000000
00000000
00000000
,
00000100
00000001
00000100
00000001
00001000
00000100
00000010
00000000
,
00000001
00000100
00000001
00000100
00001000
00010000
01000000
00000000
,
00100000
00010000
00100000
00010000
10000000
01000000
00010000
00000000
,
00001000
00000000
00010000
00000000
00001000
00000000
00010000
00000000
00000010
00000100
00000010
00000100
00000010
00000100
00000010
00000100
,
00000010
00000010
00000010
00001000
00001000
00001000
00000100
00000010
,
00000001
00000001
00000001
00000100
00000100
00000100
00001000
00010000
,
00100000
00100000
00100000
01000000
01000000
01000000
00010000
00100000
,
00001000
00001000
00001000
00010000
00010000
00010000
01000000
00100000
,
00101000
00001000
00100000
00010000
01000000
00100000
00010000
00000000
,
00011000
00010000
00001000
00000100
00001000
00010000
00100000
00000000
,
10100000
10000000
01000000
00000000
00110000
00010000
01000000
00000000
,
10100000
00000000
00000000
00000000
01010000
00000000
00000000
00000000
01000000
00100000
01000000
00100000
01000000
00100000
01000000
00100000
,
00000000
00000000
00000000
00000000
,
00000000
00000000
00000000
00000000
,
00000000
00000000
00000000
00000000
,
00000000
00000000
00000000
00000000
,
00000001
00000010
00000001
00000010
00000100
00001000
00000100
00001000
,
00010000
00100000
00010000
00100000
10000000
01000000
10000000
01000000
,
00010000
00100000
00010000
00100000
00001000
00010000
00001000
00010000
,
00000100
00000000
00001000
00000000
00000100
00000000
00001000
00000000
00000010
00000100
00000010
00000100
00000010
00000000
00000010
00000000
,
00000100
00000001
00000100
00001000
00010000
00100000
00010000
00001000
,
00010000
01000000
10000000
01000000
00010000
00001000
00000010
00001000
,
00010000
00001000
00000100
00000010
00001000
00000100
00000010
00001000
,
00010000
01000000
00100000
00010000
01000000
00100000
00010000
00001000
,
00011000
00010000
00001000
00000100
00000010
00010000
00001000
00000100
,
00000110
00000100
00001000
00010000
00100000
00010000
00100000
01000000
,
01100000
00100000
10000000
01000000
01100000
00100000
00010000
01000000
,
10100000
00000000
00000000
00000000
01010000
00000000
00000000
00000000
01000000
00100000
01000000
00100000
01000000
00100000
01000000
00100000
,
02000000
00000000
00000000
00000000
00000000
00000000
00000000
00010000
,
00020000
03000000
00200000
00030000
,
00002000
00300000
00000000
00000000
,
00020000
00000000
00000000
00000000
,
00000000
00000000
00000000
00033000
;

//---------------dance-single - ----------------
#NOTES:
     dance-single:
     :
     Challenge:
     9:
     0.526,0.773,0.196,0.117,0.176: // measure 1
0000
0000
0000
0000
,  // measure 2
0000
0000
0000
0000
,  // measure 3
0020
0000
0030
0000
,  // measure 4
2000
0000
3002
0000
,  // measure 5
0203
0000
0300
0000
,  // measure 6
0000
0000
0000
0000
0000
0000
0000
1000
,  // measure 7
0001
0001
0010
0000
0000
0000
0100
0000
,  // measure 8
1000
1000
0010
0000
0200
0000
0301
0000
,  // measure 9
0010
0010
0100
0000
0000
0000
1000
0000
,  // measure 10
0001
0000
0001
0000
1000
0000
0100
0000
0000
0010
0000
0000
0001
0000
0000
0000
,  // measure 11
1000
0100
0001
0100
1000
0010
0100
0000
0001
0100
1000
0100
0001
0000
0000
0000
,  // measure 12
1000
0010
0001
0010
1000
0001
0010
0000
0001
0010
1000
0010
0001
0000
0100
0000
,  // measure 13
0010
1000
0010
1000
0001
0100
1000
0000
,  // measure 14
0100
0001
0100
0001
1000
0010
0001
0000
,  // measure 15
0010
1000
0100
0000
0010
0001
0100
0000
,  // measure 16
0110
0000
0000
0000
0110
0000
0000
0000
1000
0001
1000
0001
1000
0001
1000
0001
,  // measure 17
1000
0001
0010
0000
0000
0100
1000
0000
,  // measure 18
0001
0000
0100
0000
0010
0000
0000
1000
0000
0000
1000
0000
0100
0000
0000
0000
,  // measure 19
0001
0100
1000
0000
0000
0100
0010
0000
,  // measure 20
1000
0000
0010
0000
0001
0000
0000
1000
0000
1000
0000
0000
0001
0000
0000
0000
,  // measure 21
0100
0010
1000
0000
0000
0001
0100
0000
,  // measure 22
0010
0000
1000
0000
0001
0000
0000
0100
0000
0100
0000
0000
0010
0000
0000
0000
,  // measure 23
1000
0100
0010
0000
0000
0001
1000
0000
,  // measure 24
0100
0010
0001
0000
0000
1000
0001
0000
,  // measure 25
1000
0000
0000
1000
1000
0000
0000
0101
,  // measure 26
0000
0011
0000
0101
0100
0000
0000
0000
,  // measure 27
0001
0000
0000
0001
0001
0000
0000
1100
,  // measure 28
0000
0000
1010
0000
0000
0000
1100
0000
0100
1000
0000
1000
0100
0000
0010
0000
,  // measure 29
0001
0100
0010
0100
0001
0100
1000
0100
,  // measure 30
0010
1000
0100
0001
0100
0010
0100
0001
,  // measure 31
1000
0010
0001
0100
0010
1000
0001
0100
,  // measure 32
0010
0000
1000
0000
0100
0000
0010
0000
0001
1000
0001
1000
0001
1000
0001
1000
,  // measure 33
0001
0001
0001
0010
0010
0010
1000
0100
,  // measure 34
0010
0010
0010
1000
1000
1000
0100
0001
,  // measure 35
1000
1000
1000
0100
0100
0100
0001
0010
,  // measure 36
0100
0100
0100
0001
0001
0001
1000
0010
,  // measure 37
0001
0100
0010
0100
1000
0100
0010
0000
,  // measure 38
1010
0010
1000
0100
0010
0001
1000
0000
,  // measure 39
1001
1000
0001
0000
1001
0001
1000
0000
,  // measure 40
0110
0000
0000
0000
0110
0000
0000
0000
1000
0001
1000
0001
1000
0001
2000
0002
,  // measure 41
0000
0000
0000
0000
,  // measure 42
0000
0000
0000
0000
,  // measure 43
0000
0000
0000
0000
,  // measure 44
0000
0000
0000
3003
,  // measure 45
0001
0100
1000
0100
0001
1000
0010
0001
,  // measure 46
1000
0100
0001
1000
0100
0001
0100
1000
,  // measure 47
0001
0010
1000
0001
0100
0010
0100
1000
,  // measure 48
0001
0000
0100
0000
0010
0000
1000
0000
0001
1000
0001
1000
0001
0000
0001
0000
,  // measure 49
1001
1000
0100
0010
0001
0100
0010
1000
,  // measure 50
0001
0100
0010
0100
0001
1000
0100
1000
,  // measure 51
0001
0100
0001
1000
0010
1000
0001
0010
,  // measure 52
0001
0010
0100
1000
0100
0001
0100
0010
,  // measure 53
0011
0001
0100
1000
0100
0001
0010
1000
,  // measure 54
1010
0010
0001
0100
1000
0100
0001
0010
,  // measure 55
0011
0001
0100
1000
1100
0100
0010
1000
,  // measure 56
1001
0000
0000
0000
0110
0000
0000
0000
1000
0001
1000
0001
1000
0001
1000
0001
,  // measure 57
2000
0000
0000
0000
0000
0000
0000
0001
,  // measure 58
0002
3000
0200
0003
,  // measure 59
0320
0000
0000
0000
,  // measure 60
0200
0000
0000
0000
,  // measure 61
0000
0000
0000
0330
;
