#TITLE:PARANOiA MAX;
#SUBTITLE:(DIRTY MIX);
#ARTIST:190;
#TITLETRANSLIT:;
#SUBTITLETRANSLIT:;
#ARTISTTRANSLIT:;
#CREDIT:;
#BANNER:PARANOiA MAX~DIRTY MIX~.png;
#BACKGROUND:PARANOiA MAX~DIRTY MIX~-bg.png;
#LYRICSPATH:;
#CDTITLE:Dance Dance Revolution 2nd Mix.png;
#MUSIC:PARANOiA MAX~DIRTY MIX~.ogg;
#OFFSET:0.000;
#SAMPLESTART:1.263;
#SAMPLELENGTH:15.000;
#SELECTABLE:YES;
#DISPLAYBPM:190.000;
#BPMS:0.000=190.275,20.000=190.131;
#STOPS:;
#BGCHANGES:0.000=PARANOiA MAX~DIRTY MIX~.avi=1.000=1=1=0,
298.000=PARANOiA MAX~DIRTY MIX~-bg.png=1.000=0=0=1,
99999=-nosongbg-=1.000=0=0=0 // don't automatically add -songbackground-
;

//---------------dance-single - ----------------
#NOTES:
     dance-single:
     :
     Beginner:
     2:
     0.223,0.272,0.083,0.000,0.000:
0000
0000
0000
0000
,
0000
0000
0000
0000
,
0000
0000
0000
0000
,
0000
0000
0000
0000
,
0000
0000
0000
0000
,
0000
0000
0000
0000
,
0000
0000
0000
0000
,
0000
0001
0000
0001
,
0000
0100
0000
0100
,
0000
0010
0000
1000
,
0000
0001
0000
0001
,
0000
1000
0000
0100
,
0000
0010
0000
1000
,
0000
0100
0000
0100
,
0000
0001
0000
1000
,
0000
0001
0000
1000
,
0000
0001
0000
0001
,
0000
0001
0000
1000
,
0000
0100
0000
0100
,
0000
0001
0000
1000
,
0000
0100
0000
1000
,
0000
1000
0000
0001
,
0000
0001
0000
1000
,
1000
0000
0100
0000
,
0001
0000
1000
0000
,
0001
0000
0001
0000
,
0001
0001
0001
0001
,
0000
1000
0000
0001
,
0000
0001
0000
0001
,
0000
0100
0000
0010
,
0000
0100
0000
0100
,
0000
0100
0000
0010
,
0000
0100
0000
0100
,
0000
0000
0000
0001
,
0000
0000
0001
0001
,
0001
0000
0000
1000
,
0000
0000
1000
1000
,
1000
0000
0000
0001
,
0000
0000
0001
0001
,
0001
0000
0000
1000
,
0000
0000
1000
1000
,
0000
0000
0001
0001
,
0000
1000
1000
1000
,
0000
1000
0000
0010
,
0000
0001
0001
0001
,
0000
0001
0000
0100
,
0000
0010
0010
0010
,
0000
0010
0000
1000
,
0000
0100
0100
0100
,
0000
0100
0000
0001
,
0000
1000
1000
1000
,
0000
0001
0000
1000
,
0000
0000
0010
0000
,
0010
0000
0010
0000
,
1001
0000
0100
0000
,
0100
0000
0100
0000
,
1001
0000
0100
0000
,
0100
0000
0100
0000
,
1001
0000
0110
0000
,
1000
0000
0001
0001
,
0000
0110
0000
0110
,
0000
0100
0000
0001
,
0000
1000
0000
0000
,
1000
0000
0001
0001
,
0000
1001
0000
1000
,
1000
0000
0001
0001
,
0000
0110
0000
0000
,
1000
0000
0001
0000
,
0100
0000
1000
0000
,
0100
0000
0010
0000
,
0100
0000
0010
0000
,
0010
0000
0100
0000
,
0010
0000
0100
0000
,
1000
0000
0001
0000
,
0010
0000
0100
0000
;

//---------------dance-single - ----------------
#NOTES:
     dance-single:
     :
     Easy:
     6:
     0.454,0.582,0.386,0.000,0.000:
0000
0000
0000
0000
,
0000
0000
0000
0000
,
0000
0000
0000
0000
,
0000
0000
0000
0000
,
0000
0000
0000
0000
,
0000
0000
0000
0000
,
0000
0000
0000
0000
,
0000
0001
0000
0001
,
0000
0100
0000
0100
,
0000
0010
0100
1000
,
0100
0001
0010
0001
,
0100
1000
0100
0100
,
0001
0010
0100
1000
,
0010
1000
0100
0000
0000
0000
0100
0000
,
0010
0001
0100
1000
,
0101
0101
1100
1100
,
0011
0101
1001
0101
,
0010
0001
0010
1000
,
0010
0000
0100
0000
0001
1000
0100
0000
,
0001
0001
1000
1000
,
0010
0000
0100
0000
0010
0001
1000
0000
,
0001
1000
0100
0001
,
1000
0000
0001
0000
1000
0100
1100
0000
,
1000
0011
0100
1010
,
0101
0011
1100
0000
,
0001
1000
0001
1000
,
0001
0001
0001
0001
,
1000
1000
0001
0001
,
1000
0001
1000
0001
,
1000
0100
0001
0010
,
1000
0100
1000
0100
,
1000
0100
1000
0010
,
0001
0100
1000
0100
,
1000
0000
0000
0100
0000
0000
0001
0000
,
0000
1000
0000
0010
0001
0001
0001
0000
,
0001
0000
0000
0100
0000
0000
1000
0000
,
0000
0001
0000
0010
1000
1000
1000
0000
,
1000
0000
0000
0100
0000
0000
0001
0000
,
0000
1000
0000
0010
0001
0001
0001
0000
,
0001
0000
0000
0100
0000
0000
1000
0000
,
0000
0001
0000
0010
1000
1000
1000
0000
,
0010
0000
0001
0001
,
0000
1000
1000
1000
,
0100
1000
0010
0010
,
1000
0001
0001
0001
,
1000
0001
0100
0100
,
0001
0010
0010
0010
,
0001
0010
1000
1000
,
0010
0100
0100
0100
,
0010
0100
0001
0001
,
0100
1000
1000
1000
,
0010
0001
0010
1000
,
1001
0000
0010
0100
,
0010
0001
0010
1000
,
1001
0000
0100
0010
,
0100
1000
0100
0001
,
1001
0000
0100
0010
,
0100
1000
0100
0000
,
1001
0000
0110
0000
,
1000
0010
0100
0000
0001
0000
0001
0000
,
1001
0110
1001
0110
,
1000
0010
0100
0000
0001
0000
0001
0000
,
1001
1100
0101
0000
,
1000
0010
0100
0000
0001
0000
0001
0000
,
0110
1001
0100
1000
,
1000
0010
0100
0000
0001
0000
0001
0000
,
1010
0110
0101
0000
,
1000
0000
0110
0000
0001
0100
1000
0000
,
0100
0000
1001
0000
1000
0100
0001
0000
,
0100
0010
0001
1000
0010
0100
0000
0000
,
0100
0010
1000
0001
0010
0100
0000
0000
,
0010
1000
0100
0110
,
0010
0001
0100
0110
,
1000
0100
0001
0010
,
1010
0001
0011
0000
;

//---------------dance-single - ----------------
#NOTES:
     dance-single:
     :
     Medium:
     8:
     0.502,0.621,0.511,0.000,0.000:
0000
0000
0000
0000
,
0000
0000
0000
0000
,
0000
0000
0000
0000
,
0000
0000
0000
0000
,
0000
0000
0000
0000
,
0000
0000
0000
0000
,
0000
0000
0000
0000
,
0000
0001
0000
0001
,
0000
0100
0000
0100
,
0001
0100
1000
0100
,
0010
0001
1000
0100
,
0001
0100
0010
1000
,
0110
1001
0110
1001
,
0010
0010
0001
0100
,
1000
1000
0100
0001
,
0010
0000
0010
0000
,
0011
0000
1100
0000
0001
1000
0100
0000
,
0001
0100
0010
1000
,
0001
0100
0010
1000
,
0001
0100
1000
0000
0001
0100
1000
0000
,
0001
1000
0001
1000
0001
0100
1000
0000
,
0101
0100
0100
0000
1001
0000
0000
0000
,
1010
0010
0010
0000
1001
0000
0000
0000
,
0011
0001
0001
0000
1100
1000
1000
0000
,
0101
1100
1001
0000
,
1000
1100
0001
0101
,
0010
0100
1000
1001
,
0001
0101
0100
1100
,
0010
0100
0001
1001
,
1000
0001
1000
0110
,
0001
1000
0001
1001
,
0010
1100
0001
0101
,
0100
0010
1001
0100
,
0001
0000
0000
1000
0000
0000
0100
0000
,
0000
1000
0000
0001
0010
0010
0010
0000
,
1000
0000
0000
0001
0000
0000
0100
0000
,
0000
0001
0000
1000
0010
0010
0010
0000
,
0001
0000
0000
1000
0000
0000
0100
0000
,
0000
1000
0000
0001
0010
0010
0010
0000
,
1000
0000
0000
0001
0000
0000
0100
0000
,
0000
0001
0000
1000
0010
0010
0010
0000
,
0010
0000
0001
1000
,
0000
1000
0100
0001
,
0001
0010
1000
0100
,
0010
0100
0010
1000
,
1000
0001
0100
0010
,
0001
0010
0001
0100
,
0100
1000
0010
0001
,
1000
0001
1000
0010
,
0010
0100
0001
1000
,
0100
1000
0100
0001
,
0010
0001
0011
1000
,
1100
0000
0000
0000
0010
0010
0100
0000
,
0010
0001
0011
1000
,
1100
0000
0000
0000
0100
0100
0010
0000
,
0100
1000
1100
0001
,
0101
0000
0000
0000
0100
0100
0010
0000
,
0100
1000
0100
0000
,
0010
0100
0110
0000
,
1000
0100
1000
0000
0001
0100
0001
0000
,
1001
1010
1100
1000
,
1000
0100
1000
0000
0001
0100
0001
0000
,
1001
1100
0101
0000
,
1000
0100
1000
0000
0001
0100
0001
0000
,
1001
1010
1100
1000
,
1000
0100
1000
0000
0001
0100
0001
0000
,
1001
1100
0101
0000
,
0100
0001
0100
0000
0010
1000
0010
0000
,
0100
0001
0100
0000
0010
1000
0010
0000
,
1000
0010
1000
0010
1000
0100
1000
0100
,
1000
0001
0100
0001
0100
0001
0001
0000
,
0010
0010
1100
0101
,
0100
1000
0100
0001
0100
0000
0100
0000
,
0010
1001
0110
0001
,
1000
0000
0100
0100
0100
0000
0000
0000
;

//---------------dance-single - ----------------
#NOTES:
     dance-single:
     :
     Hard:
     8:
     0.590,0.660,0.584,0.000,0.000:
0000
0000
0000
0000
,
0000
0000
0000
0000
,
0000
0000
0000
0000
,
0000
0000
0000
0000
,
0000
0000
0000
0000
,
0000
0000
0000
0000
,
0000
0000
0000
0000
,
0000
0001
0000
0001
,
0000
0100
0000
0100
,
0010
0000
0010
0000
0001
0100
0001
0000
,
1000
0000
1000
0000
0100
1000
0001
0000
,
0010
0000
0100
0000
0010
0010
0010
0000
,
0011
0000
1100
0000
0001
1000
0100
0000
,
0010
0010
0010
0000
1000
0010
0001
0000
,
0010
0010
0010
0000
1000
0000
0100
0000
,
0001
1000
0010
0000
1000
0001
0010
0000
,
1000
0010
0001
0000
0001
0010
1000
0000
,
1000
0001
1010
1001
,
0010
0000
1010
0000
0100
0100
0100
0000
,
0010
0001
0100
1000
,
0100
0001
0100
1000
0100
0001
0100
0000
,
0010
0100
0010
0000
0001
0100
1000
0000
,
0001
0000
1000
0000
0001
1000
0100
0000
,
0001
0010
1000
0000
0001
0000
0100
0000
,
0001
1000
0100
0010
0100
1000
0001
0000
,
1000
1000
0001
0001
,
1000
1000
0001
0001
,
0100
0110
0110
0110
,
1010
0001
1100
0101
,
0001
1000
0101
0101
,
1010
0101
0101
0000
,
1000
0001
1100
1100
,
0011
1100
1100
0000
,
1000
0000
0000
0001
0000
0000
0110
0000
,
0000
1001
0000
0010
0100
0100
0100
0000
,
0001
0000
0000
1000
0000
0000
0110
0000
,
0000
1001
0000
0010
0100
0100
0100
0000
,
1000
0000
0000
0001
0000
0000
0110
0000
,
0000
1001
0000
0010
0100
0100
0100
0000
,
0001
0000
0000
1000
0000
0000
0110
0000
,
0000
1001
0000
0010
0100
0100
0100
0000
,
0010
0000
1001
0011
,
0000
0000
1000
0100
0010
0100
1000
0000
,
0001
0010
1100
1001
,
0010
0000
0100
0010
0001
0010
0100
0000
,
1000
0001
0110
1100
,
0001
0000
0010
0001
1000
0001
0010
0000
,
0100
1000
0011
0110
,
1000
0000
0001
1000
0100
1000
0001
0000
,
0010
0100
1001
0011
,
0100
0000
1000
0100
0010
0100
1000
0000
,
0010
1000
0110
0001
,
1001
0100
1001
0010
,
0001
1000
0010
0000
1000
0100
0001
0000
,
1000
0001
0010
0000
0001
1000
0100
0000
,
1000
1000
0001
0001
,
1001
0110
1001
0100
,
1000
0100
0001
0000
0100
1000
0010
0000
,
0001
0001
1001
1001
,
1000
0100
1000
0100
0001
0100
0001
0100
,
1000
0001
1000
0001
1000
0100
1000
0100
,
0010
0001
1000
0100
0010
0001
0010
1000
,
0010
0001
0100
0001
0010
1000
0001
0010
,
0100
0001
1000
0001
0100
1000
0010
1000
,
0100
0001
0010
0001
0100
1000
0010
1000
,
0100
0001
0010
1000
0001
0100
1000
0010
,
0100
0001
1000
1000
0100
0000
1001
0000
,
0001
0001
0001
0000
0001
0100
1000
0000
,
1000
1000
1000
0000
1000
0100
0001
0000
,
0001
0001
0001
0000
0001
0100
1000
0000
,
0010
0100
0001
1000
0100
0010
0100
0000
,
1000
0101
0001
1100
,
0010
0001
1100
0101
,
0011
0001
1001
0101
,
0001
1000
0101
0000
;

//---------------dance-double - ----------------
#NOTES:
     dance-double:
     :
     Easy:
     7:
     0.490,0.544,0.573,0.000,0.000:
00000000
00000000
00000000
00000000
,
00000000
00000000
00000000
00000000
,
00000000
00000000
00000000
00000000
,
00000000
00000000
00000000
00000000
,
00000000
00000000
00000000
00000000
,
00000000
00000000
00000000
00000000
,
00000000
00000000
00000000
00000000
,
00010000
00010000
00010000
00010000
,
00001000
00001000
00001000
00001000
,
00000100
00000010
00000001
00000010
,
00000101
00001000
00010000
00010000
,
00100000
00010000
10000000
01000000
,
00010000
00000100
00000010
00001001
,
01000000
00100000
10000000
00100000
,
11000000
00010000
00001000
00001000
,
00000010
00001000
00000001
00000100
,
00001000
01000000
00100000
10010000
,
00100000
11000000
01000000
00110000
,
01000000
00010000
00001000
00000100
,
00000010
00000010
00000110
00001001
,
00000010
00001000
00010000
01000000
,
00010000
10000000
01000000
00010000
,
00001000
00000100
00010000
00000100
,
00000001
00000010
00001000
00000101
,
00001000
00010000
11000000
01010000
,
01000000
00100000
10010000
00100000
,
10000000
00100000
00010000
00100000
,
11000000
01010000
11000000
00110000
,
01000000
00010000
00001000
00000100
,
00000101
00000100
00000100
00000110
,
00001000
00000100
00000001
00000100
,
00000110
00001001
00000110
00001001
,
00000100
00001000
00010000
01000000
,
00100000
00000000
00000000
10000000
00000000
00000000
01000000
00000000
,
00000000
10000000
00000000
01000000
00010000
00001000
00000100
00000000
,
00000010
00000000
00000000
00000001
00000000
00000000
00000100
00000000
,
00000000
00000001
00000000
00000100
00001000
00010000
01000000
00000000
,
00100000
00000000
00000000
10000000
00000000
00000000
01000000
00000000
,
00000000
10000000
00000000
01000000
00010000
00001000
00000100
00000000
,
00000010
00000000
00000000
00000001
00000000
00000000
00000100
00000000
,
00000000
00000001
00000000
00000100
00001000
00010000
01000000
00000000
,
00100000
00000000
01100000
10010000
,
00000000
00100000
10000000
01000000
,
00100000
10000000
01010000
00110000
,
01000000
00010000
00001000
00000010
,
00000100
00001000
00000101
00001010
,
00000001
00001000
00010000
10000000
,
00010000
01000000
10010000
00011000
,
00000100
00010000
00100000
00001000
,
01000000
10000000
01100000
10010000
,
00100000
00010000
01000000
11000000
,
01100000
10010000
00000000
00100000
,
00000000
01000000
00010000
00001000
,
00010100
00001100
00000000
00000001
,
00000000
00000010
00000001
00000100
,
00001010
00001001
00000000
00000100
,
00000000
00000010
00001000
00010000
,
11000000
00110000
00000000
01000000
,
00000000
10000000
00010000
01000000
,
10000000
01000000
00010000
00000000
00001000
00000000
00000100
00000000
,
00000011
00001100
00000001
00000100
,
00000010
00001000
00010000
00000000
01000000
00000000
10000000
00000000
,
10010000
01100000
00010000
10000000
,
10000000
01000000
00010000
00000000
00001000
00000000
00000100
00000000
,
00000110
00000101
00000010
00000010
,
00000010
00001000
00010000
00000000
01000000
00000000
10000000
00000000
,
10100000
01100000
10010000
00000000
,
10000000
00010000
01000000
00000000
00010000
10000000
01000000
00000000
,
10000000
01000000
00010000
00001000
00000100
00000001
00000010
00000000
,
00000010
00001000
00000100
00000000
00000010
00000001
00000100
00000000
,
00000001
00000100
00001000
00010000
01000000
10000000
00100000
00000000
,
01000000
01000000
11000000
01010000
,
00100000
01000000
10010000
10100000
,
10000000
01000000
00010000
00001000
,
00000100
00000101
00000001
00000000
;

//---------------dance-double - ----------------
#NOTES:
     dance-double:
     :
     Medium:
     8:
     0.532,0.621,0.479,0.000,0.000:
00000000
00000000
00000000
00000000
,
00000000
00000000
00000000
00000000
,
00000000
00000000
00000000
00000000
,
00000000
00000000
00000000
00000000
,
00000000
00000000
00000000
00000000
,
00000000
00000000
00000000
00000000
,
00000000
00000000
00000000
00000000
,
00010000
00010000
00010000
00010000
,
00001000
00001000
00001000
00001000
,
00010000
01000000
10000000
00000000
01000000
00010000
10000000
00000000
,
01000000
01000000
01100000
10010000
,
00100000
01000000
00010000
00001000
,
00000011
00000101
00000010
00001000
,
00010000
01000000
00100000
10010000
,
00000100
00000001
00000010
00001100
,
00000001
00001000
00010000
10000000
,
00010000
00000000
00010000
00000000
00100000
10000000
01000000
00000000
,
00010000
10000000
01000000
00010000
,
10000000
00010000
01000000
00000000
00100000
00000000
00100000
00000000
,
10000000
00010000
01000000
00000000
00100000
10000000
00010000
00000000
,
10010000
00000100
00000001
00001000
,
00000100
00001000
00010000
01000000
,
00001000
00000010
00010000
00000100
,
00000001
00001100
00000010
00000100
,
00000001
00001000
00010000
11000000
,
01100000
01010000
01100000
11000000
,
01100000
10010000
01100000
10010000
,
11000000
11000000
01000000
00010000
,
00001000
00000100
00000101
00001010
,
00000011
00000101
00001000
00000001
,
00001000
00000100
00000001
00000100
,
00000001
00000010
00001000
00010000
,
00100000
10000000
11000000
01010000
,
10000000
00000000
00000000
01000000
00000000
00000000
00010000
00000000
,
00000000
10000000
00000000
01000000
00010000
00001000
00000100
00000000
,
00000001
00000000
00000000
00000100
00000000
00000000
00001000
00000000
,
00000000
00000001
00000000
00000100
00001000
00010000
01000000
00000000
,
10000000
00000000
00000000
01000000
00000000
00000000
00010000
00000000
,
00000000
10000000
00000000
01000000
00010000
00001000
00000100
00000000
,
00000001
00000000
00000000
00000100
00000000
00000000
00001000
00000000
,
00000000
00000001
00000000
00000100
00001000
00010000
01000000
00000000
,
01000000
00000000
01010000
10100000
,
00000000
01000000
01000000
01000000
,
00110000
11000000
00010000
01000000
,
00010000
00000000
00001000
00000100
00000001
00000010
00001000
00000000
,
00000100
00000100
00000010
00000100
,
00000001
00000000
00000010
00001000
00010000
01000000
10000000
00000000
,
00010000
10000000
01100000
11000000
,
01000000
00000000
00100000
00010000
00001000
00000100
00000001
00000000
,
00000010
00001000
00000110
00001001
,
00000100
00000000
00000010
00001000
00010000
01000000
10000000
00000000
,
00100000
10000000
01000000
00000000
11000000
00000000
01010000
00000000
,
00100000
00010000
00001000
00000010
,
00000001
00000100
00000001
00000100
,
00000001
00000010
00000100
00000101
,
00000010
00000001
00000100
00000000
00000101
00000000
00001100
00000000
,
00000010
00001000
00010000
00100000
,
10000000
01000000
10000000
01000000
,
10000000
00100000
01000000
11000000
,
10000000
01000000
00010000
00000000
00001000
00000100
00000001
00000000
,
00000001
00001000
00000100
00000000
00000010
00001000
00000100
00000000
,
00000001
00000100
00001000
00000000
00010000
01000000
10000000
00000000
,
10000000
00010000
01000000
00000000
00100000
00010000
01000000
00000000
,
00010000
10000000
01000000
00000000
00100000
00010000
01000000
00000000
,
10000000
00000000
01000000
00000000
00010000
00001000
00000100
00000000
,
00000001
00001000
00000100
00000000
00000010
00001000
00000100
00000000
,
00000001
00000000
00000100
00000000
00001000
00010000
01000000
00000000
,
10000000
00010000
01000000
00000000
00100000
00010000
01000000
00000000
,
10000000
01000000
00010000
00001000
00000100
00000001
00000001
00000000
,
00000010
00000001
00000100
00001000
00010000
01000000
10000000
01000000
,
00010000
01000000
10000000
01000000
00010000
00001000
00000100
00000000
,
00000101
00001100
00000110
00001001
,
00000001
00001000
00010000
10000000
,
00100000
00010000
01000000
10000000
,
10010000
00110000
11000000
00000000
;

//---------------dance-double - ----------------
#NOTES:
     dance-double:
     :
     Hard:
     9:
     0.609,0.621,0.479,0.000,0.000:
00000000
00000000
00000000
00000000
,
00000000
00000000
00000000
00000000
,
00000000
00000000
00000000
00000000
,
00000000
00000000
00000000
00000000
,
00000000
00000000
00000000
00000000
,
00000000
00000000
00000000
00000000
,
00000000
00000000
00000000
00000000
,
00000001
00000000
00001000
00000000
00000100
00010000
00001000
00000000
,
00100000
00000000
01000000
00000000
10000000
00010000
01000000
00000000
,
00001000
00100000
00010000
10000000
01000000
00100000
00001000
00010000
,
00000010
00000100
00000001
00000010
00000100
00000000
00001001
00000000
,
00000100
00010000
00001000
00100000
00010000
10000000
01000000
00100000
,
00001000
00010000
00000100
00001000
00000001
00000000
00000000
00000110
,
00000000
00001001
00000000
00000000
00000100
00010000
00001000
00000000
,
00100000
00010000
10000000
01000000
00100000
00000000
10010000
00000000
,
01000000
00001000
00010000
00000100
00001000
00000010
00010000
00001000
,
00100000
01000000
10000000
00010000
01000000
00000000
00000000
00000000
,
00000000
00011000
00000000
00000000
00000100
00000010
00000001
00000000
,
00000100
00000010
00001000
00000100
00010000
00000000
00101000
00000000
,
10000000
00100000
01000000
00010000
00100000
00001000
00010000
00000100
,
00000010
00000001
00000100
00000010
00001000
00000000
00000000
00011000
,
00000000
00110000
00000000
00000000
10000000
01000000
00100000
00000000
,
00010000
01000000
00001000
00010000
00001000
00000000
00001001
00000000
,
00000100
00000010
00000001
00000100
00000010
00001000
00000100
00010000
,
00001000
01000000
00100000
10000000
01000000
00000000
00000000
00000000
,
00000000
01010000
00000000
00000000
00100000
00001000
00010000
00000000
,
00000010
00010000
00001000
00000000
01000000
00010000
00100000
00000000
,
00000000
00011000
00000000
00000000
00000100
00001000
00000010
00000000
,
00010000
00001000
01000000
00000000
00010000
00100000
00001000
00000000
,
00000000
00010100
00000000
00000000
00001000
00000001
00000100
00000000
,
00000010
00010000
00001000
00000000
00100000
00010000
01000000
00000000
,
00000000
11000000
00000000
00000000
00100000
00001000
00010000
00000000
,
00001010
00000101
00001100
00000000
,
00010000
00010000
00000000
00001000
00001000
00000000
00100000
00100000
,
00000000
00010000
00010000
00000000
11000000
00000000
01010000
00000000
,
00001000
00001000
00000000
00010000
00010000
00000000
00000100
00000100
,
00000000
00001000
00001000
00000000
00000001
00000100
00000010
00000000
,
00001000
00001000
00000000
00000100
00000100
00000000
00010000
00010000
,
00000000
00001000
00001000
00000000
00110000
00000000
11000000
00000000
,
00100000
00100000
00000000
00010000
00010000
00000000
01000000
01000000
,
00000000
00001000
00001000
00000000
00010000
00000100
00000010
00000000
,
00000001
00000100
00000000
00000000
00000010
00001000
00000100
00010000
,
00000000
00000000
00001000
00100000
00010000
10000000
01000000
00100000
,
00010000
01000000
00001000
00000000
00010000
00000100
00001000
00000000
,
00000001
00000100
00000010
00000000
00001100
00000000
00011000
00000000
,
00100000
00010000
10000000
00000000
01000000
00100000
00010000
00000000
,
01000000
00001000
00010000
00000000
00001100
00000000
00000101
00000000
,
00001000
00000100
00010000
00000000
00001000
01000000
00010000
00000000
,
10000000
01000000
00010000
00000000
00011000
00000000
00001100
00000000
,
00000001
00001000
00000100
00000000
00010000
00001000
01000000
00000000
,
00010000
10000000
01000000
00000000
01010000
00000000
00011000
00000000
,
00000100
00000010
00000001
00000100
00000000
00000000
00001100
00000000
,
00000000
00011000
00000000
10010000
,
00100000
00001000
01000000
00010000
00000000
00000000
00010010
00000000
,
00000000
00001001
00000000
00010100
,
00001000
01000000
00100000
10000000
00000000
00000000
01100000
00000000
,
00000000
00011000
00000000
00000110
,
00000001
00001000
00000100
00010000
00000000
00000000
00101000
00000000
,
00000000
00000000
10000000
01000000
10000000
00000000
00000000
00000000
,
00100000
01000000
00000000
00001000
00010000
00000100
00000000
00000010
,
00000000
00000001
00000001
00000000
00001100
00000000
00011000
00000000
,
00100000
01000000
00000000
10000000
00010000
01000000
00000000
00001000
,
00000000
00000000
00001001
00000110
,
00010000
00001000
00000000
00100000
01000000
10000000
00000000
00010000
,
00000000
01000000
01000000
00000000
00010010
00000000
01001000
00000000
,
10000000
01000000
00000000
00100000
00001000
00010000
00000000
00000100
,
00000000
00000000
10010000
01100000
,
10000000
00010000
01000000
00001000
00010000
00000100
00000010
00000000
,
00000001
00001000
00000100
00010000
00001000
01000000
00100000
00000000
,
10000000
01000000
00100000
00010000
01000000
00001000
00010000
00000000
,
00001000
00010000
00000010
00001000
00000100
00000010
00000001
00000000
,
00001000
00000100
00010000
00001000
00100000
00010000
10000000
00000000
,
00010000
00100000
00001000
00010000
00000100
00001000
00000001
00000000
,
00000010
00000100
00010000
00001000
00100000
01000000
10000000
00010000
,
01000000
00001000
00010000
00000100
00000010
00000000
00000000
00000000
;

//---------------dance-couple - ----------------
#NOTES:
     dance-couple:
     :
     Easy:
     6:
     0.813,1.000,1.000,0.000,0.000:
00000000
00000000
00000000
00000000
,
00000000
00000000
00000000
00000000
,
00000000
00000000
00000000
00000000
,
00000000
00000000
00000000
00000000
,
00000000
00000000
00000000
00000000
,
00000000
00000000
00000000
00000000
,
00000000
00000000
00000000
00000000
,
00000000
00010001
00000000
00010001
,
00000000
01000100
00000000
01000100
,
00000000
00100010
01000100
10001000
,
01000100
00010001
00100010
00010001
,
01000100
10001000
01000100
01000100
,
00010001
00100010
01000100
10001000
,
00100010
10001000
01000100
00000000
00000000
00000000
01000100
00000000
,
00100010
00010001
01000100
10001000
,
01010101
01010101
11001100
11001100
,
00110011
01010101
10011001
01010101
,
00100010
00010001
00100010
10001000
,
00100010
00000000
01000100
00000000
00010001
10001000
01000100
00000000
,
00010001
00010001
10001000
10001000
,
00100010
00000000
01000100
00000000
00100010
00010001
10001000
00000000
,
00010001
10001000
01000100
00010001
,
10001000
00000000
00010001
00000000
10001000
01000100
11001100
00000000
,
10001000
00110011
01000100
10101010
,
01010101
00110011
11001100
00000000
,
00010001
10001000
00010001
10001000
,
00010001
00010001
00010001
00010001
,
10001000
10001000
00010001
00010001
,
10001000
00010001
10001000
00010001
,
10001000
01000100
00010001
00100010
,
10001000
01000100
10001000
01000100
,
10001000
01000100
10001000
00100010
,
00010001
01000100
10001000
01000100
,
10000000
00000000
00000000
01000000
00000000
00000000
00010000
00000000
,
00000000
10000000
00000000
00100000
00010000
00010000
00010000
00000000
,
00000001
00000000
00000000
00000100
00000000
00000000
00001000
00000000
,
00000000
00000001
00000000
00000010
00001000
00001000
00001000
00000000
,
10000000
00000000
00000000
01000000
00000000
00000000
00010000
00000000
,
00000000
10000000
00000000
00100000
00010000
00010000
00010000
00000000
,
00000001
00000000
00000000
00000100
00000000
00000000
00001000
00000000
,
00000000
00000001
00000000
00000010
00001000
00001000
00001000
00000000
,
00100010
00000000
00010001
00010001
,
00000000
10001000
10001000
10001000
,
00000100
00001000
00000010
00000010
,
00001000
00000001
00000001
00000001
,
10000000
00010000
01000000
01000000
,
00010000
00100000
00100000
00100000
,
00000001
00000010
00001000
00001000
,
00000010
00000100
00000100
00000100
,
00100000
01000000
00010000
00010000
,
01000000
10000000
10000000
10000000
,
00100010
00010001
00100010
10001000
,
10011001
00000000
00100010
01000100
,
00100010
00010001
00100010
10001000
,
10011001
00000000
01000100
00100010
,
01000100
10001000
01000100
00010001
,
10011001
00000000
01000100
00100010
,
01000100
10001000
01000100
00000000
,
10011001
00000000
01100110
00000000
,
10001000
00100010
01000100
00000000
00010001
00000000
00010001
00000000
,
10011001
01100110
10011001
01100110
,
10001000
00100010
01000100
00000000
00010001
00000000
00010001
00000000
,
10011001
11001100
01010101
00000000
,
10001000
00100010
01000100
00000000
00010001
00000000
00010001
00000000
,
01100110
10011001
01000100
10001000
,
10001000
00100010
01000100
00000000
00010001
00000000
00010001
00000000
,
10101010
01100110
01010101
00000000
,
10001000
00000000
01100110
00000000
00010001
01000100
10001000
00000000
,
01000100
00000000
10011001
00000000
10001000
01000100
00010001
00000000
,
01000100
00100010
00010001
10001000
00100010
01000100
00000000
00000000
,
01000100
00100010
10001000
00010001
00100010
01000100
00000000
00000000
,
00100010
10001000
01000100
01100110
,
00100010
00010001
01000100
01100110
,
10001000
01000100
00010001
00100010
,
10101010
00010001
00110011
00000000
;

//---------------dance-couple - ----------------
#NOTES:
     dance-couple:
     :
     Medium:
     8:
     0.908,1.000,1.000,0.000,0.000:
00000000
00000000
00000000
00000000
,
00000000
00000000
00000000
00000000
,
00000000
00000000
00000000
00000000
,
00000000
00000000
00000000
00000000
,
00000000
00000000
00000000
00000000
,
00000000
00000000
00000000
00000000
,
00000000
00000000
00000000
00000000
,
00000000
00010001
00000000
00010001
,
00000000
01000100
00000000
01000100
,
00010001
01000100
10001000
01000100
,
00100010
00010001
10001000
01000100
,
00010001
01000100
00100010
10001000
,
01100110
10011001
01100110
10011001
,
00100010
00100010
00010001
01000100
,
10001000
10001000
01000100
00010001
,
00100010
00000000
00100010
00000000
,
00110011
00000000
11001100
00000000
00010001
10001000
01000100
00000000
,
00010001
01000100
00100010
10001000
,
00010001
01000100
00100010
10001000
,
00010001
01000100
10001000
00000000
00010001
01000100
10001000
00000000
,
00010001
10001000
00010001
10001000
00010001
01000100
10001000
00000000
,
01010101
01000100
01000100
00000000
10011001
00000000
00000000
00000000
,
10101010
00100010
00100010
00000000
10011001
00000000
00000000
00000000
,
00110011
00010001
00010001
00000000
11001100
10001000
10001000
00000000
,
01010101
11001100
10011001
00000000
,
10001000
11001100
00010001
01010101
,
00100010
01000100
10001000
10011001
,
00010001
01010101
01000100
11001100
,
00100010
01000100
00010001
10011001
,
10001000
00010001
10001000
01100110
,
00010001
10001000
00010001
10011001
,
00100010
11001100
00010001
01010101
,
01000100
00100010
10011001
01000100
,
00010000
00000000
00000000
10000000
00000000
00000000
01000000
00000000
,
00000000
10000000
00000000
00010000
00100000
00100000
00100000
00000000
,
00001000
00000000
00000000
00000001
00000000
00000000
00000100
00000000
,
00000000
00000001
00000000
00001000
00000010
00000010
00000010
00000000
,
00010000
00000000
00000000
10000000
00000000
00000000
01000000
00000000
,
00000000
10000000
00000000
00010000
00100000
00100000
00100000
00000000
,
00001000
00000000
00000000
00000001
00000000
00000000
00000100
00000000
,
00000000
00000001
00000000
00001000
00000010
00000010
00000010
00000000
,
00100010
00000000
00010001
10001000
,
00000000
10001000
01000100
00010001
,
00000001
00000010
00001000
00000100
,
00000010
00000100
00000010
00001000
,
10000000
00010000
01000000
00100000
,
00010000
00100000
00010000
01000000
,
00000100
00001000
00000010
00000001
,
00001000
00000001
00001000
00000010
,
00100000
01000000
00010000
10000000
,
01000000
10000000
01000000
00010000
,
00100010
00010001
00110011
10001000
,
11001100
00000000
00000000
00000000
00100010
00100010
01000100
00000000
,
00100010
00010001
00110011
10001000
,
11001100
00000000
00000000
00000000
01000100
01000100
00100010
00000000
,
01000100
10001000
11001100
00010001
,
01010101
00000000
00000000
00000000
01000100
01000100
00100010
00000000
,
01000100
10001000
01000100
00000000
,
00100010
01000100
01100110
00000000
,
10001000
01000100
10001000
00000000
00010001
01000100
00010001
00000000
,
10011001
10101010
11001100
10001000
,
10001000
01000100
10001000
00000000
00010001
01000100
00010001
00000000
,
10011001
11001100
01010101
00000000
,
10001000
01000100
10001000
00000000
00010001
01000100
00010001
00000000
,
10011001
10101010
11001100
10001000
,
10001000
01000100
10001000
00000000
00010001
01000100
00010001
00000000
,
10011001
11001100
01010101
00000000
,
01000100
00010001
01000100
00000000
00100010
10001000
00100010
00000000
,
01000100
00010001
01000100
00000000
00100010
10001000
00100010
00000000
,
10001000
00100010
10001000
00100010
10001000
01000100
10001000
01000100
,
10001000
00010001
01000100
00010001
01000100
00010001
00010001
00000000
,
00100010
00100010
11001100
01010101
,
01000100
10001000
01000100
00010001
01000100
00000000
01000100
00000000
,
00100010
10011001
01100110
00010001
,
10001000
00000000
01000100
01000100
01000100
00000000
00000000
00000000
;

//---------------dance-couple - ----------------
#NOTES:
     dance-couple:
     :
     Hard:
     8:
     1.000,1.000,1.000,0.000,0.000:
00000000
00000000
00000000
00000000
,
00000000
00000000
00000000
00000000
,
00000000
00000000
00000000
00000000
,
00000000
00000000
00000000
00000000
,
00000000
00000000
00000000
00000000
,
00000000
00000000
00000000
00000000
,
00000000
00000000
00000000
00000000
,
00000000
00010001
00000000
00010001
,
00000000
01000100
00000000
01000100
,
00100010
00000000
00100010
00000000
00010001
01000100
00010001
00000000
,
10001000
00000000
10001000
00000000
01000100
10001000
00010001
00000000
,
00100010
00000000
01000100
00000000
00100010
00100010
00100010
00000000
,
00110011
00000000
11001100
00000000
00010001
10001000
01000100
00000000
,
00100010
00100010
00100010
00000000
10001000
00100010
00010001
00000000
,
00100010
00100010
00100010
00000000
10001000
00000000
01000100
00000000
,
00010001
10001000
00100010
00000000
10001000
00010001
00100010
00000000
,
10001000
00100010
00010001
00000000
00010001
00100010
10001000
00000000
,
10001000
00010001
10101010
10011001
,
00100010
00000000
10101010
00000000
01000100
01000100
01000100
00000000
,
00100010
00010001
01000100
10001000
,
01000100
00010001
01000100
10001000
01000100
00010001
01000100
00000000
,
00100010
01000100
00100010
00000000
00010001
01000100
10001000
00000000
,
00010001
00000000
10001000
00000000
00010001
10001000
01000100
00000000
,
00010001
00100010
10001000
00000000
00010001
00000000
01000100
00000000
,
00010001
10001000
01000100
00100010
01000100
10001000
00010001
00000000
,
10001000
10001000
00010001
00010001
,
10001000
10001000
00010001
00010001
,
01000100
01100110
01100110
01100110
,
10101010
00010001
11001100
01010101
,
00010001
10001000
01010101
01010101
,
10101010
01010101
01010101
00000000
,
10001000
00010001
11001100
11001100
,
00110011
11001100
11001100
00000000
,
10000000
00000000
00000000
00010000
00000000
00000000
01100000
00000000
,
00000000
10010000
00000000
00100000
01000000
01000000
01000000
00000000
,
00000001
00000000
00000000
00001000
00000000
00000000
00000110
00000000
,
00000000
00001001
00000000
00000010
00000100
00000100
00000100
00000000
,
10000000
00000000
00000000
00010000
00000000
00000000
01100000
00000000
,
00000000
10010000
00000000
00100000
01000000
01000000
01000000
00000000
,
00000001
00000000
00000000
00001000
00000000
00000000
00000110
00000000
,
00000000
00001001
00000000
00000010
00000100
00000100
00000100
00000000
,
00100010
00000000
10011001
00110011
,
00000000
00000000
10001000
01000100
00100010
01000100
10001000
00000000
,
00000001
00000010
00001100
00001001
,
00000010
00000000
00000100
00000010
00000001
00000010
00000100
00000000
,
10000000
00010000
01100000
11000000
,
00010000
00000000
00100000
00010000
10000000
00010000
00100000
00000000
,
00000100
00001000
00000011
00000110
,
00001000
00000000
00000001
00001000
00000100
00001000
00000001
00000000
,
00100000
01000000
10010000
00110000
,
01000000
00000000
10000000
01000000
00100000
01000000
10000000
00000000
,
00100010
10001000
01100110
00010001
,
10011001
01000100
10011001
00100010
,
00010001
10001000
00100010
00000000
10001000
01000100
00010001
00000000
,
10001000
00010001
00100010
00000000
00010001
10001000
01000100
00000000
,
10001000
10001000
00010001
00010001
,
10011001
01100110
10011001
01000100
,
10001000
01000100
00010001
00000000
01000100
10001000
00100010
00000000
,
00010001
00010001
10011001
10011001
,
10001000
01000100
10001000
01000100
00010001
01000100
00010001
01000100
,
10001000
00010001
10001000
00010001
10001000
01000100
10001000
01000100
,
00100010
00010001
10001000
01000100
00100010
00010001
00100010
10001000
,
00100010
00010001
01000100
00010001
00100010
10001000
00010001
00100010
,
01000100
00010001
10001000
00010001
01000100
10001000
00100010
10001000
,
01000100
00010001
00100010
00010001
01000100
10001000
00100010
10001000
,
01000100
00010001
00100010
10001000
00010001
01000100
10001000
00100010
,
01000100
00010001
10001000
10001000
01000100
00000000
10011001
00000000
,
00010001
00010001
00010001
00000000
00010001
01000100
10001000
00000000
,
10001000
10001000
10001000
00000000
10001000
01000100
00010001
00000000
,
00010001
00010001
00010001
00000000
00010001
01000100
10001000
00000000
,
00100010
01000100
00010001
10001000
01000100
00100010
01000100
00000000
,
10001000
01010101
00010001
11001100
,
00100010
00010001
11001100
01010101
,
00110011
00010001
10011001
01010101
,
00010001
10001000
01010101
00000000
;

//---------------dance-couple - ----------------
#NOTES:
     dance-couple:
     :
     Challenge:
     8:
     0.727,1.000,1.000,0.000,0.000:
00000000
00000000
00000000
00000000
,
00000000
00000000
00000000
00000000
,
00000000
00000000
00000000
00000000
,
00000000
00000000
00000000
00000000
,
00000000
00000000
00000000
00000000
,
00000000
00000000
00000000
00000000
,
00000000
00000000
00000000
00000000
,
00000000
00010001
00000000
00010001
,
00000000
01000100
00000000
01000100
,
00100000
00000000
00100001
00000000
00010000
01000000
00010001
00000000
,
10000000
00000000
10000001
00000000
01000000
10000000
00010001
00000000
,
00010000
01000001
00100000
10000001
,
00010000
00000000
11000001
00000000
00010000
10000000
01000001
00000000
,
10100000
01010001
01000000
01000001
,
00100000
00100001
10000000
01000001
,
00010000
10000000
00100001
00000000
10000000
00010000
00100001
00000000
,
10000000
00100000
00010001
00000000
10010000
00000000
00000001
00000000
,
00000010
00000000
10000010
00000000
00000001
00000100
10000001
00000000
,
00001000
00000000
10001000
00000000
00000100
00001000
10000001
00000000
,
00000001
10000100
00000010
10001000
,
00000001
00000000
10001100
00000000
00000001
00001000
10000100
00000000
,
00001010
10000101
00000100
10000100
,
00000010
10000010
00001000
10000100
,
00000001
00001000
10000010
00000000
00001000
00000001
10000010
00000000
,
00001000
00000010
10000001
00000000
00001001
00000000
10000000
00000000
,
10001000
10001000
00010001
00010001
,
10001000
10001000
00010001
00010001
,
01000100
01100110
01100110
01100110
,
10101010
00010001
11001100
01010101
,
00010000
10000000
01010000
01010000
,
10100000
01010000
01010000
00000000
,
00001000
00000001
00001100
00001100
,
00000011
00001100
00001100
00000000
,
10000000
00000000
00000000
00010000
00000000
00000000
01100000
00000000
,
00000000
10010000
00000000
00100000
01000000
01000000
01000000
00000000
,
00001000
00000000
00000000
00000001
00000000
00000000
00000110
00000000
,
00000000
00001001
00000000
00000010
00000100
00000100
00000100
00000000
,
00010000
00000000
00000000
10000000
00000000
00000000
01100000
00000000
,
00000000
10010000
00000000
00100000
01000000
01000000
01000000
00000000
,
00000001
00000000
00000000
00001000
00000000
00000000
00000110
00000000
,
00000000
00001001
00000000
00000010
00000100
00000100
00000100
00000000
,
00001001
00000000
01010000
00001100
,
00000000
10010000
00001001
11000000
,
00001001
10000100
00001001
10000100
,
00001001
10000100
00001001
10000100
,
10010000
01000001
10010000
01000001
,
10010000
01000001
10010000
01000001
,
00000100
10001000
00000011
10000110
,
00001000
00000000
10000001
00001000
00000100
00001000
10000001
00000000
,
01000000
10000001
00110000
01100001
,
10000000
00000000
00010001
10000000
01000000
10000000
00010001
00000000
,
00000010
10000001
00000011
10001000
,
00001100
00000000
10000000
00000000
00000010
00000010
10000100
00000000
,
00100000
00010001
00110000
10000001
,
11000000
00000000
00000001
00000000
00100000
00100000
01000001
00000000
,
00001000
00000100
10000001
00000000
00000100
00001000
10000010
00000000
,
00000001
10000001
00001001
10001001
,
10000000
01000000
00010001
00000000
01000000
10000000
00100001
00000000
,
00010000
00010001
10010000
10010001
,
00001000
00000100
00001000
00000100
00000001
00000100
00000001
00000100
,
00001000
00000001
00001000
00000001
00001000
00000100
00001000
00000100
,
00000010
00000001
00001000
00000100
00000010
00000001
00000010
00001000
,
00000010
00000001
00000100
00000001
00000010
00001000
00000001
00000000
,
10000000
01000000
10000000
01000000
00010000
01000000
00010000
01000000
,
10000000
00010000
10000000
00010000
10000000
01000000
10000000
01000000
,
00100000
00010000
10000000
01000000
00100000
00010000
00100000
10000000
,
00100000
00010000
01000000
00010000
00100000
10000000
00010000
00000000
,
00001000
00001000
00001000
00000000
00001000
00000100
00000001
00000000
,
00000001
00000001
00000001
00000000
00000001
00000100
00001000
00000000
,
00010000
00010000
00010000
00000000
00010000
01000000
10000000
00000000
,
10000000
10000000
10000000
00000000
10000000
01000000
00010000
00000000
,
00100010
10000001
01000100
01100110
,
00100010
00011000
01000100
01100110
,
11000000
00001100
01010000
00000101
,
10010000
00001001
01100110
00000000
;

//---------------dance-solo - ----------------
#NOTES:
     dance-solo:
     :
     Easy:
     6:
     0.454,0.582,0.386,0.000,0.000:
000000
000000
000000
000000
,
000000
000000
000000
000000
,
000000
000000
000000
000000
,
000000
000000
000000
000000
,
000000
000000
000000
000000
,
000000
000000
000000
000000
,
000000
000000
000000
000000
,
000000
000001
000000
000010
,
000000
001000
000000
001000
,
000000
000100
001000
010000
,
001000
000001
000100
000010
,
001000
100000
001000
001000
,
000001
010000
001000
100000
,
000100
010000
001000
000000
000000
000000
001000
000000
,
000100
000001
001000
100000
,
001010
001010
011000
011000
,
000101
001010
100001
011000
,
000100
000001
010000
100000
,
000100
000000
001000
000000
000001
100000
001000
000000
,
000001
000001
010000
010000
,
000100
000000
001000
000000
000100
000010
100000
000000
,
000001
010000
001000
000001
,
100000
000000
000010
000000
100000
001000
101000
000000
,
010000
000101
001000
100010
,
001001
000110
101000
000000
,
000001
010000
000010
100000
,
000001
000001
000001
000001
,
010000
010000
000010
000010
,
100000
000001
100000
000001
,
010000
001000
000001
000100
,
100000
001000
100000
001000
,
010000
000001
100000
000100
,
000001
001000
100000
001000
,
010000
000000
000000
001000
000000
000000
000001
000000
,
000000
100000
000000
000100
000001
000001
000001
000000
,
000010
000000
000000
001000
000000
000000
010000
000000
,
000000
000001
000000
000100
100000
100000
100000
000000
,
010000
000000
000000
001000
000000
000000
000001
000000
,
000000
100000
000000
000100
000010
000010
000010
000000
,
000001
000000
000000
100000
000000
000000
010000
000000
,
000000
000001
000000
000100
100000
100000
100000
000000
,
000100
000000
000001
000001
,
000000
010000
010000
010000
,
000100
100000
001000
001000
,
010000
000001
000001
000001
,
000100
000001
001000
001000
,
000001
010000
010000
010000
,
000010
000100
100000
100000
,
000100
001000
001000
001000
,
000010
100000
000001
000001
,
001000
100000
100000
100000
,
000100
000001
000100
100000
,
001010
000000
000100
100000
,
000010
000001
000100
100000
,
100001
000000
001000
000100
,
001000
100000
001000
000001
,
100001
000000
001000
000100
,
001000
010000
001000
000000
,
100001
000000
001100
000000
,
100000
000010
001000
000000
000001
000000
000001
000000
,
100010
001100
100001
011000
,
100000
000100
001000
000000
000010
000000
000010
000000
,
100001
011000
001010
000000
,
100000
000100
001000
000000
000010
000000
000010
000000
,
100100
001001
100000
001000
,
001000
000010
000001
000000
010000
000000
010000
000000
,
100100
001010
100001
000000
,
010000
000000
001100
000000
000001
001000
010000
000000
,
001000
000000
100001
000000
010000
001000
000001
000000
,
001000
010000
000001
100000
000010
001000
000000
000000
,
001000
000100
100000
000001
000100
001000
000000
000000
,
010000
100000
001000
001100
,
000100
000001
001000
001100
,
100000
001000
000010
000100
,
010100
001000
000110
000000
;

//---------------dance-solo - ----------------
#NOTES:
     dance-solo:
     :
     Medium:
     8:
     0.502,0.621,0.511,0.000,0.000:
000000
000000
000000
000000
,
000000
000000
000000
000000
,
000000
000000
000000
000000
,
000000
000000
000000
000000
,
000000
000000
000000
000000
,
000000
000000
000000
000000
,
000000
000000
000000
000000
,
000000
000001
000000
000001
,
000000
001000
000000
001000
,
000010
010000
100000
001000
,
000100
000001
010000
001000
,
000010
001000
000100
100000
,
001010
100001
011000
100001
,
000100
000100
000001
001000
,
010000
010000
001000
000001
,
000100
000000
000100
000000
,
010010
000000
001100
000000
000001
100000
001000
000000
,
000001
001000
000010
010000
,
000001
001000
000100
100000
,
000001
001000
010000
000000
000010
001000
100000
000000
,
000001
010000
000001
100000
000001
001000
100000
000000
,
001010
001000
001000
000000
100001
000000
000000
000000
,
010100
000100
000100
000000
100001
000000
000000
000000
,
000110
000010
000010
000000
011000
010000
010000
000000
,
100001
001010
011000
000000
,
100000
010001
000010
001001
,
000100
001000
010000
100001
,
000010
001001
000100
101000
,
000100
000001
000010
100100
,
010000
000001
100000
001100
,
000001
100000
000010
010001
,
000100
101000
000001
001010
,
001000
000100
100001
001000
,
000001
000000
000000
010000
000000
000000
001000
000000
,
000000
100000
000000
000001
000100
000100
000100
000000
,
010000
000000
000000
000010
000000
000000
001000
000000
,
000000
000001
000000
100000
000100
000100
000100
000000
,
000010
000000
000000
010000
000000
000000
001000
000000
,
000000
100000
000000
000001
000100
000100
000100
000000
,
010000
000000
000000
000010
000000
000000
001000
000000
,
000000
000001
000000
100000
000100
000100
000100
000000
,
010000
000000
000001
100000
,
000000
010000
001000
000001
,
000010
000100
100000
001000
,
000100
001000
000100
100000
,
010000
000001
001000
000100
,
000001
000100
000010
001000
,
001000
100000
000100
000010
,
010000
000001
100000
000100
,
000100
001000
000001
100000
,
001000
010000
000001
000100
,
000010
000001
001010
100000
,
011000
000000
000000
000000
000100
000100
001000
000000
,
000010
000001
000110
100000
,
011000
000000
000000
000000
000100
000100
001000
000000
,
000010
100000
011000
000001
,
001010
000000
000000
000000
001000
001000
000100
000000
,
001000
100000
001000
000000
,
010000
001000
000101
000000
,
100000
001000
010000
000000
000001
001000
000010
000000
,
100001
010100
101000
010000
,
000100
001000
000100
000000
000010
001000
000010
000000
,
100001
011000
001010
000000
,
100000
001000
010000
000000
000001
001000
000010
000000
,
100001
010100
101000
010000
,
000001
001000
000010
000000
100000
001000
010000
000000
,
100001
011000
001010
000000
,
100000
000001
010000
000000
000100
100000
000010
000000
,
001000
000001
100000
000000
000010
010000
000100
000000
,
100000
000010
100000
000010
100000
001000
100000
001000
,
100000
000001
001000
000001
001000
000010
000010
000000
,
000100
000100
011000
001010
,
001000
010000
001000
000010
001000
000000
001000
000000
,
000100
100001
001100
000001
,
100000
000000
001000
001000
001000
000000
000000
000000
;

//---------------dance-solo - ----------------
#NOTES:
     dance-solo:
     :
     Hard:
     9:
     0.590,0.660,0.584,0.000,0.000:
000000
000000
000000
000000
,
000000
000000
000000
000000
,
000000
000000
000000
000000
,
000000
000000
000000
000000
,
000000
000000
000000
000000
,
000000
000000
000000
000000
,
000000
000000
000000
000000
,
000000
000001
000000
000001
,
000000
001000
000000
001000
,
000010
000000
000010
000000
000001
010000
000001
000000
,
100000
000000
100000
000000
001000
010000
000001
000000
,
000100
000000
001000
000000
010000
010000
010000
000000
,
000101
000000
011000
000000
000001
100000
001000
000000
,
010000
010000
010000
000000
100000
000100
000010
000000
,
010000
010000
010000
000000
100000
000000
001000
000000
,
000001
100000
000010
000000
010000
000001
000100
000000
,
100000
000100
000010
000000
000001
000100
010000
000000
,
100000
000010
010100
100001
,
000100
000000
010010
000000
001000
001000
001000
000000
,
000100
000001
001000
100000
,
001000
000001
001000
010000
001000
000010
001000
000000
,
000100
001000
010000
000000
000001
001000
100000
000000
,
000010
000000
010000
000000
000001
100000
001000
000000
,
000001
000100
010000
000000
000010
000000
001000
000000
,
000001
100000
001000
010000
001000
100000
000001
000000
,
010000
010000
000010
000010
,
100000
100000
000001
000001
,
001000
001100
001100
001100
,
100010
000001
011000
100001
,
000010
010000
001001
001001
,
100100
010001
100010
000000
,
010000
000001
101000
101000
,
000101
011000
001010
000000
,
100000
000000
000000
000001
000000
000000
001100
000000
,
000000
100001
000000
000100
001000
001000
001000
000000
,
000010
000000
000000
100000
000000
000000
001100
000000
,
000000
100001
000000
000100
001000
001000
001000
000000
,
010000
000000
000000
000001
000000
000000
001100
000000
,
000000
100001
000000
000100
001000
001000
001000
000000
,
000010
000000
000000
100000
000000
000000
001100
000000
,
000000
100001
000000
000100
001000
001000
001000
000000
,
010000
000000
100001
000110
,
000000
000000
100000
001000
000100
001000
010000
000000
,
000001
000100
011000
100001
,
000100
000000
001000
000010
000001
000100
001000
000000
,
100000
000001
001100
110000
,
000001
000000
000100
000010
010000
000001
000100
000000
,
001000
100000
000101
011000
,
100000
000000
000001
010000
001000
100000
000001
000000
,
000100
001000
100001
000110
,
001000
000000
100000
001000
010000
001000
100000
000000
,
000100
010000
001010
000001
,
100010
001000
010001
000100
,
000001
100000
000100
000000
010000
001000
000001
000000
,
100000
000001
000010
000000
000001
010000
001000
000000
,
100000
100000
000001
000001
,
010010
001100
100001
001000
,
010000
001000
000001
000000
001000
100000
000010
000000
,
000001
000001
010010
010010
,
100000
001000
100000
001000
000001
001000
000001
001000
,
010000
000001
010000
000001
010000
001000
010000
001000
,
000100
000001
100000
001000
010000
000001
000100
000010
,
010000
000001
100000
000010
001000
000100
100000
001000
,
010000
000001
100000
000010
001000
000100
100000
000001
,
001000
000010
100000
000010
001000
000100
100000
000100
,
001000
000010
100000
000001
000100
001000
010000
000001
,
001000
000010
100000
100000
000100
000000
010001
000000
,
000010
000010
000010
000000
000001
001000
100000
000000
,
010000
010000
010000
000000
100000
001000
000010
000000
,
000001
000001
000001
000000
000010
001000
100000
000000
,
000100
001000
000001
100000
001000
000100
001000
000000
,
010000
001001
000010
101000
,
000100
000001
011000
001001
,
000110
001000
100001
001010
,
000001
100000
011000
000000
;

//---------------dance-single - Edit by silenttype01----------------
#NOTES:
     dance-single:
     Edit by silenttype01:
     Challenge:
     9:
     0.716,0.777,0.271,0.063,0.000: // measure 1
0000
0000
0000
0000
,  // measure 2
0000
0000
0000
0000
,  // measure 3
0000
0000
0000
0000
,  // measure 4
0000
0000
0000
0000
,  // measure 5
0000
0000
0000
0000
,  // measure 6
0000
0000
0000
0000
,  // measure 7
0000
0000
0000
0000
,  // measure 8
0000
1000
0000
1000
,  // measure 9
0000
0000
0000
0000
,  // measure 10
0010
0100
0001
1000
0100
1000
0001
0100
,  // measure 11
0010
1000
0010
0001
0010
1000
0100
0010
,  // measure 12
0001
0100
0001
0100
1000
0100
0010
1000
,  // measure 13
0100
0001
0100
1000
0001
0100
0010
1000
,  // measure 14
0000
0011
0011
0100
1000
0001
0100
0010
,  // measure 15
1000
0001
0100
0010
1000
0100
0001
0100
,  // measure 16
1000
0010
0100
0001
1000
0100
0010
0001
,  // measure 17
0100
0010
1000
0100
0110
0000
0000
0000
,  // measure 18
0000
1001
0010
0001
0100
0010
1000
0100
,  // measure 19
0010
0001
0100
1000
0100
0001
0010
0100
,  // measure 20
1000
0001
0010
0100
1000
0001
0100
0010
,  // measure 21
0001
0010
1000
0100
1000
0001
0010
0100
,  // measure 22
0000
1100
1001
0100
0010
1000
0100
0010
,  // measure 23
0001
0100
0001
0100
0010
1000
0010
1000
,  // measure 24
0100
0001
0100
1000
0001
0100
0010
1000
,  // measure 25
0010
0100
0001
1000
0200
0000
0000
0000
,  // measure 26
1300
0100
0001
0000
0001
0100
1000
0000
,  // measure 27
0001
0100
0010
0000
1000
0100
0010
0011
,  // measure 28
0000
1001
0000
1100
1001
0000
0101
1001
,  // measure 29
0000
0000
0001
0020
0000
0000
0000
0000
,  // measure 30
0031
0100
1000
0100
0001
1000
0100
0001
,  // measure 31
0100
1000
0010
0100
0002
0000
0013
0000
,  // measure 32
0000
1100
0000
0000
0010
0000
0001
0000
,  // measure 33
0100
1000
0010
0000
,  // measure 34
0000
1000
0010
0100
0001
0010
1000
0010
,  // measure 35
0001
1000
0100
0010
0010
0010
0010
0010
,  // measure 36
0110
0100
1000
0010
0100
0001
0010
1000
,  // measure 37
0010
0001
0100
1000
0010
0010
0010
0010
,  // measure 38
0011
0001
0100
0010
1000
0100
0001
0100
,  // measure 39
1000
0001
0010
0100
1000
1000
1000
1000
,  // measure 40
1001
0001
0100
0010
0001
0010
1000
0100
,  // measure 41
0001
0010
0001
0100
1000
1000
1000
1000
,  // measure 42
0001
0010
0000
0000
0001
0010
0001
0010
,  // measure 43
0000
0000
0001
0010
0001
0010
0100
1000
,  // measure 44
0001
0100
0010
0000
1000
0100
0001
0000
,  // measure 45
0010
1000
0100
0002
0000
0000
0103
0000
,  // measure 46
1000
0010
0100
0000
0001
1000
0100
0000
,  // measure 47
0010
0001
0100
2000
0000
0000
3100
0000
,  // measure 48
0010
1000
0010
0000
0100
0010
0100
0000
,  // measure 49
0001
0010
0001
2000
0000
0000
3010
0000
,  // measure 50
0001
0010
1000
0010
0001
0100
1000
0100
,  // measure 51
0001
1000
0100
0001
0101
0000
0000
0000
,  // measure 52
1000
0100
0010
0001
1000
0000
1000
0001
,  // measure 53
0010
0100
1000
0001
0100
0000
0100
0010
,  // measure 54
1000
0001
0100
0010
1000
0000
1000
0100
,  // measure 55
0010
0100
1000
0001
0100
0010
0001
0000
,  // measure 56
0001
0010
1000
0100
0010
0000
0010
0100
,  // measure 57
1000
0001
0100
1000
0100
0000
0100
0001
,  // measure 58
0010
0100
0010
0001
1000
0100
1000
0001
,  // measure 59
0010
0010
1001
0000
,  // measure 60
0001
0010
0100
1000
0010
0100
0001
0100
,  // measure 61
1000
0100
0001
0010
0100
0001
0010
0100
,  // measure 62
0001
1000
0100
0010
1000
0100
0010
1000
,  // measure 63
0010
0100
0001
1000
0100
0010
0001
0001
,  // measure 64
1000
0010
0100
0001
1000
0100
0010
0100
,  // measure 65
1000
0001
0100
1000
0001
0100
1000
0001
,  // measure 66
1000
0010
0001
1000
0010
0001
0100
0010
,  // measure 67
1000
0001
0100
0010
0100
0000
1001
0000
,  // measure 68
1000
0100
0001
0100
1000
1000
1000
0000
,  // measure 69
0001
0100
1000
0100
0001
0001
0001
0000
,  // measure 70
0010
0100
1000
0100
0010
0010
0010
0000
,  // measure 71
0100
0100
0100
0100
0100
0100
0100
0000
,  // measure 72
0010
0001
0100
0001
0010
1000
0010
0000
,  // measure 73
0100
1000
0001
0100
1000
0100
0010
1000
,  // measure 74
0110
0000
0101
1000
0110
0000
0011
0100
,  // measure 75
1001
1010
0011
0000
;

//---------------dance-double - Edit by silenttype01----------------
#NOTES:
     dance-double:
     Edit by silenttype01:
     Challenge:
     9:
     0.667,0.660,0.198,0.115,0.005:
00000000
00000000
00000000
00000000
,
00000000
00000000
00000000
00000000
,
00000000
00000000
00000000
00000000
,
00000000
00000000
00000000
00000000
,
00000000
00000000
00000000
00000000
,
00000000
00000000
00000000
00000000
,
00000000
00000000
00000000
00000000
,
00000000
00010000
00000000
00001000
,
00000000
00000000
00000000
00000000
,
00010000
00001000
00000100
00000010
00000100
00001000
00010000
01000000
,
00100000
01000000
00010000
00001000
00000100
00000010
00001000
00000100
,
00000010
00001000
00010000
01000000
00100000
00010000
01000000
00100000
,
00010000
00001000
00100000
00010000
01000000
00001000
00000000
00011000
,
00000000
00011000
00000000
00000000
00001000
00010000
00000100
00001000
,
00000010
00010000
00001000
01000000
00010000
00100000
00001000
01000000
,
00100000
00010000
00001000
00000100
00000010
00010000
00000100
00000010
,
00001000
00010000
01000000
00100000
00001000
00000000
00000000
00000000
,
00000000
00011000
00000000
00000000
00001000
00010000
00100000
01000000
,
00100000
00010000
00001000
00000010
00000100
00000010
00001000
00010000
,
00100000
01000000
00010000
00100000
01000000
00010000
00001000
00000010
,
00000100
00001000
00000010
00000100
00001000
00000000
00000000
00011000
,
00000000
00011000
00000000
00000000
00010000
00001000
00100000
00010000
,
01000000
00001000
00010000
00000010
00001000
00000100
00010000
00000010
,
00000100
00001000
00010000
00100000
01000000
00001000
00100000
01000000
,
00010000
00001000
00000010
00000100
00002000
00000000
00000000
00000000
,
00000000
00003002
00000000
00000000
00000103
00000010
00000100
00000010
,
00010000
00001000
00010000
00001000
00100000
01000000
00100000
01000000
,
00000000
20000000
00000000
00000000
31000000
00100000
01000000
00100000
,
00001000
00010000
00001000
00010000
00000010
00000100
00000010
00000100
,
00000000
00000002
00000000
00000000
00000103
00001000
00000100
00001000
,
00010000
00100000
00010000
00100000
01000000
00010000
01000000
00010000
,
00000000
20000000
00000000
00000000
31000000
00010000
01000000
00010000
,
00001000
00000010
00001000
00000010
00000100
00000000
00000000
00000000
,
00000000
00000001
00000010
00000100
00001000
00010000
00100000
01000000
,
10000000
01000000
00100000
00010000
00000000
00000000
00000000
00000000
,
00000000
10000000
01000000
00100000
00010000
00001000
00000100
00000010
,
00000001
00000010
00000100
00001000
00000000
00001001
00000000
00000000
,
00000000
00000001
00000100
00000010
00001000
00010000
01000000
00100000
,
10000000
00100000
01000000
00010000
00000000
00000000
00000000
00000000
,
00000000
10000000
00100000
01000000
00010000
00001000
00000010
00000100
,
00000001
00000100
00000010
00001000
00000000
00000000
00000000
00000000
,
00001001
00000000
00011000
00011000
,
00000000
10010000
10010000
10010000
,
10000000
01000000
00010000
00000000
00010000
01000000
10000000
00000000
,
10000000
00100000
00010000
00002000
00000000
00000000
00013000
00000000
,
00001000
00000100
00000001
00000000
00000001
00000100
00001000
00000000
,
00000001
00000010
00010000
00002000
00000000
00000000
00013000
00000000
,
00001000
00100000
01000000
00000000
01000000
10000000
00100000
00000000
,
00100000
00010000
00001000
00020000
00000000
00000000
00031000
00000000
,
00010000
00001000
00000100
00000000
00000100
00000010
00001000
00000000
,
00001000
00000001
00000010
00000200
00000000
00000000
00010300
00000000
,
00000001
00000010
00000100
00001000
00000100
00000000
00000010
00000001
,
00000100
00000000
00001000
00020000
00000000
00000000
00031000
00000000
,
01000000
00100000
01000000
00000000
00001000
00010000
00001000
00000000
,
00100000
01000000
00100000
00000000
00010000
10000000
00010000
00000000
,
01000000
00100000
00000000
10100000
00000000
10010000
00000000
01000000
,
10000000
00000000
01000000
00020000
00000000
00000000
00031000
00000000
,
00001000
00000100
00000001
00000000
00000001
00000100
00001000
00000000
,
00001000
00000000
00010000
00000000
00100000
00000000
10000000
00010000
10000000
00000000
00000000
00000000
00000000
00000000
00000000
00000000
,
10000000
00100000
10000000
00100000
00010000
00001000
00010000
00001000
,
00000010
00000001
00000010
00000001
00000100
00001000
00000100
00001000
,
00010000
01000000
00010000
01000000
10000000
00100000
10000000
00100000
,
00010000
00001000
00010000
00001000
00000100
00000001
00000100
00000001
,
00001000
00000010
00001000
00000010
00010000
00000100
00010000
00000100
,
00100000
00001000
00100000
00001000
01000000
00010000
01000000
00010000
,
10000000
00100000
10000000
00100000
01000000
00001000
01000000
00001000
,
00100000
00010000
00100000
00010000
10000000
01000000
10000000
00000000
,
00010000
01000000
10000000
01000000
00010000
00100000
01000000
10000000
,
01000000
00010000
00001000
00000100
00000001
00000100
00000010
00001000
,
00000100
00010000
00000010
00001000
00000100
00010000
00001000
00100000
,
01000000
00100000
00001000
01000000
00001000
00010000
00100000
01000000
,
00100000
00010000
00001000
00000100
00000010
00000100
00001000
00000100
,
00000001
00000010
00001000
00010000
00100000
10000000
01000000
00010000
,
10010000
00001000
00011000
00000100
,
00000110
00011000
01100000
00000000
;
