#TITLE:PARANOiA KCET;
#SUBTITLE:(clean mix);
#ARTIST:2MB;
#TITLETRANSLIT:;
#SUBTITLETRANSLIT:;
#ARTISTTRANSLIT:;
#CREDIT:;
#BANNER:PARANOiA KCET ~clean mix~.png;
#BACKGROUND:PARANOiA KCET ~clean mix~-bg.png;
#LYRICSPATH:;
#CDTITLE:Dance Dance Revolution 2nd Link Version.png;
#MUSIC:PARANOiA KCET ~clean mix~.ogg;
#OFFSET:0.000;
#SAMPLESTART:62.675;
#SAMPLELENGTH:15.000;
#SELECTABLE:YES;
#DISPLAYBPM:180.000;
#BPMS:0.000=178.727,4.000=180.000;
#STOPS:;
#BGCHANGES:;

//---------------dance-single - ----------------
#NOTES:
     dance-single:
     :
     Beginner:
     2:
     0.182,0.254,0.000,0.000,0.000:
0000
0000
0000
0000
,
0000
0000
0000
0000
,
0000
0000
0000
0000
,
0010
0010
0000
0000
,
0010
0010
0000
0000
,
0010
0010
0000
0000
,
0010
0010
0000
0000
,
1000
0000
0000
0000
,
0001
0000
0000
0000
,
1000
0000
0000
0000
,
0001
0000
0000
0000
,
0100
0100
0000
0000
,
0100
0100
0000
0000
,
0100
0100
0000
0000
,
0100
0100
0000
0000
,
0001
0000
0000
0000
,
0001
0000
0000
0000
,
1000
0000
0000
0000
,
1000
0000
0000
0000
,
1000
1000
0000
0000
,
0010
0000
0000
0000
,
0001
0001
0000
0000
,
0100
0000
0000
0000
,
1000
1000
0000
0000
,
0010
0000
0000
0000
,
0001
0001
0000
0000
,
0100
0000
0000
0000
,
0000
0000
0000
0000
,
0001
0000
1000
1000
,
0000
0000
1000
0000
,
0001
0001
0000
0000
,
0010
0010
0010
0010
,
0010
0000
0000
0000
,
0100
0100
0100
0100
,
0100
0000
0000
0000
,
0001
0000
0000
0000
,
1000
0000
0000
0000
,
0001
0001
0000
0000
,
1000
1000
0000
0000
,
0010
0010
0010
0010
,
0010
0000
0000
0000
,
0100
0100
0100
0100
,
0100
0000
0000
0000
,
0001
0000
0000
0000
,
1000
0000
0000
0000
,
0001
0001
0000
0000
,
1000
1000
0000
0000
,
0001
0001
0000
0000
,
1000
1000
0000
0000
,
0010
0010
0000
0000
,
0100
0100
0000
0000
,
0001
0001
0000
0000
,
0010
0010
0000
0000
,
1000
1000
0000
0000
,
0010
0010
0000
0000
,
0001
0001
0000
0000
,
1000
1000
0000
0000
,
0010
0010
0000
0000
,
0100
0100
0000
0000
,
0001
0001
0000
0000
,
0100
0100
0000
0000
,
1000
1000
0000
0000
,
0100
0100
0000
0000
,
0001
0000
0000
0000
,
0001
0001
0000
0000
,
1000
1000
1000
0000
,
1000
1000
1000
0000
,
1000
0000
0000
0000
,
0001
0001
0000
0000
,
1000
1000
0000
0000
,
0100
0100
0100
0100
;

//---------------dance-single - ----------------
#NOTES:
     dance-single:
     :
     Easy:
     5:
     0.462,0.509,0.545,0.000,0.000:
0000
0000
0000
0000
,
0000
0000
0000
0000
,
0000
0000
0000
0000
,
0011
0001
0010
0100
,
1100
1000
0100
0010
,
0011
0001
0010
0100
,
1100
1000
0100
0010
,
0010
0001
0010
0010
,
0100
1000
0100
0100
,
0000
0010
0001
0010
,
0000
0010
1000
0100
,
1000
1001
0010
0100
,
0001
1001
0010
0100
,
1000
1001
0100
0001
,
0001
1001
0100
1000
,
0000
0000
1000
0000
0010
0010
0010
0000
,
0000
0000
0001
0000
0010
0010
0010
0000
,
0000
0000
1001
0000
0001
0001
0001
0000
,
0001
1001
0010
0010
,
0110
1001
0100
1000
,
0010
0100
1100
0101
,
0010
0000
0100
0001
,
0000
0000
0000
0000
1000
0100
0001
0000
,
0010
0000
0100
1000
,
0010
0100
1100
0101
,
0010
0000
1000
0100
,
0010
0000
0000
0000
0001
0100
1000
0000
,
0010
0100
0110
0000
,
0001
0000
0100
0100
,
0000
0000
1001
0000
,
1010
0101
0000
0000
,
0010
0010
0010
0010
,
0110
1001
0010
0010
,
1000
1000
0001
0001
,
0100
0100
0010
1001
,
0011
0000
0100
1001
,
0110
0101
0010
0010
,
1000
1000
0001
0001
,
0100
0100
0110
1001
,
0010
0000
0100
1001
,
0110
0000
1010
0000
0000
0010
0010
0000
,
0000
1000
1000
0000
0000
0001
0001
0000
,
0000
0100
0100
0000
0110
0000
1001
0000
,
0010
0000
0100
1001
,
0110
0000
1001
0000
0010
1000
0010
0000
,
1000
0100
1000
0000
0100
0001
0100
0000
,
0001
0010
0001
0000
0010
0000
1001
0000
,
0011
0001
0010
0100
,
1100
0100
1000
0100
,
0010
1001
0010
0010
,
0100
1001
0100
0100
,
0010
1001
0010
0010
,
0100
0000
0100
0000
0000
1000
0100
0000
,
1000
1001
0010
0100
,
0010
0000
0010
0000
0000
1000
0100
0000
,
1000
1001
0100
0001
,
0001
0000
1001
0000
0000
0100
1000
0000
,
0000
0000
1000
0000
0010
0010
0010
0000
,
0000
0000
0001
0000
0010
0010
0010
0000
,
0110
0000
1001
0000
0001
0001
0001
0000
,
0001
1001
0010
0110
,
1010
0011
0010
0100
,
0100
0100
0000
0100
,
0010
0010
0000
0000
1000
0000
0100
0000
,
0010
0000
0001
0000
0000
0010
0010
0000
,
0010
0010
0010
0000
0010
0000
0100
0000
,
0010
0000
1000
0000
0001
0001
0001
0000
,
0001
0001
0000
0000
0010
0000
0000
0000
,
0010
0000
1000
0000
0000
0010
0100
0000
,
1000
1000
1000
0000
1000
0000
0100
0000
,
0010
0001
0100
1001
;

//---------------dance-single - ----------------
#NOTES:
     dance-single:
     :
     Medium:
     7:
     0.496,0.509,0.616,0.000,0.000:
0000
0000
0000
0000
,
0000
0000
0000
0000
,
0000
0000
0000
0000
,
0011
1001
0010
0100
,
1100
1001
0100
0010
,
0011
1001
0010
0100
,
1100
1001
0100
0010
,
0010
0000
0001
0000
0010
0001
0010
0000
,
0100
0000
1000
0000
0100
1000
0100
0000
,
0000
0010
1001
0010
,
0000
0010
1001
0100
,
0001
0001
0010
0100
,
1000
1000
0100
0010
,
1000
1001
0100
0001
,
0001
1001
0100
1000
,
0000
0000
1000
0000
0100
1000
0100
0000
,
0000
0000
0001
0000
0100
0001
0100
0000
,
0000
0000
1001
0000
0001
1000
0001
0000
,
0100
0001
0100
1000
,
0110
1001
0100
0001
,
0011
1010
1100
0101
,
0010
0000
0100
0001
,
0010
0000
0000
0000
1000
0100
0001
0000
,
0010
0000
0100
1000
,
1010
0011
0101
1100
,
0010
0000
0001
0100
,
0010
0000
0000
0000
0001
0100
1000
0000
,
0010
0100
0110
0000
,
0001
0000
0100
0100
,
0000
0000
1001
0000
,
0011
1100
0000
0000
,
0010
0010
0010
0010
,
0110
0000
1001
0000
0010
1000
0100
0000
,
1000
0100
0001
0000
0001
0010
1000
0000
,
0010
0001
0100
1001
,
0011
0000
0100
1000
,
0010
0000
0001
0000
0010
0001
0100
0000
,
1000
0100
0001
0000
0001
0010
1000
0000
,
0100
1000
0010
1001
,
0010
0000
0100
1001
,
0010
0000
0001
0000
0010
0010
0010
0000
,
1000
1000
1000
0000
0001
0001
0001
0000
,
0100
0100
0100
0000
0110
0000
1001
0000
,
0010
0000
0100
0001
,
0110
0000
1001
0000
0010
1000
0010
0000
,
1000
0100
1000
0000
0100
0001
0100
0000
,
0001
0010
0001
0000
0010
0000
1001
0000
,
0011
0001
0010
0100
,
1100
0100
1000
0010
,
0010
1000
0010
0011
,
0010
0001
0100
1100
,
0010
0010
0001
0010
,
0100
0000
0100
0000
0000
1000
0100
0000
,
0010
0110
0001
1000
,
0100
0000
0110
0000
0000
0001
1000
0000
,
1000
0000
1001
0000
0100
0100
0001
0000
,
0001
0000
1001
0000
0000
0100
1000
0000
,
0010
0000
1000
0000
0010
0010
0010
0000
,
0100
0000
0001
0000
0100
0100
0100
0000
,
0110
0000
1001
0000
1000
1000
1000
0000
,
1000
1001
0100
0110
,
0011
1010
0010
0100
,
0100
0100
0000
0001
,
0010
0010
0000
0000
1001
0000
0100
0000
,
0010
0000
1001
0000
0000
0100
0100
0000
,
0001
0001
0001
0000
0010
0000
0101
0000
,
0010
0000
0011
0000
0010
0001
0100
0000
,
0001
0001
0000
0000
0010
0000
0000
0000
,
0010
0000
0001
0000
0000
0010
0100
0000
,
1000
0010
1000
0000
1000
0000
0100
0000
,
1010
0011
0110
1001
;

//---------------dance-single - ----------------
#NOTES:
     dance-single:
     :
     Hard:
     9:
     0.555,0.509,0.277,0.000,0.000:
0000
0000
0000
0000
,
0000
0000
0000
0000
,
0000
0000
0000
0000
,
0010
0001
0100
0000
0010
1000
0100
0000
,
1000
0100
0010
0000
0001
0100
1000
0000
,
0010
0001
0100
0000
0010
1000
0100
0000
,
1000
0100
0010
0000
0001
0100
1000
0000
,
0010
0000
0001
0000
0010
0001
0010
0000
,
0100
0000
1000
0000
0100
1000
0100
0000
,
0010
0000
0010
1000
0100
1000
0100
0000
,
0010
0000
0010
0001
0100
0001
0100
0000
,
0010
1000
0100
0010
0100
1000
0001
0000
,
0010
0000
1000
0000
0010
0100
0001
0000
,
0010
0010
1000
0000
1000
0100
0001
0000
,
1000
0010
1001
0000
0000
0001
0001
0000
,
0010
0001
0100
0010
0100
0001
1000
0000
,
0010
0000
1000
0000
0010
0100
0001
0000
,
0010
0010
1000
0000
1000
0100
0001
0000
,
0001
0010
1001
0000
0000
1000
1000
0000
,
0010
1000
1000
0001
,
0010
0000
0100
0000
0010
1000
0001
0000
,
1000
0001
0010
0001
,
0100
0000
0100
0000
1000
0010
0100
0000
,
0010
1000
1000
0001
,
0010
0000
0100
0000
0010
1000
0001
0000
,
1000
0001
0010
0001
,
0100
0000
0100
0000
1000
0100
0010
0000
,
0010
0010
0010
0000
0100
0100
0100
0000
,
0010
0001
0010
0100
1000
0010
0100
0000
,
0000
0000
1001
0000
,
1000
0100
0001
0100
0000
0100
0100
0000
,
0010
0000
0100
1001
,
1010
0000
1000
0100
0010
0001
0100
0000
,
0100
1000
0001
0000
0001
0010
0100
0000
,
0100
0100
0100
0100
0100
0000
1000
0000
,
0011
0000
0100
1001
,
0110
1010
0100
0100
,
0010
0100
0101
0011
,
0010
0010
0100
1001
,
0010
0000
0100
1001
,
0011
0000
0001
0010
0100
1000
0100
0000
,
0100
0001
1000
0000
1000
0100
0010
0000
,
0001
0001
0001
0001
0001
0000
0100
0000
,
1010
0000
0100
1001
,
0110
0000
1001
0000
0010
1000
0010
0000
,
1000
0100
1000
0000
0100
0001
0100
0000
,
0001
0010
0001
0000
0010
0000
1001
0000
,
0010
0000
0100
0000
0010
1000
0100
0000
,
1000
0000
0010
0000
0001
0100
1000
0000
,
0010
0000
0001
0000
0010
0001
0010
0000
,
0100
0000
1000
0000
0100
1000
0100
0000
,
0010
0000
0010
1000
0100
1000
0100
0000
,
0001
0000
0001
0000
0000
0100
1000
0000
,
1000
1000
0001
0000
0100
0100
1000
0100
,
0010
0010
0001
0000
0000
0100
1000
0000
,
0100
0100
0001
0000
0101
0000
1000
0000
,
1000
0010
1001
0000
0000
1000
1000
0000
,
0010
0100
0001
0000
0010
0010
0001
0010
,
0100
0100
1000
0000
1000
0100
0010
0000
,
0010
0100
1000
0000
0001
0010
0001
0000
,
0010
1000
0100
0010
0100
1000
0001
0000
,
1000
0010
0010
0000
0010
0000
0100
0000
,
0010
0001
0100
0010
0100
0001
1000
0000
,
0010
0010
0000
0000
1001
0000
1100
0000
,
0010
0000
1001
0000
0000
0010
0010
0000
,
0010
0001
0100
0000
0010
0000
0100
0000
,
0010
0000
0011
0000
0001
0010
0100
0000
,
0001
0001
0000
0000
0010
0000
1000
0000
,
0010
0000
0001
0000
0000
0010
0100
0000
,
1000
0010
1000
0010
1000
0010
0100
0000
,
0010
0001
0110
1001
;

//---------------dance-single - ----------------
#NOTES:
     dance-single:
     :
     Challenge:
     10:
     0.825,0.763,0.524,0.123,0.216:
0000
0000
0000
0000
,
0000
0000
0000
0000
,
0000
0000
0000
0000
,
1010
0000
0000
0000
0001
0000
0100
0000
0001
0000
1000
0001
1000
0000
0100
0000
,
0010
0000
0000
0000
0001
0000
0010
0000
0001
0000
1000
0001
1000
0000
0010
0000
,
0100
0000
0000
0000
0001
0000
0100
0000
0001
0000
1000
0010
0100
0000
0001
0000
,
0010
0000
0000
0000
0100
0000
1000
0000
0100
0000
1000
0100
0010
0000
0001
0000
,
0200
0000
0000
0000
1300
0000
0100
0000
0001
0000
1000
0001
1000
0000
0100
0000
,
2000
0000
0000
0000
3001
0000
0010
0000
0001
0000
1000
0010
1000
0000
0100
0000
,
0002
0000
0000
0000
0103
0000
1000
0000
0001
0000
0100
0001
0010
0000
1000
0000
,
0020
0000
0000
0000
0130
0000
1000
0000
0010
0000
0100
0001
0010
0000
0100
0000
,
1100
0000
0000
0000
0010
0000
0001
0000
1000
0000
0010
0100
0010
0000
1000
0000
,
1010
0000
0000
0000
0100
0000
0001
0000
1000
0000
0100
0010
0100
0000
1000
0000
,
1100
0000
0000
0000
0010
0000
0001
0000
0100
0000
0010
1000
0100
0000
0010
0000
,
0011
0000
0000
0000
0100
0000
0001
0000
0010
0000
0100
1000
0010
0000
0100
0000
,
0101
0000
0000
0000
0100
0000
0010
0000
1000
0000
0001
0010
0001
0000
0010
0000
,
0100
1000
0010
0100
1000
0001
0010
1000
,
1020
0000
0000
0000
0130
0000
0001
0000
0100
0000
0001
0010
0100
0000
1000
0000
,
0010
0100
0001
0100
0010
1000
1100
0000
,
2010
0000
0000
0000
0001
0000
0000
0000
3100
0000
0000
1000
0100
0000
0001
0000
,
0100
0000
1000
1000
0000
0100
0100
0000
,
0012
0000
0000
0000
1000
0000
0000
0000
0103
0000
0000
0001
0100
0000
1000
0000
,
0100
0000
0001
0001
0000
0010
0010
0000
,
2100
0000
0000
0000
0001
0000
0000
0000
3010
0000
0000
1000
0010
0000
0001
0000
,
0010
0000
1000
0000
0010
0010
0010
0000
,
0102
0000
0000
0000
1000
0000
0000
0000
0013
0000
0000
1000
0010
0000
0001
0000
,
0010
0000
0000
0000
1001
0000
0000
0000
0010
0100
0010
0100
0010
0000
0000
0000
,
1010
1010
1010
0000
,
0011
0000
0101
0101
,
0000
0000
0000
0000
1100
1000
0000
0000
,
0101
0100
1010
0010
0000
0100
0100
0000
,
1010
0000
0000
0001
0100
0010
0100
0001
,
1000
0100
0001
1000
0001
0100
1000
0001
,
1000
0010
0001
1000
0001
0010
1000
0001
,
0010
0010
0010
0010
0010
0100
1100
0000
,
0000
0011
0000
0101
0010
0100
0010
1100
,
0100
1000
0100
0011
0001
0010
0001
1100
,
1000
0100
1000
0101
0001
0100
0001
1010
,
0100
0000
0001
0100
0010
0100
0001
0100
0010
0000
1000
0000
0100
0000
0000
0000
,
0101
0000
0000
0010
0001
0100
0001
0010
,
0100
1000
1000
1000
0100
0001
0001
0001
,
0100
0010
0010
0010
0001
1000
1000
1000
,
0010
0100
0100
0100
0100
0100
0100
0000
,
0000
0011
0000
1100
0000
0011
0100
1000
,
0100
0011
1000
0001
1000
0101
1000
0001
,
0100
1010
0100
0001
0010
1100
0010
0001
,
0100
0000
0010
0000
1000
0100
0010
0001
1000
0000
0001
0000
0101
0000
0000
0000
,
1010
0000
0001
0010
0100
1000
0010
0100
,
0010
1000
0100
0010
0100
1000
0001
0010
,
0001
0100
1000
0001
0010
1000
0001
0100
,
0010
1000
0001
0010
1000
0001
0100
1000
,
1100
0001
0010
0100
1000
1000
0010
0100
,
0101
0001
0010
0100
0010
0010
0100
1000
,
0010
0020
1000
0130
0001
0002
0010
1003
,
0100
0200
0010
1300
0010
1000
0001
0100
,
0101
0000
0001
0000
0100
0000
0010
0000
1000
0000
0010
1000
0010
0000
0100
0000
,
0001
0000
0010
0000
1000
0000
0010
0000
0001
0000
1000
0100
1000
0000
0001
0000
,
0100
0000
0010
0000
1000
0000
0100
0000
0010
0000
0001
0010
0001
0000
0010
0000
,
1000
0000
0010
0000
0001
0000
0100
0000
0001
0000
0100
0001
0100
0000
0010
0000
,
1010
0000
0100
0000
0010
0000
1000
0000
0010
0000
0100
0000
0001
0100
0001
0100
,
0010
0000
1000
0000
0100
0000
0010
0000
0001
0000
1000
0000
0010
1000
0010
1000
,
0100
0000
0010
0000
0001
0000
0100
0000
0010
0000
1000
0000
0001
0100
0001
1000
,
0100
0000
1000
0000
0001
0000
0010
0000
0100
0000
0010
0000
0001
0010
0100
1000
,
0010
0000
1010
0000
0000
0000
0000
0000
0100
0000
0010
1000
0001
0000
0100
0000
,
0100
0000
0001
0001
0000
1000
1000
0000
,
0011
0000
1100
0000
0000
0000
0000
0000
0100
0000
0010
0001
1000
0000
0010
0000
,
1000
0000
0010
0000
0001
0000
0010
0000
1000
0000
0010
0100
0010
0000
0000
0000
,
1010
0000
0101
0000
0000
0000
0000
0000
0010
0000
0100
0001
1000
0000
0010
0000
,
0010
0000
0100
0100
0000
0010
0010
0000
,
0100
0000
0100
0000
0100
0000
0000
0000
0010
0000
0100
0001
1000
0000
0100
0000
,
0010
0000
0001
0100
0010
1000
1010
0000
;

//---------------dance-double - ----------------
#NOTES:
     dance-double:
     :
     Easy:
     5:
     0.478,0.509,0.668,0.000,0.000:
00000000
00000000
00000000
00000000
,
00000000
00000000
00000000
00000000
,
00000000
00000000
00000000
00000000
,
00110000
00100000
10000000
01000000
,
00010000
00010000
00010000
00010000
,
00001010
00000010
00000001
00000100
,
00001000
00001000
00001000
00001000
,
00011000
00000000
00110000
00000000
,
10000000
01000000
10000000
01000000
,
01010000
00000000
00011000
00000000
,
00000010
00000001
00000010
00000001
,
00000000
00001100
00011000
00110000
,
00000000
01000000
00100000
01000000
,
00000000
01010000
00011000
00001010
,
00000000
00000100
00000010
00000100
,
00000000
00000000
01000000
00000000
00010000
00010000
00010000
00000000
,
00000000
00000000
00001000
00000000
00010000
00010000
00010000
00000000
,
00000000
00000000
00011000
00000000
00001000
00001000
00001000
00000000
,
00001000
00010000
00000100
00001000
,
00000011
00001001
00000010
00001000
,
00010000
01000000
11000000
01010000
,
00100000
00000000
00010000
00001000
,
00000100
00000000
00000000
00000000
00000010
00001000
00000100
00000000
,
00000011
00001001
00000010
00001000
,
00010000
01000000
11000000
01010000
,
00100000
00000000
00010000
00001000
,
00000010
00000000
00000000
00000000
00000100
00001000
00000001
00000000
,
00001000
00010000
00110000
00000000
,
00011000
00000000
00000100
00001000
,
00000000
00000000
00001001
00000000
,
00001010
00011000
00000000
00000000
,
00100000
00100000
00100000
00100000
,
01100000
10010000
00100000
00100000
,
00010000
00010000
00001000
00001000
,
00000010
00000010
00000100
00000110
,
00001100
00000000
00000100
00001001
,
00000110
00000101
00000010
00000010
,
00001000
00001000
00010000
00010000
,
01000000
01000000
00010000
10010000
,
00100000
00000000
01000000
10010000
,
01100000
00000000
11000000
00000000
00000000
00100000
00010000
00000000
,
00000000
00001000
00000100
00000000
00000000
00000010
00000001
00000000
,
00000000
00000100
00000100
00000000
00000101
00000000
00001100
00000000
,
00011000
00000000
00000100
00001100
,
00001001
00000000
00000110
00000000
00000010
00000001
00000010
00000000
,
00000001
00000100
00000001
00000000
00000100
00010000
00000100
00000000
,
00010000
01000000
00010000
00000000
10000000
00000000
10010000
00000000
,
00110000
00001000
00000010
00000100
,
00001000
00000010
00000001
00000100
,
00001010
00010000
00100000
01000000
,
00010000
00100000
10000000
01000000
,
11000000
00010000
00001000
00000010
,
00000011
00001001
00000001
00000001
,
00000101
00001000
00010000
00100000
,
10100000
10010000
10000000
10000000
,
11000000
00010000
00001000
00000010
,
00000011
00001001
00000001
00000001
,
00000101
00001000
00010000
00100000
,
10100000
10010000
10000000
10000000
,
00001000
00000000
00000001
00000000
00000010
00000010
00000010
00000000
,
00000010
00000000
00001000
00000000
00000100
00000100
00000100
00000000
,
00011000
00100000
10000000
11000000
,
10000000
01000000
10000000
10010000
,
00100000
00100000
00000000
00000000
00010000
00000000
00001000
00000000
,
00000010
00000000
00000001
00000000
00000000
00000010
00000010
00000000
,
00001000
00001000
00001000
00000000
00001000
00000000
00000100
00000000
,
00000010
00000000
00001000
00000000
00010000
00001000
00010000
00000000
,
00001000
00001000
00000000
00000000
00010000
00000000
00000100
00000000
,
00000010
00000000
00001000
00000000
00000001
00000001
00000000
00000000
,
00000010
00000010
00000010
00000000
00000100
00000000
00000001
00000000
,
00001100
00011000
00110000
10010000
;

//---------------dance-double - ----------------
#NOTES:
     dance-double:
     :
     Medium:
     7:
     0.474,0.545,0.349,0.000,0.000:
00000000
00000000
00000000
00000000
,
00000000
00000000
00000000
00000000
,
00000000
00000000
00000000
00000000
,
00010000
00010000
00001000
00000000
00000010
00000000
00000100
00000000
,
00001000
00001000
00000010
00000000
00000001
00000000
00000100
00000000
,
00001000
00001000
00010000
00000000
00100000
00000000
01000000
00000000
,
00010000
00010000
00100000
00000000
10000000
00000000
01000000
00000000
,
00100000
00010000
00100000
00010000
,
00001000
00010000
00001000
00010000
,
00000010
00001000
00000010
00001000
,
00010000
00001000
00010000
00001000
,
00000000
00000000
00100000
00100000
,
10000000
01000000
10000000
00000000
00100000
00000000
01000000
00000000
,
00001000
00010000
00001000
00000000
00000100
00000000
00001000
00000000
,
00000010
00000001
00000010
00000000
00000100
00000000
00000001
00000000
,
00000000
00000000
00001000
00000000
00010000
00010000
00010000
00000000
,
00000000
00000000
00010000
00000000
00100000
00100000
00100000
00000000
,
00000000
00000000
00011000
00000000
00010000
00010000
00010000
00000000
,
00010000
00011000
00100000
00100000
,
00100000
00011000
01000000
00010000
,
00001000
00000010
00001000
00000100
,
00011000
00000000
00000100
00000001
,
00000000
00000000
00000000
00000000
00000001
00000100
00001000
00000000
,
00000010
00011000
00000100
00001000
,
00100000
00000000
00010000
00000000
01000000
01000000
00010000
00000000
,
00011000
00000000
01000000
10000000
,
00000000
00000000
00000000
00000000
10000000
01000000
00010000
00000000
,
00010000
00010000
01000000
00000000
,
00100000
00000000
11000000
01010000
,
00000000
00000000
10010000
00000000
,
00100000
10000000
00100000
10000000
00000000
00000000
00000000
00000000
,
00100000
00000000
01000000
10010000
,
00100000
00100000
00010000
00000000
00010000
01000000
10000000
00000000
,
00000000
10000000
00000000
01000000
,
00001000
00010000
00001000
00010000
00000010
00000000
00000100
00000000
,
00000010
00000000
00000100
00001001
,
00000010
00000010
00000001
00000000
00000001
00000000
00001000
00000000
,
00000000
00001000
00000000
00000100
,
00010000
00001000
00010000
00001000
01000000
00000000
00010000
00000000
,
00100000
00000000
01000000
10010000
,
01100000
00000000
00110000
00000000
00000000
00100000
00100000
00000000
,
00000000
00001000
00001000
00000000
00000000
00000010
00000010
00000000
,
00000000
00000100
00000100
00000000
00000110
00000000
00001001
00000000
,
00000010
00000000
00000010
00011000
,
00010000
00000000
00000000
00000000
00100000
10000000
00100000
00000000
,
10000000
01000000
10000000
00000000
01000000
00001000
01000000
00000000
,
00001000
00000100
00001000
00000000
00000010
00000000
00001001
00000000
,
00011000
00010000
00001000
00000100
,
00000101
00000100
00001000
01000000
,
00100000
10010000
00100000
00010000
,
00001000
00000110
00000001
00000100
,
00001000
00000000
00001000
00001000
00001000
00001000
00001000
00000000
,
00000100
00000000
00001000
00001000
00000000
00000010
00000010
00000000
,
00011000
00000000
00010000
00010000
00010000
00010000
00010000
00000000
,
00100000
00000000
00010000
00010000
00000000
01000000
01000000
00000000
,
01010000
00000000
00010000
00000000
00010000
01000000
10000000
00000000
,
10000000
00000000
00010000
00000000
00001000
00000100
00000001
00000000
,
00000001
00000100
00001000
00010000
,
00110000
01010000
00001000
00011000
,
00101000
00000000
00011000
00000000
00010000
00010000
00010000
00000000
,
00010000
00000000
00001000
00000010
00000010
00000100
00001000
00000000
,
00010000
00001000
00010000
00000000
01000000
10000000
10000000
00000000
,
01000000
00000000
01000000
00000000
01000000
10000000
01000000
00000000
,
00100000
00100000
00000000
00000000
00011000
00000000
00000100
00000000
,
00000010
00000000
00001000
00000010
00000000
00000010
00000010
00000000
,
00001000
00001000
00001000
00000000
00001000
00000000
00010000
00000000
,
00100000
00000000
01000000
00000000
00001000
00010000
00001000
00000000
,
00001000
00001000
00000000
00000000
00000010
00000000
00000000
00000000
,
00000010
00000000
00001000
00000010
00000000
00000100
00000100
00000000
,
00000001
00000001
00000001
00000000
00000001
00000000
00000100
00000000
,
00001010
00011000
01010000
10010000
;

//---------------dance-double - ----------------
#NOTES:
     dance-double:
     :
     Hard:
     9:
     0.555,0.509,0.277,0.000,0.000: // measure 1
00000000
00000000
00000000
00000000
,  // measure 2
00000000
00000000
00000000
00000000
,  // measure 3
00000000
00000000
00000000
00000000
,  // measure 4
00100000
00010000
01000000
00000000
00001000
00010000
00000010
00000000
,  // measure 5
00001000
00000001
00000100
00000000
00000010
00001000
00000100
00000000
,  // measure 6
00010000
00001000
00100000
00000000
00010000
10000000
01000000
00000000
,  // measure 7
00100000
00001000
00010000
00000000
00000010
00001000
00000001
00000000
,  // measure 8
00000010
00000000
00000100
00000000
00010000
00001000
00100000
00000000
,  // measure 9
00010000
00000000
10000000
00000000
00100000
01000000
00010000
00000000
,  // measure 10
00100000
00000000
00001000
00010000
00000010
00001000
00000001
00000000
,  // measure 11
00000010
00000000
00000100
00010000
00001000
00100000
00010000
00000000
,  // measure 12
10000000
01000000
00100000
00010000
01000000
00100000
10000000
00000000
,  // measure 13
00010000
00000000
01000000
00000000
00001000
00010000
00000010
00000000
,  // measure 14
00001000
00001000
00000001
00000000
00000010
00000100
00001000
00000000
,  // measure 15
00000010
00010000
00011000
00000000
00000000
00100000
00100000
00000000
,  // measure 16
00010000
10000000
01000000
00100000
00010000
01000000
00001000
00000000
,  // measure 17
00010000
00000000
00000010
00000000
00001000
00000001
00000010
00000000
,  // measure 18
00000100
00000100
00010000
00000000
00001000
00100000
00010000
00000000
,  // measure 19
10000000
00100000
01010000
00000000
00000000
00001000
00001000
00000000
,  // measure 20
00010000
00000010
00000010
00001000
,  // measure 21
00000001
00000000
00000010
00000000
00000100
00010000
00001000
00000000
,  // measure 22
00100000
00010000
10000000
00100000
,  // measure 23
01000000
00000000
01000000
00000000
00010000
00100000
00001000
00000000
,  // measure 24
00010000
00000010
00000010
00001000
,  // measure 25
00000001
00000000
00000010
00000000
00000100
00001000
00000010
00000000
,  // measure 26
00010000
00001000
00100000
00010000
,  // measure 27
01000000
00000000
01000000
00000000
00100000
10000000
00010000
00000000
,  // measure 28
01000000
01000000
01000000
00000000
00001000
00001000
00001000
00000000
,  // measure 29
00010000
00000010
00010000
00001000
00010000
00000100
00000010
00000000
,  // measure 30
00000000
00000000
00001001
00000000
,  // measure 31
00010000
00001000
00100000
00010000
00000000
10000000
10000000
00000000
,  // measure 32
00100000
00000000
01000000
00011000
,  // measure 33
00001010
00000000
00000001
00000010
00000100
00001000
00000010
00000000
,  // measure 34
00010000
00001000
00100000
00000000
00010000
10000000
01000000
00000000
,  // measure 35
00100000
00100000
00100000
00100000
00100000
00000000
00010000
00000000
,  // measure 36
00011000
00000000
00000010
00001001
,  // measure 37
00000110
00001100
00010000
00010000
,  // measure 38
00001000
00100000
01010000
10100000
,  // measure 39
00010000
00010000
00100000
00011000
,  // measure 40
00000100
00000000
00000010
00001001
,  // measure 41
00010100
00000000
00001000
00100000
00010000
10000000
01000000
00000000
,  // measure 42
00100000
00001000
00010000
00000000
00000010
00001000
00000001
00000000
,  // measure 43
00000100
00000100
00000100
00000100
00000100
00000000
00000010
00000000
,  // measure 44
00001001
00000000
00010000
00101000
,  // measure 45
10010000
00000000
01100000
00000000
00010000
01000000
00001000
00000000
,  // measure 46
00010000
00000010
00010000
00000000
00001000
01000000
00001000
00000000
,  // measure 47
10000000
00100000
10000000
00000000
00010000
00000000
00101000
00000000
,  // measure 48
00010000
00000000
00000100
00000000
00001000
00000001
00000100
00000000
,  // measure 49
00000010
00000000
00001000
00000000
00000100
00010000
00001000
00000000
,  // measure 50
00100000
00000000
00010000
00000000
10000000
00100000
10000000
00000000
,  // measure 51
01000000
00000000
00100000
00000000
00001000
00010000
00001000
00000000
,  // measure 52
00100000
00000000
00100000
00001000
00010000
00000010
00001000
00000000
,  // measure 53
00000001
00000000
00000001
00000000
00000000
00010000
00001000
00000000
,  // measure 54
00100000
00100000
00010000
00000000
01000000
01000000
00100000
10000000
,  // measure 55
00010000
00010000
01000000
00000000
00000000
00001000
00010000
00000000
,  // measure 56
00000010
00000010
00001000
00000000
00000101
00000000
00000010
00000000
,  // measure 57
00001000
00000100
00011000
00000000
00000000
00100000
00100000
00000000
,  // measure 58
00010000
10000000
01000000
00000000
00100000
00100000
00001000
00010000
,  // measure 59
00000010
00000010
00001000
00000000
00000001
00000010
00000100
00000000
,  // measure 60
00010000
00001000
00100000
00000000
00010000
10000000
00010000
00000000
,  // measure 61
01000000
00001000
00010000
00000010
00001000
00000001
00000100
00000000
,  // measure 62
00000010
00001000
00001000
00000000
00001000
00000000
00000100
00000000
,  // measure 63
00010000
00001000
00100000
00010000
00100000
01000000
10000000
00000000
,  // measure 64
00100000
00100000
00000000
00000000
01010000
00000000
00011000
00000000
,  // measure 65
00000010
00000000
00001001
00000000
00000000
00000100
00000100
00000000
,  // measure 66
00010000
00001000
00100000
00000000
00010000
00000000
10000000
00000000
,  // measure 67
01000000
00000000
00110000
00000000
00001000
00010000
00000100
00000000
,  // measure 68
00001000
00001000
00000000
00000000
00000001
00000000
00000100
00000000
,  // measure 69
00000010
00000000
00001000
00000000
00000000
00000100
00010000
00000000
,  // measure 70
00001000
00100000
00001000
00100000
00001000
00100000
00010000
00000000
,  // measure 71
10000000
00100000
01010000
00011000
;

//---------------dance-double - ----------------
#NOTES:
     dance-double:
     :
     Challenge:
     10:
     0.728,0.654,0.678,0.062,0.092:
00000000
00000000
00000000
00000000
,
00000000
00000000
00000000
00000000
,
00000000
00000000
00000000
00000000
,
00010010
00000000
00001000
00000010
00010000
00001000
00000100
00000001
,
00001000
00000000
00000001
00000010
00000100
00010000
00001000
00000000
,
00101000
00000000
00010000
00100000
00001000
00010000
01000000
10000000
,
00010000
00000000
10000000
00100000
01000000
00001000
00010000
00000000
,
00010100
00000000
00001010
00000000
00000001
00000100
00001000
00000000
,
01001000
00000000
00110000
00000000
10000000
01000000
00010000
00000000
,
00101000
00000000
00010000
00000010
00000000
00001000
00000001
00000100
,
00000010
00000000
00010000
00001000
00000000
00010000
00000010
00001000
,
00010010
00000000
00010000
00001000
00100000
00010000
10000000
01000000
,
00100000
00000000
00001000
00010000
00001000
01000000
00010000
00100000
,
01000000
00000000
00000000
00000000
11000000
00000000
00000000
00000000
00000000
00000000
00100000
00001000
00010000
00000000
00000010
00000000
,
00000100
00000000
00000000
00000000
00001010
00000000
00000000
00000000
00000000
00000000
00000001
00001000
00000100
00000000
00000000
00000000
,
00000011
00001000
00000100
00001000
00000010
00000100
00001000
00010000
,
00100000
10000000
00010000
10000000
00100000
01000000
00001000
00010000
,
00000010
00001000
00000100
00010000
00000100
00000010
00000001
00001000
,
00000010
00000000
00000100
00000000
00000001
00000000
00001000
00000000
00000100
00001000
00000100
00010000
00001000
00000000
00000000
00000000
,
00102000
00010000
00000010
00010000
,
01000000
00000000
00013000
00000000
00010100
00000100
00001100
00000000
,
00020010
00001000
00100000
00001000
,
00000100
00000000
00031000
00000000
01001000
01000000
01010000
00000000
,
00120000
10000000
01030000
00001000
,
00020100
00000000
00001000
00000000
00000010
00000010
00030010
00000000
,
00002100
00000001
00003010
00010000
,
00102000
00000000
00010000
00000000
01000000
01000000
01003000
00000000
,
00100000
10000000
00100000
10000000
00010000
00001000
00000000
00000000
,
00000100
00000001
00000000
00000000
00000100
00000001
00001000
00010000
,
00000000
00000000
00000000
00000000
01000000
10000000
00000000
00000000
,
01000000
10000000
00010000
00001000
00000000
00000000
00000000
00000000
,
00000011
00000000
00001000
00000100
00001000
00000001
00001000
00000010
,
00001000
00010000
01000000
00010000
10000000
00010000
00100000
00010000
,
00001000
00000100
00001000
00000001
00001000
00000010
00001000
00010000
,
01000000
00010000
10000000
00010000
00100000
00010000
00001000
00000100
,
00000010
00000001
00000000
00001100
00000000
00001010
00000000
00101000
,
00000000
01010000
00000000
00110000
00000000
00010010
00000000
00001100
,
00000000
00001010
00000000
00101000
00000000
01010000
00000000
10100000
,
00010000
00000000
10000000
01000000
00100000
00010000
01000000
00000000
00001000
00000000
00001000
00000000
00001000
00000000
00000000
00000000
,
00010100
00000000
00000001
00000100
00000001
00001000
00000001
00000010
,
00001000
00010000
00001000
01000000
00001000
00100000
00010000
01000000
,
00010000
10000000
00010000
00100000
00010000
00001000
00010000
00000010
,
00001000
00000010
00000100
00000010
00000001
00000001
00000100
00000000
,
00001000
00010000
00000000
01100000
00000000
00000000
00000000
00000110
,
00000000
00000000
00000000
01100000
00000000
00000000
00000000
00000110
,
00000000
00000000
00000000
10010000
00000000
00000000
00000000
00001001
,
00000000
00000000
00000000
10010000
01000000
00010000
00001000
00000000
,
00010100
00000000
00000000
00000000
00001000
00000000
00000100
00000000
00010000
00000000
00001000
00010000
00000010
00000000
00000100
00000000
,
00000001
00001000
00000001
00000100
00000010
00010000
00001000
01000000
,
01001000
00000000
00000000
00000000
00010000
00000000
01000000
00000000
00001000
00000000
00010000
00001000
00100000
00000000
01000000
00000000
,
10000000
00010000
10000000
01000000
00100000
00001000
00010000
00001000
,
00010010
00000000
00001100
00000000
00000001
00000010
00001000
00010000
,
00100000
00000000
01010000
00000000
10000000
00100000
00010000
00001000
,
00000010
00000000
00001100
00001000
00000000
00000001
00000001
00001000
,
00000001
00000000
00001010
00000010
00000000
00001000
00000100
00000010
,
00000011
00000000
00000100
00010000
01000000
10000000
01000000
00100000
,
00010000
01000000
00100000
00001000
00000010
00000100
00000001
00001000
,
00000100
00000010
00000100
00010000
01000000
00100000
00010000
10000000
,
00010000
00100000
01000000
00001000
00000100
00000010
00000001
00000100
,
00000100
00000000
00000000
00000000
00001010
00000000
00000000
00000000
00000100
00000000
00000100
00010000
00001000
00000000
00100000
00000000
,
00100000
00000000
00000000
00000000
01010000
00000000
00000000
00000000
00001000
00000000
00001000
00100000
00010000
00000000
10000000
00000000
,
01000000
00000000
01000000
00000000
00100000
00000000
00001000
00000000
00010000
00000000
00000010
00001000
00000010
00000000
00000100
00000000
,
00000001
00000000
00000001
00000000
00001000
00000000
00000010
00000000
00001000
00000010
00010000
00001000
00100000
00000000
00010000
00000000
,
00101000
00110000
00000000
00000000
10000000
00000000
00010000
00000000
,
00001000
00000000
00010000
00010010
00000000
00010100
00010000
00000000
,
00001010
00000000
00010010
00000000
00000000
00000000
00000000
00000000
00000100
00000000
00001000
00000010
00000100
00000000
00000001
00000000
,
00001000
00000000
00000100
00000000
00010000
00000000
00001000
00000000
00000100
00000000
00000001
00001000
00000010
00000000
00000000
00000000
,
00010010
00001010
00000000
00000000
00000001
00000000
00001000
00000000
,
00010000
00000000
00001000
00101000
00000000
01001000
00001000
00000000
,
00110000
00101000
00010000
00000000
11000000
00110000
00001000
00000000
,
00010000
00000000
00001000
00010000
00000100
00000000
00001000
00000010
00000100
00000001
00000010
00000000
00000011
00000000
00000000
00000000
;

//---------------dance-couple - ----------------
#NOTES:
     dance-couple:
     :
     Easy:
     5:
     0.848,1.000,1.000,0.000,0.000:
00000000
00000000
00000000
00000000
,
00000000
00000000
00000000
00000000
,
00000000
00000000
00000000
00000000
,
00110011
00010001
00100010
01000100
,
11001100
10001000
01000100
00100010
,
00110011
00010001
00100010
01000100
,
11001100
10001000
01000100
00100010
,
00100010
00010001
00100010
00100010
,
01000100
10001000
01000100
01000100
,
00000000
00100010
00010001
00100010
,
00000000
00100010
10001000
01000100
,
10001000
10011001
00100010
01000100
,
00010001
10011001
00100010
01000100
,
10001000
10011001
01000100
00010001
,
00010001
10011001
01000100
10001000
,
00000000
00000000
10000000
00000000
00100000
00100000
00100000
00000000
,
00000000
00000000
00000001
00000000
00000010
00000010
00000010
00000000
,
00000000
00000000
10011001
00000000
00011000
00011000
00011000
00000000
,
00011000
10011001
00100010
00100010
,
01100000
10010000
01000000
10000000
,
00100000
01000000
11000000
01010000
,
00100010
00000000
01000100
00011000
,
00000000
00000000
00000000
00000000
10000001
01000100
00011000
00000000
,
00000010
00001001
00000100
00001000
,
00000010
00000100
00001100
00000101
,
00100010
00000000
00011000
01000100
,
00100010
00000000
00000000
00000000
10000001
01000100
00011000
00000000
,
00100010
01000100
01100110
00000000
,
00011000
00000000
01000100
01000100
,
00000000
00000000
10011001
00000000
,
10100011
01011100
00000000
00000000
,
00100010
00100010
00100010
00100010
,
01100000
10011001
00100010
00100000
,
10001000
10000000
00010001
00010000
,
01000100
01000100
00100100
10011001
,
00010011
00000000
01000100
10001001
,
00000110
01010101
00100010
00000010
,
10001000
00001000
00010001
00000001
,
01000100
01000100
01000110
10011001
,
00100010
00000000
01000100
10011001
,
01100110
00000000
10100011
00000000
00000000
00100010
00100010
00000000
,
00000000
10000001
10000001
00000000
00000000
00011000
00011000
00000000
,
00000000
01000100
01000100
00000000
01100110
00000000
10011001
00000000
,
00100010
00000000
01000100
10011001
,
01100110
00000000
10011001
00000000
00100010
10001000
00100010
00000000
,
10001000
01000100
10001000
00000000
01000100
00010001
01000100
00000000
,
00010001
00100010
00010001
00000000
00100010
00000000
10011001
00000000
,
00110001
00010000
00100010
01000000
,
10001100
00000100
10001000
00000100
,
00100010
10010000
00100010
00100010
,
01000100
00001001
01000100
01000100
,
00100010
10011001
00100010
00100010
,
01000100
00000000
01000100
00000000
00000000
10001000
01000100
00000000
,
10001000
10011001
00100010
01000100
,
00100010
00000000
00100010
00000000
00000000
10001000
01000100
00000000
,
10001000
10011001
01000100
00010001
,
00010001
00000000
10011001
00000000
00000000
01000100
10001000
00000000
,
00000000
00000000
10001000
00000000
00100010
00100000
00100010
00000000
,
00000000
00000000
10001000
00000000
00100010
00000010
00100010
00000000
,
01100110
00000000
10011001
00000000
00011000
00011000
00011000
00000000
,
00011000
10011001
00100010
01100110
,
10100011
00111010
00100010
01000100
,
01000100
01000100
00000000
01000100
,
00100010
00100010
00000000
00000000
10001000
00000000
01000100
00000000
,
00100010
00000000
00010001
00000000
00000000
00100010
00100010
00000000
,
00100010
00100010
00100010
00000000
00100010
00000000
01000100
00000000
,
00100010
00000000
10000001
00000000
00011000
00011000
00011000
00000000
,
00011000
00011000
00000000
00000000
00100010
00000000
00000000
00000000
,
00100010
00000000
10001000
00000000
00000000
00100010
01000100
00000000
,
10000001
10000001
10000001
00000000
10000001
00000000
01000100
00000000
,
00100010
00010001
01000100
10011001
;

//---------------dance-couple - ----------------
#NOTES:
     dance-couple:
     :
     Medium:
     7:
     0.916,1.000,1.000,0.000,0.000:
00000000
00000000
00000000
00000000
,
00000000
00000000
00000000
00000000
,
00000000
00000000
00000000
00000000
,
00110011
10011001
00100010
01000100
,
11001100
10011001
01000100
00100010
,
00110011
10011001
00100010
01000100
,
11001100
10011001
01000100
00100010
,
00100010
00000000
00010001
00000000
00100010
00010001
00100010
00000000
,
01000100
00000000
10001000
00000000
01000100
10001000
01000100
00000000
,
00000000
00100010
10011001
00100010
,
00000000
00100010
10011001
01000100
,
00010001
00010001
00100010
01000100
,
10001000
10001000
01000100
00100010
,
10001000
10011001
01000100
00010001
,
00010001
10011001
01000100
10001000
,
00000000
00000000
10000000
00000000
01000000
10000000
01000000
00000000
,
00000000
00000000
00000001
00000000
00000100
00000001
00000100
00000000
,
00000000
00000000
10011001
00000000
00011000
10000001
00011000
00000000
,
01000100
00010001
01000100
10001000
,
01100000
10010000
01000000
00010000
,
00110000
10100000
11000000
01010000
,
00100010
00000000
01000100
00010001
,
00100010
00000000
00000000
00000000
10001000
01000100
00010001
00000000
,
00000010
00001001
00000100
00001000
,
00001010
00000011
00000101
00001100
,
00100010
00000000
00010001
01000100
,
00100010
00000000
00000000
00000000
00010001
01000100
10001000
00000000
,
00100010
01000100
01100110
00000000
,
00010001
00000000
01000100
01000100
,
00000000
00000000
10011001
00000000
,
00111010
11000101
00000000
00000000
,
00100010
00100010
00100010
00100010
,
01100010
00000000
10011001
00000000
00100010
10000000
01000100
00000000
,
10001000
01000000
00010001
00000000
00010001
00100000
10001000
00000000
,
00100010
00010001
01000000
10011001
,
00110011
00000000
01000100
10001000
,
00100010
00000000
00010001
00000000
00100010
00000001
01000100
00000000
,
10001000
00000100
00010001
00000000
00010001
00000010
10001000
00000000
,
01000100
10001000
00000010
10011001
,
00100010
00000000
01000100
10011001
,
00100010
00000000
00011000
00000000
00100010
00100010
00100010
00000000
,
10000001
10000001
10000001
00000000
00011000
00011000
00011000
00000000
,
01000100
01000100
01000100
00000000
01100110
00000000
10011001
00000000
,
00100010
00000000
01000100
00010001
,
01100110
00000000
10011001
00000000
00100010
10001000
00100010
00000000
,
10001000
01000100
10001000
00000000
01000100
00010001
01000100
00000000
,
00010001
00100010
00010001
00000000
00100010
00000000
10011001
00000000
,
00110001
00010001
00100000
01000100
,
10001100
01000100
00001000
00100010
,
00100010
10000000
00100010
00110010
,
00100010
00000001
01000100
01001100
,
00100010
00100010
00010001
00100010
,
01000100
00000000
01000100
00000000
00000000
10001000
01000100
00000000
,
00100010
01100110
00010001
10001000
,
01000100
00000000
01100110
00000000
00000000
00010001
10001000
00000000
,
10001000
00000000
10011001
00000000
01000100
01000100
00010001
00000000
,
00010001
00000000
10011001
00000000
00000000
01000100
10001000
00000000
,
00100010
00000000
10000000
00000000
00100010
00100000
00100010
00000000
,
01000100
00000000
00000001
00000000
01000100
00000100
01000100
00000000
,
01100110
00000000
10011001
00000000
10000001
10000001
10000001
00000000
,
10000001
10011001
01000100
01100110
,
00111010
10100011
00100010
01000100
,
01000100
01000100
00000000
00010001
,
00100010
00100010
00000000
00000000
10011001
00000000
01000100
00000000
,
00100010
00000000
10011001
00000000
00000000
01000100
01000100
00000000
,
00010001
00010001
00010001
00000000
00100010
00000000
01010101
00000000
,
00100010
00000000
00110011
00000000
00100010
00010001
01000100
00000000
,
00010001
00010001
00000000
00000000
00100010
00000000
00000000
00000000
,
00100010
00000000
00010001
00000000
00000000
00100010
01000100
00000000
,
10001000
00100010
10001000
00000000
10001000
00000000
01000100
00000000
,
10101010
00110011
01100110
10011001
;

//---------------dance-couple - ----------------
#NOTES:
     dance-couple:
     :
     Hard:
     9:
     1.000,1.000,1.000,0.000,0.000:
00000000
00000000
00000000
00000000
,
00000000
00000000
00000000
00000000
,
00000000
00000000
00000000
00000000
,
00100010
00010001
01000100
00000000
00100010
10001000
01000100
00000000
,
10001000
01000100
00100010
00000000
00010001
01000100
10001000
00000000
,
00100010
00010001
01000100
00000000
00100010
10001000
01000100
00000000
,
10001000
01000100
00100010
00000000
00010001
01000100
10001000
00000000
,
00100010
00000000
00010001
00000000
00100010
00010001
00100010
00000000
,
01000100
00000000
10001000
00000000
01000100
10001000
01000100
00000000
,
00100010
00000000
00100010
10001000
01000100
10001000
01000100
00000000
,
00100010
00000000
00100010
00010001
01000100
00010001
01000100
00000000
,
00100010
10001000
01000100
00100010
01000100
10001000
00010001
00000000
,
00100010
00000000
10001000
00000000
00100010
01000100
00010001
00000000
,
00100010
00100010
10001000
00000000
10001000
01000100
00010001
00000000
,
10001000
00100010
10011001
00000000
00000000
00010001
00010001
00000000
,
00100000
00010000
01000000
00100000
01000000
00010000
10000000
00000000
,
00000010
00000001
00000100
00000010
00000100
00000001
00001000
00000000
,
00100010
00100010
10001000
00000000
10001000
01000100
00010001
00000000
,
00010001
00100010
10011001
00000000
00000000
10001000
10001000
00000000
,
00100000
10000000
10000000
00010000
,
00100000
00000000
01000000
00000000
00100000
10000000
00010000
00000000
,
10001000
00010001
00100010
00010001
,
01000100
00000000
01000100
00000000
10001000
00100010
01000100
00000000
,
00000010
00001000
00001000
00000001
,
00000010
00000000
00000100
00000000
00000010
00001000
00000001
00000000
,
10001000
00010001
00100010
00010001
,
01000100
00000000
01000100
00000000
10001000
01000100
00100010
00000000
,
00100010
00100010
00100010
00000000
01000100
01000100
01000100
00000000
,
00100010
00010001
00100010
01000100
10001000
00100010
01000100
00000000
,
00000000
00000000
10011001
00000000
,
10001000
01000100
00010001
01000100
00000000
01000100
01000100
00000000
,
00100010
00000000
01000100
10011000
,
10100010
00000000
10001000
01000000
00100010
00010000
01000100
00000000
,
01000100
10000000
00010001
00000000
00010001
00100000
01000100
00000000
,
01000100
01000000
01000100
01000000
01000100
00000000
10000001
00000000
,
00110011
00000000
01000100
10011001
,
01100110
10101010
01000100
01000100
,
00100010
01000100
01010101
00110011
,
00100010
00100010
01000100
10011001
,
00100010
00000000
01000100
10001001
,
00100011
00000000
00010001
00000010
01000100
00001000
01000100
00000000
,
01000100
00000001
10001000
00000000
10001000
00000100
00100010
00000000
,
00010001
00000001
00010001
00000001
00010001
00000000
01000100
00000000
,
10101010
00000000
01000100
10011001
,
01100110
00000000
10011001
00000000
00100010
10001000
00100010
00000000
,
10001000
01000100
10001000
00000000
01000100
00010001
01000100
00000000
,
00010001
00100010
00010001
00000000
00100010
00000000
10011001
00000000
,
00100010
00000000
01000100
00000000
00100010
10000000
01000100
00000000
,
10000001
00000000
00100010
00000000
00010001
00000100
10001000
00000000
,
00100010
00000000
00010001
00000000
00100010
00010000
00100010
00000000
,
01000100
00000000
10001000
00000000
01000100
00001000
01000100
00000000
,
00100010
00000000
00100010
10001000
01000100
10001000
01000100
00000000
,
00010001
00000000
00010001
00000000
00000000
01000100
10001000
00000000
,
10001000
10001000
00010001
00000000
01000100
01000100
10001000
01000100
,
00100010
00100010
00010001
00000000
00000000
01000100
10001000
00000000
,
01000100
01000100
00010001
00000000
01010101
00000000
10001000
00000000
,
10001000
00100010
10011001
00000000
00000000
10001000
10001000
00000000
,
00100010
01000000
00010000
00000000
00100010
00100010
00010001
00100010
,
01000100
01000100
10001000
00000000
00001000
00000100
00100001
00000000
,
00100010
01000100
10001000
00000000
00010001
00100010
00010001
00000000
,
00100010
10001000
01000100
00100010
01000100
10001000
00010001
00000000
,
10001000
00100010
00100010
00000000
00100010
00000000
01000100
00000000
,
00100010
00010001
01000100
00100010
01000100
00010001
10001000
00000000
,
00100010
00100010
00000000
00000000
10011001
00000000
11001100
00000000
,
00100010
00000000
10011001
00000000
00000000
00100010
00100010
00000000
,
00100010
00010001
01000100
00000000
00100010
00000000
01000100
00000000
,
00100010
00000000
00110011
00000000
00010001
00100010
01000100
00000000
,
00010001
00010001
00000000
00000000
00100010
00000000
10001000
00000000
,
00100010
00000000
00010001
00000000
00000000
00100010
01000100
00000000
,
10001000
00100010
10001000
00100010
10001000
00100010
01000100
00000000
,
00100010
00010001
01100110
10011001
;

//---------------dance-couple - ----------------
#NOTES:
     dance-couple:
     :
     Challenge:
     7:
     0.640,0.872,1.000,0.000,0.000:
00000000
00000000
00000000
00000000
,
00000000
00000000
00000000
00000000
,
00000000
00000000
00000000
00000000
,
00110000
00010000
00100000
01000000
,
11000000
10000000
01000000
00100000
,
00000011
00000001
00000010
00000100
,
00001100
00001000
00000100
00000010
,
00100000
00010000
00100000
00100000
,
00000010
00000001
00000010
00000010
,
00000000
00100000
00010000
00100000
,
00000000
00000010
00000001
00000010
,
00010000
10010000
00100000
01000000
,
00010000
10010000
01000000
10000000
,
00000001
00001001
00000010
00000100
,
00000001
00001001
00000100
00001000
,
00000000
00000000
00010000
00000000
00100000
00100000
00100000
00000000
,
00000000
00000000
00000001
00000000
00000010
00000010
00000010
00000000
,
00000000
00000000
10011001
00000000
00010001
00010001
00010001
00000000
,
00010001
10011001
00100000
00000010
,
01100000
00001001
01000000
00000001
,
00110000
00001010
11000000
00000101
,
00100000
00000000
01000000
00010000
,
00100000
00000000
00000000
00000000
10000000
01000000
00010000
00000000
,
00100010
00000000
01000100
10001000
,
00001010
00110000
00000101
11000000
,
00000010
00000000
00000001
00000100
,
00000010
00000000
00000000
00000000
00000001
00000100
00001000
00000000
,
00100100
00100100
00100100
00000000
01000010
01000010
01000010
00000000
,
00100100
00010001
00100100
01000010
10001000
00100100
01000010
00000000
,
00000000
00000000
10011001
00000000
,
10001000
01000100
00010001
01000100
00000000
01000100
01000100
00000000
,
00100000
00100000
00100001
00100000
,
01100000
00000000
10010000
00000000
00100001
10000000
01000000
00000000
,
10000000
01000000
00010000
00000000
00010001
00100000
10000000
00000000
,
00100000
00010000
01000001
10010000
,
00110000
00000000
01000001
10000000
,
00100000
00000000
00010000
00000000
00100001
00010000
01000000
00000000
,
10000000
01000000
00010000
00000000
00010001
00100000
10000000
00000000
,
01000000
10000000
00100001
10010000
,
00000010
00000010
10000010
00000010
,
00000110
00000000
00001001
00000000
10000010
00001000
00000100
00000000
,
00001000
00000100
00000001
00000000
10000001
00000010
00001000
00000000
,
00000010
00000001
10000100
00001001
,
00000011
00000000
10000100
00001000
,
00000010
00000000
00000001
00000000
10000010
00000001
00000100
00000000
,
00001000
00000100
00000001
00000000
10000001
00000010
00001000
00000000
,
00000100
00001000
10000010
00001001
,
00110000
00010000
00100000
01000000
,
00100000
10010000
00100000
00100000
,
00001100
00000100
00001000
00000100
,
00000010
00001001
00000100
00000100
,
00100000
10010000
00100000
00100000
,
01000000
00000000
01000000
00000000
00000000
10000000
01000000
00000000
,
00000010
00001001
00000010
00000100
,
00000010
00000000
00000010
00000000
00000000
00001000
00000100
00000000
,
10000000
10010000
01000000
00010000
,
00000001
00001001
00000100
00001000
,
00000000
00000000
10000000
00000000
00100000
00100000
00100000
00000000
,
00000000
00000000
00000001
00000000
00000010
00000010
00000010
00000000
,
01100000
00000000
00001001
00000000
00010100
00010100
00010100
00000000
,
10000000
10010000
00000010
00000110
,
10100000
00000011
00100010
01000100
,
01000100
01000100
00000000
01000100
,
00100010
00100010
00000000
00000000
10011001
00000000
11001100
00000000
,
00100010
00000000
10011001
00000000
00000000
00100010
00100010
00000000
,
00100010
00010001
01000100
00000000
00100010
00000000
01000100
00000000
,
00100010
00000000
00110011
00000000
00010001
00100010
01000100
00000000
,
00010001
00010001
00000000
00000000
00100010
00000000
10001000
00000000
,
00100010
00000000
00010001
00000000
00000000
00100010
01000100
00000000
,
10001000
00100010
10001000
00100010
10001000
00100010
01000100
00000000
,
00100010
00010001
01100110
10011001
;

//---------------dance-solo - ----------------
#NOTES:
     dance-solo:
     :
     Easy:
     6:
     0.462,0.509,0.545,0.000,0.000:
000000
000000
000000
000000
,
000000
000000
000000
000000
,
000000
000000
000000
000000
,
000110
000001
010000
001000
,
101000
010000
001000
000100
,
000101
000010
000100
001000
,
011000
100000
001000
000100
,
010000
000001
000100
000100
,
001000
100000
001000
001000
,
000000
010000
000001
000100
,
000000
000010
100000
001000
,
010000
100001
000100
001000
,
000001
100001
000100
001000
,
100000
100001
001000
000010
,
000010
100001
001000
010000
,
000000
000000
010000
000000
000100
000100
000100
000000
,
000000
000000
000010
000000
000100
000100
000100
000000
,
000000
000000
100001
000000
000010
000010
000010
000000
,
000010
100001
000100
000100
,
001100
100001
001000
010000
,
000100
001000
101000
001001
,
000100
000000
001000
000010
,
000000
000000
000000
000000
100000
001000
000001
000000
,
010000
000000
001000
100000
,
000100
001000
101000
001001
,
000100
000000
010000
001000
,
000100
000000
000000
000000
000001
001000
100000
000000
,
000010
001000
001100
000000
,
000001
000000
001000
001000
,
000000
000000
100001
000000
,
100100
001001
000000
000000
,
000100
000100
000100
000100
,
001100
100001
000010
000010
,
010000
010000
000001
000001
,
001000
001000
000100
100001
,
000110
000000
001000
100001
,
001100
001001
000100
000100
,
010000
010000
000010
000010
,
001000
001000
001100
100001
,
000100
000000
001000
100001
,
001100
000000
100010
000000
000000
000100
000100
000000
,
000000
100000
100000
000000
000000
000001
000001
000000
,
000000
001000
001000
000000
001100
000000
100001
000000
,
000100
000000
001000
100001
,
001100
000000
100001
000000
000100
010000
000100
000000
,
100000
001000
100000
000000
001000
000001
001000
000000
,
000010
000100
000010
000000
000100
000000
100001
000000
,
010100
000001
000100
001000
,
011000
001000
100000
001000
,
000100
100001
000100
000100
,
001000
100001
001000
001000
,
010000
100001
000010
000010
,
001000
000000
001000
000000
000000
100000
001000
000000
,
010000
100001
000100
001000
,
000010
000000
000010
000000
000000
100000
001000
000000
,
010000
100001
001000
000010
,
000010
000000
100001
000000
000000
001000
010000
000000
,
000000
000000
100000
000000
000100
000100
000100
000000
,
000000
000000
000010
000000
000100
000100
000100
000000
,
001100
000000
100001
000000
000010
000010
000010
000000
,
000010
100001
000100
011000
,
100100
000101
010000
001000
,
001000
001000
000000
001000
,
000100
000100
000000
000000
100000
000000
001000
000000
,
000100
000000
000001
000000
000000
010000
010000
000000
,
000100
000100
000100
000000
000100
000000
001000
000000
,
000010
000000
100000
000000
000001
000001
000001
000000
,
010000
010000
000000
000000
000100
000000
000000
000000
,
000100
000000
100000
000000
000000
000100
001000
000000
,
100000
100000
100000
000000
010000
000000
001000
000000
,
000100
000001
001000
100001
;

//---------------dance-solo - ----------------
#NOTES:
     dance-solo:
     :
     Medium:
     7:
     0.496,0.509,0.616,0.000,0.000:
000000
000000
000000
000000
,
000000
000000
000000
000000
,
000000
000000
000000
000000
,
000101
010010
000100
001000
,
101000
010001
001000
000100
,
010001
100010
000100
001000
,
100010
010001
001000
000100
,
000100
000000
000001
000000
010000
000001
010000
000000
,
001000
000000
100000
000000
001000
010000
001000
000000
,
000000
000100
100001
000100
,
000000
000100
100001
001000
,
000010
000010
000100
001000
,
010000
010000
001000
000100
,
010000
100001
001000
000001
,
000001
100010
001000
100000
,
000000
000000
010000
000000
001000
100000
001000
000000
,
000000
000000
000001
000000
001000
000010
001000
000000
,
000000
000000
100001
000000
000010
001000
000010
000000
,
100000
000001
001000
100000
,
001100
100001
001000
000001
,
000110
010100
101000
001001
,
000100
000000
001000
000001
,
010000
000000
000000
000000
100000
001000
000010
000000
,
000100
000000
001000
100000
,
010100
000110
001001
101000
,
000100
000000
000001
001000
,
000010
000000
000000
000000
000001
001000
010000
000000
,
000100
001000
001100
000000
,
000010
000000
001000
001000
,
000000
000000
100001
000000
,
000110
101000
000000
000000
,
000100
000100
000100
000100
,
001100
000000
100001
000000
000100
010000
001000
000000
,
100000
001000
000010
000000
000001
000100
100000
000000
,
010000
000001
001000
100001
,
000110
000000
001000
100000
,
000100
000000
000001
000000
000100
000010
001000
000000
,
100000
001000
000010
000000
000001
000100
100000
000000
,
001000
100000
000100
010001
,
000100
000000
001000
100001
,
000100
000000
000001
000000
000100
000100
000100
000000
,
100000
100000
100000
000000
000001
000001
000001
000000
,
001000
001000
001000
000000
001100
000000
100001
000000
,
000100
000000
001000
000010
,
100100
000000
010001
000000
000010
000100
000010
000000
,
100000
001000
100000
000000
001000
000001
001000
000000
,
000010
000100
000010
000000
010000
000000
100001
000000
,
000110
000001
010000
001000
,
101000
001000
010000
000100
,
000100
100000
000100
000101
,
010000
000010
001000
101000
,
000100
000100
000001
010000
,
001000
000000
001000
000000
000000
100000
001000
000000
,
000100
001100
000001
100000
,
001000
000000
001100
000000
000000
000001
010000
000000
,
010000
000000
100001
000000
001000
001000
000010
000000
,
000010
000000
100001
000000
000000
001000
010000
000000
,
000100
000000
100000
000000
000100
000100
000100
000000
,
001000
000000
000001
000000
001000
001000
001000
000000
,
001100
000000
100001
000000
010000
010000
010000
000000
,
100000
100001
001000
001100
,
010001
100010
000100
001000
,
001000
001000
000000
000010
,
000100
000100
000000
000000
100001
000000
001000
000000
,
000100
000000
100001
000000
000000
001000
001000
000000
,
000010
000010
000010
000000
000100
000000
100001
000000
,
000100
000000
010010
000000
000100
000001
001000
000000
,
000010
000010
000000
000000
000100
000000
000000
000000
,
000100
000000
000001
000000
000000
000100
001000
000000
,
100000
000100
010000
000000
010000
000000
001000
000000
,
100100
010010
001100
100001
;

//---------------dance-solo - ----------------
#NOTES:
     dance-solo:
     :
     Hard:
     8:
     0.555,0.509,0.277,0.000,0.000:
000000
000000
000000
000000
,
000000
000000
000000
000000
,
000000
000000
000000
000000
,
000100
000010
001000
000000
000100
100000
001000
000000
,
010000
001000
000100
000000
000001
001000
010000
000000
,
000100
000010
001000
000000
000100
100000
001000
000000
,
010000
001000
000100
000000
000001
001000
010000
000000
,
000100
000000
000010
000000
000100
000001
000100
000000
,
001000
000000
100000
000000
001000
010000
001000
000000
,
000100
000000
000100
100000
001000
010000
001000
000000
,
000100
000000
000100
000001
001000
000010
001000
000000
,
000100
100000
001000
000100
001000
100000
000001
000000
,
000100
000000
100000
000000
000100
001000
000010
000000
,
000100
000100
100000
000000
100000
001000
000010
000000
,
010000
000100
100001
000000
000000
000001
000001
000000
,
000100
000010
001000
000100
001000
000001
100000
000000
,
000100
000000
100000
000000
000100
001000
000010
000000
,
000100
000100
100000
000000
010000
001000
000001
000000
,
000010
000100
100001
000000
000000
010000
010000
000000
,
000100
100000
100000
000001
,
000100
000000
001000
000000
000100
010000
000001
000000
,
100000
000010
000100
000001
,
001000
000000
001000
000000
100000
000100
001000
000000
,
000010
100000
100000
000001
,
000100
000000
001000
000000
010000
100000
000001
000000
,
010000
000010
000100
000001
,
001000
000000
001000
000000
100000
001000
000100
000000
,
010000
010000
010000
000000
000001
000001
000001
000000
,
000100
000010
000100
000001
010000
000100
001000
000000
,
000000
000000
100001
000000
,
010000
001000
000001
001000
000000
001000
001000
000000
,
010000
000000
000100
100001
,
000110
000000
100000
001000
010000
000001
001000
000000
,
001000
100000
000001
000000
000010
000100
001000
000000
,
001000
001000
001000
001000
001000
000000
100000
000000
,
000101
000000
001000
100010
,
001100
100010
001000
001000
,
000100
001000
001001
000101
,
010000
010000
001000
100001
,
000100
000000
001000
100001
,
000110
000000
000001
010000
001000
100000
001000
000000
,
000100
000001
010000
000000
100000
001000
000100
000000
,
000001
000001
000001
000001
000001
000000
001000
000000
,
100010
000000
001000
100001
,
001100
000000
100001
000000
000100
010000
000100
000000
,
100000
001000
100000
000000
001000
000001
001000
000000
,
000010
000100
000010
000000
010000
000000
100001
000000
,
000100
000000
001000
000000
000100
100000
001000
000000
,
010000
000000
000100
000000
000001
001000
100000
000000
,
000100
000000
000001
000000
000100
000001
000100
000000
,
001000
000000
100000
000000
001000
010000
001000
000000
,
000100
000000
000100
010000
001000
100000
001000
000000
,
000001
000000
000001
000000
000000
001000
100000
000000
,
010000
010000
000001
000000
001000
001000
100000
001000
,
000100
000100
000001
000000
000000
001000
100000
000000
,
001000
001000
000001
000000
001010
000000
100000
000000
,
100000
000100
010001
000000
000000
100000
100000
000000
,
000100
001000
000001
000000
000100
000100
000010
000100
,
000001
000001
100000
000000
100000
001000
000100
000000
,
000100
001000
010000
000000
000001
000100
000001
000000
,
000100
100000
001000
010000
001000
100000
000001
000000
,
100000
000100
000100
000000
000010
000000
001000
000000
,
000100
000010
001000
000100
001000
000001
100000
000000
,
000100
000100
000000
000000
100001
000000
011000
000000
,
000100
000000
100001
000000
000000
000100
000100
000000
,
000100
000010
001000
000000
000100
000000
001000
000000
,
000100
000000
000110
000000
000001
010000
001000
000000
,
000001
000001
000000
000000
000100
000000
100000
000000
,
000100
000000
000001
000000
000000
000100
001000
000000
,
010000
000100
100000
000010
010000
000100
001000
000000
,
000100
000001
001100
010010
;

//---------------dance-single - Edit by silenttype01----------------
#NOTES:
     dance-single:
     Edit by silenttype01:
     Edit:
     9:
     0.779,0.763,1.000,0.051,0.041:
0000
0000
0000
0000
,
0000
0000
0000
0000
,
0000
0000
0000
0000
,
1001
0000
0000
0000
1001
0000
0000
0000
1001
0000
0000
1000
0001
0000
0001
0000
,
1001
1001
1001
1001
,
0110
0000
0000
0000
0110
0000
0000
0000
0110
0000
0000
0010
0100
0000
0100
0000
,
0110
0110
0110
0110
,
1010
0000
0000
0000
1010
0000
0000
0000
1010
0000
0000
0010
1000
0000
1000
0000
,
1010
1010
1010
1010
,
1100
0000
0000
0000
1100
0000
0000
0000
1100
0000
0000
1000
0100
0000
0100
0000
,
1100
1100
1100
1100
,
0011
0000
0000
0000
0011
0000
0000
0000
0011
0000
0000
0001
0010
0000
0001
0000
,
0011
0011
0011
0011
,
0101
0000
0000
0000
0101
0000
0000
0000
0101
0000
0000
0100
0001
0000
0100
0000
,
0101
0101
0101
0101
,
1001
0000
0000
0000
0110
0000
0000
0000
1010
0000
0000
0001
1000
0000
0001
0000
,
1100
0011
0101
1001
,
1100
0000
0000
0000
0110
0000
0000
0000
0011
0000
0000
1000
0100
0000
0001
0000
,
0110
1100
0011
0101
,
1001
0100
0001
0100
1000
0100
0001
0100
,
1000
0010
0001
0010
1000
0010
0001
0010
,
1001
0100
1000
0010
0100
0001
0010
0001
,
0100
1000
1000
0010
0001
0100
0100
0100
,
1001
0010
0100
1000
0100
0010
0001
0100
,
0010
1000
0001
0100
0010
1000
0100
0010
,
1001
1000
0100
0100
0010
0010
0001
0001
,
0100
0100
0010
0010
1000
1000
0011
0100
,
0010
0010
0010
0010
1000
0010
0000
0000
,
1010
1100
0000
0000
0001
0001
0100
0001
,
0000
0000
0000
0000
0011
1100
0000
0000
,
1000
1000
0010
1000
0000
0000
0000
0000
,
1001
0000
0000
0011
0000
0011
0000
0011
,
0100
0000
1000
0000
0010
0000
0100
0101
,
0000
1001
0000
1001
0000
1001
1000
0100
,
1000
0010
0100
0001
1000
0001
0010
0001
,
0100
1100
0000
0110
0000
0101
0000
1001
,
0000
0010
0001
0010
0001
0100
1000
0100
,
1000
0101
0000
0011
0000
0110
0000
1100
,
0000
0010
1000
0001
0010
1000
1000
0010
,
0100
0000
0000
0110
0000
0110
0000
0110
,
0000
0110
0001
0010
0100
1000
0001
0100
,
0000
1010
0000
0011
0000
0101
0000
1100
,
0000
0000
1000
1000
0000
1001
0000
0000
,
1000
0101
0000
0110
0000
1001
0000
0010
,
2000
0010
3010
0200
0010
0010
0310
0002
,
0010
0010
0010
0013
0200
0010
0010
0010
,
0310
2000
0010
0010
0010
0010
0010
3010
,
1100
1100
1100
1100
,
0011
0101
1100
0101
,
0011
0011
0011
0011
,
0110
1100
1001
0101
,
1100
1100
1100
1100
,
0110
0011
0101
1100
,
0110
0110
0110
0110
,
0101
1001
1100
0101
,
1001
1001
1001
1001
,
1100
1010
0011
0101
,
0110
0110
0110
0110
,
1100
0011
0101
1010
,
1000
0100
1000
0100
0010
0001
0010
0001
,
1000
0100
0010
0001
0100
0010
1000
0001
,
0010
1000
0010
0100
0001
0001
0100
1000
,
0010
0100
0001
0001
0010
1000
0010
0001
,
0100
0100
0000
0000
0001
0001
0000
0000
,
1001
0000
1000
1000
0000
0100
0100
0000
,
0001
0001
0000
0000
0010
0010
0000
0000
,
0100
1000
0100
1000
0100
1000
0011
0000
,
1000
1001
0000
0000
1001
0001
0000
0000
,
0110
0000
1010
0010
0000
0100
0101
0000
,
0001
0101
0000
0000
1010
1000
0000
0000
,
0100
0010
0100
0001
0010
0100
1001
0000
;
