#TITLE:PARANOIA EVOLUTION;
#SUBTITLE:;
#ARTIST:200;
#TITLETRANSLIT:;
#SUBTITLETRANSLIT:;
#ARTISTTRANSLIT:;
#CREDIT:;
#BANNER:PARANOIA EVOLUTION.png;
#BACKGROUND:PARANOIA EVOLUTION-bg.png;
#LYRICSPATH:;
#CDTITLE:Dance Dance Revolution Solo.png;
#MUSIC:PARANOIA EVOLUTION.ogg;
#OFFSET:0.000;
#SAMPLESTART:1.203;
#SAMPLELENGTH:15.000;
#SELECTABLE:YES;
#DISPLAYBPM:200.000;
#BPMS:0.000=200.000,20.000=200.080;
#STOPS:;
#BGCHANGES:;

//---------------dance-single - ----------------
#NOTES:
     dance-single:
     :
     Beginner:
     1:
     0.220,0.238,0.021,0.000,0.000:
0000
0000
0000
0000
,
0000
0000
0000
0000
,
0000
0000
0000
0000
,
0000
0000
0000
0000
,
0000
0000
0000
0000
,
0000
0000
0000
0000
,
0000
0000
0000
0000
,
0010
0010
0000
0000
,
0000
0010
0000
0000
,
0000
0001
0000
0001
,
0000
0001
0000
0100
,
0000
0010
0010
0010
,
0000
1000
0000
0010
,
0000
1000
0000
1000
,
0000
1000
0000
0001
,
0000
0001
0000
1000
,
0000
0010
0000
0001
,
0000
0010
0000
0010
,
0000
0010
0000
1000
,
0000
0010
0000
0100
,
0000
0100
0000
0000
,
1000
0000
1000
0000
,
1000
0000
1000
0000
,
1000
0000
0001
0000
,
1000
0000
0001
0000
,
0001
0001
0001
0000
,
0100
0100
0100
0000
,
1000
0000
1000
0000
,
0001
0000
0001
0000
,
0001
0001
0001
0000
,
0010
0010
0010
0000
,
1000
1000
0000
0001
,
0000
0001
0000
0001
,
0000
0100
0000
0000
,
0001
0000
0000
0000
,
0001
0000
0001
0000
,
1000
0000
1000
0000
,
0001
0000
0001
0000
,
1000
0000
0000
0000
,
1000
0000
0001
0000
,
0010
0000
0010
0000
,
0001
0000
1000
0000
,
0000
0001
0001
0001
,
0000
1000
1000
1000
,
0000
1000
0000
0100
,
0000
0001
0000
0100
,
0000
1000
0000
0100
,
0000
1000
0000
0000
,
1000
0000
0010
0000
,
0001
0000
0010
0000
,
1000
0000
0010
0000
,
0001
0000
0010
0000
,
1000
0000
1000
1000
,
0000
0001
0000
0100
,
0000
0100
0000
0100
,
0000
0110
0000
0000
,
0100
0000
0001
0000
,
1000
0000
0001
0000
,
1000
0000
0001
0000
,
1000
0000
0001
0000
,
1000
0000
1000
0000
,
1000
0000
0001
0001
,
0001
0000
0001
0000
,
1000
1000
1000
0000
,
1000
0000
1000
0000
,
1000
0000
1000
0000
,
0001
0000
0001
0000
,
0010
0000
0100
0000
,
0001
0000
1000
1000
,
0000
0001
0000
0010
,
0000
0100
0000
0100
,
0000
0010
0010
0000
,
0001
0000
1000
1000
,
1000
1000
0000
0100
,
0000
0001
0000
0001
,
0000
0110
0000
0000
;

//---------------dance-single - ----------------
#NOTES:
     dance-single:
     :
     Easy:
     6:
     0.466,0.558,0.327,0.000,0.000:
0000
0000
0000
0000
,
0000
0000
0000
0000
,
0000
0000
0000
0000
,
0000
0000
0000
0000
,
0000
0000
0000
0000
,
0000
0000
0000
0000
,
0000
0000
0000
0000
,
0010
0010
0010
0010
,
1000
0010
0001
0100
,
1000
0001
1000
0001
,
1000
0001
1000
0100
,
0010
0010
0010
0010
,
0001
1000
0100
0010
,
0001
1000
0001
1000
,
0001
1000
0100
0001
,
0100
0001
0010
1000
,
0001
0010
1000
0001
,
0100
0010
0100
0010
,
0100
0010
0001
1000
,
0100
0010
0001
0100
,
1000
0100
1001
0000
,
1000
0001
1000
0001
,
1000
0001
1000
0001
,
1000
0010
0001
0100
,
1000
0010
0001
0100
,
0001
0001
0001
1000
,
0100
0100
0100
0010
,
1000
0010
1000
0010
,
0001
1000
0001
1000
,
0001
0001
0001
1000
,
0010
0010
0010
0100
,
1000
1000
0001
0001
,
0010
0001
0010
0001
,
1000
0001
0100
0010
1000
0001
0000
1000
,
0001
0100
0010
1000
0000
0000
0000
0000
,
0001
0010
0001
0010
,
1000
0010
1000
0000
,
0001
1000
0010
0100
0001
1000
0000
0001
,
1000
0010
0100
0001
0000
0000
0000
0000
,
1000
0001
0001
0000
,
0010
0000
1000
0000
0010
0100
0000
0000
,
0001
0000
1000
0010
,
0000
0001
0001
0001
,
0000
1000
1000
1000
,
1001
1000
0100
0100
,
1001
0001
0100
0100
,
1001
1000
0100
0100
,
1001
1100
0101
0000
,
1000
1001
0010
1000
,
0001
1001
0010
0001
,
1100
1001
0010
1000
,
0101
1001
0010
0001
,
1000
0100
0001
0000
1000
0000
1000
0000
,
0001
0001
1000
0100
,
0001
0100
1000
0100
,
1001
0110
1001
0000
,
0100
0010
0001
0010
,
1000
0010
0001
0010
,
1000
0100
0001
0100
,
1000
0010
0001
0100
,
1000
0100
0001
0000
1100
0000
0101
0000
,
1000
0010
0001
0001
,
0001
0100
1000
0000
0101
0000
1100
0000
,
1000
1000
1000
0000
,
1000
0100
0001
0000
1100
0000
0101
0000
,
1000
0001
1000
0100
,
0001
0100
1000
0000
0101
0000
1100
0000
,
0010
1000
0100
0000
,
0001
1000
0100
0000
1000
0000
1000
0000
,
0001
0001
0010
0010
,
1000
0001
0100
0000
0001
0000
0100
0000
,
0010
0010
0010
0000
,
0001
1000
0100
0000
1000
0000
1000
0000
,
1000
1000
0100
0100
,
1100
0101
1100
0101
,
1001
0110
1001
0000
;

//---------------dance-single - ----------------
#NOTES:
     dance-single:
     :
     Medium:
     7:
     0.522,0.598,0.623,0.000,0.000:
0000
0000
0000
0000
,
0000
0000
0000
0000
,
0000
0000
0000
0000
,
0000
0000
0000
0000
,
0000
0000
0000
0000
,
0000
0000
0000
0000
,
0000
0000
0000
0000
,
0000
0010
0000
0010
,
1000
0010
0001
0100
,
1000
0001
1000
1000
,
0001
0000
1000
0000
0001
0001
0000
1000
,
0000
0010
0010
0010
,
0001
1000
0100
0010
,
0001
1000
0001
0010
,
1000
0000
0001
0000
1000
0001
0000
1000
,
0000
0100
0000
0000
1000
0000
0010
0000
,
1000
0001
1000
0001
0100
0010
0100
0000
,
0001
1000
0001
0001
,
1000
0000
0001
0000
1000
1000
0000
0001
,
0000
0010
0010
0010
,
0001
1000
0100
0010
,
0001
1000
0001
0010
,
0001
0000
1000
0000
0001
1000
0000
0001
,
0000
0100
0000
0000
0001
0000
0010
0000
,
0001
1000
0001
1000
,
0101
1100
1001
1001
,
0110
1001
1001
1001
,
0010
1000
0010
1000
,
0100
0010
0001
0000
,
1100
0101
1001
1001
,
1010
0101
1001
1001
,
0010
0001
0010
0001
,
0010
0001
0100
1010
,
1000
0001
0100
0010
1000
0001
0000
1000
,
0001
0100
0010
1000
0000
0000
0000
0000
,
0001
0010
0001
0100
,
1010
0110
1001
0000
,
0001
1000
0010
0100
0001
0010
0000
0001
,
0100
0001
0010
0100
0000
0000
0000
0000
,
1000
0001
1001
0000
,
1100
0000
0101
0000
1000
0010
0000
0000
,
0001
0000
1000
1000
,
0000
0101
1100
0101
,
0000
1010
0101
1010
,
1001
0000
1000
0000
0001
0100
0010
0000
,
1001
0000
0001
0000
1000
0100
0010
0000
,
1001
0000
1000
0000
0001
0100
0010
0000
,
1001
1100
0101
0000
,
1000
0000
1001
0000
0010
0100
0010
0000
,
1000
0000
1001
0000
0010
0001
1000
0000
,
1100
0000
1001
0000
0010
0001
1000
0000
,
0101
0000
1001
0000
0010
1000
0001
0000
,
0100
0010
1000
0000
0001
0000
0001
0000
,
1000
0000
1000
0000
0000
1010
0000
0101
,
0000
0010
0010
0010
,
1000
0001
0100
0010
,
1000
0100
0010
0001
,
1000
0000
0100
0000
0000
0011
0000
1100
,
0000
0011
0000
0000
0100
0000
0010
0000
,
1000
0001
0100
0010
,
1000
0010
0001
0000
1010
0000
1001
0000
,
0100
0000
0100
0001
0000
0000
0010
0000
,
0001
0010
0100
0000
1001
0000
1100
0000
,
0010
0010
1001
0000
,
0100
0010
1000
0000
0110
0000
0011
0000
,
1000
0000
0001
1000
0000
0000
0001
0000
,
0100
0010
1000
0000
0101
0000
1100
0000
,
0010
0010
1001
0000
,
0010
0001
0100
0000
1000
0000
1000
0000
,
0001
0001
0010
0010
,
0100
1000
0100
0000
0010
0000
0001
0000
,
0100
0100
0100
0000
,
0010
0001
0010
0000
1000
0000
1000
0000
,
1000
1000
0010
0010
,
1000
0010
0001
0010
1000
0000
0001
0000
,
1100
0101
1001
0000
;

//---------------dance-single - ----------------
#NOTES:
     dance-single:
     :
     Hard:
     8:
     0.632,0.677,0.464,0.000,0.000:
0000
0000
0000
0000
,
0000
0000
0000
0000
,
0000
0000
0000
0000
,
0000
0000
0000
0000
,
0000
0000
0000
0000
,
0000
0000
0000
0000
,
0000
0000
0000
0000
,
0010
1000
0001
0010
,
0001
1000
0010
1000
0001
0010
0001
1000
,
0001
0001
1000
1000
,
0110
0000
0001
1000
0010
0100
0001
1000
,
0100
0100
0010
0010
,
1001
0000
0010
1000
0100
0010
0001
0100
,
0010
0101
0010
1100
,
0011
0000
1000
0010
0100
0001
0010
0100
,
1000
0011
1000
1010
,
0101
0000
0010
0100
1000
0001
0100
0010
,
0100
0000
0101
0000
0010
1000
0010
1000
,
0001
0100
0001
0100
0010
1000
0001
0000
,
1100
0001
0101
1000
,
0110
1001
0011
1100
,
0100
0000
1100
0000
0010
0001
0010
0001
,
1000
0100
1000
0100
0010
0001
1000
0000
,
0101
1000
1100
0001
,
0110
1001
1010
0101
,
1000
0100
0000
0001
0000
0000
0100
0000
,
0010
1000
0000
0100
0000
0000
0000
0000
,
0100
0001
0100
0010
0100
0001
0100
1000
,
0100
0010
0100
1000
0100
0001
0100
0000
,
0010
0100
0000
1001
0000
0000
0100
0000
,
0010
0001
0000
1000
0000
0000
0000
0000
,
1000
0010
0001
0010
1000
0100
0001
0000
,
0110
1001
0110
1001
,
0010
1000
0100
1000
0010
1000
0001
0010
,
0001
0100
0001
0010
0000
0000
0000
0000
,
1100
0000
0000
0101
0000
0000
0110
0000
,
0000
1000
0000
0001
0000
0000
0000
0000
,
1000
0100
0001
0100
1000
0100
0010
1000
,
0010
0001
0010
1000
0000
0000
0000
0000
,
1001
0000
0000
0110
0000
0000
1001
0000
,
0000
0000
0000
0000
,
0001
0000
1000
1000
,
0000
0010
0100
0100
,
0010
1000
1000
0001
,
0010
1000
0100
1000
0001
0100
0001
0000
,
0010
0000
0001
1000
0001
0100
0000
0000
,
0100
0001
0010
0001
1000
0010
1000
0000
,
0100
0100
1100
0101
,
0100
0001
0010
0001
1000
0010
1000
0000
,
0100
0000
1000
0001
1000
0010
0000
0000
,
0010
1000
0100
1000
0001
0100
0001
0000
,
0010
0010
0010
0010
,
0010
0100
0001
0000
1000
0100
0010
0000
,
1001
0000
0100
0010
1000
0001
0010
0000
,
1000
0010
0100
0000
0010
0100
0001
0000
,
1000
0100
0100
0000
0001
0100
0100
0000
,
1000
0100
0001
0000
0001
0010
1000
0000
,
1001
0000
0010
0100
0001
1000
0100
0000
,
0110
0100
1000
0001
,
0001
0101
1100
0001
,
1000
0100
1000
0000
0001
0100
0001
0000
,
0010
1000
0001
0000
0010
0001
1000
0000
,
1000
0010
0001
0000
0001
0010
1000
0000
,
1000
0010
0100
0000
0001
0010
0100
0000
,
1000
0001
0100
0001
1000
0000
0110
0000
,
1000
0010
0100
0001
0010
0000
1100
0000
,
0001
0100
1000
0010
0001
0000
1010
0000
,
0001
0010
1000
0010
0100
0000
1001
0000
,
0010
1000
0100
0010
0001
1000
0010
0000
,
0001
0100
0010
0100
0010
1000
0010
0000
,
0001
0010
1000
0001
0100
1000
0100
0000
,
0001
1000
0100
0010
0001
1000
0100
0000
,
0001
1000
0010
0100
0001
1000
0100
0010
,
0001
0100
0010
0001
0010
1000
0100
0001
,
0100
0010
0001
0100
0001
0010
0100
1000
,
0010
0100
0001
1000
0100
0000
0000
0000
;

//---------------dance-single - ----------------
#NOTES:
     dance-single:
     :
     Challenge:
     10:
     1.000,1.000,0.686,0.084,0.976:
0000
0000
0000
0000
,
0000
0000
0000
0000
,
0000
0000
0000
0000
,
0000
0000
0000
0000
,
0000
0000
0000
0000
,
0000
0000
0000
0000
,
0000
0000
0000
0000
,
0010
0010
0010
0010
,
2002
0000
0000
3003
,
1000
0010
1000
0001
0100
0010
1000
0100
0010
0001
0010
0100
1000
0000
0001
0000
,
0010
0001
0100
0000
0010
0000
1000
0000
0001
0000
1010
0000
0000
0000
0101
0000
,
1000
0100
0010
0000
0001
0000
0100
0000
0010
0000
1000
0000
0100
0000
0010
0000
,
0001
0100
0010
0000
1000
0000
0010
0000
0100
0000
0001
0000
0010
0000
0100
0000
,
0010
0001
0100
0000
0010
0000
1000
0000
0100
0000
0010
0000
0001
0000
0100
0000
,
0010
1000
0100
0000
0010
0000
0001
0000
0100
0000
1010
0000
0000
0000
0101
0000
,
0000
1100
0001
0100
0010
1000
0100
0010
,
0001
0010
0001
0000
1100
0000
1100
0000
1000
0010
1000
0000
0011
0000
0011
0000
,
1000
0010
0100
0001
0010
0100
1000
0010
0100
0001
1000
0001
0100
0000
0001
0000
,
1000
0010
0100
0000
0001
0000
0010
0000
0100
0000
1010
0000
0000
0000
0101
0000
,
0001
0100
0001
0000
1000
0000
0100
1000
0100
0000
1000
0000
0010
1000
0010
0000
,
0100
0001
0010
0100
1000
1100
0000
0101
,
0001
0100
0010
0000
1000
0000
0010
0000
1000
0000
0100
0000
0010
0000
0001
0000
,
1000
0100
1000
0000
0001
0000
0010
0000
0100
0000
0110
0000
0000
0000
1001
0000
,
0001
0100
1000
0000
0100
0000
0001
0010
1000
0000
0010
0000
0001
1000
0001
0000
,
1000
0010
0100
0010
1000
1000
1000
1000
,
0001
0001
0000
1100
0000
0000
0001
0000
,
0000
0101
0000
1001
0000
0000
0000
0000
,
0000
0000
0100
0001
0100
0010
0100
0001
0100
1000
0100
0010
0100
1000
0100
0001
,
0100
0010
0100
0001
0100
1000
0100
0010
0100
1000
0100
0001
0100
0000
0000
0000
,
1000
1000
0000
0101
0000
0000
1000
0000
,
0000
1100
0000
1001
0000
0000
0000
0000
,
1000
0010
1000
0010
0001
0010
0001
0010
1000
0100
0001
0100
1000
0100
0001
0100
,
1000
0000
0001
0000
0110
0000
2002
3003
,
0000
0000
1000
0100
0010
0100
1000
0001
0100
0010
0100
0000
0000
0000
0001
0100
,
0010
0100
0001
1000
0100
0010
0100
0000
0000
0000
0010
0000
0010
0000
0000
0000
,
0001
0010
0000
1100
0000
1000
0010
0000
,
0100
0000
0010
0000
0100
0100
0000
0000
,
0000
0000
0010
1000
0100
1000
0010
0100
0001
0010
0100
0000
0000
0000
0010
0001
,
0100
0001
0010
0100
1000
0010
0100
0000
0000
0000
0010
0000
0010
0000
0000
0000
,
1000
0010
0000
0101
0000
0001
0010
0000
,
0100
0000
0010
0000
0100
0100
0000
0000
,
1000
0000
0001
0001
,
0000
0100
0010
0010
,
1100
0101
0011
1010
,
0010
1000
0100
1000
0010
0100
0001
0010
0100
1000
0001
0100
1000
0000
0000
0000
,
0101
0000
0000
0000
0001
0010
0100
1000
0001
0100
0010
0000
0000
0000
0101
0000
,
0100
0001
0010
0100
1000
0010
0100
0001
0010
0100
1000
0100
0001
0000
0000
0000
,
0100
0010
0100
0010
0100
0000
0000
0000
0101
0000
0000
0000
1100
0000
0000
0000
,
1000
0010
0100
0001
0010
0100
1000
0010
0100
0001
0010
1000
0010
0000
0000
0000
,
0110
0000
0000
0000
0010
0001
0100
0010
1000
0100
0010
0000
0000
0000
0110
0000
,
0001
0100
0010
1000
0100
0010
0001
0100
0010
1000
0100
0001
0100
0000
0000
0000
,
1100
0000
0011
0000
0001
0001
0001
0001
,
0001
0100
1000
0100
0001
1000
0100
0001
0100
1000
0001
0000
1000
0000
0100
0000
,
0010
0001
0100
0000
0110
0000
0010
1000
0100
0000
0110
0000
0000
0000
1001
0000
,
0001
0010
0100
0010
0001
1000
0100
0010
0100
1000
0001
0000
0100
0000
0010
0000
,
0100
0001
0010
0000
0110
0000
0100
1000
0010
0000
0110
0000
0000
0000
1001
0000
,
0001
0010
0001
0100
0001
1000
0100
1000
0010
1000
0100
0000
0010
0000
0100
0000
,
1000
0010
0100
0000
1010
0000
0001
0010
0100
0000
0011
0000
0000
0000
1100
0000
,
0001
0100
0010
1000
0001
0010
0100
1000
0010
0100
0001
0000
1000
0000
0001
0000
,
0101
0000
1100
0000
0100
0100
0100
0100
,
1000
0100
0001
0100
1000
0001
0100
1000
0100
0001
1000
0000
0001
0000
0100
0000
,
0010
1000
0001
0100
0000
0010
0010
0000
,
1000
0100
1000
0100
0010
0001
0010
0001
1000
0010
1000
0010
0100
0001
0100
0001
,
1000
0010
0001
0010
1000
0000
0000
0000
1001
0000
0000
0000
0000
0000
0000
0000
,
0010
0010
1100
0101
0011
1010
1100
0101
,
1000
0010
0100
0001
0000
0010
0010
0000
,
0001
0010
0001
0010
0100
1000
0100
1000
0010
1000
0010
1000
0001
0100
0001
0100
,
0010
0110
2002
3003
,
1000
0010
0100
0010
0001
0010
0100
0000
0001
0010
1000
0010
0100
0010
0001
1000
,
0010
0100
0001
1000
0100
0000
0010
0000
0000
0000
1010
0000
0011
0000
0000
0000
,
0001
0100
0010
1000
0100
0010
1000
0000
0010
0001
0100
0010
1000
0010
0001
0010
,
1000
0100
0010
0001
1000
0000
0000
0000
1100
0000
0000
0000
0101
0000
0000
0000
,
0001
0100
0010
0001
1000
0100
1000
0000
0100
0001
0010
1000
0010
0001
0100
0010
,
1000
0001
0010
1000
0010
0000
0100
0000
0000
0000
1100
0000
0101
0000
0000
0000
,
0001
0100
0010
0001
1000
0100
0010
1000
0001
0010
1000
0001
0100
1000
0001
0100
,
0010
0001
1000
0001
0010
1000
0001
0010
0220
0000
0000
0000
0000
0000
0000
0000
,
0000
0000
0000
0000
0000
0000
0000
0330
;

//---------------dance-double - ----------------
#NOTES:
     dance-double:
     :
     Easy:
     5:
     0.342,0.398,0.032,0.000,0.000:
00000000
00000000
00000000
00000000
,
00000000
00000000
00000000
00000000
,
00000000
00000000
00000000
00000000
,
00000000
00000000
00000000
00000000
,
00000000
00000000
00000000
00000000
,
00000000
00000000
00000000
00000000
,
00000000
00000000
00000000
00000000
,
00000000
00000000
00000000
00000000
,
00000000
00000000
00000000
00000000
,
00001001
00000100
00000001
00000100
,
00001000
00000100
00010000
00001000
,
00100000
00100000
00100000
00100000
,
00010000
10000000
01000000
00000000
,
00010000
01000000
10000000
01000000
,
00010000
00001000
00000100
00000001
,
00000001
00000001
00000001
00000001
,
00001000
00000100
00000010
00000000
,
00000001
00000001
00000100
00001000
,
00010000
01000000
10000000
10000000
,
00010000
01000000
00100000
00001000
,
00010000
00001000
00000100
00000000
,
00000001
00001000
00000100
00000100
,
00010000
00001000
00100000
01000000
,
10000000
00010000
10000000
00010000
,
01000000
00001000
00010000
00000100
,
00000001
00000001
00000100
00000100
,
00001000
00001000
00000100
00000000
,
00010000
00010000
00001000
00001000
,
00100000
01000000
10000000
00000000
,
10000000
10000000
01000000
01000000
,
00010000
00010000
01000000
00000000
,
00000000
00000000
00000000
00000000
,
00001000
00001000
00001000
00001000
,
00001000
00000001
00000100
00000000
,
00001000
00000100
00010000
00000000
,
00010000
00000000
00100000
00000000
,
10000000
00000000
01000000
00000000
,
10000000
00010000
01000000
00000000
,
00010000
01000000
00001000
00000000
,
00001000
00000000
00000010
00000000
,
00000001
00000000
00000100
00000000
,
00001000
00000000
00010000
00010000
,
00000000
01000000
01000000
01000000
,
00000000
10000000
00010000
01000000
,
10000000
01000000
00010000
01000000
,
10000000
01000000
00010000
00010000
,
00001000
00001000
00000100
00000100
,
00000001
00000001
00000001
00000001
,
00001000
00000100
00010000
00001000
,
01000000
00010000
10000000
01000000
,
00010000
00001000
00000100
00000001
,
00001000
00000100
00000100
00000000
,
00011000
01000000
00100000
10000000
,
00010000
10000000
01000000
01000000
,
00010000
00001000
00000100
00000001
,
00000001
00001000
00000100
00000000
,
00000001
00000001
00000100
00000100
,
00001000
00010000
00001000
00010000
,
00100000
01000000
00100000
01000000
,
10000000
01000000
10000000
01000000
,
10010000
00100000
00001000
00010000
,
00000010
00000100
00000001
00000001
,
00001000
00000100
00010000
00001000
,
00100000
00010000
01000000
00000000
,
00100000
00100000
10000000
10000000
,
01000000
01000000
00010000
00010000
,
00001000
00000100
00000001
00000010
,
00000001
00000100
00001000
00000000
,
00010000
00000000
01000000
00000000
,
01000000
00000000
01000000
00000000
,
00001000
00000000
00000100
00000000
,
00000100
00000000
00000100
00000000
,
00000001
00000000
00001000
00000000
,
00000100
00000000
00000100
00000000
,
00010000
00000000
00001000
00000000
,
00100000
00010000
01000000
00000000
;

//---------------dance-double - ----------------
#NOTES:
     dance-double:
     :
     Medium:
     7:
     0.469,0.598,0.390,0.000,0.000:
00000000
00000000
00000000
00000000
,
00000000
00000000
00000000
00000000
,
00000000
00000000
00000000
00000000
,
00000000
00000000
00000000
00000000
,
00000000
00000000
00000000
00000000
,
00000000
00000000
00000000
00000000
,
00000000
00000000
00000000
00000000
,
00000000
00000000
00000000
00000000
,
00000000
00000000
00000000
00000000
,
00011000
01000000
10000000
00100000
,
00001000
00010000
00000100
00001100
,
00010000
00010000
00100000
00100000
,
00010000
10000000
11000000
00000000
,
00010000
01000000
10000000
01000000
,
00010000
00000000
00001000
00000000
00010000
00001000
00000000
00000100
,
00000000
00000001
00000000
00000000
00001000
00000000
00000100
00000000
,
00001000
00000001
00001000
00000001
00000010
00000100
00001000
00000000
,
00000001
00000100
00001000
00001000
,
00010000
00000000
01000000
00000000
10000000
00010000
00000000
00010000
,
00000000
01000000
00001000
00010000
,
00010000
00001000
00000100
00000001
,
00001000
00000100
00000001
00000100
,
00010000
00000000
00001000
00000000
00100000
01000000
00000000
01000000
,
00000000
10000000
00000000
00000000
10000000
00000000
10000000
00000000
,
00010000
01000000
00001000
00010000
,
00011000
00001100
00001001
00000100
,
00001000
00000001
00000100
00000000
,
00010000
00010000
00001000
00001000
,
00100000
00010000
01000000
00000000
,
10010000
01010000
10010000
01000000
,
00010000
10000000
01000000
00000000
,
00000000
00000000
00000000
00000000
,
00011000
00011000
00011000
00011000
,
00001000
00000001
00000101
00000000
,
00001000
00000100
00011000
00000000
,
00010000
00100000
10000000
01000000
,
10000000
00010000
01000000
01000000
,
00010000
10000000
01000000
00010000
01000000
10000000
00000000
00010000
,
01000000
00010000
01000000
00001000
00000000
00000000
00000000
00000000
,
00011000
00001010
00000010
00000000
,
00000001
00000000
00000100
00000100
,
00001000
00000000
00100000
01000000
,
00000000
01000000
10010000
01010000
,
00000000
00011000
00010100
00001000
,
00000110
00000000
00000101
00000000
00000001
00000100
00001000
00000000
,
01010000
00000000
01000000
00000000
00010000
10000000
01000000
00000000
,
11000000
00000000
00010000
00000000
00000010
00000001
00000100
00000000
,
00001001
00001100
00011000
00000000
,
00001000
00000000
00010100
00000000
00001000
01000000
00010000
00000000
,
01000000
00000000
00010000
00000000
10000000
01000000
10000000
00000000
,
01010000
00000000
00001000
00000000
00000100
00000010
00000001
00000000
,
00001001
00000000
00000100
00000000
00001000
00010000
00001000
00000000
,
00100000
10000000
01000000
00000000
00010000
00000000
01000000
00000000
,
00010000
10000000
01000000
00000000
01000000
00000000
01000000
00000000
,
00010000
00000000
00001000
00000000
00000100
00000001
00000100
00000000
,
00000001
00001000
00000100
00000000
,
00000001
00000001
00000100
00000100
,
00001000
00000000
00001000
00000000
00000000
00010000
00000000
00100000
,
00000000
10000000
00000000
00000000
00100000
00000000
01000000
00000000
,
10000000
01000000
00010000
01000000
,
10010000
00000000
00100000
00000000
00001000
00010000
00000100
00000000
,
00000010
00000000
00000100
00000000
00000001
00001000
00000100
00000000
,
00001000
00000100
00010000
00000000
00001000
00010000
01000000
00000000
,
10000000
00100000
01000000
00000000
01010000
00000000
00000000
00000000
,
00100000
10000000
00100000
00000000
01000000
00000000
10010000
00000000
,
01000000
01000000
00000000
00010000
,
00001000
00000000
00000100
00000000
00000001
00001000
00000010
00000000
,
00000001
00000100
00001001
00000000
,
00010000
10000000
01000000
00000000
00010000
00000000
00010000
00000000
,
00100000
00010000
00001000
00000100
,
00000001
00001000
00000100
00000000
00001000
00000000
00001000
00000000
,
00000001
00001000
00001100
00000000
,
00000010
00010000
00001000
00000000
00100000
00000000
01000000
00000000
,
00010000
00001000
00000100
00000100
,
00000010
00010000
00000100
00000000
00001000
00000001
00000100
00000000
,
00001000
00010000
00000100
00000000
00001001
00000000
00000000
00000000
;

//---------------dance-double - ----------------
#NOTES:
     dance-double:
     :
     Hard:
     9:
     0.522,0.677,0.274,0.000,0.000:
00000000
00000000
00000000
00000000
,
00000000
00000000
00000000
00000000
,
00000000
00000000
00000000
00000000
,
00000000
00000000
00000000
00000000
,
00000000
00000000
00000000
00000000
,
00000000
00000000
00000000
00000000
,
00000000
00000000
00000000
00000000
,
00000000
00000000
00000000
00000000
,
00000000
00000000
00000000
00000000
,
00011000
00000000
01000000
00000000
10000000
00010000
01000000
00000000
,
00011000
00000000
00000010
00000000
00000001
00001000
00000100
00000000
,
00000110
00000000
00000001
00000000
00001000
00000100
00001000
00000000
,
00010100
00000000
00001000
00000000
00100000
00010000
01000000
00000000
,
00101000
00000000
00010000
00000000
00000010
00001000
00000100
00000000
,
00000101
00000000
00001000
00000000
00010000
00001000
01000000
00000000
,
01100000
00000000
00010000
00000000
10000000
01000000
10000000
00000000
,
00110000
00000000
00001000
00000000
00010000
00001000
00000100
00000000
,
00000001
00001000
00000100
00000000
00000010
00001000
00000100
00000000
,
00010000
00001000
01000000
00000000
00010000
00100000
00010000
00000000
,
10000000
00010000
01000000
00000000
00100000
10000000
01000000
00000000
,
00010000
00001000
01000000
00000000
00001000
00010000
00000100
00000000
,
00001000
00000001
00000100
00000000
00001000
00010000
00000100
00000000
,
00010000
00001000
00100000
00000000
00001000
00010000
00000100
00000000
,
00001000
00010000
01000000
00000000
00010000
01000000
10000000
00000000
,
10000000
01000000
00010000
00000000
00100000
00001000
00010000
00000000
,
00000000
00000010
00000000
00000010
00000000
00000000
00001000
00000000
,
00000000
01000000
00000000
01000000
00000000
00000000
00000000
00000000
,
00010000
00010000
00001000
00001000
,
00100000
00001000
00010000
00000000
00011000
00000000
00000000
00000000
,
00000000
00100000
00000000
00100000
00000000
00000000
00010000
00000000
,
00000000
00000100
00000000
00000100
00000000
00000000
00000000
00000000
,
00000001
00000000
00000000
00000000
,
00000110
00001000
00011000
01000000
,
00100000
00010000
10000000
01000000
00010000
00001000
00000000
00001000
,
00000100
00000001
00001000
00000100
00000000
00000000
00000000
00000000
,
00000000
00000010
00000000
00000010
00000000
00000000
00010000
00000000
,
00000000
01000000
00000000
01000000
00000000
00000000
00000000
00000000
,
00010000
00100000
01000000
10000000
00010000
00000000
00000000
00001000
,
00010000
00000100
00000010
00000100
00000000
00000000
00000000
00000000
,
00000000
00000010
00000000
00000010
00000000
00000000
00010000
00000000
,
00000000
01000000
00000000
01000000
00000000
00000000
00000000
00000000
,
00011000
00000000
01100000
01100000
,
00000000
10010000
10010000
10010000
,
00000000
00011000
00011000
00010100
,
00001001
00000000
00000000
00000000
,
10010000
00000000
01000000
00000000
00100000
10000000
01000000
00000000
,
00000000
00000000
00000000
00000000
,
00000110
00000000
00000001
00000000
00001000
00000100
00001000
00000000
,
00000000
00000000
00000000
00000000
,
00110000
00000000
01000000
00000000
10000000
00010000
01000000
00000000
,
00000000
00000000
00000000
00000000
,
00000101
00000000
00001000
00000000
00000010
00000001
00000100
00000000
,
00000001
00001000
00000100
00000000
00000010
00001000
00000100
00000000
,
00010000
00001000
01000000
00000000
00010000
00100000
00010000
00000000
,
10000000
00010000
01000000
00000000
00100000
10000000
01000000
00000000
,
00010000
00001000
01000000
00000000
00001000
00010000
00000100
00000000
,
00001000
00000001
00000100
00000000
00001000
00010000
00000100
00000000
,
00010000
00001000
00100000
00000000
00001000
00010000
00000100
00000000
,
00001000
00010000
01000000
00000000
00010000
01000000
10000000
00000000
,
10000000
01000000
00010000
00000000
00100000
00001000
00010000
00000000
,
00001000
00010000
00100000
10000000
01000000
00010000
00001000
00010000
,
00001000
00000100
00000001
00001000
00000100
00001000
00000100
00000010
,
00000001
00000100
00001000
00000100
00000001
00000010
00000100
00001000
,
00000100
00010000
00001000
00100000
00010000
10000000
01000000
00010000
,
01000000
10000000
00100000
01000000
00010000
10000000
00010000
00100000
,
01000000
10000000
00010000
01000000
00001000
00010000
00000010
00001000
,
00000001
00000100
00000010
00001000
00000100
00001000
00000010
00000100
,
00001000
00010000
00001000
00010000
01000000
10000000
00010000
00000000
,
10000000
01000000
00000000
00000000
00010000
01000000
00000000
00000000
,
00100000
00010000
00001000
00000100
,
00000001
00000100
00000000
00000000
00001000
00000100
00000000
00000000
,
00000001
00000100
00001000
00010000
,
01000000
10000000
00000000
00000000
00000000
01000000
00010000
00000000
,
00010000
00001000
00000100
00000001
,
00000010
00010000
00001000
00100000
00001000
00010000
00000100
00001000
,
00010000
00001000
00100000
01000000
10010000
00000000
00000000
00000000
;

//---------------dance-double - ----------------
#NOTES:
     dance-double:
     :
     Challenge:
     10:
     1.000,1.000,0.633,0.063,0.955:
00000000
00000000
00000000
00000000
,
00000000
00000000
00000000
00000000
,
00000000
00000000
00000000
00000000
,
00000000
00000000
00000000
00000000
,
00000000
00000000
00000000
00000000
,
00000000
00000000
00000000
00000000
,
00000000
00000000
00000000
00000000
,
00000000
00000000
00000000
00000000
,
00000000
00000000
00000000
00000000
,
00010000
00001000
00100000
00010000
01000000
00010000
00100000
00001000
00010000
00000100
00001000
00000010
00001000
00000000
00000001
00000000
,
00000010
00001000
00010000
00000100
00000010
00000110
00000000
00000011
,
00000001
00000100
00001000
00010000
00100000
00010000
00001000
00000010
,
00000001
00000010
00000100
00000000
00010000
00000000
00001000
00000000
00000100
00000000
00000001
00000000
00000010
00000000
00001000
00000000
,
00000010
00000001
00000100
00000000
00001000
00000000
00010000
00000000
00100000
00000000
00010000
00000000
00001000
00000000
00000010
00000000
,
00001000
00010000
01000000
00000000
10000000
00000000
00100000
00000000
01000000
00000000
01100000
00000000
00000000
00000000
01001000
00000000
,
00000000
00101000
00001000
00000100
00000001
00000010
00000100
00001000
,
00000001
00000001
00001000
00001000
00010000
00010000
10000000
10000000
,
00100000
01000000
00010000
00100000
00001000
00010000
00001000
01000000
00010000
00100000
00001000
00010000
00000010
00000000
00000100
00000000
,
00000010
00000100
00001000
00000000
00010000
00000000
00001000
00000000
00100000
00000000
00110000
00000000
00000000
00000000
01001000
00000000
,
00001000
00010000
00001000
00000000
00000100
00000000
00001000
00010000
00001000
00000000
00000010
00000000
00001000
00010000
00001000
00000000
,
00000100
00000001
00000010
00001000
00010000
00011000
00000000
00101000
,
00100000
00010000
01000000
00000000
00100000
00000000
10000000
00000000
01000000
00000000
00010000
00000000
00001000
00000000
00000100
00000000
,
00000001
00000010
00000100
00000000
00001000
00000000
00000001
00000000
00000100
00000000
00000110
00000000
00000000
00000000
00010010
00000000
,
00010000
00001000
00010000
00000000
00100000
00000000
00010000
00001000
00010000
00000000
01000000
00000000
00010000
00001000
00010000
00000000
,
00100000
01000000
00010000
00100000
00001000
00001000
00001000
00001000
,
00010000
00010000
00000000
00110000
00000000
00000000
10000000
00000000
,
00000000
01010000
00000000
10010000
00000000
00000000
00000000
00000000
,
00000000
00000000
10000000
01000000
10000000
01000000
00010000
00001000
00010000
00001000
00000100
00000001
00000100
00000001
00001000
00000100
,
00000001
00000100
00001000
00000001
00000100
00000010
00001000
00000001
00000100
00000001
00000010
00000100
00001000
00000000
00000000
00000000
,
00000001
00000001
00000000
00001100
00000000
00000000
00000010
00000000
,
00000000
00011000
00000000
00110000
00000000
00000000
00000000
00000000
,
10000000
01000000
00100000
00010000
10000000
01000000
00010000
00001000
00000100
00000001
00000010
00000100
00001000
00000001
00000100
00000010
,
00001000
00000000
00000001
00000000
00000110
00000000
00002002
00003003
,
00000000
00000000
00000001
00000100
00000010
00001000
00000100
00010000
00001000
00010000
00000010
00000000
00000000
00000000
00001000
00000100
,
00010000
00001000
00100000
00010000
01000000
00100000
10000000
00000000
00000000
00000000
10000000
00000000
10000000
00000000
00000000
00000000
,
10000000
01000000
00000000
00110000
00000000
00001000
00010000
00000000
,
01000000
00000000
10000000
00000000
00010000
00010000
00000000
00000000
,
00000000
00000000
10000000
00100000
01000000
00010000
00100000
00001000
00010000
00001000
01000000
00000000
00000000
00000000
00010000
00100000
,
00001000
00010000
00000100
00001000
00000010
00000100
00000001
00000000
00000000
00000000
00000001
00000000
00000001
00000000
00000000
00000000
,
00000001
00000100
00000000
00001010
00000000
00010000
00001000
00000000
,
01000000
00000000
00010000
00000000
10000000
10000000
00000000
00000000
,
10100000
00000000
01010000
00011000
,
00000000
00001100
00000110
00000011
,
00001100
00011000
00110000
11000000
,
10000000
01000000
00100000
01000000
10000000
00100000
00010000
00001000
00100000
00001000
00010000
00000100
00000010
00000000
00000000
00000000
,
00000011
00000000
00000000
00000000
00000001
00000100
00000010
00001000
00000100
00010000
00001000
00000000
00000000
00000000
00000101
00000000
,
00000001
00000010
00000100
00000010
00000001
00000100
00001000
00010000
00000100
00010000
00001000
00100000
01000000
00000000
00000000
00000000
,
10000000
00010000
01000000
00100000
10000000
00000000
00000000
00000000
11000000
00000000
00000000
00000000
01010000
00000000
00000000
00000000
,
10000000
01000000
00010000
00001000
00010000
01000000
10000000
00100000
01000000
00010000
00100000
00001000
00010000
00000000
00000000
00000000
,
00011000
00000000
00000000
00000000
00001000
00000100
00000001
00000100
00000010
00001000
00000001
00000000
00000000
00000000
00001001
00000000
,
00000001
00000010
00001000
00010000
00001000
00000010
00000001
00000100
00000010
00001000
00000100
00010000
00001000
00000000
00000000
00000000
,
00011000
00000000
00001100
00000000
00000001
00000100
00000010
00001000
,
00000001
00000100
00001000
00000100
00010000
00000100
00001000
00000100
00000001
00001000
00000001
00000000
00000100
00000000
00001000
00000000
,
00010000
00001000
00010000
00000000
01000000
00000000
00100000
01000000
00100000
00000000
00010000
00000000
00000000
00000000
10010000
00000000
,
10000000
00100000
00010000
00100000
00001000
00100000
00010000
00100000
10000000
00010000
10000000
00000000
00100000
00000000
00010000
00000000
,
00001000
00010000
00001000
00000000
00000010
00000000
00000100
00000010
00000100
00000000
00001000
00000000
00000000
00000000
00001001
00000000
,
00000001
00000100
00000010
00001000
00000100
00010000
00000100
00001000
00000100
00000010
00000001
00000000
00001000
00000000
00000100
00000000
,
00001000
00000100
00010000
00000000
00011000
00000000
00001000
00100000
00010000
00000000
00110000
00000000
00000000
00000000
10010000
00000000
,
10000000
00100000
01000000
00010000
00100000
00001000
00100000
00010000
00100000
01000000
10000000
00000000
00010000
00000000
00100000
00000000
,
00110000
00000000
00101000
00000000
00010000
00001000
00010000
00001000
,
00010000
00001000
00000100
00001000
00010000
00001000
00000100
00001000
00010000
00001000
00000010
00000000
00000001
00000000
00000100
00000000
,
00001000
00010000
01000000
10000000
00000000
00010000
00010000
00000000
,
10000000
01000000
10000000
01000000
00100000
00010000
00100000
00010000
00001000
00000100
00001000
00000100
00000010
00000001
00000010
00000001
,
00001000
00000100
00010000
00001000
01000000
00000000
00000000
00000000
10010000
00000000
00000000
00000000
00000000
00000000
00000000
00000000
,
10000000
10000000
01010000
00011000
00001010
00000110
00000101
00001001
,
00000001
00000010
00000100
00001000
00000000
00000001
00000001
00000000
,
00000001
00000010
00000001
00000010
00000100
00001000
00000100
00001000
00010000
00100000
00010000
00100000
01000000
10000000
01000000
10000000
,
00010000
01100000
20020000
30030000
,
10000000
01000000
00100000
00010000
01000000
00100000
00010000
00000000
00001000
00000100
00000010
00001000
00000001
00000010
00000100
00000010
,
00000001
00001000
00000010
00000100
00000001
00000000
00001000
00000000
00000000
00000000
00001100
00000000
00000101
00000000
00000000
00000000
,
00000001
00000010
00000100
00001000
00000010
00000100
00001000
00000000
00010000
00100000
01000000
00010000
10000000
01000000
00100000
01000000
,
10000000
00010000
01000000
00100000
10000000
00000000
00000000
00000000
10100000
00000000
00000000
00000000
00110000
00000000
00000000
00000000
,
10000000
00100000
00010000
00001000
00000100
00000010
00001000
00000000
00000001
00000010
00001000
00000010
00000001
00000100
00001000
00000100
,
00000001
00000010
00000100
00010000
00001000
00000000
00010000
00000000
00000000
00000000
00001000
00000000
00001000
00000000
00000000
00000000
,
00010000
00001000
00000100
00001000
00010000
01000000
00010000
00001000
00000010
00001000
00010000
00100000
00010000
00001000
00000100
00000001
,
00000100
00001000
00010000
01000000
10000000
01000000
00010000
00001000
00022000
00000000
00000000
00000000
00000000
00000000
00000000
00000000
,
00000000
00000000
00000000
00000000
00000000
00000000
00000000
00033000
;

//---------------dance-couple - ----------------
#NOTES:
     dance-couple:
     :
     Challenge:
     9:
     0.805,1.000,1.000,0.000,0.000:
00000000
00000000
00000000
00000000
,
00000000
00000000
00000000
00000000
,
00000000
00000000
00000000
00000000
,
00000000
00000000
00000000
00000000
,
00000000
00000000
00000000
00000000
,
00000000
00000000
00000000
00000000
,
00000000
00000000
00000000
00000000
,
00100010
00100010
00100010
00100010
,
10001000
00100010
00010001
01000100
,
10000000
00010001
10000000
10000001
,
00010000
00000000
10000001
00000000
00010000
00010000
00000001
10000000
,
00000000
00100001
00100000
00100001
,
00010000
10000001
01000000
00100001
,
00010000
10000001
00010000
00100001
,
10000000
00000000
00010001
00000000
10000000
00010000
00000001
10000000
,
00000000
01000000
00000001
00000000
10000000
00000000
00100001
00000000
,
10000000
00010000
10000001
00010000
01000000
00100000
01000001
00000000
,
00001000
10000001
00001000
10001000
,
00000001
00000000
10001000
00000000
00000001
00000001
10000000
00001000
,
00000000
10000010
00000010
10000010
,
00000001
10001000
00000100
10000010
,
00000001
10001000
00000001
10000010
,
00001000
00000000
10000001
00000000
00001000
00000001
10000000
00001000
,
00000000
00000100
10000000
00000000
00001000
00000000
10000010
00000000
,
00001000
00000001
10001000
00000001
00000100
00000010
10000100
00000000
,
01010010
11000000
10010000
10010000
,
01100010
10010000
10010000
10010000
,
00100010
10000000
00100000
10000000
,
01000010
00100000
00010000
00000000
,
00100101
00001100
00001001
00001001
,
00100110
00001001
00001001
00001001
,
00100010
00001000
00000010
00001000
,
00100100
00000010
00000001
01011100
,
00100010
10001000
01000100
10001000
00100010
10001000
00010001
00100010
,
00010001
01000100
00010001
00100010
00000000
00000000
00000000
00000000
,
11000000
00000000
00000000
00000110
00000000
00000000
01100000
00000000
,
00000000
10001000
00000000
00010001
00000000
00000000
00000000
00000000
,
10001000
01000100
00010001
01000100
10001000
01000100
00100010
10001000
,
00100010
00010001
00100010
10001000
00000000
00000000
00000000
00000000
,
00000101
00000000
00000000
10010000
00000000
00000000
00001001
00000000
,
00000000
00000000
00000000
00000000
,
00011000
00000000
10000001
00100010
,
00000000
10000000
10000000
10000000
,
00000000
00000001
00000001
00000001
,
10010000
00000000
10000000
00000000
00010000
01000000
00100000
00000000
,
10010000
00000000
00010000
00000000
10000000
01000000
00100000
00000000
,
10010000
00000000
10000000
00000000
00010000
01000000
00100000
00000000
,
10010000
11000000
01010000
00000000
,
00001001
00000000
00001000
00000000
00000001
00000100
00000010
00000000
,
00001001
00000000
00000001
00000000
00001000
00000100
00000010
00000000
,
00001001
00000000
00001000
00000000
00000001
00000100
00000010
00000000
,
00001001
00001100
00000101
00000000
,
01000100
00100010
10001000
00000000
00010001
00000000
00010001
00000000
,
10001000
00000000
10001000
00000000
00000000
10101010
00000000
01010101
,
00000000
00100010
00100010
00100010
,
10001000
00010001
01000100
00100010
,
10001000
01000100
00100010
00010001
,
10001000
00000000
01000100
00000000
00000000
00110011
00000000
11001100
,
00000000
00110011
00000000
00000000
01000100
00000000
00100010
00000000
,
10000000
00001000
01000000
00000100
,
10000000
01000000
10000000
00000000
00010000
01000000
00010000
00000000
,
00100000
10000000
00010000
00000000
00100000
00010000
10000000
00000000
,
00001000
00000100
00001000
00000000
00000001
00000100
00000001
00000000
,
00000010
00001000
00000001
00000000
00000010
00000001
00001000
00000000
,
00010000
01000000
10000000
00100000
00010000
00000000
10100000
00000000
,
00010000
00100000
10000000
00100000
01000000
00000000
10010000
00000000
,
00001000
00000001
00000100
00000001
00001000
00000000
00000110
00000000
,
00001000
00000010
00000100
00000001
00000010
00000000
00001100
00000000
,
00100010
10000001
01000100
00100010
00011000
10000001
00100010
00000000
,
00011000
01000100
00100010
01000100
00100010
10000001
00100010
00000000
,
00011000
00100010
10000001
00011000
01000100
10000001
01000100
00000000
,
00011000
10000001
01000100
00100010
00011000
10000001
01000100
00000000
,
00011000
10000001
00100010
01000100
00011000
10000001
01000100
00100010
,
00011000
01000100
00100010
00011000
00100010
10000001
01000100
00011000
,
01000100
00100010
00011000
01000100
00011000
00100010
01000100
10000001
,
00100010
01000100
00011000
10000001
01000100
00000000
00000000
00000000
;

//---------------dance-solo - ----------------
#NOTES:
     dance-solo:
     :
     Easy:
     6:
     0.469,0.558,0.348,0.000,0.000:
000000
000000
000000
000000
,
000000
000000
000000
000000
,
000000
000000
000000
000000
,
000000
000000
000000
000000
,
000000
000000
000000
000000
,
000000
000000
000000
000000
,
000000
000000
000000
000000
,
000100
000100
000100
000100
,
100000
000100
000001
001000
,
100000
000001
100000
000001
,
100000
000001
100000
001000
,
000100
000100
000100
000100
,
000001
100000
001000
000100
,
000010
010000
000010
010000
,
000010
100000
001000
000001
,
001000
000001
010000
100000
,
000010
000010
010000
000001
,
001000
000100
001000
000100
,
001000
000100
000001
100000
,
001000
000100
000001
001000
,
100000
001000
100001
000000
,
100000
000001
100000
000001
,
010000
000010
010000
000001
,
100000
010000
000001
001000
,
100000
000100
000001
001000
,
000001
000001
000001
100000
,
001000
001000
001000
000100
,
010000
010000
010000
010000
,
000010
010000
000010
100000
,
000001
000001
000001
100000
,
000100
000100
000100
001000
,
100000
100000
000001
000001
,
000010
000010
000010
000010
,
100000
000001
001000
000100
100000
000001
000000
100000
,
000001
001000
000100
100000
000000
000000
000000
000000
,
000010
000010
000010
000010
,
010000
010000
100000
000000
,
000001
100000
000100
001000
000001
100000
000000
000001
,
100000
000100
001000
000001
000000
000000
000000
000000
,
010000
000001
000001
000000
,
000010
000000
100000
000000
000100
001000
000000
000000
,
000010
000000
010000
010000
,
000000
000001
000001
000001
,
000000
100000
100000
100000
,
010010
100000
001000
001000
,
100001
000001
001000
001000
,
010010
100000
001000
001000
,
100001
101000
001001
000000
,
110000
100001
000100
100000
,
000011
100001
000100
000001
,
101000
100001
000010
100000
,
001001
100001
010000
000001
,
100000
001000
000001
000000
100000
000000
100000
000000
,
000001
000001
100000
001000
,
000001
001000
100000
001000
,
100001
001100
100001
000000
,
010000
000100
000010
000100
,
100000
000100
000001
000100
,
100000
001000
000001
001000
,
100000
000100
000001
001000
,
100000
001000
000001
000000
101000
000000
001001
000000
,
010000
010000
000001
000001
,
000001
001000
100000
000000
001001
000000
101000
000000
,
100000
100000
100000
000000
,
100000
000100
000001
000000
100100
000000
000101
000000
,
100000
000001
010000
000010
,
000001
000100
100000
000000
000101
000000
100100
000000
,
010000
010000
010000
000000
,
000001
100000
001000
000000
100000
000000
100000
000000
,
000001
000001
000100
000100
,
100000
000001
001000
000000
000010
000000
000010
000000
,
000100
000100
000100
000000
,
000001
100000
001000
000000
100000
000000
100000
000000
,
100000
100000
001000
001000
,
101000
001001
101000
001001
,
100001
001100
010010
000000
;

//---------------dance-solo - ----------------
#NOTES:
     dance-solo:
     :
     Medium:
     7:
     0.532,0.637,0.696,0.000,0.000:
000000
000000
000000
000000
,
000000
000000
000000
000000
,
000000
000000
000000
000000
,
000000
000000
000000
000000
,
000000
000000
000000
000000
,
000000
000000
000000
000000
,
000000
000000
000000
000000
,
000000
000100
000000
000100
,
100000
000100
000001
001000
,
100000
000001
100000
100000
,
000001
000000
100000
000000
000001
000001
000000
100000
,
000000
000100
000100
000100
,
000001
100000
001000
000100
,
000010
010000
000010
000010
,
010000
000000
000010
000000
010000
000001
000000
100000
,
000000
001000
000000
000000
010000
000000
010000
000000
,
100000
000001
100000
000001
001000
000100
001000
000000
,
100000
000001
100000
100000
,
000001
000000
100000
000000
000001
000001
000000
100000
,
000000
000100
000100
000100
,
000001
100000
001000
000100
,
000010
010000
000010
000010
,
010000
000000
000010
000000
010000
000001
000000
100000
,
000000
001000
000000
000000
000010
000000
000010
000000
,
010000
000010
100000
000001
,
010100
000110
010010
100001
,
010100
000110
010010
100001
,
010000
010000
010000
010000
,
010000
000001
001000
000000
,
100010
010001
010010
100001
,
100010
010001
010010
100001
,
000010
000010
000010
000010
,
000010
000010
000010
100100
,
100000
000001
001000
000100
010000
000010
000000
100000
,
000001
001000
000100
100000
000000
000000
000000
000000
,
000010
000010
000010
000010
,
010100
000110
100001
000000
,
000001
100000
000100
001000
000010
010000
000000
100000
,
001000
000001
000100
001000
000000
000000
000000
000000
,
110000
000011
100001
000000
,
101000
000000
001001
000000
010000
000010
000000
000000
,
000011
000000
110000
110000
,
000000
001001
101000
001001
,
000000
100100
000101
100100
,
010010
000000
100000
000000
000001
001000
100000
000000
,
100001
000000
000001
000000
100000
001000
000001
000000
,
010010
000000
100000
000000
000001
001000
100000
000000
,
100001
101000
001001
000000
,
110000
000000
100001
000000
000100
000001
100000
000000
,
000011
000000
100001
000000
000100
100000
000001
000000
,
101000
000000
100001
000000
000010
100000
000001
000000
,
001001
000000
100001
000000
010000
000001
100000
000000
,
010000
000100
000001
000000
100000
000000
100000
000000
,
000001
000000
000001
000000
000000
000101
000000
101000
,
000000
000100
000100
000100
,
000001
100000
001000
000100
,
010000
010000
000010
000010
,
010000
000000
010000
000000
000000
000101
000000
101000
,
000000
000101
000000
000000
001000
000000
001000
000000
,
100000
000001
001000
000100
,
010000
000100
000001
000000
100010
000000
010001
000000
,
001000
000000
001000
000001
000000
000000
000010
000000
,
000010
000100
100000
000000
010001
000000
100010
000000
,
000100
000100
010010
000000
,
010000
000100
000001
000000
000110
000000
010100
000000
,
100000
000000
000001
010000
000000
000000
000010
000000
,
000010
000100
100000
000000
001010
000000
011000
000000
,
000100
000100
010010
000000
,
000010
000001
001000
000000
100000
000000
100000
000000
,
000001
000001
000100
000100
,
010000
100000
001000
000000
000010
000000
000010
000000
,
000100
000100
000100
000000
,
000010
000001
001000
000000
100000
000000
100000
000000
,
100000
100000
000100
000100
,
010000
000100
000010
000100
100000
000000
000001
000000
,
101000
001001
010010
000000
;

//---------------dance-solo - ----------------
#NOTES:
     dance-solo:
     :
     Hard:
     8:
     0.612,0.677,0.549,0.000,0.000:
000000
000000
000000
000000
,
000000
000000
000000
000000
,
000000
000000
000000
000000
,
000000
000000
000000
000000
,
000000
000000
000000
000000
,
000000
000000
000000
000000
,
000000
000000
000000
000000
,
100001
000100
001000
100001
,
010000
000001
100000
001000
000001
100000
000100
000001
,
100000
000000
000001
000000
100000
100000
000001
000000
,
100000
000000
000001
000000
000001
000001
100000
000000
,
100000
000000
000001
000000
100000
010000
100000
000000
,
100000
000000
000001
001000
100000
000001
000000
000000
,
000010
000000
010000
000000
000010
000010
010000
000000
,
000010
000000
010000
000000
010000
010000
000010
000000
,
000010
000000
010000
000000
000010
000100
100000
000000
,
100000
100000
100000
100000
001000
001000
001000
000000
,
000100
000000
001000
000000
000100
000100
001000
000000
,
000100
000000
001000
000000
000100
000100
001000
000000
,
001000
000000
000100
000000
100000
010000
100000
000000
,
100000
000000
000001
001000
100000
000001
000000
000000
,
000010
000000
010000
000000
000010
000010
010000
000000
,
000010
000000
010000
000000
010000
010000
000010
000000
,
000010
000000
010000
000000
000010
000100
100000
000000
,
000001
000000
000001
000000
010000
000100
000001
000000
,
000100
001000
000001
001000
100000
001000
000100
001000
,
000001
001000
100000
001000
000100
001000
000001
001000
,
000000
001000
000000
001000
000000
001000
000000
001000
,
000100
001000
000100
000000
,
000100
001000
100000
001000
000001
001000
000100
001000
,
100000
001000
000001
001000
000100
001000
100000
001000
,
000000
000010
000000
000010
000000
000010
000000
000010
,
010000
000010
101000
001001
,
010000
000010
001000
000100
100000
001000
000000
000001
,
010000
000100
001000
000001
000000
000000
000000
000000
,
000010
000010
000010
000010
,
010100
000110
100001
000000
,
000100
001000
000100
100000
000001
001000
000000
010000
,
001000
000010
001000
000100
000000
000000
000000
000000
,
100000
000001
001000
000100
100000
000001
000000
000000
,
100000
001000
000001
000000
010000
000010
000000
000000
,
000001
000010
000000
000000
100000
010000
100000
010000
,
000000
000000
000001
001000
100000
001000
000001
001000
,
000000
000000
100000
000100
000001
000100
100000
000100
,
010010
100010
010001
000100
,
000001
000000
001000
000001
010000
000010
000000
010000
,
010010
010001
100010
001100
,
100001
101000
001001
001000
,
010010
100010
010001
000100
,
000001
000000
001000
000001
010000
000010
000000
010000
,
010010
010001
100010
001100
,
100001
000000
101000
000000
001001
000000
000001
100000
,
010000
100000
000001
000000
100000
000000
100000
000000
,
000001
000000
000001
000000
000100
000001
100000
001000
,
000000
000100
000100
000100
,
000001
000000
100000
000000
000100
001000
000001
100000
,
000000
000010
000010
000010
,
010000
000000
010000
000000
000100
000001
100000
001000
,
000100
000001
000000
000000
001000
000000
001000
000000
,
000100
000001
001000
100000
,
010000
100000
000001
000000
100010
000000
010001
000000
,
100000
001000
000001
010000
000000
000000
000010
000000
,
000001
000010
000001
000000
010001
000000
100010
000000
,
100100
000101
010010
000000
,
100000
010000
100000
000000
000110
000000
010100
000000
,
100000
000100
000001
010000
000000
000000
000010
000000
,
000001
000010
000001
000000
001010
000000
011000
000000
,
100100
000101
010010
000000
,
100000
010000
000100
100000
010000
000100
100000
010000
,
000100
000000
000000
000101
000000
000000
101000
000000
,
000001
000010
000100
000001
000010
000100
000000
000001
,
010000
001000
100000
000001
001000
000100
001000
000000
,
100000
010000
000100
100000
010000
000100
100000
010000
,
000100
000000
000000
000101
000000
000000
101000
000000
,
010010
100001
010100
000110
,
011000
001010
110011
000000
;

//---------------dance-double - Edit by silenttype01----------------
#NOTES:
     dance-double:
     Edit by silenttype01:
     Edit:
     9:
     0.684,0.757,0.190,0.348,0.000:
00000000
00000000
00000000
00000000
,
00000000
00000000
00000000
00000000
,
00000000
00000000
00000000
00000000
,
00000000
00000000
00000000
00000000
,
00000000
00000000
00000000
00000000
,
M1MMMMMM
01000000
01000000
01000000
,
01000000
01000000
01000000
M1MMMMMM
,
M1MMMMMM
01000000
01000000
01000000
,
10000000
00100000
00010000
00001000
00000010
00000001
MMMMMM1M
00001000
,
00010000
00000000
00000010
00000100
00000001
00001000
00000100
00000010
,
00000100
00000000
00001000
00000100
00001000
00000001
00000000
00000001
,
00000010
00000100
00001000
00000010
00000100
00000001
00001000
00000010
,
00000100
00000100
00000100
00000100
,
00000100
00000000
00001000
00100000
01000000
00010000
00001000
00010000
,
00001000
00000000
01000000
00010000
01000000
00100000
00000000
10000000
,
00000000
00100000
01000000
00010000
00100000
01000000
10000000
01000000
,
00010000
00000000
01000000
10000000
01000000
00200000
00000000
00000000
,
01300000
10000000
01000000
00000000
10000000
00100000
10000000
00000000
,
00100000
00010000
00100000
00000000
00010000
00001000
00010000
00000000
,
00000020
00010000
00010030
00002000
00010000
00013000
00000200
00010000
,
00010300
00000000
00001000
00000100
00000001
00000100
00000000
00000010
,
00000100
00000001
00000100
00000000
00000001
00000010
00000001
00000000
,
00000010
00001000
00000010
00000000
00001000
00010000
00000000
00001000
,
00200000
00001000
00301000
00020000
00001000
00031000
02000000
00001000
,
03001000
00000000
00010000
00000000
01000000
01000000
10000000
10000000
,
00000000
00100000
00000000
00200000
00000000
00000000
00320000
00000000
,
00000000
00030100
00000000
00000200
00000000
00000000
00000300
00000000
,
00000000
00000101
00000000
00010010
00000000
00001001
00000000
00000200
,
00000000
00000000
00000300
00000110
00000000
00000000
00000001
00000001
,
00000000
00000010
00000000
00000020
00000000
00000000
00002030
00000000
,
00000000
01003000
00000000
02000000
00000000
00000000
03000000
00000000
,
10000000
00100000
00010000
00001000
00000010
00000001
00000010
00001000
,
00010000
00011000
00011000
00011000
,
00000000
00010000
00000100
00000010
00000100
00010000
00000010
00001000
,
00000001
00000100
00001000
00010000
00001000
00000100
00000000
00000000
,
00000010
00000000
00000000
00000010
00000000
00000000
00010000
00000000
,
00000000
01000000
00000000
01000000
00000000
00200000
00000000
00300000
,
00000000
00001000
01000000
00100000
01000000
00001000
00100000
00010000
,
10000000
01000000
00010000
00001000
00010000
01000000
00000000
00000000
,
00100000
00000000
00000000
00100000
00000000
00000000
00001000
00000000
,
00000000
00000100
00000000
00000100
00000000
00000020
00000000
00000030
,
00000101
00000000
00000101
00000101
,
00000000
MMMM1M1M
MMM1M1MM
00101000
,
M1MMMMMM
10100000
1MM1MMMM
11MMMMMM
,
10000000
01000000
00010000
00001000
00020000
00000000
00001000
00000000
,
00100000
00001000
01000000
00001000
,
00000010
00000100
00001000
01000000
,
00001000
01000000
00001000
00100000
,
00001000
01030000
00002000
00010000
,
00000010
00010000
00000100
00010000
,
00100000
01000000
00010000
00000100
,
00010000
00000000
00000100
00000000
00010000
00010000
00013000
00001000
,
00000100
00000001
00000100
00001000
00010000
00000000
00000100
00001000
,
00000001
00000100
00001000
00000000
00010000
00000010
00001000
00000001
,
MMMMM2MM
00000000
00000010
00000010
00000010
00000000
00001300
00000000
,
00010000
01000000
00100000
01000000
00010000
00000000
00001000
00010000
,
M2MMMMMM
10000000
10000000
00000000
00100000
00100000
03100000
00001000
,
00010000
00000000
01000000
10000000
01000000
00010000
00001000
00000000
,
MM2MMMMM
00010000
00010000
00000000
01000000
00000000
01300000
10000000
,
00010000
01000000
00001000
00010000
00000000
00100000
00100000
00100000
,
00000000
00010000
00100000
10000000
01000000
00010000
00001000
01000000
,
00001000
00000100
00000001
00001000
00000100
00010000
00000100
00000010
,
00000001
00000100
00001000
00000100
00000001
00000010
00000100
00010000
,
00001000
00000010
00000010
00000000
00000010
00000000
00002020
00000000
,
00003030
00001000
00000010
00000001
00000100
00001000
00010000
00000100
,
00010000
01000000
10000000
00010000
01000000
00001000
01000000
00100000
,
10000000
01000000
00010000
01000000
10000000
00100000
01000000
00001000
,
00010000
00100000
00100000
00000000
00100000
00000000
00210000
00000000
,
20300000
00000000
01000000
30000000
00010000
00000000
01000000
00000000
00200000
00000000
00001000
00300000
00010000
00000000
00001000
00000000
,
00000100
00000001
00000100
00000010
00010000
00001000
00000100
00000001
,
00000020
00000000
00000001
00000030
00000100
00000000
00001000
00000000
00000200
00000000
00000010
00000300
00001000
00000000
00000001
00000000
,
00000010
00001000
00000010
00001000
00010000
01000000
00010000
00001000
,
00020000
00000000
01000000
00030000
10000000
00000000
00100000
00000000
02000000
00000000
00001000
03000000
00010000
00000000
01000000
00000000
,
10000000
00100000
00010000
00001000
00000100
00000001
00000010
00000001
,
00000200
00000000
00000010
00000300
00010000
00000000
00000010
00000000
00002000
00000000
00000100
00003000
00000020
00000000
00000001
00000030
,
00000100
00001000
00000100
00000001
MMMMMMMM
00000000
00000000
00000000
;

//---------------dance-single - Edit by silenttype01----------------
#NOTES:
     dance-single:
     Edit by silenttype01:
     Edit:
     9:
     0.684,0.757,0.190,0.348,0.000: // measure 1
0000
0000
0000
0000
,  // measure 2
0000
0000
0000
0000
,  // measure 3
0000
0000
0000
0000
,  // measure 4
0000
0000
0000
0000
,  // measure 5
0000
0000
0000
0000
,  // measure 6
M1MM
0100
0100
0100
,  // measure 7
0100
0100
0100
M1MM
,  // measure 8
M1MM
0100
0100
0100
,  // measure 9
1000
0010
0001
0010
1000
0100
MMM1
0100
,  // measure 10
1000
0000
0010
0100
0001
1000
0100
0010
,  // measure 11
0100
0000
1000
0100
1000
0001
0000
0001
,  // measure 12
0010
0100
1000
0010
0100
0001
1000
0010
,  // measure 13
0100
0100
0100
0100
,  // measure 14
0100
0000
1000
0100
1000
0100
0010
1000
,  // measure 15
0100
0000
1000
0100
0010
0001
0000
1000
,  // measure 16
0000
0010
0100
0001
0010
0100
1000
0100
,  // measure 17
0001
0000
0100
0010
0001
0200
0000
0000
,  // measure 18
0301
0100
0001
0000
0010
0001
0010
0000
,  // measure 19
1000
0010
1000
0000
0010
0100
0010
0000
,  // measure 20
0002
0100
0103
0020
1000
1030
0002
0100
,  // measure 21
0103
0000
0001
0010
0100
1000
0000
0100
,  // measure 22
0001
0100
0001
0000
0100
1000
0100
0000
,  // measure 23
1000
0010
1000
0000
0010
0001
0000
0010
,  // measure 24
2000
0100
3100
0020
0001
0031
2000
0100
,  // measure 25
3100
0000
1000
0000
0001
0001
0100
0100
,  // measure 26
0000
0010
0000
0020
0000
0000
2030
0000
,  // measure 27
0000
3001
0000
0002
0000
0000
0003
0000
,  // measure 28
0000
0101
0000
1001
0000
0011
0000
0200
,  // measure 29
0000
0000
0300
0110
0000
0000
0001
0001
,  // measure 30
0000
0010
0000
0020
0000
0000
0032
0000
,  // measure 31
0000
1003
0000
2000
0000
0000
3000
0000
,  // measure 32
0001
0010
1000
0010
0001
0100
1000
0100
,  // measure 33
0001
1001
0110
1001
,  // measure 34
0000
0001
0100
0010
0100
0001
0010
1000
,  // measure 35
0001
0100
1000
0001
1000
0100
0000
0000
,  // measure 36
0010
0000
0000
0010
0000
0000
1000
0000
,  // measure 37
0000
0001
0000
0001
0000
0200
0000
0300
,  // measure 38
0000
1000
0100
0010
0100
1000
0010
0001
,  // measure 39
1000
0100
0001
1000
0001
0100
0000
0000
,  // measure 40
0010
0000
0000
0010
0000
0000
0001
0000
,  // measure 41
0000
1000
0000
1000
0000
0200
0000
0300
,  // measure 42
1001
0000
0110
0110
,  // measure 43
0000
1MM1
M11M
1001
,  // measure 44
M1MM
1001
M11M
1MM1
,  // measure 45
1000
0100
0010
0100
0002
0000
1000
0000
,  // measure 46
0010
1000
0100
1000
,  // measure 47
0010
0100
1000
0100
,  // measure 48
1000
0100
1000
0010
,  // measure 49
1000
0103
2000
0001
,  // measure 50
0010
0001
0100
0001
,  // measure 51
0010
0100
0001
0100
,  // measure 52
0001
0000
0100
0000
0001
0001
3001
0100
,  // measure 53
0010
0100
1000
0100
0010
0000
0100
0010
,  // measure 54
0100
0001
1000
0000
0100
0010
0100
1000
,  // measure 55
MMM2
0000
0100
0100
0100
0000
0013
0000
,  // measure 56
1000
0100
0001
0100
0010
0000
0001
0100
,  // measure 57
MM2M
1000
1000
0000
0100
0100
0130
0010
,  // measure 58
1000
0000
0001
0100
1000
0100
0010
0000
,  // measure 59
2MMM
0010
0010
0000
0001
0000
3100
1000
,  // measure 60
0001
0100
0010
1000
0000
0001
0001
0001
,  // measure 61
0000
1000
0010
0001
1000
0100
0010
0100
,  // measure 62
1000
0001
0010
0100
1000
0100
0010
1000
,  // measure 63
0001
0100
1000
0100
0001
1000
0010
0100
,  // measure 64
1000
0100
0100
0000
0100
0000
0202
0000
,  // measure 65
0303
0001
0010
1000
0001
0100
0010
0100
,  // measure 66
0001
1000
0010
0100
0001
0100
0010
0001
,  // measure 67
1000
0100
0001
0100
1000
0001
0010
0100
,  // measure 68
0001
0100
0100
0000
0100
0000
2100
0000
,  // measure 69
3MM2
0000
0100
0003
1000
0000
0100
0000
MM2M
0000
1000
0030
0100
0000
0001
0000
,  // measure 70
0100
1000
0001
0100
0010
1000
0100
0001
,  // measure 71
M2MM
0000
0010
0300
0001
0000
0010
0000
MMM2
0000
0100
0003
0010
0000
1000
0000
,  // measure 72
0100
1000
0001
0010
0100
0001
0100
0001
,  // measure 73
M2MM
0000
0010
0300
0001
0000
0100
0000
2MMM
0000
0100
3000
0001
0000
1000
0000
,  // measure 74
0001
0010
0100
1000
0100
0010
1000
0010
,  // measure 75
MMM2
0000
0100
0003
0010
0000
1000
0000
M2MM
0000
0010
0300
MMM2
0000
0100
0003
,  // measure 76
0010
1000
0100
0001
MMMM
0000
0000
0000
;
