#TITLE:PEACE(^^)v;
#SUBTITLE:;
#ARTIST:BeForU;
#TITLETRANSLIT:;
#SUBTITLETRANSLIT:;
#ARTISTTRANSLIT:;
#CREDIT:;
#BANNER:PEACE(^^)v.png;
#BACKGROUND:PEACE(^^)v-bg.png;
#LYRICSPATH:;
#CDTITLE:./CDTITLES/Dancing Stage SuperNOVA.png;
#MUSIC:PEACE(^^)v.mp3;
#OFFSET:-0.462;
#SAMPLESTART:44.794;
#SAMPLELENGTH:15.000;
#SELECTABLE:YES;
#BPMS:0.000=142.000;
#STOPS:;
#BGCHANGES:0.000=PEACE(^^)v.avi=1.000=1=1=0,
208.000=PEACE(^^)v-bg.png=1.000=0=0=1,
99999=-nosongbg-=1.000=0=0=0 // don't automatically add -songbackground-
;

//---------------dance-single - ----------------
#NOTES:
     dance-single:
     :
     Easy:
     2:
     0.126,0.164,0.010,0.000,0.000:
0000
0000
0000
0000
,
0000
0000
0000
0000
,
0001
0100
1000
0000
,
0001
0000
1000
0000
,
0001
0000
0000
0000
,
0010
0000
0000
0000
,
0100
0000
0000
0000
,
1000
0000
1000
0000
,
0100
0000
0000
0000
,
0100
0000
0010
0000
,
0001
0000
0000
0000
,
0001
0000
1000
0000
,
0010
0000
0000
0000
,
0010
0000
0100
0000
,
0010
0000
0100
0000
,
0100
0000
0000
0000
,
0001
0000
0000
0000
,
0001
0000
0000
0000
,
1000
0000
0000
0000
,
1000
0000
0000
0000
,
0010
0000
0100
0000
,
0001
0000
1000
0000
,
0010
0000
0010
0000
,
0000
1000
0000
1000
,
0001
0000
0000
0000
,
0100
0000
0000
0000
,
0000
0000
0000
0000
,
0001
1000
0001
0000
,
0100
0000
0100
0000
,
0001
1000
0001
0000
,
0010
0000
0010
0000
,
0100
0000
0000
0000
,
0100
0000
0000
0000
,
0010
0000
0000
0000
,
0100
0000
0000
0000
,
1000
0001
1000
0000
,
0010
0000
0010
0000
,
1000
0001
1000
0000
,
0100
0000
0100
0000
,
0010
0000
0000
0000
,
0010
0000
0000
0000
,
0100
0000
0000
0000
,
0010
0000
0000
0000
,
0001
0000
0000
0000
,
0001
0000
1000
0000
,
0001
1000
0001
0000
,
1000
0000
0001
1000
,
0001
0000
0000
0000
,
0001
0000
1000
0000
,
0001
1000
0001
0000
,
0010
0000
0100
1001
,
0000
0000
0000
0000
,
0100
0000
0000
0000
;

//---------------dance-single - ----------------
#NOTES:
     dance-single:
     :
     Medium:
     5:
     0.252,0.328,0.000,0.031,0.000:
0000
0000
0000
0000
,
0000
0000
0000
0000
,
1000
0000
0010
0000
0100
0000
0001
1000
,
0001
0100
0010
0000
,
1000
0000
0100
0010
0100
0000
0000
0000
,
0001
0000
0100
0010
0100
0000
0001
0000
,
1000
0000
0000
0000
0100
0000
0010
0001
,
1000
0000
1000
0000
,
0001
0100
1000
0000
,
0001
0000
0010
0100
1000
0000
0000
0000
,
0001
0010
1000
0000
,
0001
0000
1000
0010
0100
0000
0000
0000
,
0001
0000
1000
0001
,
1000
0000
1000
0100
,
0010
0000
0001
1000
0100
0000
0000
0000
,
0100
0000
0010
0000
,
2000
0000
0000
3000
,
0001
0000
0100
0000
,
0020
0000
0000
0030
,
1000
0000
0001
0000
,
1000
0000
0100
0010
0001
0000
0000
0000
,
1000
0000
0010
0100
0001
0000
0000
0000
,
1000
0000
1000
0000
,
0000
0001
1000
0001
,
0100
0010
1000
0100
0010
0001
0000
0100
,
0000
0000
0000
0000
,
0000
0000
0000
0000
,
1000
0000
0100
0000
0010
0000
0001
1000
,
0100
0010
0001
0000
,
1000
0000
0010
0100
0010
0000
0000
0000
,
1000
0000
0001
0010
,
0100
0000
0000
0000
0100
0000
1000
0010
,
0100
0001
1000
0000
,
0001
0000
0001
0000
,
0100
0000
0000
0000
,
1000
0000
0010
0000
0100
0000
0001
0010
,
0100
1000
0001
0000
,
1000
0000
0010
0100
0010
0000
0000
0000
,
1000
0000
0100
0000
0010
0000
0001
1000
,
0100
0000
0010
0000
,
0001
1000
0001
0000
,
0100
0000
0100
0000
,
0010
1000
0100
0000
,
0010
0000
0010
0000
0001
1000
0000
0000
,
0100
0000
0100
0000
1000
0001
0000
0000
,
0010
0000
0010
0000
0001
1000
0000
0000
,
0100
0000
0100
0000
1000
0001
0000
0000
,
0010
0000
0100
0000
1000
0001
0000
0000
,
0100
0000
0010
0000
1000
0001
0000
0000
,
0010
0100
1000
0001
0100
0010
1000
0000
,
0001
0000
1000
0000
0001
0100
0100
0000
,
0020
0000
0000
0030
,
1000
0000
0000
0000
;

//---------------dance-single - ----------------
#NOTES:
     dance-single:
     :
     Hard:
     6:
     0.333,0.382,0.010,0.021,0.063:
0000
0000
0000
0000
,
0000
0000
0000
0000
,
0001
0010
0100
0000
,
1000
0001
0000
0001
1000
0000
0000
0000
,
0010
0000
0000
0000
0100
0000
0000
0000
0010
0000
0000
1000
0000
0000
0100
0000
,
0010
0000
0000
0001
0000
0000
1000
0000
0100
0000
0000
0000
0000
0000
0010
0000
,
0001
0000
0000
0000
,
1000
0001
1000
0000
,
0100
0000
0000
0010
0000
0000
0001
0000
1000
0000
0000
0010
0000
0000
0100
0000
,
0001
0000
0000
1000
0000
0000
0100
0000
0010
0000
0000
0000
0000
0000
0000
0000
,
0001
0000
0000
1000
0000
0000
0100
0000
1000
0000
0000
0001
0000
0000
0100
0000
,
0010
0000
0000
1000
0000
0000
0100
0000
0010
0000
0000
0000
0000
0000
0000
0000
,
0001
0000
1000
0010
0100
0000
0000
0000
,
0001
0000
0010
0100
1000
0000
0000
0000
,
0001
0000
0100
0010
1000
0000
0000
0000
,
0001
0000
1000
0000
,
0100
0000
0010
0000
0001
0000
1000
0100
,
1000
0000
0001
0010
0001
0000
0000
0000
,
1000
0000
0010
0000
0100
0000
0001
0010
,
0001
0000
1000
0100
1000
0000
0000
0000
,
0001
0000
0100
0010
1000
0000
0001
0000
,
0010
0000
0100
1000
0001
0000
0100
0000
,
0010
0000
0000
1000
0001
0000
0000
0000
,
0000
1000
0100
0010
,
0001
1000
0010
0100
0001
1000
0000
0100
,
0000
0000
0000
0000
,
0000
0000
0001
0010
0001
0000
0010
0000
,
0001
0100
0000
0100
0010
0000
1000
0100
,
1000
0000
0000
0010
0000
0000
0100
0000
0001
0000
0000
0000
0000
0000
0000
0000
,
1000
0000
0000
0001
0000
0000
0100
0000
0010
0000
0000
0000
1000
0000
0000
0000
,
0001
0000
0010
0100
0000
1000
0000
1000
,
0000
0000
0000
0001
0100
0010
1000
0100
,
0000
0010
0000
0010
0000
0001
0100
0010
,
0000
0010
1000
0000
0000
0000
0000
0000
,
0001
0000
1000
0100
1000
0000
0100
0000
,
0010
0001
0000
0010
0100
1000
0001
0100
,
0010
0000
0000
0010
0000
0000
1000
0000
0100
0000
0000
0000
0000
0000
0000
0000
,
0010
0000
0000
0010
0000
0000
0001
0000
0100
0000
0000
0000
0010
0000
0000
0000
,
1000
0000
0001
0010
0000
0100
0000
0100
,
0000
0000
0000
1000
0001
0100
0010
1000
,
0000
0000
0001
0010
0000
0100
0000
0020
,
0000
0000
0000
0030
,
0000
0000
0000
0000
,
0001
0100
1000
0100
0001
1000
0000
0000
,
1000
0100
0001
0100
1000
0001
0000
0000
,
0001
0010
1000
0010
0001
1000
0000
0000
,
1000
0010
0001
0010
1000
0001
0000
0000
,
0100
1000
0100
0001
0010
0100
0000
0000
,
0100
0001
0100
1000
0010
0100
0000
0000
,
0001
0010
0100
1000
0001
0100
0000
0100
,
1000
0100
0001
0010
0100
0000
1001
0000
,
0200
0000
0300
0010
,
0100
0000
0000
0000
;

//---------------dance-double - ----------------
#NOTES:
     dance-double:
     :
     Easy:
     2:
     0.127,0.164,0.010,0.000,0.000:
00000000
00000000
00000000
00000000
,
00000000
00000000
00000000
00000000
,
00010000
00000000
00000000
00000000
,
00000010
00000000
00000000
00001000
,
00000001
00000000
00001000
00000000
,
00000001
00000000
00000000
00000000
,
00000100
00000000
00000000
00000000
,
00000100
00000000
00000010
00000000
,
00001000
00000000
00000001
00000010
,
00000100
00000000
00000000
00000000
,
00001000
00000000
00000010
00000100
,
00001000
00000000
00010000
00000000
,
01000000
00000000
00000000
00000000
,
10000000
00000000
00000000
00000000
,
00010000
00000000
00010000
00000000
,
10000000
00000000
00000000
00000000
,
01000000
00000000
00000000
00000000
,
00010000
00000000
00001000
00000000
,
00000100
00000000
00000000
00000000
,
00010000
00000000
00001000
00000000
,
00000010
00000000
00000000
00000000
,
00000001
00000000
00000000
00000000
,
00001000
00000000
00000000
00000000
,
00000100
00000000
00000000
00000000
,
00010000
00000000
00000000
00000000
,
00001000
00000000
00000000
00000000
,
00000000
00000000
00000000
00000000
,
00100000
00000000
00100000
00000000
,
00010000
10000000
01000000
00000000
,
00100000
00000000
00000000
00000000
,
00010000
00000000
01000000
00000000
,
00001000
00000000
00000000
00000000
,
00010000
00000000
00010000
00000000
,
00000010
00000000
00000000
00000000
,
00001000
00000000
00000000
00000000
,
00000100
00000000
00000100
00000000
,
00000010
00000001
00000100
00000000
,
00001000
00000000
00000000
00000000
,
00010000
00000000
00001000
00000000
,
00100000
00000000
00000000
00000000
,
00010000
00000000
01000000
00000000
,
00100000
00000000
00000000
00000000
,
10000000
00000000
00000000
00000000
,
00010000
00010000
00010000
00000000
,
01000000
00000000
00001000
00000000
,
00010000
00010000
00010000
00000000
,
00000010
00000000
00001000
00000000
,
00000001
00000001
00000001
00000000
,
00000010
00000000
00000100
00000000
,
00010000
00001000
00100000
00000000
,
00010000
01000000
00100000
10010000
,
00000000
00000000
00000000
00000000
,
01000000
00000000
00000000
00000000
;

//---------------dance-double - ----------------
#NOTES:
     dance-double:
     :
     Medium:
     5:
     0.225,0.273,0.010,0.010,0.000:
00000000
00000000
00000000
00000000
,
00000000
00000000
00000000
00000000
,
00000001
00001000
00000100
00000000
,
00010000
00000000
00001000
00000000
,
00100000
00000000
01000000
00000000
,
10000000
00010000
01000000
00000000
,
00001000
00000000
00000000
00000000
,
00010000
00000000
00000000
00000000
,
00000010
00000000
00000010
00000000
,
00001000
00000100
00000010
00000000
,
00000001
00000000
00000001
00000000
,
00000100
00001000
00010000
00000000
,
00100000
00000000
00100000
00000000
,
10000000
00000000
10000000
00000000
,
01000000
00100000
00010000
00000000
,
10000000
00000000
00000000
00000000
,
01000000
00000000
01000000
00000000
,
00100000
00000000
00100000
00000000
,
00010000
00000000
01000000
00000000
,
00001000
00000000
00010000
00000000
,
00000010
00001000
00000100
00000000
,
00000010
00000001
00000100
00000000
,
00000010
00000000
00000000
00001000
00000100
00000000
00000000
00000000
,
00010000
00000000
00001000
00000000
,
00100000
00010000
10000000
01000000
,
00200000
00000000
00000000
00000000
,
00300000
00010000
10000000
00010000
,
01000000
00000000
00001000
00010000
00001000
00000000
00100000
00000000
,
00010000
00000000
01000000
00001000
00010000
00000000
00000000
00000000
,
00000010
00000000
00001000
00000100
00001000
00000000
00000001
00000000
,
00000100
00000000
00000010
00001000
00000000
00000100
00000000
00000100
,
00000000
00000000
00010000
00000000
,
00001000
00100000
00010000
00000000
,
01000000
00000000
01000000
00000000
,
00100000
10000000
01000000
00100000
,
00010000
00000000
10000000
01000000
10000000
00000000
00100000
00000000
,
01000000
00000000
00010000
10000000
01000000
00000000
00000000
00000000
,
00100000
00000000
00010000
01000000
00100000
00000000
00010000
00000000
,
00001000
00000000
00000010
00000001
00000000
00000100
00000000
00000100
,
00000000
00000000
00000010
00000000
,
00001000
00000001
00000100
00000000
,
00001000
00000000
00010000
00000000
,
00100000
10000000
01000000
00000000
,
00100000
00000000
00100000
00000000
00010000
10000000
00000000
00000000
,
01000000
00000000
00010000
00001000
00000000
00000000
00000000
00000000
,
00000100
00000000
00000100
00000000
00001000
00000001
00000000
00000000
,
00000100
00000000
00000010
00001000
00000000
00000000
00000000
00000000
,
00000100
00000000
00000100
00000000
00010000
00001000
00000000
00000000
,
00100000
00000000
00010000
01000000
00000000
00000000
00000000
00000000
,
00100000
10000000
01000000
00010000
,
00001000
00100000
00010000
01000000
00100000
00000000
10010000
00000000
,
01000000
00000000
00000000
00010000
,
00001000
00000000
00000000
00000000
;

//---------------dance-double - ----------------
#NOTES:
     dance-double:
     :
     Hard:
     6:
     0.303,0.355,0.010,0.000,0.000:
00000000
00000000
00000000
00000000
,
00000000
00000000
00000000
00000000
,
00000010
00001000
00000100
00000000
,
00010000
00001000
00010000
00000000
00000010
00000000
00000000
00000000
,
00001000
00000100
00000010
00000000
,
00000001
00000000
00001000
00000010
00000100
00000000
00001000
00000000
,
00010000
00000000
00000000
00000000
,
01000000
00000000
01000000
00000000
,
10000000
00000000
00010000
00000000
10000000
00000000
01000000
00100000
,
00010000
01000000
01000000
00000000
,
00001000
00000000
00010000
00000000
01000000
00000000
00100000
00010000
,
01000000
00001000
00010000
00000000
,
00000010
00000000
00001000
00000100
00000010
00000000
00000000
00000000
,
00000001
00000000
00000100
00000010
00001000
00000000
00000000
00000000
,
00000100
00000000
00000010
00000001
00001000
00000000
00000000
00000000
,
00000100
00000000
00000100
00000000
,
00010000
00001000
00010000
00000000
,
00100000
00000000
00100000
00000000
,
10000000
01000000
10000000
00000000
,
00010000
00000000
00010000
00000000
,
01000000
00000000
00100000
10000000
01000000
00000000
00000000
00000000
,
00100000
00000000
01000000
10000000
00100000
00000000
00000000
00000000
,
01000000
00000000
00001000
00010000
00000010
00000000
00000000
00000000
,
00001000
00000100
00000010
00000001
,
00001000
00000010
00000100
00000001
00000010
00000100
00000000
00000100
,
00000000
00000000
00000000
00000000
,
00000000
00010000
00001000
00100000
,
00010000
01000000
00100000
10000000
01000000
00000000
00100000
00000000
,
00010000
10000000
01000000
00010000
00001000
00000000
00000000
00000000
,
00000100
00001000
00010000
01000000
10000000
00000000
00010000
00000000
,
01000000
00000000
00100000
10000000
00000000
01000000
00000000
01000000
,
00000000
00000000
00000000
00000000
00010000
00000000
00001000
00010000
,
00001000
00000000
00000100
00000000
00000010
00000000
00001000
00000100
,
00001000
00000000
00000001
00000000
00000100
00000000
00000010
00001000
,
00000010
00000000
00010000
00001000
,
00100000
00010000
01000000
00100000
10000000
00000000
01000000
00000000
,
00100000
00010000
10000000
00100000
01000000
00000000
00000000
00000000
,
00010000
00100000
01000000
00010000
00001000
00000000
01000000
00000000
,
00100000
00000000
00010000
00001000
00000000
00000010
00000000
00000010
,
00000000
00000000
00000000
00000001
00000100
00000010
00001000
00000001
,
00000000
00000000
00000100
00000010
00000000
00001000
00000000
00001000
,
00000000
00000000
00000000
00000000
,
00000001
00000000
00000001
00000000
,
00000010
00000100
00000010
00000000
00000001
00000100
00000000
00000000
,
00000010
00001000
00000010
00000000
00000100
00001000
00000000
00000000
,
00010000
00001000
00010000
00000000
00000010
00001000
00000000
00000000
,
00000100
00010000
00000100
00000000
00001000
00000010
00000000
00000000
,
00000100
00000001
00000100
00000000
00001000
00010000
00000000
00000000
,
01000000
00100000
01000000
00000000
10000000
00010000
00000000
00000000
,
01000000
00100000
10000000
01000000
00010000
00001000
00010000
00000000
,
00000010
00001000
00000100
00000000
00000010
00000001
00000100
00000000
,
00001000
00000000
00000000
00010000
,
00011000
00000000
00000000
00000000
;

//---------------dance-single - ----------------
#NOTES:
     dance-single:
     :
     Beginner:
     1:
     0.109,0.136,0.000,0.000,0.000:
0000
0000
0000
0000
,
0000
0000
0000
0000
,
0001
0000
1000
0000
,
0001
0000
1000
0000
,
0001
0000
0000
0000
,
0010
0000
0000
0000
,
0100
0000
0000
0000
,
1000
0000
1000
0000
,
0100
0000
0000
0000
,
0100
0000
0010
0000
,
0001
0000
0000
0000
,
0001
0000
1000
0000
,
0010
0000
0000
0000
,
0010
0000
0100
0000
,
0010
0000
0100
0000
,
0100
0000
0000
0000
,
0001
0000
0000
0000
,
0001
0000
0000
0000
,
1000
0000
0000
0000
,
1000
0000
0000
0000
,
0010
0000
0100
0000
,
0001
0000
1000
0000
,
0010
0000
0010
0000
,
0000
1000
0000
1000
,
0000
0000
0000
0000
,
0100
0000
0000
0000
,
0000
0000
0000
0000
,
0001
0000
0001
0000
,
0100
0000
0100
0000
,
0001
0000
0001
0000
,
0010
0000
0010
0000
,
0100
0000
0000
0000
,
0100
0000
0000
0000
,
0010
0000
0000
0000
,
0100
0000
0000
0000
,
1000
0000
1000
0000
,
0010
0000
0010
0000
,
1000
0000
1000
0000
,
0100
0000
0100
0000
,
0010
0000
0000
0000
,
0010
0000
0000
0000
,
0100
0000
0000
0000
,
0010
0000
0000
0000
,
0001
0000
0000
0000
,
0001
0000
1000
0000
,
0001
0000
0001
0000
,
1000
0000
0001
0000
,
0001
0000
0000
0000
,
0001
0000
1000
0000
,
0001
0000
0001
0000
,
0010
0000
0100
0000
,
0000
0000
0000
0000
,
0100
0000
0000
0000
;

//---------------dance-single - ----------------
#NOTES:
     dance-single:
     :
     Challenge:
     9:
     0.633,0.765,0.538,0.179,0.290:
0000
0000
0000
0000
,
0010
1000
0100
0101
,
0001
0100
1000
1100
,
0010
0100
0001
1001
,
1000
0100
0010
0011
,
0100
0010
1000
1010
,
0100
0001
1000
0120
,
0001
0001
0001
0031
,
1000
0100
1000
0001
1000
0010
1000
0001
,
1000
0100
1000
0010
1000
0001
0110
0100
,
0001
0010
0001
1000
0001
0010
0001
0100
,
0001
1000
0001
0100
0001
1000
0110
0010
,
1000
0100
0001
0010
0001
0100
1000
0010
,
0100
0001
1000
0100
0010
0100
1001
0001
,
0100
1000
0010
1000
0100
0010
1000
0100
,
0001
0100
1000
0001
0010
0100
1001
0000
,
1000
0000
0000
0001
0000
0000
0100
0000
0010
0000
0000
1000
0000
0000
0100
0000
,
0001
0000
0000
0100
0000
0000
1000
0000
0011
0000
0000
0000
0000
0000
0001
1000
,
0010
0000
0000
0100
0000
0000
1000
0000
0100
0000
0000
0001
0000
0000
0010
0000
,
0100
0000
0000
1000
0000
0000
0001
0000
1100
0000
0000
0000
0000
0000
0011
0000
,
0101
0000
0000
0110
0000
0000
1000
0000
0001
0000
0100
0000
1000
0000
0100
0000
,
0101
0000
0000
1001
0000
0000
1000
0000
0100
0000
0001
0000
0110
0000
1000
0000
,
0001
0000
0000
0200
0020
0000
0000
0000
,
0330
0000
2000
0000
3002
0003
0120
0000
,
1030
1100
0100
0101
0001
1001
0000
0110
,
0000
0000
0010
1000
0001
0000
0100
0001
1000
0000
0100
0010
0001
0000
0100
0010
,
1000
0000
0001
0100
0001
0000
1000
0100
,
0011
0000
0000
0011
0000
0000
0011
0000
1000
0000
0100
0000
0010
0000
0001
0000
,
1100
0000
0000
1100
0000
0000
1100
0000
0010
0000
0001
0000
0100
0000
1000
0000
,
0110
0000
0000
0011
0000
0000
1010
0000
0100
0000
0001
0000
1000
0000
0010
0000
,
0100
0000
0001
0010
0000
0110
0000
1100
,
0000
0000
0000
0001
0100
1000
0001
2000
,
0000
3020
0000
0032
0000
0203
0000
0320
,
0000
1030
2000
0000
0001
0000
0001
0000
,
3001
0000
1000
0000
0001
0000
0100
0010
,
1010
0000
0000
1001
0000
0000
1100
0000
1000
0000
0001
0000
0100
0000
1000
0000
,
0110
0000
0001
1000
0000
0000
0110
0000
1000
0000
0001
0000
0100
0000
0010
0000
,
1001
0000
0010
0100
0000
0000
1001
0000
0100
0000
0001
0000
0010
0000
1000
0000
,
0010
0000
0010
0001
0000
0101
0000
1100
,
0000
0000
0000
1000
0001
1000
0100
0002
,
0000
0000
0023
1000
0000
1030
0000
0020
,
0001
0001
0100
0100
1000
1000
0001
0001
,
1000
1000
0100
0100
0001
0001
0031
0100
,
0010
1000
0010
1000
0010
1000
0010
0100
0001
0000
1001
0000
0000
0000
1000
0100
,
1000
0100
1000
0100
1000
0100
1000
0001
0100
0000
1001
0000
0000
0000
0010
0100
,
0010
0100
0010
0100
0010
0100
0010
1000
0001
0000
0110
0000
0000
0000
0100
0001
,
0100
0001
1000
0001
0100
0000
0110
0000
1010
0000
0110
0000
0000
0000
0001
0010
,
0001
0010
0001
0010
0001
0010
0100
1000
0100
1000
0100
0000
0000
0000
0010
0001
,
0010
0001
0010
0001
0010
0001
0100
0010
1000
0001
0100
0000
0000
0000
0010
1000
,
0010
1000
0010
1000
0010
0100
0010
0100
0010
0000
1000
0000
0010
0000
0100
0000
,
0000
0000
0001
0000
0010
0000
0100
1000
0001
0000
0100
0000
0010
0000
0000
0000
,
0110
0000
0000
0000
1000
0000
0000
0100
0010
0000
0000
0000
0001
0000
0000
0000
,
2002
0000
0000
0000
,
0000
0000
0000
3003
;
