#TITLE:PARANOiA;
#SUBTITLE:;
#ARTIST:180;
#TITLETRANSLIT:;
#SUBTITLETRANSLIT:;
#ARTISTTRANSLIT:;
#CREDIT:;
#BANNER:PARANOiA.png;
#BACKGROUND:PARANOiA-bg.png;
#LYRICSPATH:;
#CDTITLE:./CDTITLES/DANCE DANCE REVOLUTION.PNG;
#MUSIC:PARANOiA.mp3;
#OFFSET:-0.039;
#SAMPLESTART:0.020;
#SAMPLELENGTH:15.000;
#SELECTABLE:YES;
#DISPLAYBPM:180.000;
#BPMS:0.000=181.210,8.000=180.000,16.000=177.340,20.000=180.900,60.000=179.100,64.000=177.340,68.000=180.000,72.000=181.820,76.000=180.000,88.000=181.820,94.000=176.470,96.000=169.810,97.000=180.000,98.000=183.670,99.000=180.000,100.000=176.470,101.000=181.560,108.000=180.300,120.000=181.820,124.000=178.220,126.000=174.760,128.000=178.220,134.000=183.670,136.000=180.000,140.000=180.900,144.000=177.340,148.000=180.000,152.000=180.900,160.000=179.280,165.000=180.530,192.000=182.190,197.000=174.190,200.000=179.100,204.000=180.990,215.000=176.470,216.000=181.110,229.000=174.190,232.000=180.900,240.000=179.100,244.000=180.900,248.000=177.340,252.000=180.900,256.000=179.100,260.000=180.900,264.000=180.600,288.000=176.470,292.000=183.670;
#STOPS:;
#BGCHANGES:-0.068=PARANOiA.avi=1.000=1=1=0,
295.000=PARANOiA-bg.png=1.000=0=0=1,
99999=-nosongbg-=1.000=0=0=0 // don't automatically add -songbackground-
;

//---------------dance-single - ----------------
#NOTES:
     dance-single:
     :
     Easy:
     6:
     0.403,0.481,0.161,0.000,0.000:
0000
0000
0000
0000
,
0000
0000
0000
0000
,
0000
0000
0000
0000
,
0000
0000
0000
0000
,
0000
0000
0000
0000
,
0000
0000
0000
0000
,
0000
0010
0010
0010
,
0000
0001
0000
0001
,
0000
1000
0100
1000
,
0010
0100
0010
0100
,
0000
0001
0100
0001
,
0010
0100
0010
0100
,
0000
0010
0001
0100
,
1000
0001
0100
1001
,
0000
0010
0010
0010
,
0001
0001
1000
1000
,
0001
0100
1000
0000
,
0001
0010
0100
1000
,
0010
0100
0001
0100
,
1001
0000
0110
0000
1000
0000
0100
0100
,
0100
0010
1000
0010
,
1001
0000
0110
0000
1000
0000
0100
0100
,
0100
0010
1000
0010
,
1001
0110
0001
1000
,
0100
0001
0100
1000
,
0100
0001
0100
1000
,
0100
0001
0100
0001
,
0010
1000
0100
0001
,
0100
1000
0100
0001
,
0100
1000
0100
1000
,
0100
0001
0100
1000
,
0100
0001
0010
1001
,
0010
0000
0000
0001
0000
0000
0100
0000
,
0000
0010
0000
1000
0100
0100
0100
0000
,
0010
0000
0000
1000
0000
0000
0100
0000
,
0000
0010
0000
0001
0100
0100
0100
0000
,
0010
0000
0000
0001
0000
0000
0100
0000
,
0000
0010
0000
1000
0100
0100
0100
0000
,
0010
0000
0000
1000
0000
0000
0100
0000
,
0000
0010
0000
0001
0100
0100
0100
0000
,
0010
0000
0001
0001
,
0000
1000
1000
1000
,
0100
0001
1000
1000
,
0100
0010
0010
0010
,
0001
1000
0010
0010
,
1000
0100
0100
0100
,
1000
0010
0100
0100
,
0010
0001
0001
0001
,
0010
0100
0001
0001
,
0100
1000
1000
1000
,
0110
1001
0000
0010
,
0000
0100
0001
1000
,
0110
1001
0000
0010
,
0000
0100
1000
0001
,
0110
1001
0000
0010
,
0000
0100
0001
1000
,
0110
1001
0000
0010
,
0000
0100
1000
0001
,
0001
0100
1000
0000
0100
0000
0001
0000
,
0100
1000
0100
0001
,
0001
0100
1000
0000
0100
0000
0001
0000
,
0100
1000
0100
0001
,
0001
1000
0100
0001
,
0100
1000
0100
0001
,
0001
0100
1000
0000
0100
0000
0001
0000
,
0100
1000
0100
0001
,
0100
0001
0001
0000
0001
0000
0001
0000
,
0100
1000
1000
0000
1000
0000
1000
0000
,
0100
0001
0001
0000
0001
0001
0001
0000
,
0100
1000
1000
0000
1000
1000
1000
0000
,
0001
0010
0100
0001
,
1000
0010
0100
1000
,
0010
1000
0100
0001
,
0010
1000
0100
0000
;

//---------------dance-single - ----------------
#NOTES:
     dance-single:
     :
     Medium:
     7:
     0.457,0.592,0.433,0.000,0.000:
0000
0000
0000
0000
,
0000
0000
0000
0000
,
0000
0000
0000
0000
,
0000
0000
0000
0000
,
0000
0000
0000
0000
,
0000
0000
0000
0000
,
0000
0010
0010
0010
,
0000
0001
0000
0001
,
1100
0001
0100
1000
,
0010
0100
0010
0100
,
0101
1000
0100
0001
,
0010
0100
0010
0100
,
0000
0010
0001
0100
,
1000
0001
0110
1001
,
0000
0010
0010
1001
,
0001
0010
1000
0100
,
0010
0100
1000
0000
,
0001
1000
0100
0010
,
0010
0100
0001
0100
,
1100
0000
0101
0000
1000
0000
0001
0001
,
0001
1000
0100
1000
,
1100
0000
0101
0000
1000
0000
0100
0100
,
0100
0010
1000
0010
,
0101
0000
1100
0000
0001
0000
1000
1000
,
0010
0001
0010
1000
,
0010
0001
0010
1000
,
0010
0001
0010
0001
,
0100
1000
0010
0001
,
0010
1000
0010
0001
,
0010
1000
0010
1000
,
0010
0001
0010
1000
,
0010
0001
0100
1001
,
0010
0000
0000
0001
0000
0000
0100
0000
,
0000
0110
0000
1000
0100
0100
0100
0000
,
0010
0000
0000
1000
0000
0000
0100
0000
,
0000
0110
0000
0001
0100
0100
0100
0000
,
0010
0000
0000
0001
0000
0000
0100
0000
,
0000
0110
0000
1000
0100
0100
0100
0000
,
0010
0000
0000
1000
0000
0000
0100
0000
,
0000
0110
0000
0001
0100
0100
0100
0000
,
0010
0000
0001
0001
,
0000
1000
1000
1000
,
0100
0011
1000
1000
,
0101
0010
0010
0010
,
0001
1100
0010
0010
,
1001
0100
0100
0100
,
1000
0011
0100
0100
,
1010
0001
0001
0001
,
0010
1100
0001
0001
,
0110
1000
1000
1000
,
1000
0001
0000
0010
,
0000
0100
0101
1100
,
0001
1000
0000
0010
,
0000
0100
1100
0101
,
1000
0001
0000
0010
,
0000
0100
0101
1100
,
0001
1000
0000
0010
,
0000
0100
1100
0101
,
0001
0100
1000
0000
0100
0000
0001
0000
,
0100
0000
0110
0000
1000
0100
0001
0000
,
0001
0100
1000
0000
0100
0000
0001
0000
,
0100
0000
0110
0000
1000
0100
0001
0000
,
0001
1000
0100
0001
,
0100
0000
0110
0000
1000
0100
0001
0000
,
0001
0100
1000
0000
0100
0000
0001
0000
,
0100
0000
0110
0000
1000
0100
0001
0000
,
0100
0001
0001
0000
0001
0001
0001
0000
,
0100
1000
1000
0000
1000
1000
1000
0000
,
0100
0001
0001
0001
0001
0001
0001
0000
,
0100
1000
1000
1000
1000
1000
1000
0000
,
0011
0100
1000
0010
,
1010
0100
0001
0010
,
1100
0001
0110
1001
,
0101
1000
0110
0000
;

//---------------dance-single - ----------------
#NOTES:
     dance-single:
     :
     Hard:
     8:
     0.492,0.555,0.231,0.000,0.000:
0000
0000
0000
0000
,
0000
0000
0000
0000
,
0000
0000
0000
0000
,
0000
0000
0000
0000
,
0000
0000
0000
0000
,
0000
0000
0000
0000
,
0000
0000
0000
0000
,
0000
0000
0000
0000
,
1100
0000
0001
0000
0100
0001
1000
0000
,
0010
0000
0100
1000
0001
0100
1000
0000
,
0101
0000
1000
0000
0100
1000
0001
0000
,
0010
0000
0100
0001
1000
0100
0001
0000
,
0010
0000
0010
0000
1001
0000
0001
0100
,
0010
1010
0101
0000
,
1000
0000
0100
0000
0001
0010
1000
0000
,
0100
0001
1000
1001
,
0000
0000
1000
0000
0100
0000
0010
0100
,
0001
0000
0010
0000
1001
0000
1000
0100
,
0010
0000
0100
0000
0001
0010
0100
0000
,
0010
0100
0001
0100
1000
0000
0001
0010
,
1000
0000
0001
0000
0010
1000
0001
0000
,
1000
0001
0010
0001
0001
0000
0010
1000
,
0100
0000
0010
0000
1000
0100
0010
0000
,
0100
0010
1000
0010
0001
0000
1000
0100
,
0001
0010
1000
0100
,
0001
0010
1000
0100
,
0001
0010
0001
0010
,
1000
0100
0001
0010
,
1000
0100
0001
0010
,
1000
0100
1000
0100
,
0001
0010
1000
0100
,
0001
0000
0010
0000
1000
0100
0001
0000
,
0001
0000
0000
0010
0000
0000
0100
0000
,
0000
1000
0000
0100
0001
0001
0100
0000
,
1000
0000
0000
0010
0000
0000
0100
0000
,
0000
0001
0000
0100
1000
1000
0100
0000
,
0001
0000
0000
0010
0000
0000
0100
0000
,
0000
1000
0000
0100
0001
0001
0100
0000
,
1000
0000
0000
0010
0000
0000
0100
0000
,
0000
0001
0000
0100
1000
1000
0100
0000
,
0010
0000
0000
0000
0001
0010
1000
0000
,
0000
0000
0001
0100
1000
0100
0001
0000
,
0001
0000
1010
0000
0100
0001
0010
0000
,
1001
0000
0100
1000
0010
1000
0100
0000
,
0100
0000
0011
0000
1000
0100
0001
0000
,
0110
0000
1000
0010
0001
0010
1000
0000
,
1000
0000
0101
0000
0010
1000
0100
0000
,
1001
0000
0010
0001
0100
0001
0010
0000
,
0010
0000
1100
0000
0001
0010
1000
0000
,
0110
0000
0001
0100
1000
0100
0001
0000
,
1000
0100
0001
0000
0000
0000
0010
0000
,
0000
0101
0100
1100
,
0001
0100
1000
0000
0000
0000
0010
0000
,
0000
1100
0100
0101
,
1000
0100
0001
0000
0000
0000
0010
0000
,
0000
0101
0100
1100
,
0001
0100
1000
0000
0000
0000
0010
0000
,
0000
1100
0100
0101
,
0001
0010
1000
0000
0100
0000
0001
0000
,
1000
0100
0001
0000
0100
1000
0010
0000
,
0001
0010
1000
0000
0100
0000
0001
0000
,
1000
0100
0001
0000
0100
1000
0010
0000
,
0001
1000
0100
0001
,
1000
0100
0001
0000
0100
1000
0010
0000
,
0001
0010
1000
0000
0100
0000
0001
0000
,
1000
0100
0001
0000
0100
1000
0010
0000
,
0010
0001
0001
0001
0010
0001
0001
0000
,
0010
1000
1000
1000
0010
1000
1000
0000
,
0100
1000
0100
1000
1000
1000
1000
0000
,
0100
0001
0100
0001
0001
0001
0001
0000
,
0010
0000
1000
0000
0100
0000
0001
0010
,
1000
0000
0100
0000
0001
0000
0010
1000
,
0100
0000
0001
0000
0010
0000
1000
0100
,
0001
0010
1000
0000
;

//---------------dance-double - ----------------
#NOTES:
     dance-double:
     :
     Easy:
     7:
     0.443,0.481,0.543,0.000,0.000:
00000000
00000000
00000000
00000000
,
00000000
00000000
00000000
00000000
,
00000000
00000000
00000000
00000000
,
00000000
00000000
00000000
00000000
,
00000000
00000000
00000000
00000000
,
00000000
00000000
00000000
00000000
,
00000000
00000000
00000000
00000000
,
00000000
00000000
01000000
00000100
,
00011000
00100000
00010000
00100000
,
00010000
00100000
00010000
00100000
,
00010000
00000010
00001000
00000010
,
00001000
00000010
00001000
00000010
,
00011000
01100000
10000000
01000000
,
10000000
01000000
10000000
01000000
,
00010000
01000000
00010000
01000000
,
00010000
01000000
00010000
01000000
,
11000000
00010000
00001000
00000101
,
00000010
00000100
00000010
00000100
,
00000010
00000100
00000010
00000001
,
00000011
00000000
00001100
00000000
,
00001001
00000010
00000000
00001010
,
00010000
00001000
00010000
00001000
,
00010000
00001000
00010000
00001000
,
00000010
00001000
00000100
00000001
,
00000101
00001000
00010000
10100000
,
00110000
01000000
00010000
01000000
,
00010000
01000000
00010000
01000000
,
00100000
00100000
00100000
10010000
,
00000000
00000000
00000000
01000000
,
00100000
00010000
00100000
10010000
,
00000000
01010000
00011000
00001100
,
00000001
00000100
00000001
00000101
,
00001000
00010000
11000000
00100000
,
01000000
00100000
01000000
01000000
,
11000000
00010000
00001000
00000011
,
00000010
00001000
00000100
00000101
,
00000101
00001000
00010000
11000000
,
00100000
00010000
01000000
11000000
,
11000000
00010000
00001000
00000011
,
00000010
00000001
00000000
00000000
,
00001100
00000000
00000001
00000100
,
00000000
00000100
00000100
00001100
,
00001001
00000000
00011000
01000000
,
00011000
00000100
00011000
01000000
,
00010000
01000000
00010000
00000000
00011000
00000000
00000100
00000000
,
00011000
01000000
00011000
00000100
,
00001000
00000100
00001000
00000000
00000100
00000000
00000010
00000000
,
00001000
00000010
00001000
00000000
,
00000001
00000100
00001000
00000000
00011000
00000000
00000000
00000000
,
00100000
10000000
00100000
00010000
,
00010000
01000000
10000000
00000000
10010000
00000000
00100000
00000000
,
00010000
00001000
00000010
00001001
,
00000001
00000100
00000001
00000000
00000010
00000000
00001000
00000000
,
00000100
00010000
00100000
10000000
,
01000000
10000000
01000000
00000000
00100000
00000000
00010000
00000000
,
00001000
00000010
00000001
00000100
,
00001000
00000100
00001000
00000000
00010000
00000000
00001000
00000000
,
00100000
00010000
00000010
00001000
,
00010000
00010000
00000000
00000000
00000000
00000000
10010000
00000000
,
00000000
00000000
00000001
00000010
,
00000001
00001000
00000000
00000000
00000100
00000000
00000001
00000000
,
00001000
00010000
00011000
01010000
,
00010000
01000000
00000000
00000000
00010000
00000000
10000000
00000000
,
00100000
00010000
00010000
00010000
,
00100000
00010000
00100000
00000000
00010000
00000000
00011000
00000000
,
00000001
00000100
00000100
00000100
,
00000101
00000010
00001000
00011000
,
10000000
01000000
01000000
01000000
,
11000000
00000000
00000000
10010000
,
01000000
00100000
00010000
00001000
,
00011000
00000100
00000010
00001001
,
00000100
00000010
00001000
00010000
,
00011000
01000000
00011000
00000100
,
00001100
01010000
00011000
00000000
;

//---------------dance-double - ----------------
#NOTES:
     dance-double:
     :
     Medium:
     8:
     0.515,0.629,0.493,0.000,0.000:
00000000
00000000
00000000
00000000
,
00000000
00000000
00000000
00000000
,
00000000
00000000
00000000
00000000
,
00000000
00000000
00000000
00000000
,
00000000
00000000
00000000
00000000
,
00000000
00000000
00000000
00000000
,
00000000
00000000
00000000
00000000
,
00000000
00000000
00000000
00000000
01000000
01000000
01000000
00000000
,
00011000
00000000
00100000
00000000
00010000
00010000
00010000
00000000
,
00010000
00000000
01000000
00000000
00010000
00010000
00010000
00000000
,
00010000
00000000
00001000
00000000
00000100
00000100
00000100
00000000
,
00000100
00000000
00001000
00000000
00001000
00001000
00001000
00000000
,
00011000
00000000
10010000
00000000
00100000
00100000
00100000
00000000
,
10010000
00000000
10000000
00000000
01000000
01000000
01000000
00000000
,
00010000
00000000
00000100
00000000
00001000
00001000
00001000
00000000
,
00001001
00000000
00000001
00000000
00000010
00000010
00000010
00000000
,
00000001
00000000
00001000
00000000
00000100
00000100
00000100
00000000
,
00010000
00000000
00010000
00000000
00010000
00010000
00010000
00000000
,
00000010
00000000
00000010
00000000
00000010
00000010
00000010
00000000
,
01000000
00000000
01000000
00000000
01000000
01000000
01000000
00000000
,
10000000
00000000
00010000
00000000
00100000
00100000
00100000
00000000
,
00001000
00000000
00000001
00000000
00000100
00000100
00000100
00000000
,
00000100
00000000
00000010
00000000
00000001
00000001
00000001
00000000
,
00000010
00001000
00000100
00001001
,
00011000
01000000
00011000
00000010
,
00011000
00100000
00011000
00000100
,
00100000
10000000
01000000
00010000
,
00000010
00001000
00000100
00001001
,
00001000
00010000
00100000
10010000
,
00010000
00001000
00000010
00001001
,
00001000
00010000
00100000
10010000
,
10000000
00000000
00000000
01000000
01000000
00000000
00000000
00000000
,
10010000
00000000
00000000
00100000
00100000
00000000
11000000
00000000
,
00000000
10000000
10000000
00000000
01100000
00000000
10010000
00000000
,
00011000
00000000
00000000
00000100
00000100
00000000
00000010
00000000
,
00000000
00000001
00000001
00000000
00001000
00001000
00001000
00000000
,
00010000
00000000
00000000
00001000
00000000
00000000
11000000
00000000
,
10010000
00000000
00000000
00000000
01000000
01000000
00000000
01000000
,
00010000
00000000
00000000
00001000
00000000
00000000
00000101
00000000
,
00001001
00000000
00000000
00000000
00000100
00000100
00000100
00000100
,
00001001
00000000
00000101
00001001
,
00000000
00010000
00001001
00010000
,
00011000
01000000
00011000
00000010
,
00011000
00000100
00011000
00100000
,
00010000
01000000
10000000
00000000
00100000
00000000
00010000
00000000
,
01000000
10000000
00100000
00010000
,
00001000
00000100
00000001
00000000
00000100
00000000
00001000
00000000
,
00000010
00000001
00000100
00001000
,
00010000
01000000
10000000
00000000
00010000
00000000
01000000
00000000
,
10000000
01000000
00010000
01000000
,
00001000
00000100
00000001
00000000
00000001
00000100
00001000
00000000
,
00001000
00000100
00000001
00000000
00000001
00000100
00001000
00000000
,
00010000
01000000
10000000
00000000
10000000
01000000
00010000
00000000
,
00010000
01000000
10000000
00000000
10000000
01000000
00010000
00000000
,
00100000
00010000
00001000
00000000
00000010
00001000
00010000
00000000
,
00100000
00010000
00001000
00000000
00000010
00001000
00010000
00000000
,
01000000
00010000
00001000
00000000
00000100
00001000
00010000
00000000
,
01000000
00010000
00001000
00000000
00000100
00001000
00010000
00000000
,
10000000
00000000
00000000
00010000
00001000
00000000
00000001
00000000
,
00000000
00001000
00010000
00000000
00011000
00000000
01001000
00000000
,
00011000
00000000
00000000
00000100
00000100
00000000
00011000
00000000
,
00000000
01000000
01000000
00000000
01000000
01000000
01000000
00000000
,
10000000
00000000
00000000
01000000
00000000
00000000
00010000
00000000
,
00010000
00000000
00000000
00000000
01000000
01000000
00000000
01000000
,
00001000
00000000
00000000
00000100
00000000
00000000
00000001
00000000
,
00000001
00000000
00000000
00000000
00000001
00001000
00000100
00001000
,
00011000
01001000
00011000
00010100
,
00011000
01001000
00011000
00010100
,
00000100
00000100
00000100
00000100
00000100
00000100
00000100
00000000
,
01000000
01000000
01000000
01000000
01000000
01000000
01000000
00000000
,
00011000
00000010
00011000
00100000
,
00011000
00000001
00011000
10010000
,
00010000
01000000
01000000
10000000
01000000
01000000
00010000
01000000
,
01000000
10000000
01000000
01000000
10010000
00000000
00000000
00000000
;

//---------------dance-double - ----------------
#NOTES:
     dance-double:
     :
     Hard:
     9:
     0.624,0.703,0.523,0.000,0.000:
00000000
00000000
00000000
00000000
,
00000000
00000000
00000000
00000000
,
00000000
00000000
00000000
00000000
,
00000000
00000000
00000000
00000000
,
00000000
00000000
00000000
00000000
,
00000000
00000000
00000000
00000000
,
00000000
00000000
00000000
00000000
,
00000000
00000000
00000000
00000000
00010000
00100000
01000000
10000000
,
00100000
01000000
00010000
01000000
00001000
00010000
00001000
00000000
,
00010000
00000100
00000010
00000001
00000100
00000010
00001000
00000000
,
00000100
00010000
00001000
00100000
00010000
10000000
01000000
00000000
,
00100000
00001000
01000000
00010000
10000000
01000000
00100000
00010000
,
01000000
00001000
00010000
00000100
00000010
00000001
00000100
00000000
,
00000010
00010000
00001000
01000000
00010000
10000000
01000000
00000000
,
00100000
00010000
01000000
00100000
10000000
01000000
00100000
00000000
,
00010000
01000000
00001000
00010000
00000010
00000000
00000000
00000000
,
00000100
00000001
00000010
00000000
00001100
00001100
00001100
00000000
,
00010000
00001000
00100000
00000000
01010000
01010000
01010000
00000000
,
10000000
01000000
00100000
00000000
01010000
01010000
01010000
00000000
,
00001000
00010000
00000100
00000000
00001010
00001010
00001010
00000000
,
00010000
00001000
00100000
00000000
11000000
11000000
11000000
00000000
,
00010000
01000000
00001000
00000000
00010010
00010010
00010010
00000000
,
00001000
00000001
00000010
00000000
00001100
00001100
00001100
00000000
,
00010000
00001000
00100000
00010000
01000000
00000000
00000000
00000000
,
00001000
00010000
00000100
00000000
00001000
00000001
00000100
00000000
,
00000010
00001000
00000100
00010000
00001000
01000000
00100000
00000000
,
10000000
01000000
00100000
00000000
00001000
00010000
00000100
00000000
,
00001000
00000001
00000100
00000000
00000000
00000010
00000000
00000010
,
00001000
00000100
00010000
00000000
00001000
00100000
00010000
00000000
,
10000000
01000000
00100000
00000000
00001000
00010000
00000100
00000000
,
00001000
00000001
00000100
00000000
00000010
00001000
00000100
00000000
,
00010000
00001000
00100000
00010000
10000000
00000000
00000000
00000000
,
00000000
01000000
00100000
00001000
00010000
00000100
00000010
00000001
,
00000100
00000010
00010000
00001000
00000000
00001000
00000000
00000000
,
00000000
00100000
01000000
10000000
00010000
01000000
00001000
00010000
,
00000100
00000010
00000001
00000000
00000000
00001100
00000000
00000000
,
00000000
00010000
00001000
00100000
00010000
10000000
01000000
00100000
,
00001000
00010000
00000100
00000010
00000000
00000010
00000000
00000000
,
00000000
00000001
00001000
00000100
00010000
00001000
00100000
00010000
,
10000000
00100000
01000000
00000000
00010000
00010000
00010000
00000000
,
00011000
00000000
00000000
00000000
00000100
00001000
00000100
00001000
,
00000000
00000000
00000001
00000010
00000001
00000010
00000001
00000010
,
00000100
00001000
00000100
00000000
00010000
00000010
00010000
00000000
,
00001000
01000000
00001000
00000000
00010000
00100000
00010000
00000000
,
10000000
01000000
10000000
00000000
00100000
00010000
00100000
00000000
,
00001000
00010000
00001000
00010000
00000000
00000100
00000100
00000000
,
00001000
00000010
00010000
00000000
00001000
01000000
00010000
00000000
,
10000000
01000000
00100000
00000000
00001000
00010000
00000100
00000000
,
00000010
00000001
00000100
00000000
00000010
00010000
00001000
00000000
,
00100000
00010000
10000000
01000000
00000000
00000000
00000000
00000000
,
10010000
01001000
00011000
00010010
,
00001001
00000110
00010100
00101000
,
10010000
01100000
10010000
00011000
,
00001010
00000000
00000101
00000000
00001000
00000100
00010000
00000000
,
00101000
10010000
01100000
10010000
,
01001000
00110000
00011000
00001100
,
00000101
00000011
00001100
00010010
,
01001000
00000000
10010000
00000000
01000000
00100000
00001000
00000000
,
10010000
00000000
01000000
00100000
00000000
00001000
00010000
00000000
,
00000100
00000010
00000000
00000001
00001000
00001000
00001000
00000000
,
00000100
00000000
00010000
00001000
00000000
00100000
00010000
00000000
,
10000000
01000000
00000000
00100000
00010000
00010000
00010000
00000000
,
01000000
00000000
00001000
00010000
00000000
00000100
00000010
00000001
,
00000100
00000000
00000010
00000000
00001000
00001000
00001000
00000000
,
00000100
00000000
00010000
00001000
00000000
00100000
01000000
10000000
,
00010000
00000000
01000000
00000000
00001000
00001000
00001000
00000000
,
00010000
00000000
00000100
00000000
00000010
00000001
00000100
00000000
,
00000010
00000000
00001000
00000000
00000100
00010000
00001000
00000000
,
00100000
00010000
01000000
00000000
00100000
10000000
01000000
00000000
,
00100000
00001000
00010000
00000100
00000010
00000001
00000100
00000000
,
00000010
00000000
00001000
00000000
00000100
00010000
00001000
00000000
,
00100000
00000000
01000000
00000000
10000000
00010000
01000000
00000000
,
00001000
00010000
00000100
00001000
00000001
00000100
00000010
00001000
,
00000100
00010000
00001000
00100000
01000000
00000000
00000000
00000000
;

//---------------dance-single - ----------------
#NOTES:
     dance-single:
     :
     Beginner:
     2:
     0.207,0.221,0.060,0.000,0.000:
0000
0000
0000
0000
,
0000
0000
0000
0000
,
0000
0000
0000
0000
,
0000
0000
0000
0000
,
0000
0000
0000
0000
,
0000
0000
0000
0000
,
0000
0010
0000
0000
,
0000
0001
0000
0001
,
0000
1000
0000
1000
,
0000
0100
0000
0100
,
0000
0001
0000
0001
,
0000
0100
0000
0100
,
0000
0010
0000
0100
,
0000
0001
0000
1000
,
0000
0010
0000
0010
,
0000
0001
0000
1000
,
0000
0100
0000
0000
,
0001
0000
0100
0000
,
0010
0000
0001
0000
,
1000
0000
0001
0000
,
0100
0000
1000
0000
,
1001
0000
1000
0000
,
0100
0000
1000
0000
,
1001
0000
0001
0000
,
0100
0000
0100
0000
,
0100
0000
0100
0000
,
0100
0000
0100
0000
,
0010
0000
0100
0000
,
0100
0000
0100
0000
,
0100
0000
0100
0000
,
0100
0000
0100
0000
,
0100
0000
0010
0000
,
0010
0000
0000
0100
,
0000
0000
0100
0000
,
0000
0000
0000
0100
,
0000
0000
0100
0100
,
0000
0000
0000
0100
,
0000
0000
0100
0100
,
0000
0000
0000
0100
,
0000
0000
0100
0100
,
0000
0000
0001
0001
,
0000
1000
1000
1000
,
0000
0001
0000
1000
,
0000
0010
0010
0010
,
0000
1000
0000
0010
,
0000
0100
0100
0100
,
0000
0010
0000
0100
,
0000
0001
0001
0001
,
0000
0100
0000
0001
,
0000
1000
1000
1000
,
0000
1001
0000
0010
,
0000
0100
0000
1000
,
0000
1001
0000
0010
,
0000
0100
0000
0001
,
0000
1001
0000
0010
,
0000
0100
0000
1000
,
0000
1001
0000
0010
,
0000
0100
0000
0001
,
0001
0000
0100
0000
,
0100
0000
0100
0000
,
0001
0000
0100
0000
,
0100
0000
0100
0000
,
0001
0000
0100
0000
,
0100
0000
0100
0000
,
0001
0000
0100
0000
,
0100
0000
0100
0000
,
0100
0000
0001
0001
,
0000
1000
1000
1000
,
0000
0001
0001
0001
,
0000
1000
1000
1000
,
0000
0010
0000
0001
,
0000
0010
0000
1000
,
0000
1000
0000
0001
,
0000
1000
0000
0000
;

//---------------dance-couple - ----------------
#NOTES:
     dance-couple:
     :
     Easy:
     6:
     0.690,0.962,1.000,0.000,0.000:
00000000
00000000
00000000
00000000
,
00000000
00000000
00000000
00000000
,
00000000
00000000
00000000
00000000
,
00000000
00000000
00000000
00000000
,
00000000
00000000
00000000
00000000
,
00000000
00000000
00000000
00000000
,
00000000
00100010
00100010
00100010
,
00000000
00010001
00000000
00010001
,
00000000
10001000
01000100
10001000
,
00100010
01000100
00100010
01000100
,
00000000
00010001
01000100
00010001
,
00100010
01000100
00100010
01000100
,
00000000
00100010
00010001
01000100
,
10001000
00010001
01000100
10011001
,
00000000
00100010
00100010
00100010
,
00010001
00010001
10001000
10001000
,
00010001
01000100
10001000
00000000
,
00010001
00100010
01000100
10001000
,
00100010
01000100
00010001
01000100
,
10011001
00000000
01100110
00000000
10001000
00000000
01000100
01000100
,
01000100
00100010
10001000
00100010
,
10011001
00000000
01100110
00000000
10001000
00000000
01000100
01000100
,
01000100
00100010
10001000
00100010
,
10011001
01100110
00010001
10001000
,
01000100
00010001
01000100
10001000
,
01000100
00010001
01000100
10001000
,
01000100
00010001
01000100
00010001
,
00100010
10001000
01000100
00010001
,
01000100
10001000
01000100
00010001
,
01000100
10001000
01000100
10001000
,
01000100
00010001
01000100
10001000
,
01000100
00010001
00100010
10011001
,
00100010
00000000
00000000
00010000
00000000
00000000
01000100
00000000
,
00000000
00100000
00000000
10000000
01000100
01000000
01000100
00000000
,
00100010
00000000
00000000
00001000
00000000
00000000
01000100
00000000
,
00000000
00000010
00000000
00000001
01000100
00000100
01000100
00000000
,
00100010
00000000
00000000
00010000
00000000
00000000
01000100
00000000
,
00000000
00100000
00000000
10000000
01000100
01000000
01000100
00000000
,
00100010
00000000
00000000
00001000
00000000
00000000
01000100
00000000
,
00000000
00000010
00000000
00000001
01000100
00000100
01000100
00000000
,
00100010
00000000
00010001
00010001
,
00000000
10001000
10001000
10001000
,
00000100
00000001
00001000
00001000
,
00000100
00000010
00000010
00000010
,
00010000
10000000
00100000
00100000
,
10000000
01000000
01000000
01000000
,
00001000
00000010
00000100
00000100
,
00000010
00000001
00000001
00000001
,
00100000
01000000
00010000
00010000
,
01000000
10000000
10000000
10000000
,
00000110
00001001
00000000
00000010
,
00000000
00000100
00000001
00001000
,
01100000
10010000
00000000
00100000
,
00000000
01000000
10000000
00010000
,
00000110
00001001
00000000
00000010
,
00000000
00000100
00000001
00001000
,
01100000
10010000
00000000
00100000
,
00000000
01000000
10000000
00010000
,
00010001
01000100
10001000
00000000
01000100
00000000
00010001
00000000
,
01000100
10001000
01000100
00010001
,
00010001
01000100
10001000
00000000
01000100
00000000
00010001
00000000
,
01000100
10001000
01000100
00010001
,
00010001
10001000
01000100
00010001
,
01000100
10001000
01000100
00010001
,
00010001
01000100
10001000
00000000
01000100
00000000
00010001
00000000
,
01000100
10001000
01000100
00010001
,
01000100
00010001
00010001
00000000
00010001
00000000
00010001
00000000
,
01000100
10001000
10001000
00000000
10001000
00000000
10001000
00000000
,
01000100
00010001
00010001
00000000
00010001
00010001
00010001
00000000
,
01000100
10001000
10001000
00000000
10001000
10001000
10001000
00000000
,
00010001
00100010
01000100
00010001
,
10001000
00100010
01000100
10001000
,
00100010
10001000
01000100
00010001
,
00100010
10001000
01000100
00000000
;

//---------------dance-couple - ----------------
#NOTES:
     dance-couple:
     :
     Medium:
     7:
     0.782,1.000,1.000,0.000,0.000:
00000000
00000000
00000000
00000000
,
00000000
00000000
00000000
00000000
,
00000000
00000000
00000000
00000000
,
00000000
00000000
00000000
00000000
,
00000000
00000000
00000000
00000000
,
00000000
00000000
00000000
00000000
,
00000000
00100010
00100010
00100010
,
00000000
00010001
00000000
00010001
,
11001100
00010001
01000100
10001000
,
00100010
01000100
00100010
01000100
,
01010101
10001000
01000100
00010001
,
00100010
01000100
00100010
01000100
,
00000000
00100010
00010001
01000100
,
10001000
00010001
01100110
10011001
,
00000000
00100010
00100010
10011001
,
00010001
00100010
10001000
01000100
,
00100010
01000100
10001000
00000000
,
00010001
10001000
01000100
00100010
,
00100010
01000100
00010001
01000100
,
11001100
00000000
01010101
00000000
10001000
00000000
00010001
00010001
,
00010001
10001000
01000100
10001000
,
11001100
00000000
01010101
00000000
10001000
00000000
01000100
01000100
,
01000100
00100010
10001000
00100010
,
01010101
00000000
11001100
00000000
00010001
00000000
10001000
10001000
,
00100010
00010001
00100010
10001000
,
00100010
00010001
00100010
10001000
,
00100010
00010001
00100010
00010001
,
01000100
10001000
00100010
00010001
,
00100010
10001000
00100010
00010001
,
00100010
10001000
00100010
10001000
,
00100010
00010001
00100010
10001000
,
00100010
00010001
01000100
10011001
,
00100010
00000000
00000000
00010000
00000000
00000000
01000100
00000000
,
00000000
01100000
00000000
10000000
01000100
01000000
01000100
00000000
,
00100010
00000000
00000000
00001000
00000000
00000000
01000100
00000000
,
00000000
00000110
00000000
00000001
01000100
00000100
01000100
00000000
,
00100010
00000000
00000000
00010000
00000000
00000000
01000100
00000000
,
00000000
01100000
00000000
10000000
01000100
01000000
01000100
00000000
,
00100010
00000000
00000000
00001000
00000000
00000000
01000100
00000000
,
00000000
00000110
00000000
00000001
01000100
00000100
01000100
00000000
,
00100010
00000000
00010001
00010001
,
00000000
10001000
10001000
10001000
,
00000100
00000011
00001000
00001000
,
00000101
00000010
00000010
00000010
,
00010000
11000000
00100000
00100000
,
10010000
01000000
01000000
01000000
,
00001000
00000011
00000100
00000100
,
00001010
00000001
00000001
00000001
,
00100000
11000000
00010000
00010000
,
01100000
10000000
10000000
10000000
,
00001000
00000001
00000000
00000010
,
00000000
00000100
00000101
00001100
,
00010000
10000000
00000000
00100000
,
00000000
01000000
11000000
01010000
,
00001000
00000001
00000000
00000010
,
00000000
00000100
00000101
00001100
,
00010000
10000000
00000000
00100000
,
00000000
01000000
11000000
01010000
,
00010001
01000100
10001000
00000000
01000100
00000000
00010001
00000000
,
01000100
00000000
01100110
00000000
10001000
01000100
00010001
00000000
,
00010001
01000100
10001000
00000000
01000100
00000000
00010001
00000000
,
01000100
00000000
01100110
00000000
10001000
01000100
00010001
00000000
,
00010001
10001000
01000100
00010001
,
01000100
00000000
01100110
00000000
10001000
01000100
00010001
00000000
,
00010001
01000100
10001000
00000000
01000100
00000000
00010001
00000000
,
01000100
00000000
01100110
00000000
10001000
01000100
00010001
00000000
,
01000100
00010001
00010001
00000000
00010001
00010001
00010001
00000000
,
01000100
10001000
10001000
00000000
10001000
10001000
10001000
00000000
,
01000100
00010001
00010001
00010001
00010001
00010001
00010001
00000000
,
01000100
10001000
10001000
10001000
10001000
10001000
10001000
00000000
,
00110011
01000100
10001000
00100010
,
10101010
01000100
00010001
00100010
,
11001100
00010001
01100110
10011001
,
01010101
10001000
01100110
00000000
;

//---------------dance-couple - ----------------
#NOTES:
     dance-couple:
     :
     Hard:
     8:
     0.832,1.000,1.000,0.000,0.000:
00000000
00000000
00000000
00000000
,
00000000
00000000
00000000
00000000
,
00000000
00000000
00000000
00000000
,
00000000
00000000
00000000
00000000
,
00000000
00000000
00000000
00000000
,
00000000
00000000
00000000
00000000
,
00000000
00000000
00000000
00000000
,
00000000
00000000
00000000
00000000
,
11001100
00000000
00010001
00000000
01000100
00010001
10001000
00000000
,
00100010
00000000
01000100
10001000
00010001
01000100
10001000
00000000
,
01010101
00000000
10001000
00000000
01000100
10001000
00010001
00000000
,
00100010
00000000
01000100
00010001
10001000
01000100
00010001
00000000
,
00100010
00000000
00100010
00000000
10011001
00000000
00010001
01000100
,
00100010
10101010
01010101
00000000
,
10001000
00000000
01000100
00000000
00010001
00100010
10001000
00000000
,
01000100
00010001
10001000
10011001
,
00000000
00000000
10001000
00000000
01000100
00000000
00100010
01000100
,
00010001
00000000
00100010
00000000
10011001
00000000
10001000
01000100
,
00100010
00000000
01000100
00000000
00010001
00100010
01000100
00000000
,
00100010
01000100
00010001
01000100
10001000
00000000
00010001
00100010
,
10001000
00000000
00010001
00000000
00100010
10001000
00010001
00000000
,
10001000
00010001
00100010
00010001
00010001
00000000
00100010
10001000
,
01000100
00000000
00100010
00000000
10001000
01000100
00100010
00000000
,
01000100
00100010
10001000
00100010
00010001
00000000
10001000
01000100
,
00010001
00100010
10001000
01000100
,
00010001
00100010
10001000
01000100
,
00010001
00100010
00010001
00100010
,
10001000
01000100
00010001
00100010
,
10001000
01000100
00010001
00100010
,
10001000
01000100
10001000
01000100
,
00010001
00100010
10001000
01000100
,
00010001
00000000
00100010
00000000
10001000
01000100
00010001
00000000
,
00010001
00000000
00000000
00100000
00000000
00000000
01000100
00000000
,
00000000
10000000
00000000
01000000
00010001
00010000
01000100
00000000
,
10001000
00000000
00000000
00000010
00000000
00000000
01000100
00000000
,
00000000
00000001
00000000
00000100
10001000
00001000
01000100
00000000
,
00010001
00000000
00000000
00100000
00000000
00000000
01000100
00000000
,
00000000
10000000
00000000
01000000
00010001
00010000
01000100
00000000
,
10001000
00000000
00000000
00000010
00000000
00000000
01000100
00000000
,
00000000
00000001
00000000
00000100
10001000
00001000
01000000
00000000
,
00100010
00000000
00000000
00000000
00010001
00100010
10001000
00000000
,
00000000
00000000
00010001
01000100
10001000
01000100
00010001
00000000
,
00000001
00000000
00001010
00000000
00000100
00000001
00000010
00000000
,
00001001
00000000
00000100
00001000
00000010
00001000
00000100
00000000
,
01000000
00000000
00110000
00000000
10000000
01000000
00010000
00000000
,
01100000
00000000
10000000
00100000
00010000
00100000
10000000
00000000
,
00001000
00000000
00000101
00000000
00000010
00001000
00000100
00000000
,
00001001
00000000
00000010
00000001
00000100
00000001
00000010
00000000
,
00100000
00000000
11000000
00000000
00010000
00100000
10000000
00000000
,
01100000
00000000
00010000
01000000
10000000
01000000
00010000
00000000
,
00001000
00000100
00000001
00000000
00000000
00000000
00000010
00000000
,
00000000
00000101
00000100
00001100
,
00010000
01000000
10000000
00000000
00000000
00000000
00100000
00000000
,
00000000
11000000
01000000
01010000
,
00001000
00000100
00000001
00000000
00000000
00000000
00000010
00000000
,
00000000
00000101
00000100
00001100
,
00010000
01000000
10000000
00000000
00000000
00000000
00100000
00000000
,
00000000
11000000
01000000
01010000
,
00010001
00100010
10001000
00000000
01000100
00000000
00010001
00000000
,
10001000
01000100
00010001
00000000
01000100
10001000
00100010
00000000
,
00010001
00100010
10001000
00000000
01000100
00000000
00010001
00000000
,
10001000
01000100
00010001
00000000
01000100
10001000
00100010
00000000
,
00010001
10001000
01000100
00010001
,
10001000
01000100
00010001
00000000
01000100
10001000
00100010
00000000
,
00010001
00100010
10001000
00000000
01000100
00000000
00010001
00000000
,
10001000
01000100
00010001
00000000
01000100
10001000
00100010
00000000
,
00100010
00010001
00010001
00010001
00100010
00010001
00010001
00000000
,
00100010
10001000
10001000
10001000
00100010
10001000
10001000
00000000
,
01000100
10001000
01000100
10001000
10001000
10001000
10001000
00000000
,
01000100
00010001
01000100
00010001
00010001
00010001
00010001
00000000
,
00100010
00000000
10001000
00000000
01000100
00000000
00010001
00100010
,
10001000
00000000
01000100
00000000
00010001
00000000
00100010
10001000
,
01000100
00000000
00010001
00000000
00100010
00000000
10001000
01000100
,
00010001
00100010
10001000
00000000
;

//---------------dance-couple - ----------------
#NOTES:
     dance-couple:
     :
     Challenge:
     7:
     0.628,1.000,1.000,0.000,0.000:
00000000
00000000
00000000
00000000
,
00000000
00000000
00000000
00000000
,
00000000
00000000
00000000
00000000
,
00000000
00000000
00000000
00000000
,
00000000
00000000
00000000
00000000
,
00000000
00000000
00000000
00000000
,
00000000
00000000
00000000
00000000
,
00000000
00000000
00000000
00000000
,
11000000
00010001
01000000
10000001
,
00100000
01000001
00100000
01000001
,
01010000
10000001
01000000
00010001
,
00100000
01000001
00100000
01000001
,
00001100
10000001
00000100
10001000
,
00000010
10000100
00000010
10000100
,
00000101
10001000
00000100
10000001
,
00000010
10000100
00000010
10000100
,
00100000
01000000
10000000
00000000
,
00000010
00000100
00001000
00000000
,
00100010
01000100
00010001
01000100
,
11001100
00000000
01010101
00000000
10001000
00000000
00010001
00010001
,
00010001
10001000
01000100
10001000
,
10011001
00000000
01100110
00000000
10001000
00000000
01000100
01000100
,
01000100
00100010
10001000
00100010
,
10011001
01100110
00010001
10001000
,
00010000
00100001
10000000
01000001
,
00010000
00100001
10000000
01000001
,
00000001
10000010
00001000
10000100
,
00000001
10000010
00001000
10000100
,
10000000
01000000
00010000
01000000
,
00001000
00000100
00000001
00000100
,
10000000
01000000
00010000
01000000
,
00001000
00000100
00000001
00000100
,
00000001
00000000
00000000
00000010
00000000
00000000
00000100
00000000
,
00000000
00001000
00000000
00000100
00000001
00000001
00000100
00000000
,
00010000
00000000
00000000
00100000
00000000
00000000
01000000
00000000
,
00000000
10000000
00000000
01000000
00010000
00010000
01000000
00000000
,
00001000
00000000
00000000
00000010
00000000
00000000
00000100
00000000
,
00000000
00000001
00000000
00000100
00001000
00001000
00000100
00000000
,
10000000
00000000
00000000
00100000
00000000
00000000
01000000
00000000
,
00000000
00010000
00000000
01000000
10000000
10000000
01000000
00000000
,
00100010
00000000
00010001
00010001
,
00000000
10001000
10001000
10001000
,
01000100
00110011
10001000
10001000
,
01010101
00100010
00100010
00100010
,
00001000
00000000
10000101
00000000
00000010
00001000
10000100
00000000
,
00001001
00000000
10000010
00000001
00000100
00000001
10000010
00000000
,
10000000
00000000
01010001
00000000
00100000
10000000
01000001
00000000
,
10010000
00000000
00100001
00010000
01000000
00010000
00100001
00000000
,
00100010
01011100
10000001
10000001
,
01100110
00011000
00011000
00011000
,
00001000
10000001
00000000
10000010
,
00000000
10000100
00000101
10001100
,
10000000
00010001
00000000
00100001
,
00000000
01000001
01010000
11000001
,
00001000
00000100
10000001
00000000
00000000
00000000
10000010
00000000
,
00000000
10000101
00000100
10001100
,
10000000
01000000
00010001
00000000
00000000
00000000
00100001
00000000
,
00000000
01010001
01000000
11000001
,
00000001
00000100
00001000
00000000
00000100
00000000
00000001
00000000
,
00000100
00000000
00000110
00000000
00001000
00000100
00000001
00000000
,
00010000
10000000
01000000
00010000
,
01000000
00000000
01100000
00000000
10000000
01000000
00010000
00000000
,
00000001
00001000
00000100
00000001
,
00000100
00000000
00000110
00000000
00001000
00000100
00000001
00000000
,
00010000
10000000
01000000
00010000
,
01000000
00000000
01100000
00000000
10000000
01000000
00010000
00000000
,
00000100
00000001
00000001
00000000
00000001
00000001
00000001
00000000
,
00000100
00001000
00001000
00000000
00001000
00001000
00001000
00000000
,
01000000
00010000
00010000
00000000
00010000
00010000
00010000
00000000
,
01000000
10000000
10000000
00000000
10000000
10000000
10000000
00000000
,
01000100
00011000
00011000
00011000
00011000
00011000
00011000
00000000
,
01000100
10000001
10000001
10000001
10000001
10000001
10000001
00000000
,
00100010
10001000
01000100
00010001
,
00100010
10001000
01000100
00000000
;

//---------------dance-solo - ----------------
#NOTES:
     dance-solo:
     :
     Easy:
     6:
     0.403,0.481,0.161,0.000,0.000:
000000
000000
000000
000000
,
000000
000000
000000
000000
,
000000
000000
000000
000000
,
000000
000000
000000
000000
,
000000
000000
000000
000000
,
000000
000000
000000
000000
,
000000
000100
000100
000100
,
000000
000010
000000
000010
,
000000
010000
001000
100000
,
000100
001000
000010
001000
,
000000
000001
001000
000010
,
000100
001000
010000
001000
,
000000
000100
000001
001000
,
100000
000010
001000
100001
,
000000
000100
000100
000100
,
000010
000010
010000
010000
,
000001
001000
100000
000000
,
000010
000100
001000
100000
,
000100
001000
000001
001000
,
100010
000000
001100
000000
010000
000000
001000
001000
,
001000
000100
100000
000010
,
010001
000000
001100
000000
000010
000000
001000
001000
,
001000
000100
100000
000100
,
100001
001100
000010
010000
,
001000
000001
001000
100000
,
001000
000001
001000
100000
,
001000
000010
001000
000010
,
000100
100000
001000
000001
,
001000
100000
001000
000001
,
001000
010000
001000
010000
,
001000
000001
001000
100000
,
001000
010000
000100
100001
,
000100
000000
000000
000001
000000
000000
001000
000000
,
000000
000100
000000
010000
001000
001000
001000
000000
,
000100
000000
000000
100000
000000
000000
001000
000000
,
000000
000100
000000
000010
001000
001000
001000
000000
,
000100
000000
000000
000001
000000
000000
001000
000000
,
000000
000100
000000
010000
001000
001000
001000
000000
,
000100
000000
000000
100000
000000
000000
001000
000000
,
000000
000100
000000
000010
001000
001000
001000
000000
,
000100
000000
000001
000001
,
000000
100000
100000
100000
,
001000
000010
010000
010000
,
001000
000100
000100
000100
,
000001
100000
000100
000100
,
010000
001000
001000
001000
,
010000
000100
001000
001000
,
000100
000010
000010
000010
,
000100
001000
000001
000001
,
001000
100000
100000
100000
,
001100
100001
000000
000100
,
000000
001000
000010
010000
,
001100
100001
000000
000100
,
000000
001000
100000
000001
,
001100
100001
000000
000010
,
000000
010000
000001
100000
,
001100
100001
000000
000100
,
000000
001000
100000
000001
,
000010
001000
010000
000000
001000
000000
000001
000000
,
001000
100000
001000
000001
,
000001
001000
100000
000000
001000
000000
000010
000000
,
001000
100000
001000
000001
,
000001
010000
001000
000001
,
001000
100000
001000
000010
,
000001
001000
010000
000000
001000
000000
000010
000000
,
001000
100000
001000
000001
,
001000
000010
000010
000000
000001
000000
000001
000000
,
001000
010000
010000
000000
100000
000000
100000
000000
,
001000
000001
000001
000000
000010
000010
000010
000000
,
001000
100000
100000
000000
010000
010000
010000
000000
,
000001
000100
001000
000001
,
010000
000100
001000
100000
,
000010
100000
001000
000001
,
010000
100000
001000
000000
;

//---------------dance-solo - ----------------
#NOTES:
     dance-solo:
     :
     Medium:
     7:
     0.457,0.592,0.433,0.000,0.000:
000000
000000
000000
000000
,
000000
000000
000000
000000
,
000000
000000
000000
000000
,
000000
000000
000000
000000
,
000000
000000
000000
000000
,
000000
000000
000000
000000
,
000000
010000
010000
010000
,
000000
000010
000000
000010
,
101000
000001
001000
100000
,
000010
001000
010000
001000
,
100010
010000
001000
000001
,
000100
001000
000010
001000
,
000000
010000
000001
001000
,
100000
000001
001100
100001
,
000000
000100
000100
100001
,
000010
000100
010000
001000
,
000100
001000
100000
000000
,
000001
100000
001000
000100
,
010000
001000
000010
001000
,
010001
000000
100010
000000
010000
000000
000001
000001
,
000001
000100
001000
010000
,
100001
000000
001010
000000
100000
000000
001000
001000
,
001000
000100
100000
000100
,
001001
000000
101000
000000
000001
000000
010000
010000
,
000100
000010
000100
010000
,
000100
000001
000100
100000
,
000100
000010
000100
010000
,
001000
010000
000100
000001
,
000010
100000
010000
000001
,
000100
100000
000100
010000
,
000100
000001
000100
010000
,
000100
000001
001000
100010
,
000100
000000
000000
000001
000000
000000
001000
000000
,
000000
011000
000000
100000
001000
001000
001000
000000
,
010000
000000
000000
100000
000000
000000
001000
000000
,
000000
001010
000000
000001
001000
001000
001000
000000
,
000010
000000
000000
000001
000000
000000
001000
000000
,
000000
011000
000000
100000
001000
001000
001000
000000
,
010000
000000
000000
100000
000000
000000
001000
000000
,
000000
001010
000000
000001
001000
001000
001000
000000
,
000010
000000
000001
000001
,
000000
100000
100000
100000
,
001000
000101
100000
100000
,
001010
000100
000100
000100
,
000001
101000
000100
000100
,
100001
001000
001000
001000
,
010000
000101
001000
001000
,
100010
000001
000001
000001
,
000100
101000
000001
000001
,
001100
010000
010000
010000
,
010000
000001
000000
000100
,
000000
001000
001001
101000
,
000001
010000
000000
000010
,
000000
001000
101000
001001
,
100000
000010
000000
010000
,
000000
001000
001001
101000
,
000001
010000
000000
000010
,
000000
001000
101000
001001
,
000001
001000
010000
000000
001000
000000
000010
000000
,
001000
000000
011000
000000
100000
001000
000010
000000
,
000001
001000
010000
000000
001000
000000
000001
000000
,
001000
000000
001100
000000
100000
001000
000010
000000
,
000001
010000
001000
000001
,
001000
000000
001100
000000
100000
001000
000010
000000
,
000001
001000
010000
000000
001000
000000
000001
000000
,
001000
000000
100010
000000
010000
001000
000010
000000
,
001000
000010
000010
000000
000001
000001
000001
000000
,
001000
010000
010000
000000
100000
100000
100000
000000
,
001000
000001
000001
000001
000001
000001
000001
000000
,
001000
100000
100000
100000
100000
100000
100000
000000
,
010001
001000
000100
000010
,
010100
001000
000010
000100
,
101000
000001
001100
010001
,
001010
100000
001100
000000
;

//---------------dance-solo - ----------------
#NOTES:
     dance-solo:
     :
     Hard:
     8:
     0.492,0.555,0.231,0.000,0.000:
000000
000000
000000
000000
,
000000
000000
000000
000000
,
000000
000000
000000
000000
,
000000
000000
000000
000000
,
000000
000000
000000
000000
,
000000
000000
000000
000000
,
000000
000000
000000
000000
,
000000
000000
000000
000000
,
011000
000000
000001
000000
001000
000010
100000
000000
,
000100
000000
001000
100000
000010
001000
100000
000000
,
001001
000000
100000
000000
001000
010000
000001
000000
,
000100
000000
001000
000001
010000
001000
000001
000000
,
000100
000000
000100
000000
100001
000000
000010
001000
,
000100
100010
001001
000000
,
100000
000000
001000
000000
000001
000100
010000
000000
,
001000
000001
100000
010010
,
000000
000000
100000
000000
001000
000000
010000
000100
,
000001
000000
000010
000000
100001
000000
010000
001000
,
000100
000000
001000
000000
000001
010000
001000
000000
,
000100
000001
010000
001000
100000
000000
000010
000100
,
100000
000000
000001
000000
000100
100000
000010
000000
,
010000
000001
000100
000001
000001
000000
000100
100000
,
001000
000000
000100
000000
100000
001000
010000
000000
,
001000
000100
100000
000100
000010
000000
010000
001000
,
000001
000100
100000
001000
,
000001
010000
100000
001000
,
000001
000100
000010
000100
,
100000
001000
000001
000100
,
010000
001000
000001
000100
,
100000
001000
010000
001000
,
000001
000100
100000
001000
,
000001
000000
010000
000000
100000
001000
000001
000000
,
000010
000000
000000
000100
000000
000000
001000
000000
,
000000
010000
000000
001000
000001
000001
001000
000000
,
100000
000000
000000
000100
000000
000000
001000
000000
,
000000
000010
000000
001000
100000
100000
001000
000000
,
000001
000000
000000
010000
000000
000000
001000
000000
,
000000
100000
000000
001000
000001
000001
001000
000000
,
100000
000000
000000
000010
000000
000000
001000
000000
,
000000
000001
000000
001000
100000
100000
001000
000000
,
000100
000000
000000
000000
000010
000100
100000
000000
,
000000
000000
000001
001000
010000
001000
000010
000000
,
000001
000000
100100
000000
001000
000001
010000
000000
,
100010
000000
001000
100000
000100
010000
001000
000000
,
001000
000000
000101
000000
100000
001000
000001
000000
,
001100
000000
100000
000100
000001
000100
100000
000000
,
100000
000000
001010
000000
000100
100000
001000
000000
,
010001
000000
000100
000010
001000
000001
010000
000000
,
000100
000000
101000
000000
000001
000100
100000
000000
,
001100
000000
000010
001000
010000
001000
000001
000000
,
100000
001000
000010
000000
000000
000000
000100
000000
,
000000
001001
001000
101000
,
000001
001000
010000
000000
000000
000000
000100
000000
,
000000
101000
001000
001001
,
100000
001000
000010
000000
000000
000000
000100
000000
,
000000
001001
001000
101000
,
000001
001000
010000
000000
000000
000000
000100
000000
,
000000
101000
001000
001001
,
000010
000100
100000
000000
001000
000000
000001
000000
,
010000
001000
000001
000000
001000
100000
000100
000000
,
000001
000100
100000
000000
001000
000000
000001
000000
,
010000
001000
000001
000000
001000
100000
000010
000000
,
000001
010000
001000
000001
,
100000
001000
000010
000000
001000
010000
000100
000000
,
000001
000100
100000
000000
001000
000000
000001
000000
,
010000
001000
000010
000000
001000
100000
000010
000000
,
000100
000001
000001
000001
010000
000001
000001
000000
,
000100
100000
100000
100000
000010
100000
100000
000000
,
001000
010000
001000
100000
100000
100000
100000
000000
,
001000
000010
001000
000001
000001
000001
000001
000000
,
000100
000000
010000
000000
001000
000000
000001
000100
,
100000
000000
001000
000000
000010
000000
000100
010000
,
001000
000000
000001
000000
000100
000000
100000
001000
,
000001
000100
010000
000000
;

//---------------dance-single - ----------------
#NOTES:
     dance-single:
     :
     Challenge:
     8:
     0.605,0.703,0.141,0.443,0.030: // measure 1
0000
0000
0000
0000
,  // measure 2
0000
0000
0000
0000
,  // measure 3
0000
0000
0000
0000
,  // measure 4
0000
0000
0000
0000
,  // measure 5
0000
0000
0000
0000
,  // measure 6
0000
0000
0000
0000
,  // measure 7
0000
0000
0000
0000
,  // measure 8
0000
0000
0000
0000
,  // measure 9
1000
0010
0100
0001
0010
0100
1000
0001
,  // measure 10
0010
0001
0100
1000
0100
0010
1000
0100
,  // measure 11
0010
0001
1000
0100
0001
0100
1000
0010
,  // measure 12
1000
0100
0001
0010
1000
0100
0001
0010
,  // measure 13
0000
0020
0000
0000
1030
0100
0010
0001
,  // measure 14
0100
0010
0100
0001
1000
0100
0010
0100
,  // measure 15
0001
0100
1000
0010
0100
1000
0100
0001
,  // measure 16
0010
1000
0100
0001
1001
0000
0000
0000
,  // measure 17
0000
0120
0000
0000
0130
1000
0001
0100
,  // measure 18
0010
1000
0001
0100
1000
0100
0001
0010
,  // measure 19
0100
1000
0010
0100
0010
1000
0001
0100
,  // measure 20
0020
0130
0020
0130
,  // measure 21
0020
0000
0100
0032
0000
0000
1003
0000
,  // measure 22
0010
0000
0001
0000
0100
0000
1000
0010
,  // measure 23
1000
0010
0100
0010
0100
0001
0010
0001
,  // measure 24
1000
0010
0100
0010
1000
0010
0100
0001
,  // measure 25
0100
0000
0000
0000
0010
0000
0000
1000
0001
0000
0000
0000
0010
0000
0000
0000
,  // measure 26
0100
0000
0000
0000
1000
0000
0000
0001
0100
0000
1000
0000
0100
0000
0001
0000
,  // measure 27
1000
0000
0000
0000
0010
0000
0000
0001
0100
0000
0000
0000
1000
0000
0000
0000
,  // measure 28
0010
0001
1001
0000
,  // measure 29
0100
0000
0000
0000
0010
0000
0000
1000
0001
0000
0000
0000
0010
0000
0000
0000
,  // measure 30
0100
0000
0000
0000
0010
0000
0000
0001
0100
0000
1000
0000
0100
0000
0001
0000
,  // measure 31
1000
0000
0000
0000
0010
0000
0000
0001
0100
0000
0000
0000
1000
0000
0000
0000
,  // measure 32
0001
0010
0001
1000
0010
0000
0000
0000
,  // measure 33
0110
0010
1000
0100
0010
0001
0010
0100
,  // measure 34
1000
0100
0001
0100
1000
1000
1000
1000
,  // measure 35
1001
0001
0010
0100
1000
0100
0010
0001
,  // measure 36
0010
1000
0001
1000
0100
0100
0100
0100
,  // measure 37
0110
0001
0100
1000
0100
0010
0100
1000
,  // measure 38
0100
0001
0010
1000
0010
0010
0010
0010
,  // measure 39
0011
0001
0100
1000
0100
0001
0010
1000
,  // measure 40
0010
0001
0100
1000
0100
0001
0100
1000
,  // measure 41
1100
0000
0101
0101
,  // measure 42
0000
1001
1001
1001
,  // measure 43
0020
0130
1000
0001
,  // measure 44
0100
0000
0000
2000
0000
0000
3001
0000
,  // measure 45
0020
0130
1000
0010
,  // measure 46
0100
0000
0000
0002
0000
0000
0103
0000
,  // measure 47
0020
0031
0010
1000
,  // measure 48
0100
0000
0000
0002
0000
0000
1003
0000
,  // measure 49
0020
0031
0100
1000
,  // measure 50
0010
0000
0000
0200
0000
0000
0301
0000
,  // measure 51
0020
0200
0030
2300
0000
3020
0000
0032
,  // measure 52
0000
0203
0000
2300
0000
3020
0000
0032
,  // measure 53
0000
0203
0000
2300
0000
3020
0000
0032
,  // measure 54
0000
0013
0100
0001
1000
0100
0010
0001
,  // measure 55
0020
0200
0030
0302
0000
0023
0000
2030
,  // measure 56
0000
3200
0000
0302
0000
0023
0000
2030
,  // measure 57
0000
3200
0000
0302
0000
0023
0000
2030
,  // measure 58
0000
3100
0010
0001
0100
0010
1000
0001
,  // measure 59
0010
0000
0000
0001
0000
0000
0100
0000
,  // measure 60
0000
1000
0000
0000
0010
1000
0100
0000
,  // measure 61
0001
0000
0000
0010
0000
0000
1000
0000
,  // measure 62
0000
0100
0000
1000
0010
0001
0100
1000
,  // measure 63
0010
0000
0000
1000
0000
0000
0100
0000
,  // measure 64
0001
0000
0000
0010
1000
0100
1000
0010
,  // measure 65
0001
0000
0000
0100
0000
0000
1000
0000
,  // measure 66
0010
0000
0000
1000
0100
0001
0010
1000
,  // measure 67
0010
0001
0100
1000
0001
0100
1000
0010
,  // measure 68
0100
0001
0010
0100
1000
0010
0001
0100
,  // measure 69
1000
0010
0100
0001
1000
0100
0001
0100
,  // measure 70
0020
0000
0000
0030
,  // measure 71
0001
0010
1000
0100
0001
0010
0100
1000
,  // measure 72
0010
0100
0001
2000
0000
0000
3001
0000
,  // measure 73
0020
0030
0020
0030
,  // measure 74
0000
0000
1001
0000
;
