#TITLE:NONSTOP H;
#SUBTITLE:;
#ARTIST:think ya better D -- TRIP MACHINE~luv mix~ -- LOVE THIS FEELIN';
#TITLETRANSLIT:;
#SUBTITLETRANSLIT:;
#ARTISTTRANSLIT:;
#CREDIT:;
#BANNER:NONSTOP H.png;
#BACKGROUND:NONSTOP H-bg.png;
#LYRICSPATH:;
#CDTITLE:./CDTITLES/DANCE DANCE REVOLUTION SOLO.PNG;
#MUSIC:NONSTOP H.ogg;
#OFFSET:0.000;
#SAMPLESTART:112.714;
#SAMPLELENGTH:15.000;
#SELECTABLE:YES;
#DISPLAYBPM:136.000:190.000;
#BPMS:0.000=136.008,131.000=133.969,132.000=176.619,133.000=160.149,292.000=148.897,293.000=190.251;
#STOPS:;
#BGCHANGES:;

//---------------dance-single - ----------------
#NOTES:
     dance-single:
     :
     Easy:
     6:
     0.321,0.366,0.104,0.000,0.000:
0000
0000
0000
0000
,
0000
0000
0000
0000
,
0000
0000
0000
0000
,
0010
0000
0100
1000
,
0010
0000
0001
0100
,
1000
0000
0100
0001
,
0010
0000
1000
0100
,
0001
0000
1000
0000
,
0010
0000
0001
0000
,
0100
0000
1000
0000
,
1000
0000
0100
0010
,
0001
0000
0100
0000
,
0010
0000
0000
0000
1000
0001
1000
0000
,
0100
0010
0001
1000
,
0010
1000
0100
0001
,
0000
0000
0000
0000
0001
1000
0001
0000
,
0010
0000
0010
0001
,
0100
1000
0010
0001
,
0100
0000
0001
1000
,
0010
0000
0001
0000
1000
0001
1000
0000
,
0010
0000
0000
0000
,
1000
0000
0000
0000
,
0100
0000
0000
0000
,
0001
1000
0001
1000
,
0010
0000
0000
0000
,
0001
0000
0000
0000
,
0100
0000
0000
0000
,
1000
0000
0000
0000
,
0010
0000
0000
0001
0001
0000
0100
0100
,
0000
0000
0001
1000
,
0010
0000
0000
0001
0001
0000
0100
0100
,
0000
0000
0001
1000
,
0010
0000
0000
1000
1000
0000
0100
0100
,
0000
0000
0000
0000
,
0000
0010
0000
0000
,
0000
0010
0000
0000
,
0000
0001
0000
0000
,
0000
0100
0000
0000
,
0000
0001
0100
0000
0000
0000
0000
0000
,
0100
0010
0000
0000
,
0000
0100
0010
0000
0000
0000
0001
0000
,
1000
0100
0000
0000
,
0000
1000
0010
0000
0000
0000
0010
0000
,
0001
0100
0000
0000
,
0000
0000
0010
0001
0000
1000
0001
0000
,
0100
0000
0010
0010
0000
1000
0000
0010
,
0000
0001
0000
0010
0000
1000
0000
0100
,
0000
1000
0000
0010
0000
0100
0000
0001
,
0000
0100
0000
0001
1000
1000
0000
0000
,
0000
1000
0100
0100
0000
0001
0000
0010
,
0000
1000
0000
0010
0000
0001
0000
0100
,
0000
0001
0000
0010
0000
0100
0000
1000
,
0000
0100
0000
1000
0001
0001
0000
1000
,
0000
0001
0100
0000
0000
0000
0000
0000
,
0100
1000
0001
0000
0000
0000
0000
0001
,
0100
0000
0000
0001
0001
0000
1000
0010
,
0100
0000
1001
0000
0000
0000
1000
0001
,
1000
0001
1000
0001
0000
1000
0000
0010
,
0000
0001
0000
0010
0000
1000
0000
0100
,
0000
1000
0000
0010
0000
0100
0000
0001
,
0000
0100
0000
0001
1000
1000
0000
0000
,
0000
1000
0100
0100
0000
0001
0000
0010
,
0000
1000
0000
0010
0000
0001
0000
0100
,
0000
0001
0000
0010
0000
0100
0000
1000
,
0000
0100
0000
1000
0001
0001
0000
1000
,
0000
0001
0100
0000
0000
0000
0000
0000
,
0000
0000
1001
0000
0010
0010
0000
1000
,
0100
0000
0001
0000
0000
0000
0000
0010
,
0000
0010
1000
0001
0000
0100
0010
0000
,
0001
0000
0000
0000
,
0000
0000
0000
0000
,
0000
1001
0010
0010
,
0010
0010
0010
0010
,
0010
0010
0000
0000
,
0000
0010
0100
0000
,
0000
0000
0100
0000
0000
0010
1000
0001
,
0000
0010
1000
0100
,
0001
0000
1000
0000
0000
0010
0100
0001
,
0000
0000
0010
0000
0010
0000
0001
1000
,
0001
1000
0010
0000
0000
0100
0010
1000
,
0000
0010
0001
0100
,
1000
0000
0010
0000
0000
1000
0001
0100
,
0000
0010
0001
0100
,
1000
0000
0100
0000
0000
0010
1000
0001
,
0000
0010
1000
0100
,
0001
0000
0100
0000
0000
0010
0100
0010
,
0000
0010
0001
0100
,
1000
0000
0001
0000
0000
0100
0010
0100
,
0000
0010
0001
0100
,
1000
0000
0010
0010
0000
0000
1000
1000
,
0000
0000
0100
0100
0000
0000
0001
0001
,
0000
0010
0001
0100
,
1000
0010
1000
0100
,
0001
0000
0010
0010
0000
0000
1000
1000
,
0000
0000
0100
0100
0000
0000
0001
0001
,
0000
0000
0010
1001
,
0100
0001
0010
0100
,
1001
0000
0010
0000
0000
0010
0000
0010
,
0010
0000
0010
0000
0010
0000
0000
0010
,
0100
0010
0001
0100
,
1000
0010
1000
0100
,
1001
0000
0010
0000
0000
0010
0000
0010
,
0010
0000
0010
0000
0010
0000
0000
0010
,
0100
0000
0000
0010
0000
0000
0100
0000
,
0000
1001
0000
0000
0110
0000
0000
0010
,
1001
0000
0010
0000
0000
0010
0000
0010
,
0010
0000
0010
0000
0010
0000
0000
0010
,
0100
0010
0001
0100
,
1000
0010
1000
0100
,
1001
0000
0010
0000
0000
0010
0000
0010
,
0010
0000
0010
0000
0010
0000
0000
0010
,
0100
0000
0000
1001
0000
0000
0010
0000
,
0000
0100
0000
0000
1001
0000
0000
0010
,
0000
0000
1001
0000
0000
0100
0000
0000
,
1001
0000
0000
0110
0000
0000
1001
0000
,
0000
0110
0000
0000
1001
0000
0000
0000
;

//---------------dance-single - ----------------
#NOTES:
     dance-single:
     :
     Medium:
     7:
     0.399,0.466,0.283,0.000,0.000:
0000
0000
0000
0000
,
0000
0000
0000
0000
,
0000
0000
0000
0000
,
0010
0000
1000
0100
,
0010
0000
0001
0100
,
1000
0000
0100
0001
,
0010
0000
0000
0000
0100
1000
0100
0000
,
0001
0000
1000
0000
,
0010
0000
0000
0000
0010
0001
0010
0000
,
0100
0000
1000
0000
,
1000
0000
0100
0010
,
0001
0000
0100
0000
,
0110
0000
0000
0000
1000
0001
1000
0000
,
0100
0000
0010
0000
0001
1000
0001
0000
,
0010
1000
0100
0110
,
0000
0000
0000
0000
0001
1000
0001
0000
,
0110
0000
0010
0001
,
0100
1000
0010
0001
,
0110
0000
0000
0000
1000
0001
1000
0000
,
0010
0000
0001
0000
0001
1000
0001
0000
,
0010
0001
0100
1000
,
0100
0001
0010
1000
,
0110
0000
0100
1000
,
0001
1000
0001
1000
,
0010
1000
0100
0001
,
0010
0001
0100
1000
,
0110
0000
0100
0001
,
0010
0001
0100
1000
,
0010
0001
0000
0001
0100
0000
0100
1000
,
0000
0000
1000
0001
,
0010
0001
0000
0001
0100
0000
0100
1000
,
0000
0000
1000
0001
,
0010
1000
0000
1000
0100
0000
0100
0100
,
0000
0000
0000
0000
,
0000
0010
0000
0000
,
0000
0010
0000
0000
,
0000
0100
0000
1000
,
0001
0000
0010
0000
0001
0010
1000
0000
,
0010
0000
0100
0000
0100
0000
0010
1000
,
0100
0110
0000
1000
,
0001
1000
0100
0000
0000
0000
1000
0001
,
1000
0001
1000
0000
0010
0000
0001
0000
,
0100
1000
0010
0000
0000
0000
0010
1000
,
0100
1001
0000
0010
,
1000
0000
0100
0001
0000
1000
0010
0000
,
1100
0000
0000
0011
0000
0100
0000
0001
,
0000
1010
0000
0010
0000
1000
0000
0010
,
0000
1001
0000
0010
0000
0100
0000
0001
,
0000
0100
0000
0001
1000
1000
0000
0010
,
0000
0001
0100
1000
0000
0001
0000
0010
,
0000
0011
0000
1100
0000
0100
0000
0010
,
0000
1001
0000
0010
0000
0100
0000
1000
,
0000
0110
0000
1000
0001
0001
0000
0010
,
0000
1000
0100
0000
0001
0010
0000
0000
,
0100
1000
0001
0000
0000
0000
0001
0100
,
0001
1000
0000
0100
0100
0000
0010
0001
,
0100
0000
1001
0000
0000
0000
1000
0100
,
1000
0001
0000
0011
0000
0100
0000
0001
,
0000
1010
0000
0010
0000
1000
0000
0010
,
0000
1001
0000
0010
0000
0100
0000
0001
,
0000
0101
0000
0001
1000
1000
0000
0000
,
0000
0010
1000
0100
0000
0001
0000
0010
,
1000
0010
0000
1000
0001
0100
0000
0010
,
0000
1001
0000
0010
0100
0001
0000
1000
,
0001
0010
0000
1000
0001
0001
0000
0010
,
0000
1000
0100
0000
0000
0000
0000
0000
,
0000
0000
1001
0000
0010
0010
0000
1000
,
0100
0000
0001
0000
0000
0000
0000
0010
,
0000
0010
1000
0001
0000
0010
0100
0000
,
0101
0000
0000
0000
,
0000
0000
0110
0000
0000
0000
0000
1000
,
1000
0001
0100
0000
0000
0000
0000
0100
,
0000
0001
0100
0000
0000
0000
0000
0000
,
0000
0010
0000
0001
,
0000
0010
1001
0100
,
1001
0000
0100
0000
0000
0010
1000
0001
,
0000
0010
1000
0100
,
0001
0000
1000
0000
0000
0010
0100
0001
,
0000
0000
0010
0000
0010
0000
0001
1000
,
0001
1000
0010
0000
0000
0100
0010
1000
,
0000
0010
0001
0100
,
1000
0000
0010
0000
0000
1000
0001
0100
,
0000
0010
1001
0100
,
1001
0000
0100
0000
0000
0010
1000
0001
,
0000
0010
1000
0100
,
0001
0000
0100
0000
0000
0010
0100
0010
,
0000
0010
0001
0100
,
1000
0000
0001
0000
0000
1000
0010
0000
,
0100
0000
1000
0000
0000
0001
0010
0000
,
0100
0000
0010
0001
0000
0000
0001
0100
,
0000
0000
0100
1000
0000
0000
1000
0010
,
0000
0000
0010
0100
0000
1000
0000
0001
,
1000
0001
0000
0010
0000
1000
0001
1000
,
0000
0010
0001
1000
0000
0000
0001
0100
,
0000
0000
0100
1000
0000
0000
1000
0010
,
0000
0000
1000
0001
0000
0010
0000
1000
,
0000
0100
0000
0001
0000
0010
0000
1000
,
0000
0000
0010
0000
0000
0010
0000
1000
,
0001
0000
0100
0000
0100
0000
0000
0001
,
1000
0011
0101
1100
,
1010
1100
0101
0011
,
1001
0000
0010
0000
0000
0010
0000
1000
,
0001
0000
0100
0000
0100
0000
0000
0001
,
1000
0000
0000
0010
0000
0000
0100
0000
,
0000
1001
0000
0000
0110
0000
0000
0010
,
1001
0000
0010
0000
0000
0010
0000
1000
,
0001
0000
0100
0000
0100
0000
0000
0001
,
1000
0000
0010
0000
0010
0001
0000
0100
,
0000
0100
1000
0000
0001
0010
0000
1001
,
0000
0000
0010
0000
0000
0010
0000
1000
,
0001
0000
0100
0000
0100
0000
0000
0001
,
1000
0000
0000
1001
0000
0010
0001
0000
,
0100
1000
0000
0000
1001
0000
0010
0001
,
0000
0000
1001
0000
0000
0100
0000
0000
,
0011
0000
0000
0101
0000
0000
0110
0000
,
0000
1100
0000
0000
1001
0000
0000
0000
;

//---------------dance-single - ----------------
#NOTES:
     dance-single:
     :
     Hard:
     8:
     0.446,0.533,0.225,0.000,0.000:
0000
0000
0000
0000
,
0000
0000
0000
0000
,
0000
0000
0000
0000
,
0010
1000
0001
0100
,
0010
0001
0100
1000
,
0010
1000
0100
0001
,
0010
0000
0010
0000
0010
0100
0010
0000
,
0001
1000
0001
1000
,
0010
0000
0001
0000
1000
0100
0001
0000
,
0010
1000
0100
0001
,
1000
0000
0000
0000
0010
0100
0010
0000
,
0001
0000
0100
0000
,
0010
1000
0010
0000
0100
0010
0100
0000
,
0100
0001
0100
0001
1000
0001
1000
0000
,
0010
0000
1000
0000
0100
0010
0100
0000
,
0001
0000
0000
0000
0001
1000
0001
0000
,
0110
0000
0010
0001
,
0100
0000
1000
0000
0010
0001
0010
0000
,
0110
0000
0000
0000
1000
0001
1000
0000
,
0010
0000
0001
0000
0001
1000
0001
0000
,
0010
1000
0010
0000
0100
0010
0100
0000
,
0100
0001
0100
0001
1000
0001
1000
0000
,
0010
1001
0110
1001
,
0010
1001
0100
1001
,
0010
1000
0100
0001
,
0010
0001
0100
1000
,
0010
1000
0010
1000
0100
0010
0100
0010
,
0100
0001
0100
0001
1000
0001
1000
0000
,
0010
0100
0000
1000
0001
0000
0010
0100
,
0000
0001
0010
0000
0100
0001
1000
0000
,
0100
0010
0000
1000
0001
0000
0100
0010
,
0000
1000
0010
0000
0100
1000
0001
0000
,
0010
0000
0001
0000
0100
0000
1000
0100
,
0000
0000
0000
0000
,
0000
0010
0000
0000
,
0000
0010
0000
0000
,
0000
0001
0000
0000
,
0000
0000
0010
0000
0001
0010
1000
0000
,
0010
0100
0000
0100
0100
0000
0010
1000
,
0100
0100
0000
0001
,
0010
0100
0000
0010
0010
0000
0010
0001
,
0100
0110
0000
1000
,
0010
0100
0000
0100
0100
0000
0010
1000
,
0100
0000
0110
0000
1000
0010
0001
0000
,
0010
0100
0010
0010
0000
0001
0100
0100
,
0100
0000
0000
0010
1000
0001
0000
0001
,
0100
1000
0000
0010
0001
1000
0000
1000
,
0100
0001
0000
0010
1000
0100
0000
0001
,
0100
0001
0000
0001
1000
1000
0000
0001
,
0000
1000
0000
0010
0001
1000
0000
1000
,
0100
0001
0000
0010
1000
0001
0000
0001
,
0100
1000
0000
0010
0001
0100
0000
1000
,
0100
1000
0000
1000
0001
0001
0000
1000
,
0000
0001
0010
0000
0000
0000
0000
0000
,
0010
0000
0100
0000
0000
0000
0001
1000
,
0001
1000
0000
0000
0000
0000
0100
0000
,
0100
0000
0010
0000
0000
0000
1000
0001
,
1000
0001
0010
1000
0001
0000
0001
0100
,
1000
0000
0010
0001
1000
0000
1000
0100
,
0001
0000
0010
1000
0100
0000
0001
0100
,
0001
0000
0000
0001
1000
1000
0000
0001
,
0000
1000
0000
0010
0001
1000
0000
1000
,
0100
0001
0000
0010
1000
0001
0000
0001
,
0100
1000
0000
0010
0001
0100
0000
1000
,
0100
1000
0000
1000
0001
0001
0000
1000
,
0000
0001
0100
0000
0000
0000
0000
0000
,
0000
0000
1001
0000
0010
0010
0000
1000
,
0100
0000
0101
0000
0000
0000
0000
0010
,
0000
0010
1000
0001
0000
0010
0100
0000
,
0101
0000
0000
0000
,
0000
0000
0110
0000
0000
0000
0000
1000
,
0010
0001
1001
0000
0000
0000
0000
0100
,
0000
0001
0110
0000
0000
0000
0000
0000
,
0000
0010
0000
0001
,
0000
0110
1001
0110
,
1001
0000
0100
0000
0000
0010
1000
0001
,
0000
0000
0010
0100
0001
1000
0010
0100
,
1001
0000
1000
0000
0000
0010
0100
0001
,
0000
0000
0010
0000
0100
0000
0001
0010
,
1000
0100
0010
0000
0000
0100
0010
1000
,
0000
0100
1001
0010
,
1001
0000
0010
0000
0000
1000
0001
0100
,
0000
0010
1010
0100
,
0101
0000
0100
0000
0000
0010
1000
0001
,
0000
0000
0010
0100
1000
0001
0010
0100
,
1001
0000
0100
0000
0000
0010
0100
0010
,
0000
0100
1000
0010
,
0001
0000
0001
0000
1000
0000
0010
0001
,
0000
0000
0000
0000
0000
0001
0010
0000
,
0100
0000
0010
0001
0000
0000
0001
0100
,
0000
0000
0100
1000
0000
0000
1000
0010
,
0000
0000
0010
0100
0000
1000
0000
0001
,
0010
0001
0000
0010
0000
1000
0100
1000
,
0000
0010
0001
1000
0000
0000
0001
0100
,
0000
0000
0100
1000
0000
0000
1000
0010
,
0000
0000
1000
0001
0000
0010
0000
1000
,
0000
0100
0000
0001
0000
0010
0000
1000
,
0000
0000
0010
0000
0000
0100
0000
1000
,
0001
0000
0100
0000
0010
0000
0000
0001
,
1000
0011
0101
1100
,
1010
1100
0101
0011
,
1001
0000
0010
0000
0000
0100
0000
1000
,
0001
0000
0100
0000
0010
0000
0000
0001
,
1000
0000
0000
0010
0000
0001
0010
0000
,
0100
0001
0000
1000
0100
0000
0010
0001
,
1000
0001
0010
0000
0000
0010
0000
1000
,
0001
0000
0100
0000
0100
0000
0000
0001
,
1000
0000
0001
0000
0010
1000
0000
0010
,
0000
0100
1000
0000
0001
0010
0000
1001
,
0000
0000
0010
0000
0000
0100
0000
1000
,
0001
0000
0100
0000
0010
0000
0000
0001
,
1000
0000
0000
1001
0000
0010
0001
0000
,
0100
1000
0000
0100
1001
0000
0000
0110
,
0000
0001
0001
0000
0100
0100
0000
1000
,
1000
0000
0010
0010
0000
0100
0100
0000
,
0000
0110
0000
0000
1001
0000
0000
0000
;

//---------------dance-solo - ----------------
#NOTES:
     dance-solo:
     :
     Easy:
     5:
     0.311,0.366,0.092,0.000,0.000:
000000
000000
000000
000000
,
000000
000000
000000
000000
,
000000
000000
000000
000000
,
000100
000000
001000
100000
,
000100
000000
000001
001000
,
100000
000000
001000
000001
,
000100
000000
100000
001000
,
000001
000000
100000
000000
,
000100
000000
000001
000000
,
001000
000000
100000
000000
,
100000
000000
001000
000100
,
000001
000000
000000
000000
,
000100
000000
010000
000010
,
100000
001000
000001
001000
,
100000
000100
000001
001000
,
000100
001000
100000
000001
,
000100
000000
000010
010000
,
100000
001000
000001
000100
,
100000
000000
010000
000010
,
000001
001000
100000
000001
,
000100
000000
000000
000000
,
100000
000000
000000
000000
,
001000
000000
000000
000000
,
000001
010000
000010
100000
,
000100
000000
000000
000000
,
000001
000000
000000
000000
,
001000
000000
000000
000000
,
100000
000000
000000
000000
,
000100
000000
000000
000010
000000
000000
010000
000000
,
000000
000000
000001
100000
,
000100
000000
000000
010000
000000
000000
000010
000000
,
000000
000000
100000
000001
,
000100
000000
000000
000010
000000
000000
010000
000000
,
000000
000000
000000
000000
,
000000
000100
000000
000000
,
000000
000100
000000
000000
,
000000
000001
000000
000000
,
000000
001000
000000
000000
,
000000
000001
001000
000000
000000
000000
000000
000000
,
010000
000100
000000
000000
,
000000
001000
000100
000000
000000
000000
000010
000000
,
010000
100000
000000
000000
,
000000
100000
000100
000000
000000
000000
000100
000000
,
000010
100000
000000
000000
,
000000
000000
000100
000001
000000
010000
000001
000000
,
001000
000000
000100
000100
000000
100000
000000
000100
,
000000
000010
000000
000100
000000
100000
000000
001000
,
000000
010000
000000
000100
000000
001000
000000
000001
,
000000
001000
000000
000001
010000
010000
000000
000000
,
000000
100000
001000
001000
000000
000001
000000
000100
,
000000
100000
000000
000100
000000
000001
000000
001000
,
000000
000010
000000
000100
000000
001000
000000
100000
,
000000
001000
000000
100000
000010
000010
000000
010000
,
000000
000001
001000
000000
000000
000000
000000
000000
,
001000
010000
000001
000000
000000
000000
000000
000001
,
001000
000000
000000
000001
000001
000000
100000
000100
,
001000
000000
100001
000000
000000
000000
100000
000001
,
100000
000001
010000
000010
000000
100000
000000
000100
,
000000
000001
000000
000100
000000
100000
000000
001000
,
000000
010000
000000
000100
000000
001000
000000
000001
,
000000
001000
000000
000010
100000
100000
000000
000000
,
000000
100000
001000
001000
000000
000001
000000
000100
,
000000
100000
000000
000100
000000
000010
000000
001000
,
000000
000001
000000
000100
000000
001000
000000
100000
,
000000
001000
000000
100000
000010
000010
000000
100000
,
000000
000001
001000
000000
000000
000000
000000
000000
,
000000
000000
100001
000000
010000
010000
000000
100000
,
001000
000000
000001
000000
000000
000000
000000
000010
,
000000
000010
100000
000001
000000
001000
000100
000000
,
000010
000000
000000
000000
,
000000
000000
000000
000000
,
000000
100001
000010
000010
,
000010
010000
010000
010000
,
001000
000010
000010
000000
,
000000
010000
010000
000000
,
000000
000100
100000
000001
,
001000
000100
000001
100000
,
001000
000100
000001
001000
,
100000
000100
000001
001000
,
100000
000100
000100
000100
,
000100
000010
000010
100000
,
001000
010000
010000
000001
,
001000
000010
000010
100000
,
001000
000100
100000
000001
,
001000
000100
000001
100000
,
001000
000100
000100
001000
,
001000
000100
000001
001000
,
100000
001000
001000
000001
,
000001
010000
000010
100000
,
001000
000000
000100
000100
000000
000000
100000
100000
,
000000
000000
001000
001000
000000
000000
000001
000001
,
000000
000100
000001
001000
,
100000
000100
100000
001000
,
000001
000000
000100
000100
000000
000000
100000
100000
,
000000
000000
001000
001000
000000
000000
000001
000001
,
000000
100000
010000
000100
,
001000
000001
000010
000100
,
001000
000100
000100
100000
,
000001
001100
100001
000000
,
000000
000100
000001
001000
,
100000
000100
100000
001000
,
100001
000100
000100
100000
,
000001
001100
100001
000000
,
000000
000100
100000
001000
,
000000
000001
100000
010010
,
001100
000100
000100
100000
,
000001
001100
100001
000000
,
001000
000100
000001
001000
,
100000
000100
100000
001000
,
100001
000010
000010
010000
,
000001
001100
100001
001000
,
001000
000100
100000
001000
,
000000
001000
000000
000000
100000
000000
000000
000100
,
000000
000000
000001
000000
000000
001000
000000
000000
,
100000
000000
000000
000001
000000
000000
000010
000000
,
000000
010000
000000
000000
100001
000000
000000
000000
;

//---------------dance-solo - ----------------
#NOTES:
     dance-solo:
     :
     Medium:
     7:
     0.392,0.466,0.259,0.000,0.000:
000000
000000
000000
000000
,
000000
000000
000000
000000
,
000000
000000
000000
000000
,
000100
000000
100000
001000
,
000100
000000
000001
001000
,
100000
000000
001000
000001
,
000100
000000
000000
000000
010000
000010
001000
000000
,
000001
000000
100000
000000
,
000100
000000
000000
000000
000010
010000
001000
000000
,
001000
000000
100000
000000
,
100000
000000
001000
000000
,
000001
000000
000000
000000
,
001100
000000
000000
000000
100000
000001
100000
000000
,
001000
000000
000100
000000
000001
100000
000001
000000
,
000100
100000
001000
001100
,
100000
000000
000001
000000
010000
000010
010000
000000
,
001100
000000
000000
000000
000100
000100
000001
000000
,
001000
100000
000100
000001
,
100001
000000
000000
000000
000100
100000
000001
000000
,
000100
000000
000001
000000
000100
001000
100000
000000
,
000100
000001
001000
100000
,
001000
000001
000100
100000
,
001100
000000
001000
100000
,
000001
100000
000001
100000
,
000100
100000
001000
000001
,
000100
000001
001000
100000
,
001100
000000
001000
000001
,
000100
000001
001000
100000
,
000100
000010
000000
000001
001000
000000
100000
001000
,
000000
000000
100000
000001
,
000100
000010
000000
000001
001000
000000
100000
001000
,
000000
000000
100000
000001
,
000100
010000
000000
100000
001000
000000
000001
000000
,
000000
000000
000000
000000
,
000000
000100
000000
000000
,
000000
000100
000000
000000
,
000000
000001
000000
000000
,
000000
000000
000100
000000
000001
000100
100000
000000
,
000100
000000
001000
000000
001000
000000
000100
100000
,
001000
001100
000000
010000
,
000001
100000
001000
000000
000000
000000
100000
000001
,
100000
000001
010000
000000
000010
000000
000001
000000
,
001000
100000
000100
000000
000000
000000
000100
100000
,
001000
100001
000000
000100
,
100000
000000
001000
000001
000000
010000
000100
000000
,
000110
000000
000000
000101
000000
100000
000000
000001
,
000000
010100
000000
000100
000000
100000
000000
000100
,
000000
100001
000000
000100
000000
001000
000000
000001
,
000000
001000
000000
000001
010000
100000
000000
000100
,
000000
000001
001000
100000
000000
000010
000000
000100
,
000000
000101
000000
101000
000000
001000
000000
000100
,
000000
010010
000000
000100
000000
001000
000000
010000
,
000000
001100
000000
100000
000001
000001
000000
000100
,
000000
010000
100000
000000
100000
000100
000000
000000
,
001000
100000
000001
000000
000000
000000
000001
001000
,
000001
100000
000000
001000
001000
000000
000100
000001
,
001000
000000
100001
000000
000000
000000
100000
001000
,
100000
000001
000000
000110
000000
000100
000000
000001
,
000000
010100
000000
000100
000000
100000
000000
000100
,
000000
100001
000000
000100
000000
001000
000000
000010
,
000000
000110
000000
000010
010000
010000
000000
000000
,
000000
000100
100000
001000
000000
000001
000000
000100
,
100000
000100
000000
100000
000001
001000
000000
000100
,
000000
100001
000000
000100
001000
000001
000000
100000
,
000001
000100
000000
100000
000010
000010
000000
000100
,
000000
010000
100000
000000
000000
000000
000000
000000
,
000000
000000
100001
000000
010000
010000
000000
100000
,
000100
000000
000010
000000
000000
000000
000000
000010
,
000000
000010
100000
000001
000000
000100
001000
000000
,
001001
000000
000000
000000
,
000000
000000
010010
000000
000000
000000
000000
100000
,
100000
000001
001000
000000
000000
000000
000000
001000
,
000000
000001
001000
000000
000000
000000
000000
000000
,
000000
000100
000000
000100
,
000000
000100
000001
100000
,
001000
000000
000001
000000
000000
100000
000100
100000
,
000000
000100
100000
001000
,
000001
000000
100000
000000
000000
000001
001000
000001
,
000000
000000
000100
000000
000100
000000
000010
010000
,
000010
010000
000100
000000
000000
100000
001000
100000
,
000000
000100
000001
001000
,
100000
000000
000100
000000
000000
000001
000100
000001
,
000000
000100
000001
100000
,
001000
000000
000001
000000
000000
100000
000100
100000
,
000000
000100
100000
001000
,
000001
000000
001000
000000
000000
000100
001000
000100
,
000000
000100
000001
001000
,
100000
000000
000010
000000
000000
100000
000001
100000
,
000000
000100
000100
001000
,
001000
000000
000001
000001
000000
000000
100000
100000
,
000000
000000
000010
000010
000000
000000
010000
010000
,
000000
000000
000100
000000
000100
000000
010000
010000
,
000010
000000
100000
000000
000001
000000
001000
001000
,
000100
000000
000001
100000
000000
000000
100000
000001
,
000000
000000
100000
001000
000000
000000
000001
001000
,
000000
000001
100000
000100
,
001000
000000
000001
000000
100000
000000
000100
000001
,
001000
000000
000100
000000
000000
000100
000000
100000
,
000001
000000
001000
000000
001000
000000
000000
000001
,
100000
100100
001001
000101
,
101000
010010
001001
101000
,
100001
000000
000100
000000
000000
000100
000000
100000
,
000001
000000
001000
000000
001000
000000
000000
000001
,
100000
000000
000000
000101
000000
000000
101000
000000
,
000000
001100
000000
000000
100001
000000
000000
000010
,
010000
000000
000100
000000
000000
000100
000000
100000
,
000001
000000
001000
000000
001000
000000
000000
000001
,
100000
000000
000010
000000
000010
000000
010000
000001
,
000001
000000
100000
000000
001000
000000
000001
100000
,
000100
000000
000100
000000
000000
000100
000000
100000
,
000001
000000
001000
000000
001000
000000
000000
000001
,
100000
000000
000000
000001
000000
010010
000000
000000
,
000000
100000
000000
000000
010010
000000
000000
000100
,
000000
000000
100001
000000
000000
001000
000000
000000
,
000101
000000
000000
010001
000000
000000
100010
000000
,
000000
101000
000000
000000
100001
000000
000000
000000
;

//---------------dance-solo - ----------------
#NOTES:
     dance-solo:
     :
     Hard:
     8:
     0.459,0.499,0.288,0.000,0.000:
000000
000000
000000
000000
,
000000
000000
000000
000000
,
000000
000000
000000
000000
,
010000
010000
000001
001000
,
000100
000001
001000
100000
,
000100
100000
001000
000001
,
000100
000000
000100
000000
000100
001000
000100
000000
,
000001
000000
100000
000000
000010
010000
000010
000000
,
000100
000000
100000
000000
000100
000001
100000
000000
,
001000
000000
001000
000000
000001
000100
000001
000000
,
010000
000000
000010
000000
100000
000001
100000
000000
,
100000
100000
100000
100000
,
010000
100000
010000
000000
000100
001000
000001
000000
,
100000
000100
001000
000001
010000
000010
100000
000000
,
000100
000000
100000
000000
001000
000100
001000
000000
,
000001
000000
100000
000000
000010
010000
000010
000000
,
001100
000000
000000
000000
000100
000001
100000
000000
,
001000
000000
100000
000000
000001
000100
000001
000000
,
001100
000000
000000
000000
100000
000001
100000
000000
,
000100
000000
000001
000000
001000
000100
100000
000000
,
010000
100000
010000
000000
000100
001000
000001
000000
,
100000
000100
001000
000001
010000
000010
100000
000000
,
000100
100001
001100
100001
,
000100
010010
001000
100001
,
000100
000001
001000
100000
,
000100
100000
001000
000001
,
000010
000001
000010
000000
000100
001000
100000
000000
,
000001
000100
001000
100000
000010
010000
000001
000000
,
000100
001000
000000
100000
000001
000000
000100
001000
,
000000
000001
000100
000000
001000
000001
100000
000000
,
001000
000100
000000
100000
000001
000000
001000
000100
,
000000
100000
000100
000000
001000
100000
000001
000000
,
000100
000001
001000
100000
,
000000
000000
000000
000000
,
000000
000100
000000
000000
,
000000
000100
000000
000000
,
000000
000001
000000
000000
,
000000
000000
000100
000000
000001
000010
100000
000000
,
000100
001000
000000
001000
001000
000000
000100
100000
,
001000
001000
000000
000010
,
000100
001000
000000
000100
000010
000000
000100
000010
,
100000
001100
000000
010000
,
000100
001000
000000
001000
001000
000000
000100
100000
,
001000
000000
001100
000000
100000
000010
000001
000000
,
000100
001000
000100
000100
000000
000001
001000
001000
,
001000
000000
000000
000100
100000
000010
000000
000001
,
001000
100000
000000
000100
000001
010000
000000
100000
,
001000
000001
000000
000100
100000
001000
000000
000001
,
001000
000001
000000
000001
100000
100000
000000
000010
,
000000
010000
000000
000100
000001
100000
000000
100000
,
001000
000001
000000
000100
100000
000010
000000
000001
,
001000
100000
000000
000100
000001
001000
000000
100000
,
001000
100000
000000
100000
000001
000001
000000
010000
,
000000
000010
000100
000000
000000
000000
000000
000000
,
000100
000000
001000
000000
000000
000000
000001
100000
,
000010
010000
000000
000000
000000
000000
000100
000000
,
000100
000000
000010
000000
000000
000000
010000
000010
,
000000
100001
000100
100000
000001
000000
000001
001000
,
100000
000000
000100
000010
100000
000000
100000
001000
,
000001
000000
000100
100000
001000
000000
000001
001000
,
000001
000000
000000
000001
100000
100000
000000
000010
,
000000
010000
000000
000100
000001
100000
000000
100000
,
001000
000001
000000
000100
010000
000001
000000
000001
,
001000
100000
000000
000100
000001
001000
000000
100000
,
001000
100000
000000
100000
000010
000001
000000
010000
,
000000
000010
001000
000000
000000
000000
000000
000000
,
000000
000000
100010
000000
000100
000100
000000
100000
,
001000
000000
001001
000000
000000
000000
000000
000100
,
000000
000100
010000
000001
000000
000100
001000
000000
,
001001
000000
000000
000000
,
000000
000000
001100
000000
000000
000000
000000
010000
,
000100
000010
100001
000000
000000
000000
000000
001000
,
000000
000001
001100
000000
000000
000000
000000
000000
,
000000
000010
000000
100000
,
000000
100100
010010
000101
,
010010
000000
010000
000000
000000
000001
100000
000001
,
000000
000000
000100
001000
000001
100000
000100
001000
,
100001
000000
100000
000000
000000
000100
001000
000001
,
000000
000000
000100
000000
001000
000000
000001
000100
,
100000
001000
000100
000000
000000
001000
000100
100000
,
000000
100100
010010
000101
,
010010
000000
000010
000000
000000
100000
000001
100000
,
000000
000100
100100
001000
,
001001
000000
010000
000000
000000
000001
100000
000001
,
000000
000000
000100
001000
100000
000001
000100
001000
,
100001
000000
001000
000000
000000
000100
001000
000100
,
000000
001000
100000
000100
,
000001
000000
010000
000000
000000
000001
100000
000001
,
000000
001000
000001
000100
,
100000
000000
000010
000010
000000
000000
000001
001000
,
000000
000000
010000
010000
000000
000000
100000
001000
,
000000
000000
000100
001000
000100
000000
100000
000001
,
100000
000000
100000
000100
000001
000000
000001
001000
,
100000
000000
000010
000010
000000
000000
000001
001000
,
000000
000000
010000
010000
000000
000000
100000
001000
,
000000
000000
000001
100000
000000
000100
000000
000001
,
000000
001000
000000
100000
000000
000100
000000
000001
,
000000
000000
010000
000000
000000
010000
000000
000010
,
000010
000000
101000
000000
001001
000000
000000
000001
,
100000
100100
001001
000101
,
101000
010010
001001
101000
,
100001
000000
010000
000000
000000
010000
000000
000010
,
000010
000000
101000
000000
001001
000000
000000
000001
,
100000
000000
000000
000100
000000
000001
000100
000000
,
001000
000001
000000
100000
001000
000000
000100
000001
,
100000
000001
010000
000000
000000
010000
000000
000010
,
000010
000000
101000
000000
001001
000000
000000
000001
,
100000
000000
000001
000000
000100
100000
000000
000100
,
000000
001000
100000
000000
000001
000100
000000
100001
,
000000
000000
010000
000000
000000
010000
000000
000010
,
000010
000000
101000
000000
001001
000000
000000
000001
,
100000
000000
000000
100001
000000
000100
000001
000000
,
001000
100000
000000
001000
100001
000000
000000
001100
,
000000
000001
000001
000000
001000
001000
000000
100000
,
100000
000000
000100
000100
000000
001000
001000
000000
,
000000
001100
000000
000000
100001
000000
000000
000000
;

//---------------dance-double - ----------------
#NOTES:
     dance-double:
     :
     Easy:
     5:
     0.351,0.366,0.167,0.000,0.000: // measure 1
00000000
00000000
00000000
00000000
,  // measure 2
00000000
00000000
00000000
00000000
,  // measure 3
00000000
00000000
00000000
00000000
,  // measure 4
00000100
00000001
00001000
00100000
,  // measure 5
10000000
01000000
00010000
00000100
,  // measure 6
00000001
00000010
00001000
00000100
,  // measure 7
00100000
00000000
00010000
01000000
,  // measure 8
00100000
00000000
10000000
00000000
,  // measure 9
00010000
00000000
00000010
00000000
,  // measure 10
00000001
00000000
00000100
00000000
,  // measure 11
00001000
00000000
01000000
00100000
,  // measure 12
10000000
00000000
00010000
00000000
,  // measure 13
00000010
00000000
00000000
00000000
00000001
00001000
00000001
00000000
,  // measure 14
00000010
00001000
00010000
10000000
,  // measure 15
00100000
10000000
01000000
00010000
,  // measure 16
00000000
00000000
00000000
00000000
00000010
00000100
00000010
00000000
,  // measure 17
00000001
00000000
00000100
00001000
,  // measure 18
00100000
00010000
01000000
10000000
,  // measure 19
00001000
00000000
00000010
00000100
,  // measure 20
00001000
00000000
00010000
00000000
00100000
00010000
00100000
00000000
,  // measure 21
01000000
10000000
00100000
00010000
,  // measure 22
00001000
00000010
00000001
00000100
,  // measure 23
00010000
01000000
10000000
00100000
,  // measure 24
00010000
00001000
00000010
00010000
,  // measure 25
00100000
10000000
01000000
00010000
,  // measure 26
00001000
00000010
00000001
00000100
,  // measure 27
00010000
00001000
00000010
00001001
,  // measure 28
00000100
00010000
00100000
01100000
,  // measure 29
00010000
00000000
00000000
00001000
00000100
00000000
00001000
00000001
,  // measure 30
00000000
00000000
00000010
00001000
,  // measure 31
00010000
00000000
00000000
00100000
10000000
00000000
01000000
00010000
,  // measure 32
00000000
00000000
00100000
00001000
,  // measure 33
00000010
00000000
00000000
00000001
00001000
00000000
00000010
00000100
,  // measure 34
00000000
00000000
00000000
00000000
,  // measure 35
00000000
00000000
00000000
00000000
,  // measure 36
00000000
00000000
00000000
00000000
,  // measure 37
00000000
00000000
00000000
00000000
,  // measure 38
00000000
00100000
00000000
00000000
,  // measure 39
00000000
00001000
00000100
00000000
00000000
00000000
00000000
00000000
,  // measure 40
00001000
00100000
00000000
00000000
,  // measure 41
00000000
01000000
00100000
00000000
00000000
00000000
00010000
00000000
,  // measure 42
00001000
00000100
00000000
00000000
,  // measure 43
00000000
00000001
00000010
00000000
00000000
00000000
00001000
00000000
,  // measure 44
00010000
01000000
00000000
00000000
,  // measure 45
00000000
00000000
00100000
00010000
00000000
00001000
00000001
00000000
,  // measure 46
00000100
00000000
00000010
00000010
00000000
00000001
00000000
00000010
,  // measure 47
00000000
00001000
00000000
00100000
00000000
10000000
00000000
01000000
,  // measure 48
00000000
10000000
00000000
00100000
00000000
01000000
00000000
00001000
,  // measure 49
00000000
00000100
00000000
00000001
00001000
00001000
00000000
00000000
,  // measure 50
00000000
00000001
00000100
00000100
00000000
00001000
00000000
00000010
,  // measure 51
00000000
00001000
00000000
00000010
00000000
00000001
00000000
00000100
,  // measure 52
00000000
00010000
00000000
00100000
00000000
01000000
00000000
00010000
,  // measure 53
00000000
01000000
00000000
10000000
00010000
00010000
00000000
00010000
,  // measure 54
00000000
00001000
00000001
00000000
00000000
00000000
00000000
00000000
,  // measure 55
00000100
00000001
00001000
00000000
00000000
00000000
00000000
00001000
,  // measure 56
00010000
00000000
00000000
00010000
00010000
00000000
00001000
00000010
,  // measure 57
00000100
00000000
00001001
00000000
00000000
00000000
00001000
00010000
,  // measure 58
00001000
00010000
00001000
00010000
00000000
10000000
00000000
00100000
,  // measure 59
00000000
00010000
00000000
00100000
00000000
10000000
00000000
01000000
,  // measure 60
00000000
10000000
00000000
00100000
00000000
01000000
00000000
00001000
,  // measure 61
00000000
00000100
00000000
00000001
00001000
00001000
00000000
00000000
,  // measure 62
00000000
00001000
00000100
00000100
00000000
00010000
00000000
00100000
,  // measure 63
00000000
10000000
00000000
00100000
00000000
00010000
00000000
01000000
,  // measure 64
00000000
00010000
00000000
00001000
00000000
00000100
00000000
00000001
,  // measure 65
00000000
00000100
00000000
00001000
00000001
00000001
00000000
00001000
,  // measure 66
00000000
00010000
01000000
00000000
00000000
00000000
00000000
00000000
,  // measure 67
00000000
00000000
10010000
00000000
00100000
00100000
00000000
10000000
,  // measure 68
01000000
00000000
00010000
00000000
00000000
00000000
00000000
00100000
,  // measure 69
00000000
00001000
00000100
00001000
00000000
00000100
00000010
00000000
,  // measure 70
00000001
00000000
00000000
00000000
,  // measure 71
00000000
00000000
00000000
00000000
,  // measure 72
00000000
00001001
00000010
00000100
,  // measure 73
00100000
00010000
01000000
00100000
,  // measure 74
10000000
00000000
00100000
00000000
00000000
10000000
00010000
01000000
,  // measure 75
00000000
00100000
00001000
00000001
,  // measure 76
00000100
00000000
00010000
00000000
00000000
00100000
01000000
00010000
,  // measure 77
00000000
10000000
00010000
00001000
,  // measure 78
00000010
00000000
00000001
00000000
00000000
00001000
00000100
00010000
,  // measure 79
00000000
00000000
00100000
00000000
00100000
00000000
10000000
00010000
,  // measure 80
10000000
00010000
00100000
00000000
00000000
01000000
00100000
00010000
,  // measure 81
00000000
00001000
00001001
00000100
,  // measure 82
00001000
00000000
00010000
00000000
00000000
00010000
10000000
00100000
,  // measure 83
00000000
00010000
00000010
00001001
,  // measure 84
00000110
00000000
00000010
00000000
00000000
00000100
00001000
00000001
,  // measure 85
00000000
00000010
00011000
00100000
,  // measure 86
10010000
00000000
01000000
00000000
00000000
00100000
01000000
00100000
,  // measure 87
00000000
00010000
00001000
00000110
,  // measure 88
00001001
00000000
00000010
00000000
00000000
00000100
00000001
00001000
,  // measure 89
00000000
00010000
10010000
01000000
,  // measure 90
10010000
00000000
00100000
00100000
00000000
00000000
00010000
00010000
,  // measure 91
00000000
00000000
00001000
00001000
00000000
00000000
00000010
00000010
,  // measure 92
00000000
00000010
00000001
00001000
,  // measure 93
00010000
10000000
01000000
00001000
,  // measure 94
00000010
00000000
00001000
00001000
00000000
00000000
00010000
00010000
,  // measure 95
00000000
00000000
00100000
00100000
00000000
00000000
10000000
10000000
,  // measure 96
00000000
00000000
00010000
00001000
,  // measure 97
00000100
00000001
00000010
00000100
,  // measure 98
00011000
00000000
00100000
00000000
00000000
00100000
00000000
10000000
,  // measure 99
10000000
00000000
00010000
00000000
00010000
00000000
00000000
00100000
,  // measure 100
01000000
00100000
00000000
00001000
,  // measure 101
00000010
00001001
00000010
00001001
,  // measure 102
00000100
00000000
00000001
00000000
00000000
00000001
00000000
00000010
,  // measure 103
00000010
00000000
00001000
00000000
00001000
00000000
00000000
00100000
,  // measure 104
00100000
00000000
00000000
00010000
00000000
00000000
01000000
00000000
,  // measure 105
00000000
01100000
00000000
00000000
10010000
00000000
00000000
00010000
,  // measure 106
00011000
00000000
00000010
00000000
00000000
00000010
00000000
00000100
,  // measure 107
00000100
00000000
00000001
00000000
00001000
00000000
00000000
00000010
,  // measure 108
00001000
00100000
00010000
01000000
,  // measure 109
10000000
00100000
00010000
00000100
,  // measure 110
00001001
00000000
00000100
00000000
00000000
00000100
00000000
00000010
,  // measure 111
00000010
00000000
00001000
00000000
00001000
00000000
00000000
00010000
,  // measure 112
00100000
00000000
00000000
01100000
00000000
00000000
00010000
00000000
,  // measure 113
00000000
00000100
00000000
00000000
00001001
00000000
00000000
00000010
,  // measure 114
00000000
00000000
00011000
00000000
00000000
01000000
00000000
00000000
,  // measure 115
00110000
00000000
00000000
00011000
00000000
00000000
00001010
00000000
,  // measure 116
00000000
00011000
00000000
00000000
01100000
00000000
00000000
00000000
;

//---------------dance-double - ----------------
#NOTES:
     dance-double:
     :
     Medium:
     6:
     0.427,0.533,0.415,0.000,0.000: // measure 1
00000000
00000000
00000000
00000000
,  // measure 2
00000000
00000000
00000000
00000000
,  // measure 3
00000000
00000000
00000000
00000000
,  // measure 4
00000100
00001000
00100000
10000000
,  // measure 5
01000000
00010000
00000100
00001000
,  // measure 6
00000001
00000010
00001000
00010000
,  // measure 7
00100000
00000000
00000000
00000000
00010000
10000000
01000000
00000000
,  // measure 8
00100000
10000000
01000000
00010000
,  // measure 9
00001000
00000000
00000010
00000000
00000001
00001000
00000100
00000000
,  // measure 10
00001000
00000000
00100000
01000000
,  // measure 11
00010000
00000000
00000000
00000000
10000000
01000000
00100000
00000000
,  // measure 12
00010000
00000000
00001000
00000000
,  // measure 13
00000010
00000000
00000000
00000000
00000001
00001000
00000001
00000000
,  // measure 14
00000010
00000000
00001000
00000000
00010000
01000000
10000000
00000000
,  // measure 15
00100000
00000000
10000000
00000000
01000000
00100000
00010000
00000000
,  // measure 16
00000000
00000000
00000000
00000000
00000010
00000100
00000010
00000000
,  // measure 17
00000001
00000000
00000100
00001000
,  // measure 18
00100000
00000000
00010000
00000000
01000000
10000000
00010000
00000000
,  // measure 19
00001000
00000000
00000000
00000000
00000010
00000001
00000100
00000000
,  // measure 20
00001000
00000000
00010000
00000000
00100000
00010000
00100000
00000000
,  // measure 21
01000000
10000000
00100000
00010000
,  // measure 22
00001000
00000010
00000100
00010000
,  // measure 23
00100000
01100000
00010000
00001000
,  // measure 24
00000110
00001000
01000000
00010000
,  // measure 25
00100000
01100000
00010000
00001000
,  // measure 26
00000110
00001000
00010000
01000000
,  // measure 27
10000000
00010000
00001000
00000110
,  // measure 28
00000100
00001000
00010000
01100000
,  // measure 29
00010000
00000000
00000000
00001000
00000100
00000000
00001000
00000001
,  // measure 30
00000000
00000000
00000010
00001000
,  // measure 31
00010000
00000000
00000000
00100000
10000000
00000000
01000000
00010000
,  // measure 32
00000000
00000000
00100000
00001000
,  // measure 33
00000010
00000000
00000000
00000001
00001000
00000000
00000010
00000100
,  // measure 34
00000000
00000001
00000000
00000000
,  // measure 35
00000000
00010000
00000000
00000000
,  // measure 36
00000000
00100000
00000000
00000000
,  // measure 37
00000000
01000000
00000000
00000000
,  // measure 38
00000000
00000000
00100000
00000000
00001000
00000010
00000001
00000000
,  // measure 39
00000010
00000000
00000100
00000000
00000100
00000000
00000010
00001000
,  // measure 40
00010000
01100000
00000000
10000000
,  // measure 41
00010000
10000000
01000000
00000000
00000000
00000000
00001000
00010000
,  // measure 42
00001000
00010000
00001000
00000000
00000010
00000000
00000001
00000000
,  // measure 43
00000100
00001000
00000010
00000000
00000000
00000000
00000010
00001000
,  // measure 44
00010000
10010000
00000000
00100000
,  // measure 45
10000000
00000000
01000000
00010000
00000000
00001000
00000010
00000000
,  // measure 46
00000101
00000000
00000000
00000011
00000000
00001010
00000000
00011000
,  // measure 47
00000000
01010000
00000000
11000000
00000000
10100000
00000000
00110000
,  // measure 48
00000000
00011000
00000000
00001100
00000000
00000101
00000000
00000011
,  // measure 49
00000000
00001010
00000000
00000001
00001000
00001000
00000000
00000010
,  // measure 50
00000000
00000001
00000100
00001000
00000000
00000001
00000000
00000010
,  // measure 51
00000000
00001010
00000000
01010000
00000000
01000000
00000000
00100000
,  // measure 52
00000000
10010000
00000000
00100000
00000000
01000000
00000000
10000000
,  // measure 53
00000000
01100000
00000000
10000000
00010000
00010000
00000000
00100000
,  // measure 54
00000000
00011000
00000100
00000000
00000001
00000010
00000000
00000000
,  // measure 55
00000100
00001000
00010000
00000000
00000000
00000000
00010000
00000100
,  // measure 56
00010000
00001000
00000000
00000100
00000100
00000000
00000010
00000001
,  // measure 57
00000100
00000000
00001001
00000000
00000000
00000000
00010000
01000000
,  // measure 58
00010000
10000000
00000000
10100000
00000000
00110000
00000000
00011000
,  // measure 59
00000000
00001100
00000000
00000101
00000000
00000011
00000000
00001010
,  // measure 60
00000000
00011000
00000000
01010000
00000000
11000000
00000000
10100000
,  // measure 61
00000000
00110000
00000000
10000000
00010000
00010000
00000000
00000000
,  // measure 62
00000000
00100000
00010000
01000000
00000000
00010000
00000000
00100000
,  // measure 63
10000000
00100000
00000000
10000000
00010000
01000000
00000000
00100000
,  // measure 64
00000000
00011000
00000000
00000010
00000100
00000001
00000000
00001000
,  // measure 65
00000001
00000010
00000000
00001000
00000001
00000001
00000000
00000010
,  // measure 66
00000000
00001000
01000000
00000000
00000000
00000000
00000000
00000000
,  // measure 67
00000000
00000000
10010000
00000000
00100000
00100000
00000000
10000000
,  // measure 68
01000000
00000000
00010000
00000000
00000000
00000000
00000000
00000010
,  // measure 69
00000000
00000010
00001000
00000001
00000000
00000010
00000100
00000000
,  // measure 70
00000101
00000000
00000000
00000000
,  // measure 71
00000000
00000000
01100000
00000000
00000000
00000000
00000000
10000000
,  // measure 72
10000000
00010000
01000000
00000000
00000000
00000000
00000000
00000100
,  // measure 73
00000000
00001000
00000100
00000000
00000000
00000000
00000000
00000000
,  // measure 74
00000000
00000000
00100000
00000000
00000000
10000000
00010000
01000000
,  // measure 75
00000000
00100000
00001000
00000100
,  // measure 76
00000001
00000000
00001000
00000000
00000000
00100000
10000000
00010000
,  // measure 77
00000000
01000000
00010000
00001000
,  // measure 78
00000010
00000000
00000001
00000000
00000000
00001000
00000100
00010000
,  // measure 79
00000000
00000000
00100000
00000000
00100000
00000000
10000000
00010000
,  // measure 80
10000000
00010000
00100000
00000000
00000000
01000000
00100000
00010000
,  // measure 81
00000000
00001000
00001001
00000100
,  // measure 82
00001000
00000000
00010000
00000000
00000000
00010000
10000000
00100000
,  // measure 83
00000000
00010000
00000010
00001001
,  // measure 84
00000110
00000000
00000010
00000000
00000000
00000100
00001000
00000001
,  // measure 85
00000000
00000010
00011000
00100000
,  // measure 86
10010000
00000000
01000000
00000000
00000000
00100000
01000000
00100000
,  // measure 87
00000000
00010000
00001000
00000110
,  // measure 88
00001001
00000000
00000010
00000000
00000000
00000001
00000100
00001000
,  // measure 89
00000000
00010000
10010000
01000000
,  // measure 90
10010000
00000000
00100000
00100000
00000000
00000000
00010000
00010000
,  // measure 91
00000000
00000000
00001000
00001000
00000000
00000000
00000010
00000010
,  // measure 92
00000000
00000010
00000001
00001000
,  // measure 93
00010000
10000000
01000000
00001000
,  // measure 94
00000010
00000000
00001000
00001000
00000000
00000000
00010000
00010000
,  // measure 95
00000000
00000000
00100000
00100000
00000000
00000000
10000000
10000000
,  // measure 96
00000000
00000000
00010000
00001000
,  // measure 97
00000100
00000001
00000010
00000100
,  // measure 98
00011000
00000000
00100000
00000000
00000000
00100000
00000000
10000000
,  // measure 99
10000000
00000000
00010000
00000000
00010000
00000000
00000000
00100000
,  // measure 100
01000000
01100000
10010000
00011000
,  // measure 101
00000110
00000011
00000101
00001100
,  // measure 102
00001010
00000000
00000001
00000000
00000000
00000001
00000000
00000010
,  // measure 103
00000010
00000000
00001000
00000000
00001000
00000000
00000000
00010000
,  // measure 104
00010000
00000000
00000000
00100000
00000000
00000000
01000000
00000000
,  // measure 105
00000000
01100000
00000000
00000000
10010000
00000000
00000000
00010000
,  // measure 106
00011000
00000000
00000010
00000000
00000000
00000010
00000000
00000100
,  // measure 107
00000100
00000000
00000001
00000000
00001000
00000000
00000000
00000010
,  // measure 108
00001000
00000000
01100000
00000000
00010000
10000000
00100000
01000000
,  // measure 109
10010000
00100000
00010000
00000100
,  // measure 110
00001001
00000000
00000100
00000000
00000000
00000100
00000000
00000010
,  // measure 111
00000010
00000000
00001000
00000000
00001000
00000000
00000000
00010000
,  // measure 112
00100000
00000000
00000000
01100000
00000000
00100000
00010000
00000000
,  // measure 113
00001000
00000100
00000000
00000010
00001001
00000000
00000000
00000110
,  // measure 114
00000000
00010000
00010000
00000000
01000000
01000000
00000000
00100000
,  // measure 115
00100000
00000000
00010000
00010000
00000000
00001000
00001000
00000000
,  // measure 116
00000000
00011000
00000000
00000000
01100000
00000000
00000000
00000000
;

//---------------dance-double - ----------------
#NOTES:
     dance-double:
     :
     Hard:
     8:
     0.490,0.533,0.311,0.000,0.000: // measure 1
00000000
00000000
00000000
00000000
,  // measure 2
00000000
00000000
00000000
00000000
,  // measure 3
00000000
00000000
00000000
00000000
,  // measure 4
00000010
00001000
00000000
00010000
00001000
00000000
00100000
00010000
,  // measure 5
00000000
00100000
10000000
00000000
00010000
01000000
10000000
00000000
,  // measure 6
00100000
00010000
00000000
00001000
00010000
00000000
00000010
00001000
,  // measure 7
00000000
00000010
00000001
00000000
00001000
00000100
00000001
00000000
,  // measure 8
00000001
00000100
00000000
00000010
00001000
00000000
00010000
01000000
,  // measure 9
00000000
00100000
10000000
00000000
00010000
10000000
01000000
00000000
,  // measure 10
10000000
01000000
00000000
00100000
00010000
00000000
00001000
00000100
,  // measure 11
00000000
00000010
00000001
00000000
00001000
00000001
00000100
00000000
,  // measure 12
00000010
00010000
00001000
00010000
,  // measure 13
01000000
00000000
00000000
00000000
00100000
10000000
01000000
00000000
,  // measure 14
00100000
10000000
01000000
00010000
00000010
00001000
00000100
00000000
,  // measure 15
00000001
00000100
00001000
00010000
,  // measure 16
00100000
00000000
00100000
00000000
00100000
10000000
00010000
00000000
,  // measure 17
01000000
00000000
00000000
00000000
00100000
10000000
01000000
00000000
,  // measure 18
00100000
10000000
01000000
00010000
00001000
00000100
00000001
00000000
,  // measure 19
00001000
00000000
00000000
00000000
00000010
00001000
00000100
00000000
,  // measure 20
00000010
00000001
00000100
00001000
00010000
01000000
10000000
00000000
,  // measure 21
00100000
00000000
00000000
00000000
00010000
10000000
01000000
00000000
,  // measure 22
00010000
00000000
00000000
00000000
00000010
00001000
00000100
00000000
,  // measure 23
00000001
00000000
00000000
00000000
00000100
00001000
00010000
00000000
,  // measure 24
00100000
00000000
00100000
00000000
00100000
10000000
01000000
00000000
,  // measure 25
10000000
00000000
00010000
00000000
01000000
00001000
00010000
00000000
,  // measure 26
00000010
00000000
00001000
00000000
00000100
00010000
00001000
00000000
,  // measure 27
10000000
10000000
00010000
00010000
,  // measure 28
00001000
00000000
00001000
00000000
00000001
00000001
00000001
00000000
,  // measure 29
00000010
00000001
00000000
00000001
00000100
00000000
00000100
00001000
,  // measure 30
00000000
00001000
00010000
00000000
00010000
01000000
10000000
00000000
,  // measure 31
00100000
10000000
00000000
10000000
01000000
00000000
01000000
00010000
,  // measure 32
00000000
00010000
00001000
00000000
00001000
00000100
00000001
00000000
,  // measure 33
00000010
00000001
00000000
00000100
00000001
00000000
00001000
00000001
,  // measure 34
00000000
00000100
00000001
00001000
00000100
00000000
00000000
00000000
,  // measure 35
00000000
00000000
00100000
00010000
01000000
00000000
00000000
00000000
,  // measure 36
00000000
00000000
00100000
10000000
01000000
00000000
00000000
00000000
,  // measure 37
00000000
00000000
00100000
00001000
00010000
00000000
00000000
00000000
,  // measure 38
00000000
00000000
00100000
00000000
10000000
10000000
01000000
00000000
,  // measure 39
00010000
01000000
00000000
00001000
00010000
00000000
00001000
00000100
,  // measure 40
00000001
00000000
00000010
00000000
00000001
00000001
00000100
00000000
,  // measure 41
00001000
00000100
00000000
00010000
00001000
00000000
00010000
01000000
,  // measure 42
10000000
00000000
10100000
00000000
01010000
01000000
00100000
00000000
,  // measure 43
10000000
01000000
00000000
00010000
00001000
00000000
00001000
00000100
,  // measure 44
00000001
00000000
00000011
00000000
00001100
00000100
00000010
00000000
,  // measure 45
00000001
00000100
00000000
00001000
00010000
00000000
00010000
01000000
,  // measure 46
10000000
00000000
00100000
10000000
01000000
11000000
00000000
01000000
,  // measure 47
00010000
00001000
00010000
00001000
00000100
00000001
00000000
00000001
,  // measure 48
00001000
00000100
00000010
00000001
00000100
00000101
00000000
00000100
,  // measure 49
00001000
00010000
00001000
00010000
01000000
10000000
00000000
10000000
,  // measure 50
00000000
10000000
00010000
00100000
01000000
10000000
00000000
11000000
,  // measure 51
00000000
10010000
00100000
00001000
00010000
00000100
00000000
00001100
,  // measure 52
00000000
00000101
00000010
00000001
00000100
00000001
00000000
00000101
,  // measure 53
00000000
00001001
00000010
00010000
00001000
01000000
00000000
10010000
,  // measure 54
00000000
01000000
01000000
00000000
10000000
00000000
00010000
00000000
,  // measure 55
01000000
01000000
00000000
00001000
00010000
00000000
00000100
00000001
,  // measure 56
00000001
00000100
00000001
00001000
,  // measure 57
00000100
00000100
00000000
00010000
00001000
00000000
01000000
10000000
,  // measure 58
10000000
00000000
00010000
01000000
00100000
10000000
00000000
10000000
,  // measure 59
01000000
00010000
00001000
00000100
00000001
00001000
00000000
00000010
,  // measure 60
00000001
00000100
00001000
00010000
01000000
10000000
00000000
00100000
,  // measure 61
00010000
01000000
10000000
01000000
00010000
00100000
00000000
10010000
,  // measure 62
00000000
01010000
00010000
01000000
00100000
10000000
00000000
10000000
,  // measure 63
01000000
00010000
00001000
00000100
00000001
00001000
00000000
00000010
,  // measure 64
00000001
00000100
00001000
00010000
01000000
10000000
00000000
00100000
,  // measure 65
00010000
01000000
10000000
01000000
00010000
00100000
00000000
10010000
,  // measure 66
00000000
01000000
01000000
00000000
00000000
00000000
00000000
00000000
,  // measure 67
00000000
00000000
00001001
00000000
00000100
00001000
00000000
00001000
,  // measure 68
00000001
00000100
00000101
00000000
00000000
00000000
00000000
00000000
,  // measure 69
00000000
00000010
00010000
01000000
,  // measure 70
10000000
00000000
00000000
10000000
00000000
10000000
00000000
00010000
,  // measure 71
00000000
00010000
00000000
00001000
00000000
00001000
00000000
00000001
,  // measure 72
00000000
00000001
00000101
00000000
00001100
00000000
00010100
00000000
,  // measure 73
00011000
00010100
00011000
01010000
,  // measure 74
11000000
00000000
00100000
00000000
00000000
00001000
00010000
00010000
,  // measure 75
00000000
00000100
00010000
00001000
,  // measure 76
01000000
00000000
00100000
00000000
00000000
10000000
01000000
01000000
,  // measure 77
00000000
10000000
01000000
00010000
,  // measure 78
00001000
00000000
00000100
00000000
00000000
00000001
00000010
00000010
,  // measure 79
00000000
00001001
00000100
00010000
,  // measure 80
01000000
00000000
00100000
00000000
00000000
00010000
00010000
00000000
,  // measure 81
00000000
10010000
01000000
00001000
,  // measure 82
00000100
00000000
00000010
00000001
00000100
00001000
00000100
00000001
,  // measure 83
00000000
00001001
00000000
00011000
,  // measure 84
00000000
00000000
00100000
10000000
01000000
00010000
01000000
10000000
,  // measure 85
00000000
10010000
00000000
00011000
,  // measure 86
00000000
00000000
00000001
00001000
00000100
00000010
00000001
00000100
,  // measure 87
00000000
00001000
00000000
00010000
,  // measure 88
00000000
00000000
01000000
10000000
00010000
01000000
00100000
10000000
,  // measure 89
00000000
01000000
00000000
00001000
,  // measure 90
00000000
00000000
00011000
00011000
00000000
00000000
00000010
00000100
,  // measure 91
00000000
00000000
00011000
00011000
00000000
00000000
00100000
01000000
,  // measure 92
00000000
00000000
00001000
00010000
01000000
10000000
00100000
10000000
,  // measure 93
01000000
00010000
00001000
00000100
00000001
00000010
00000100
00001000
,  // measure 94
00000001
00000000
00000110
00000110
00000000
00000000
00010000
00001000
,  // measure 95
00000000
00000000
01100000
01100000
00000000
00000000
00001000
00010000
,  // measure 96
00000000
00000000
00010000
00001000
00000100
00000001
00000010
00000001
,  // measure 97
00000100
00001000
00010000
01000000
10000000
00100000
01000000
00010000
,  // measure 98
10000000
00000000
10010000
00000000
00000000
00100000
00000000
01000000
,  // measure 99
01000000
00000000
00010000
00000000
00001000
00000000
00000000
00000100
,  // measure 100
00000100
00000000
00000001
00001000
00000000
00000000
00000110
00000000
,  // measure 101
00000000
00000000
00000010
00000100
00001000
00010000
01000000
10000000
,  // measure 102
00000000
00000000
10000000
00000000
00000000
00010000
00000000
01000000
,  // measure 103
01000000
00000000
00001000
00000000
00001000
00000000
00000000
00000100
,  // measure 104
00000001
00000000
00000000
00000010
00000000
00000000
00000100
00000000
,  // measure 105
00000000
00010000
00000000
00000000
10000000
00000000
00000000
11000000
,  // measure 106
11000000
00000000
00100000
00000000
00000000
10000000
00000000
01000000
,  // measure 107
01000000
00000000
00010000
00000000
00001000
00000000
00000000
00000010
,  // measure 108
00000100
00000000
00000001
00001000
00000000
00000000
00000110
00000000
,  // measure 109
00000000
00000000
00000010
00000100
00001000
00010000
01000000
10000000
,  // measure 110
00000000
00000000
10010000
00000000
00000000
01000000
00000000
00001000
,  // measure 111
00010000
00000000
00000010
00000000
00000100
00000000
00000000
00001001
,  // measure 112
00001001
00000000
00000000
00010000
00000000
00000000
00001001
00000000
,  // measure 113
00000000
00000010
00000000
00000000
00011000
00000000
00000000
10000000
,  // measure 114
00000000
00000000
01010000
00000000
00000000
00000100
00000000
00000000
,  // measure 115
00000110
00000000
00000000
00010000
00000000
00000000
01100000
00000000
,  // measure 116
00000000
00001000
00000000
00000000
00001001
00000000
00000000
00000000
;
