#TITLE:NONSTOP G;
#SUBTITLE:;
#ARTIST:DYNAMITE RAVE -- CELEBRATE NITE -- CAN'T STOP FALLIN' IN LOVE;
#TITLETRANSLIT:;
#SUBTITLETRANSLIT:;
#ARTISTTRANSLIT:;
#CREDIT:;
#BANNER:NONSTOP G.png;
#BACKGROUND:NONSTOP G-bg.png;
#LYRICSPATH:;
#CDTITLE:./CDTITLES/DANCE DANCE REVOLUTION SOLO.PNG;
#MUSIC:NONSTOP G.ogg;
#OFFSET:0.000;
#SAMPLESTART:49.599;
#SAMPLELENGTH:15.000;
#SELECTABLE:YES;
#DISPLAYBPM:144.000:155.000;
#BPMS:0.000=150.002,144.000=144.138,308.000=160.594,312.000=154.934;
#STOPS:;
#BGCHANGES:;

//---------------dance-single - ----------------
#NOTES:
     dance-single:
     :
     Easy:
     3:
     0.323,0.490,0.326,0.000,0.000: // measure 1
0000
0000
0000
0000
,  // measure 2
0000
0000
0000
0000
,  // measure 3
0000
0000
0000
0000
,  // measure 4
0000
0000
0000
0000
,  // measure 5
0000
0000
0000
0000
,  // measure 6
0010
0000
0000
0000
,  // measure 7
0010
0000
0000
0000
,  // measure 8
0100
0000
0100
0000
,  // measure 9
0001
0001
1000
1000
,  // measure 10
1001
1001
0010
0010
,  // measure 11
0100
0100
0001
1000
,  // measure 12
0100
0010
0001
0100
,  // measure 13
0010
0010
1000
0100
,  // measure 14
0001
0100
1000
0100
,  // measure 15
0010
0001
0100
0100
,  // measure 16
0010
1000
0100
0010
,  // measure 17
0001
0100
1000
0100
,  // measure 18
1001
0000
0110
0000
,  // measure 19
1001
1001
0100
0010
,  // measure 20
1000
1000
0001
0100
,  // measure 21
0110
0110
0110
0001
,  // measure 22
0000
0010
0100
0000
,  // measure 23
1001
0100
0010
0000
,  // measure 24
1001
0010
1001
1001
,  // measure 25
0100
0010
0100
0000
,  // measure 26
0010
0000
0001
0000
,  // measure 27
1001
0010
0100
0001
,  // measure 28
0010
0100
0100
0100
,  // measure 29
0001
0100
0010
1000
,  // measure 30
0000
1001
1001
0000
,  // measure 31
0100
1001
1001
0000
,  // measure 32
0010
0100
1000
0001
,  // measure 33
0100
0010
0100
0000
,  // measure 34
1000
1000
1000
0001
,  // measure 35
1000
1000
1000
0001
,  // measure 36
1000
1000
1000
0001
,  // measure 37
1001
0000
0000
0000
,  // measure 38
0010
0000
0000
0000
,  // measure 39
1000
0000
0000
0000
,  // measure 40
0001
0000
1000
0001
,  // measure 41
0010
0010
0010
0010
,  // measure 42
0010
0010
0010
0010
,  // measure 43
1000
1000
0001
0001
,  // measure 44
1000
1000
0100
0100
,  // measure 45
1000
0100
1000
0110
,  // measure 46
0001
0010
0001
0110
,  // measure 47
1000
0010
0001
0010
,  // measure 48
1001
0110
1001
0000
,  // measure 49
0100
1000
0100
1001
,  // measure 50
0100
0001
0100
1001
,  // measure 51
1000
0010
0001
0010
,  // measure 52
1001
0110
1001
0000
,  // measure 53
0001
0001
0001
0001
,  // measure 54
0001
0001
0001
0010
,  // measure 55
1000
1000
1000
0100
,  // measure 56
0001
0001
0001
0100
,  // measure 57
1000
0010
0001
0010
,  // measure 58
1000
0010
0001
0010
,  // measure 59
1000
0000
0010
0000
,  // measure 60
0001
0000
0100
0000
,  // measure 61
0010
1001
0100
1001
,  // measure 62
0100
0110
0001
0110
,  // measure 63
1000
0010
0001
0110
,  // measure 64
0001
0010
1000
0110
,  // measure 65
1001
0010
0100
0110
,  // measure 66
1001
0010
0100
0110
,  // measure 67
1000
0100
0001
0010
,  // measure 68
1000
0000
0000
0110
,  // measure 69
1000
0001
0010
0110
,  // measure 70
0001
1000
0010
0110
,  // measure 71
0100
1000
0100
0100
,  // measure 72
0001
0010
0001
0001
,  // measure 73
1000
0010
0001
0100
,  // measure 74
1000
0010
0001
0100
,  // measure 75
1001
0110
1001
0110
,  // measure 76
1001
0110
1000
1001
,  // measure 77
0001
0001
0001
0001
,  // measure 78
0100
0000
0000
0000
,  // measure 79
0000
0000
0000
0000
,  // measure 80
0000
0010
0000
1001
,  // measure 81
0000
1001
0000
0100
,  // measure 82
0000
0001
0000
0100
,  // measure 83
0000
1000
0000
0100
,  // measure 84
0000
1000
0000
0001
,  // measure 85
0000
0100
0000
1001
,  // measure 86
0000
0010
1000
0100
,  // measure 87
0001
0000
1001
1001
,  // measure 88
0000
0010
0001
0100
,  // measure 89
1000
0000
1001
1001
,  // measure 90
0000
0100
0000
0100
,  // measure 91
0000
0010
0000
1001
,  // measure 92
0000
0010
0001
0010
,  // measure 93
0000
1000
0010
1000
,  // measure 94
0000
0001
0010
1000
,  // measure 95
0000
0100
0010
0001
,  // measure 96
0000
0100
0010
1000
,  // measure 97
0000
0100
0010
0100
,  // measure 98
0000
0001
0100
1000
,  // measure 99
0000
1000
0100
0001
,  // measure 100
0000
0001
0100
1000
,  // measure 101
0000
1000
0100
0001
,  // measure 102
1000
0010
0001
0010
,  // measure 103
0000
0100
0100
0100
,  // measure 104
0001
0010
1000
0010
,  // measure 105
0000
0100
0100
0100
,  // measure 106
1001
0010
1000
0010
,  // measure 107
0000
0100
0100
0100
,  // measure 108
0010
1001
1001
0100
,  // measure 109
0000
0100
0100
0100
,  // measure 110
1000
0000
1000
0000
1000
0000
1000
0100
,  // measure 111
1000
0000
1000
0000
1000
0000
1000
0010
,  // measure 112
1000
0000
1000
0000
1000
0000
1000
0100
,  // measure 113
1000
0001
0001
0001
;

//---------------dance-single - ----------------
#NOTES:
     dance-single:
     :
     Medium:
     6:
     0.398,0.521,0.391,0.000,0.008: // measure 1
0000
0000
0000
0000
,  // measure 2
0000
0000
0000
0000
,  // measure 3
0000
0000
0000
0000
,  // measure 4
0000
0000
0000
0000
,  // measure 5
0000
0000
0000
0000
,  // measure 6
0010
0000
0000
0000
,  // measure 7
0010
0000
0000
0000
,  // measure 8
0100
0000
0100
0000
,  // measure 9
0001
0001
1000
1000
,  // measure 10
0001
0000
0001
0000
0010
1000
0100
0000
,  // measure 11
0010
0001
0001
0000
0100
0010
0010
0000
,  // measure 12
1000
0100
0010
0000
0001
0100
0010
0000
,  // measure 13
1000
0100
0100
0000
0010
0001
0001
0000
,  // measure 14
1000
0100
0001
0000
0001
0100
1000
0000
,  // measure 15
0001
0010
0100
0000
1000
0001
0100
0000
,  // measure 16
1000
1000
1000
0000
0100
0100
0100
0000
,  // measure 17
1000
0010
0100
0000
1000
0000
0001
0000
,  // measure 18
1001
0000
0101
0000
,  // measure 19
0100
0010
0000
0001
,  // measure 20
0000
1000
1000
0001
,  // measure 21
1000
0010
0010
0100
,  // measure 22
0000
0100
0010
0000
,  // measure 23
0010
0100
0010
0100
0000
0000
0000
0000
,  // measure 24
0001
0010
0100
1000
,  // measure 25
0011
0101
1001
0000
,  // measure 26
1010
0000
0101
0000
,  // measure 27
1000
0010
0000
0100
,  // measure 28
0000
0100
0001
0100
,  // measure 29
0010
0010
0100
0010
,  // measure 30
0000
0100
0010
0000
,  // measure 31
0100
0010
1000
0001
0000
0000
0000
0000
,  // measure 32
0100
0100
0010
0010
,  // measure 33
1001
0110
1001
0000
,  // measure 34
1000
0000
0000
0001
0000
0000
0100
0000
0000
0000
0010
0000
1000
0000
0001
0000
,  // measure 35
1000
0000
0000
0001
0000
0000
0100
0000
0000
0000
0010
0000
1000
0000
0001
0000
,  // measure 36
1000
0000
0000
0001
0000
0000
0100
0000
0000
0000
0010
0000
1000
0000
0001
0000
,  // measure 37
0101
0000
0000
0000
,  // measure 38
0010
0000
0000
0000
,  // measure 39
0010
0000
0000
0000
,  // measure 40
0100
0100
0100
0100
,  // measure 41
1000
0000
0100
0000
0001
0000
0001
0010
,  // measure 42
1000
0000
0100
0000
0001
0000
0001
0010
,  // measure 43
1000
0010
0001
0010
,  // measure 44
1000
1000
1000
1000
0001
0001
0001
0001
,  // measure 45
0010
1100
0010
1100
,  // measure 46
0010
0101
0010
0101
,  // measure 47
0011
1100
0011
1100
,  // measure 48
1001
0110
1001
0000
,  // measure 49
0010
0101
0010
0101
,  // measure 50
0010
1100
0010
1100
,  // measure 51
1010
0101
1010
0101
,  // measure 52
0010
1000
0001
0100
1000
0000
0110
0000
,  // measure 53
0001
0000
0000
0000
,  // measure 54
1000
0000
0000
0000
,  // measure 55
0010
0000
0010
0000
,  // measure 56
0100
0100
0100
0100
,  // measure 57
0001
0010
1000
0000
0001
0100
0001
0000
,  // measure 58
1000
0010
0001
0000
1000
0100
1000
0000
,  // measure 59
0010
0010
0010
0010
,  // measure 60
0100
0000
0000
0000
0000
1001
0110
0000
,  // measure 61
1000
0000
1000
0000
0001
0010
1000
0000
,  // measure 62
0001
0000
0001
0000
1000
0010
0001
0000
,  // measure 63
0100
1010
0100
0011
,  // measure 64
0001
0010
1000
0110
,  // measure 65
0001
0000
0001
0000
1000
0100
0001
0000
,  // measure 66
1000
0000
1000
0000
0001
0100
1000
0000
,  // measure 67
1100
1001
0011
0110
,  // measure 68
1001
0000
0000
0000
0110
1000
0001
0000
,  // measure 69
1000
0100
0001
0100
,  // measure 70
0101
1100
0101
1100
,  // measure 71
0001
0100
1000
0100
,  // measure 72
0101
1100
0101
1100
,  // measure 73
0010
0000
0010
0000
0010
1000
0100
0000
,  // measure 74
0010
0000
0010
0000
0010
0001
0010
0000
,  // measure 75
1100
0011
0101
1010
,  // measure 76
0110
0000
1001
0000
0110
1000
0001
0000
,  // measure 77
1000
1000
1000
1000
,  // measure 78
0100
0000
0000
0000
,  // measure 79
0000
0000
0000
0000
,  // measure 80
0001
0100
0100
1000
,  // measure 81
0010
0000
1001
0000
0010
0001
0100
0000
,  // measure 82
0010
1000
1000
0001
,  // measure 83
0100
1000
0100
0001
,  // measure 84
0100
0000
1000
0000
0100
1000
0010
0000
,  // measure 85
1001
0000
1001
0000
0010
1000
0100
0000
,  // measure 86
0010
0001
0100
1000
,  // measure 87
1001
1000
0100
0100
,  // measure 88
0010
1000
0100
0001
,  // measure 89
1001
0001
0100
0100
,  // measure 90
1000
0100
0001
0100
,  // measure 91
0010
1000
0010
0001
,  // measure 92
1001
0100
0001
0010
,  // measure 93
1000
0010
0001
0010
,  // measure 94
1001
0000
0010
0000
0001
0100
0100
0000
,  // measure 95
1001
0000
0010
0000
1000
0100
0100
0000
,  // measure 96
0001
0000
0100
0000
0100
0001
1000
0000
,  // measure 97
0100
0000
0100
0000
0001
1000
0001
0000
,  // measure 98
1000
0000
0010
0000
0001
1000
0100
0000
,  // measure 99
0001
0010
1000
0100
,  // measure 100
0010
0010
1001
0010
,  // measure 101
1000
0010
1001
0010
,  // measure 102
0001
0000
0100
0000
0010
0010
0100
0000
,  // measure 103
1000
0000
0010
0000
1000
0001
0100
0000
,  // measure 104
1000
0000
0100
0000
0010
1000
0100
0000
,  // measure 105
0001
0000
0010
0000
0001
1000
0100
0000
,  // measure 106
0001
0000
1000
0000
0100
0000
0001
0100
,  // measure 107
0000
0010
0000
1000
0000
0010
0100
0000
,  // measure 108
0110
0000
1001
0000
0010
0100
0100
0000
,  // measure 109
0001
0000
0100
0000
1000
0001
0100
0000
,  // measure 110
1001
0000
0100
0000
0010
1000
0100
0000
,  // measure 111
1001
0000
0100
0000
0010
0001
0100
0000
,  // measure 112
0100
0000
0110
0000
1000
0001
0100
0000
,  // measure 113
1000
0010
0001
0001
;

//---------------dance-single - ----------------
#NOTES:
     dance-single:
     :
     Hard:
     8:
     0.547,0.674,0.359,0.000,0.101: // measure 1
0000
0000
0000
0000
,  // measure 2
0000
0000
0000
0000
,  // measure 3
0000
0000
0000
0000
,  // measure 4
0000
0000
0000
0000
,  // measure 5
0000
0000
0000
0000
,  // measure 6
0010
0000
0000
0000
,  // measure 7
0010
0000
0000
0000
,  // measure 8
0100
0100
0100
0100
,  // measure 9
0010
0010
0010
1001
,  // measure 10
0000
0000
0000
0000
0101
0000
0000
0000
0001
1000
0001
0000
1000
0000
0000
0000
,  // measure 11
0100
0000
0010
0000
0001
0000
0100
0000
0001
0100
0001
0000
1000
0000
0100
0000
,  // measure 12
1000
0000
0001
0000
1000
0000
0000
0000
0100
0010
0100
0000
1000
0000
0000
0000
,  // measure 13
0001
0000
0100
0000
0010
0000
1000
0000
0100
1000
0100
0000
0010
0000
0001
0000
,  // measure 14
0100
0000
0010
0000
1000
0000
0000
0000
0001
0100
0001
0000
1000
0000
0000
0000
,  // measure 15
0100
0000
0010
0000
0001
0000
0100
0000
0010
1000
0010
0000
0100
0000
0001
0000
,  // measure 16
0010
0000
0100
0000
1000
0000
0000
0000
0001
1000
0001
0000
0100
0000
0000
0000
,  // measure 17
0010
0000
1000
0000
0100
0000
0010
0000
0001
0100
0001
0000
0010
0000
0000
0000
,  // measure 18
1001
0100
0000
0100
1001
0010
0000
0010
,  // measure 19
0100
1000
0100
0010
0000
0010
0001
0100
,  // measure 20
0000
0010
1000
0100
0010
0001
0000
1000
,  // measure 21
0000
0100
0010
0001
0100
0010
0100
0010
,  // measure 22
0000
0000
0100
0001
0010
0001
0000
1000
,  // measure 23
0100
0010
0001
0100
0000
0100
0000
0100
,  // measure 24
0010
1000
0100
0010
0001
0100
0010
1000
,  // measure 25
1100
0000
0101
1010
1001
0000
0000
0000
,  // measure 26
1001
0100
0000
0010
1001
0100
0000
0100
,  // measure 27
1000
0100
0010
0001
0100
0010
1000
0010
,  // measure 28
0000
1000
0100
0010
0001
0100
0010
1000
,  // measure 29
0100
0100
0010
0001
0100
0010
0010
0010
,  // measure 30
0000
0000
0100
0100
0010
1000
0000
0000
,  // measure 31
1000
0001
0010
0100
1000
0001
0100
0010
,  // measure 32
1000
0100
0010
0001
0100
0010
0100
0010
,  // measure 33
1001
0000
0110
0110
1001
0000
0000
0000
,  // measure 34
0100
0010
0000
0100
0010
0000
0100
0010
0000
0000
1000
0000
0100
0000
0110
0000
,  // measure 35
0100
0010
0000
0100
0010
0000
0100
0010
0000
0000
1000
0000
0100
0000
0110
0000
,  // measure 36
0100
0010
0000
0100
0010
0000
0100
0010
0000
0000
1000
0000
0100
0000
0110
0000
,  // measure 37
1001
0000
0000
0000
,  // measure 38
0010
0000
0000
0000
,  // measure 39
0010
0000
0000
0000
,  // measure 40
0010
0000
0000
0000
1001
0010
1001
0000
,  // measure 41
0100
0001
0010
0000
0100
1000
0010
1000
,  // measure 42
0001
1000
0100
0000
0010
0001
1000
0001
,  // measure 43
0010
1000
1100
0000
0010
0001
0011
0000
,  // measure 44
0110
0000
0000
0000
0000
0000
0000
0000
0010
0001
0010
0001
0010
0000
0000
0000
,  // measure 45
1000
0010
0001
0000
1000
0010
0001
0100
,  // measure 46
0001
0010
1000
0000
0001
0010
1000
0100
,  // measure 47
0001
0001
0011
0000
1000
1000
1100
0000
,  // measure 48
1001
0000
0110
0000
1001
0000
0010
0100
,  // measure 49
0001
1000
0100
0000
1000
0001
0010
0100
,  // measure 50
0010
0100
0001
0000
0010
0100
1000
0000
,  // measure 51
0110
0000
0110
0000
0010
0100
0010
0100
,  // measure 52
0010
0001
0100
1000
0001
0000
0110
0000
,  // measure 53
1000
0100
0001
0100
,  // measure 54
1000
0100
0001
0100
,  // measure 55
1000
0010
0001
0010
,  // measure 56
1000
0000
0000
0000
1000
0000
0000
0000
0010
0100
0010
0100
0010
0000
0000
0000
,  // measure 57
0001
0010
1000
0000
1000
0100
0001
0010
,  // measure 58
1000
0100
0001
0000
0001
0010
1000
0100
,  // measure 59
0011
1010
1100
0101
,  // measure 60
0110
0000
0000
0000
0000
0000
0000
0000
1000
0001
1000
0001
1000
0000
0000
0000
,  // measure 61
0001
0010
0001
0000
0010
0001
1000
0100
,  // measure 62
1000
0010
1000
0000
0010
1000
0001
0100
,  // measure 63
0010
0000
1100
0000
0010
0000
0101
1000
,  // measure 64
0010
0000
1100
0000
0010
1000
0101
0000
,  // measure 65
1000
0100
0001
0000
0001
0010
1000
0000
,  // measure 66
0010
0001
0100
0000
0100
1000
0010
0000
,  // measure 67
0011
0000
0011
0000
1000
0100
1000
0100
,  // measure 68
0001
0000
0000
0000
0000
0000
0000
0000
0000
0000
0100
0010
0100
0000
0000
0000
,  // measure 69
0001
0010
0100
0000
0100
0010
1000
0100
,  // measure 70
1000
0001
0010
0000
0010
1000
0100
0001
,  // measure 71
0010
1000
0100
0001
0010
1000
0100
0000
,  // measure 72
1010
0000
0101
0000
1000
0010
0100
0001
,  // measure 73
1000
0010
0100
0000
0001
0010
0100
0010
,  // measure 74
1000
0001
0010
0000
1000
0001
0010
0100
,  // measure 75
1000
1000
0010
0000
0001
0001
0010
0000
,  // measure 76
0110
0000
1001
0000
0010
0001
0100
0000
,  // measure 77
0100
1000
0100
0010
0001
0010
0001
0100
,  // measure 78
1000
0000
0000
0000
,  // measure 79
0000
0000
0000
0000
,  // measure 80
1010
0000
0100
0001
0000
0010
0001
0010
,  // measure 81
0000
1100
0000
0011
0000
1100
0000
0000
,  // measure 82
0001
0000
1000
0100
0000
1000
0000
0010
,  // measure 83
0000
0001
0000
1000
0000
0001
0000
0010
,  // measure 84
0000
0001
0100
0000
0010
1000
0100
0000
,  // measure 85
0010
0001
0100
0000
0010
1000
0100
0000
,  // measure 86
0000
0011
0000
1000
0000
1010
0000
0100
,  // measure 87
0000
1001
0000
0101
0000
0010
0010
0000
,  // measure 88
1000
1000
0000
0001
0000
0101
0000
1000
,  // measure 89
0000
1100
0000
0011
0000
0100
0010
0000
,  // measure 90
1000
0100
0001
0000
0001
0100
1000
0000
,  // measure 91
0001
0010
0001
1000
0010
1000
0100
0000
,  // measure 92
0010
0001
1000
0000
0001
0100
0001
0000
,  // measure 93
1000
0100
1000
0100
1000
0001
1000
0000
,  // measure 94
0110
0000
1001
0000
0100
0010
0100
0000
,  // measure 95
0010
1000
0001
1000
0001
0010
0100
0000
,  // measure 96
1000
0000
0001
0000
1000
0100
0010
0000
,  // measure 97
0001
0100
0010
1000
0001
0100
0001
0000
,  // measure 98
0010
0001
0100
0000
1010
0000
0101
0000
,  // measure 99
0010
1000
0100
0000
0110
0000
1001
0000
,  // measure 100
0100
0010
0001
0000
1000
0010
1000
0000
,  // measure 101
0001
0100
0001
0010
0100
1000
0010
0000
,  // measure 102
1000
0001
1000
0100
0010
0001
1000
0100
,  // measure 103
1000
0001
0010
0001
0100
0001
0010
0100
,  // measure 104
1000
0001
1000
0001
0100
0010
1000
0100
,  // measure 105
1000
0001
0010
0001
0100
0001
1000
0100
,  // measure 106
0010
0001
1000
0100
0010
0001
1000
0100
,  // measure 107
0000
1010
0000
0101
0000
0010
0100
0000
,  // measure 108
0001
0100
1000
0000
1000
0100
0001
0000
,  // measure 109
0100
0001
1000
0100
1000
0001
0100
0000
,  // measure 110
0001
0100
0000
0000
1000
0100
0000
0000
0001
0000
0000
1000
0100
0000
0000
0000
,  // measure 111
1000
0100
0000
0000
0001
0100
0000
0000
1000
0000
0000
0001
0100
0000
0000
0000
,  // measure 112
0001
0100
0000
0000
1000
0100
0000
0000
0001
0000
0000
1000
0100
0000
0000
0000
,  // measure 113
0010
0100
0000
1000
0100
0000
1000
0001
0000
0100
0010
0000
1001
0000
0000
0000
;

//---------------dance-solo - ----------------
#NOTES:
     dance-solo:
     :
     Easy:
     3:
     0.314,0.398,0.255,0.000,0.000:
000000
000000
000000
000000
,
000000
000000
000000
000000
,
000000
000000
000000
000000
,
000000
000000
000000
000000
,
000000
000000
000000
000000
,
000100
000000
000000
000000
,
000100
000000
000000
000000
,
000001
000000
100000
000000
,
000010
000010
010000
010000
,
010010
100001
000100
000100
,
001000
001000
000001
100000
,
001000
000100
000001
001000
,
000100
000100
100000
001000
,
000001
001000
100000
001000
,
000100
000001
001000
001000
,
000100
100000
001000
000100
,
000001
001000
100000
001000
,
100001
000000
001100
000000
,
010010
100001
001000
000100
,
010000
010000
000001
001000
,
001100
001100
001100
000001
,
000000
000100
001000
000000
,
100001
001000
000100
000000
,
100001
000100
010010
100001
,
001000
000100
001000
000000
,
000100
000000
000001
000000
,
100001
000100
001000
000001
,
000100
001000
001000
001000
,
000001
001000
000100
100000
,
000000
010010
100001
000000
,
001000
100001
010010
000000
,
000100
001000
100000
000001
,
001000
000100
001000
000000
,
010000
010000
100000
000001
,
010000
010000
100000
000001
,
010000
010000
100000
000001
,
010010
000000
000000
000000
,
000100
000000
000000
000000
,
100000
000000
000000
000000
,
000001
000000
100000
000001
,
000100
000100
000100
000100
,
000100
000100
000100
000100
,
010000
010000
000010
000010
,
100000
000001
100000
001000
,
100000
010000
100000
001000
,
000001
001000
100000
000001
,
100000
010000
100000
001000
,
000001
000100
100000
000001
,
001000
100000
001000
000001
,
100000
000100
000001
100000
,
010000
000100
000001
001000
,
100001
001100
100001
000000
,
000010
000010
000010
000001
,
000010
000010
000010
000100
,
100000
100000
100000
001000
,
000001
000001
000001
001000
,
100000
010000
000001
001000
,
000001
000010
100000
001000
,
100000
000000
000100
000000
,
000001
000000
001000
000000
,
100000
010010
000001
100001
,
001000
001100
000001
001100
,
100000
000100
000001
001100
,
000001
000100
100000
001100
,
100001
000100
001000
001100
,
100001
000100
001000
001100
,
100000
001000
000001
000100
,
100000
000000
000000
010010
,
100000
010000
100000
001000
,
000001
001000
100000
000001
,
100000
010000
100000
001000
,
000001
000100
000001
100000
,
000001
001000
100000
001000
,
100000
000100
000001
001000
,
100000
010000
000001
000010
,
100001
001100
100001
100000
,
000001
000001
000001
000100
,
001000
000000
000000
000000
,
000000
000000
000000
000000
,
000000
000100
000000
010010
,
000000
100001
000000
001000
,
000000
000001
000000
001000
,
000000
100000
000000
001000
,
000000
100000
000000
000001
,
000000
001000
000000
100001
,
000000
000100
100000
001000
,
000001
000000
010010
100001
,
000000
000100
000001
001000
,
100000
000000
010010
100001
,
000000
001000
000000
001000
,
000000
000100
000000
100001
,
000000
000010
000010
000010
,
000000
010000
010000
010000
,
000000
000010
000100
010000
,
000000
010000
000100
000010
,
000000
000010
000100
010000
,
000000
010000
000100
000010
,
000000
000001
001000
100000
,
000000
100000
001000
000001
,
000000
000001
001000
100000
,
000000
100000
001000
000001
,
010000
000100
000010
000100
,
000000
001000
001000
001000
,
000010
000100
010000
000100
,
000000
001000
001000
001000
,
010010
000100
010000
000100
,
000000
001000
001000
001000
,
000100
010010
100001
001000
,
000000
001000
001000
001000
,
100000
000000
100000
000000
100000
000000
100000
001000
,
100000
000000
100000
000000
100000
000000
100000
000100
,
100000
000000
100000
000000
100000
000000
100000
001000
,
100000
000001
000001
000001
;

//---------------dance-solo - ----------------
#NOTES:
     dance-solo:
     :
     Medium:
     6:
     0.398,0.521,0.402,0.000,0.008:
000000
000000
000000
000000
,
000000
000000
000000
000000
,
000000
000000
000000
000000
,
000000
000000
000000
000000
,
000000
000000
000000
000000
,
000100
000000
000000
000000
,
000100
000000
000000
000000
,
000001
000000
100000
000000
,
000010
000010
010000
010000
,
000001
000000
000001
000000
000100
100000
001000
000000
,
000100
000001
000001
000000
001000
000100
000100
000000
,
100000
001000
000100
000000
000001
001000
000100
000000
,
100000
001000
001000
000000
000100
000001
000001
000000
,
100000
001000
000001
000000
000001
001000
100000
000000
,
000001
000100
001000
000000
100000
000001
001000
000000
,
010000
010000
010000
000000
000001
000001
000001
000000
,
100000
000100
000010
000000
100000
000000
000001
000000
,
100001
000000
010010
000000
,
100000
000001
000000
000001
,
000000
010000
010000
000010
,
100000
000001
001000
000100
,
000000
001000
000100
000000
,
000100
001000
000100
001000
000000
000000
000000
000000
,
000001
000100
001000
100000
,
101000
000101
010010
000000
,
000101
000000
101000
000000
,
010000
000010
000000
100000
,
000000
000100
000001
000001
,
010000
000010
100000
001000
,
000000
001000
000100
000000
,
100000
000001
000100
001000
000000
000000
000000
000000
,
000100
001000
000100
000100
,
100001
001100
100001
000000
,
100000
000000
000000
000001
000000
000000
001000
000000
000000
000000
000100
000000
100000
000000
000001
000000
,
100000
000000
000000
000001
000000
000000
001000
000000
000000
000000
000100
000000
100000
000000
000001
000000
,
100000
000000
000000
000001
000000
000000
001000
000000
000000
000000
000100
000000
100000
000000
000001
000000
,
001001
000000
000000
000000
,
000100
000000
000000
000000
,
000100
000000
000000
000000
,
001000
001000
001000
001000
,
100000
000000
001000
000000
000001
000000
000100
000010
,
000001
000000
100000
000000
000001
000000
100000
000100
,
000010
010000
000001
000100
,
010000
010000
100000
000000
000010
000010
000001
000000
,
000100
101000
000100
101000
,
000100
001001
000100
001001
,
000101
101000
000101
101000
,
100001
001100
100001
000000
,
000100
000101
000100
000101
,
000100
101000
000100
101000
,
100100
001001
100100
001001
,
000100
010000
000010
100000
000001
000000
001100
000000
,
000001
000000
000000
000000
,
100000
000000
000000
000000
,
000010
000000
000010
000000
,
100000
100000
000010
010000
,
000010
000100
010000
000000
000001
000010
000001
000000
,
010000
000100
000010
000000
100000
010000
100000
000000
,
000100
000100
000100
000100
,
001000
000000
000000
000000
000000
100010
010001
000000
,
100000
000000
100000
000000
000001
000100
010000
000000
,
000001
000000
000001
000000
100000
000100
000010
000000
,
100000
100100
000001
000101
,
000001
000100
100000
001100
,
100000
000000
110000
000000
000100
010000
100000
000000
,
000001
000000
000011
000000
000100
000010
000001
000000
,
100100
100001
001001
100001
,
001100
000000
000000
000000
010010
000001
000100
000000
,
100000
001000
000001
001000
,
001001
101000
001001
101000
,
000001
001000
100000
001000
,
000101
101000
001001
100100
,
010000
000000
010000
000000
000100
010000
100000
000000
,
000010
000000
000010
000000
000100
000010
000001
000000
,
101000
000101
001001
100100
,
001100
000000
100001
000000
010010
100000
000001
000000
,
010000
010000
000010
000010
,
001000
000000
000000
000000
,
000000
000000
000000
000000
,
000001
001000
001000
100000
,
000100
000000
010010
000000
000100
000001
001000
000000
,
000100
100000
100000
000001
,
001000
100000
001000
000001
,
001000
000000
100000
000000
001000
100000
000100
000000
,
010010
000000
100001
000000
000100
100000
001000
000000
,
000100
000001
001000
100000
,
010010
100000
001000
001000
,
000100
100000
001000
000001
,
010010
000001
001000
001000
,
100000
001000
000001
001000
,
000100
100000
000100
000001
,
100001
001000
000001
000100
,
100000
000100
000001
000100
,
010010
000000
000100
000000
000001
000001
001000
000000
,
010010
000000
000100
000000
100000
000001
001000
000000
,
000001
000000
001000
000000
001000
001000
100000
000000
,
001000
000000
001000
000000
000001
100000
000001
000000
,
100000
000000
000100
000000
000001
100000
001000
000000
,
000001
000100
100000
001000
,
000100
000100
010010
000100
,
010000
010000
100001
000100
,
000001
000000
001000
000000
000100
000100
001000
000000
,
100000
000000
000100
000000
010000
000001
001000
000000
,
100000
000000
001000
000000
000100
100000
001000
000000
,
000001
000000
000100
000000
000010
100000
001000
000000
,
000001
000000
100000
000000
001000
000000
000001
001000
,
000000
000100
000000
100000
000000
000100
001000
000000
,
001100
000000
100001
000000
000100
001000
001000
000000
,
000001
000000
001000
000000
100000
000001
001000
000000
,
100001
000000
001000
000000
000100
100000
001000
000000
,
100001
000000
001000
000000
000100
000001
001000
000000
,
001000
000000
001100
000000
100000
000001
001000
000000
,
100000
000100
000001
000001
;

//---------------dance-solo - ----------------
#NOTES:
     dance-solo:
     :
     Hard:
     8:
     0.548,0.674,0.342,0.000,0.103:
000000
000000
000000
000000
,
000000
000000
000000
000000
,
000000
000000
000000
000000
,
000000
000000
000000
000000
,
000000
000000
000000
000000
,
000100
000000
000000
000000
,
000100
000000
000000
000000
,
010000
010000
010000
010000
,
000010
000010
100000
010010
,
100100
000000
000000
000000
000101
000000
000000
000000
000010
010000
000010
000000
100000
000000
000000
000000
,
001000
000000
000100
000000
000001
000000
001000
000000
000001
001000
000001
000000
100000
000000
001000
000000
,
100000
000000
000001
000000
100000
000000
000000
000000
001000
000100
001000
000000
100000
000000
000000
000000
,
000001
000000
001000
000000
000100
000000
100000
000000
001000
100000
001000
000000
000100
000000
000001
000000
,
001000
000000
000100
000000
100000
000000
000000
000000
000001
001000
000001
000000
100000
000000
000000
000000
,
001000
000000
000100
000000
000001
000000
001000
000000
000100
100000
000100
000000
001000
000000
000001
000000
,
000100
000000
001000
000000
100000
000000
000000
000000
000001
100000
000001
000000
001000
000000
000000
000000
,
000100
000000
100000
000000
001000
000000
000100
000000
000001
001000
000001
000000
000100
000000
000000
000000
,
100001
001000
000000
001000
100001
000100
000000
000100
,
100000
000100
000010
010000
000000
000100
000001
001000
,
000000
100000
010000
001000
000010
000100
000000
100000
,
000000
001000
000100
000001
001000
000100
001000
000100
,
000000
000000
001000
000001
000100
000001
000000
000100
,
010000
010000
000010
100000
000000
000001
000000
001000
,
000100
100000
001000
000100
000001
001000
000100
100000
,
101000
000000
001001
100100
010010
000000
000000
000000
,
100001
001000
000000
000100
100001
001000
000000
000100
,
010000
000100
000010
000100
001000
000100
100000
000100
,
000000
100000
001000
000100
000001
001000
000100
010000
,
010000
100000
000010
000001
100000
001000
001000
001000
,
000000
000000
001000
001000
000100
100000
000000
000000
,
100000
000001
000100
001000
100000
000001
001000
000100
,
100000
001000
000100
000001
001000
000100
001000
000100
,
100001
000000
001100
001100
100001
000000
000000
000000
,
001000
000100
000000
001000
000100
000000
001000
000100
000000
000000
100000
000000
001000
000000
001100
000000
,
001000
000100
000000
001000
000100
000000
001000
000100
000000
000000
100000
000000
001000
000000
001100
000000
,
001000
000100
000000
001000
000100
000000
001000
000100
000000
000000
100000
000000
001000
000000
001100
000000
,
100001
000000
000000
000000
,
000010
000000
000000
000000
,
000010
000000
000000
000000
,
000010
000000
000000
000000
010010
000100
100001
000000
,
000100
000001
100000
000000
001000
000001
001000
000000
,
100000
001000
000001
000000
001000
100000
000001
000000
,
000100
000010
000001
100000
001000
000001
001000
000000
,
001000
100000
001000
100000
000000
000000
000001
000100
000001
000100
000001
000100
000001
000000
000000
000000
,
010000
000100
000001
000000
010000
000100
000010
100000
,
000001
000100
100000
000000
000010
000100
100000
000001
,
000100
000100
000101
000000
100000
100000
101000
000000
,
100001
000000
001100
000000
010010
000000
000010
100000
,
000001
100000
001000
000000
100000
000001
000100
001000
,
000100
001000
000001
000000
000100
001000
100000
000000
,
001100
000000
001100
000000
000100
001000
000100
001000
,
000100
000001
001000
100000
000001
000000
001100
000000
,
100000
000000
000001
000000
,
010000
000000
000010
000000
,
010000
010000
000010
000010
,
100000
000000
000000
000000
100000
000000
000000
000000
000001
001000
000001
001000
000001
000000
000000
000000
,
000001
000100
100000
000000
100000
001000
000001
000100
,
100000
001000
000001
000000
000001
000100
100000
001000
,
000001
000100
100000
001000
000001
000100
100000
001000
,
000001
000001
000001
010100
,
000010
000100
000010
000000
000001
000100
000001
100000
,
001000
100000
001000
000000
100000
001000
100000
000000
,
001001
000000
100100
000000
001000
000001
000100
000000
,
000101
000000
101000
000000
000100
000010
010000
000100
,
100000
000001
000001
000000
000100
000010
010000
000100
,
100000
000100
000100
000000
001000
100000
000100
000000
,
000101
000000
000101
000000
100000
001000
100000
001000
,
000001
000000
000000
000000
000000
000000
000000
000000
000000
000000
001000
000100
001000
000000
000000
000000
,
000001
000100
001000
000000
000100
001000
100000
000100
,
000100
001000
000001
000000
000100
001000
000001
000000
,
000010
000001
100000
010000
100000
000001
000010
000000
,
100100
000000
001001
000000
100000
000100
001000
000001
,
100000
000100
001000
000001
100000
001000
000001
000000
,
100000
000100
000001
000000
100000
001000
000001
001000
,
100000
000010
010000
000001
100000
001000
000001
000000
,
001100
100001
010010
000000
,
010000
100000
000001
000010
000001
100000
010000
100000
,
000001
000000
000000
000000
,
000000
000000
000000
000000
,
100010
000000
001000
000001
000000
000100
000010
000010
,
000000
101000
000000
000101
000000
011000
000000
000000
,
000001
000000
100000
001000
000000
010000
000000
010000
,
000000
000001
000000
100000
000000
000010
000000
000010
,
000000
100000
001000
000000
010000
000001
001000
000000
,
000010
000100
001000
000000
010000
000100
001000
000000
,
000000
001001
000000
100000
000000
100100
000000
000001
,
000000
010010
000000
001001
000000
000100
000100
000000
,
100000
100000
000000
000001
000000
001001
000000
100000
,
000000
010010
000000
101000
000000
000100
001000
000000
,
000001
001000
100000
000000
100000
001000
000001
000000
,
100000
000100
010000
000010
000100
000001
000010
000000
,
100000
001000
010000
000000
000001
001000
000010
000000
,
100000
001000
010000
001000
100000
000001
100000
000000
,
001100
000000
100001
000000
001000
010000
001000
000000
,
000100
000001
010000
000010
100000
000100
001000
000000
,
000011
000000
110000
000000
000010
001000
000100
000000
,
100000
001000
000100
000001
010000
001000
100000
000000
,
000100
000001
001000
000000
100100
000000
001001
000000
,
000100
000010
001000
000000
011000
000000
100001
000000
,
000010
000100
000001
000000
010000
000100
100000
000000
,
000001
001000
000010
000100
001000
010000
000100
000000
,
100000
000001
010000
001000
000100
000001
100000
001000
,
010000
000001
000100
000010
001000
000001
000100
001000
,
010000
000001
100000
000010
001000
000100
100000
001000
,
010000
000001
000100
000010
001000
000001
100000
001000
,
000100
000001
100000
001000
000100
000001
010000
001000
,
000000
100010
000000
010001
000000
000010
001000
000000
,
000001
001000
100000
000000
100000
001000
000001
000000
,
001000
000001
010000
001000
100000
000010
001000
000000
,
000001
001000
000000
000000
100000
001000
000000
000000
000001
000000
000000
100000
001000
000000
000000
000000
,
100000
001000
000000
000000
000001
001000
000000
000000
100000
000000
000000
000001
001000
000000
000000
000000
,
000001
001000
000000
000000
100000
001000
000000
000000
000001
000000
000000
100000
001000
000000
000000
000000
,
000100
001000
000000
000010
001000
000000
000001
100000
000000
001000
010000
000000
110011
000000
000000
000000
;

//---------------dance-double - ----------------
#NOTES:
     dance-double:
     :
     Easy:
     4:
     0.335,0.429,0.261,0.000,0.000:
00000000
00000000
00000000
00000000
,
00000000
00000000
00000000
00000000
,
00000000
00000000
00000000
00000000
,
00000000
00000000
00000000
00000000
,
00000000
00000000
00000000
00000000
,
00000001
00000000
00000000
00000000
,
00001000
00000000
00000000
00000000
,
00010000
00000000
10000000
00000000
,
01000000
00010000
00001000
00100000
,
01001000
00011000
01001000
00011000
,
01000000
01000000
00010000
00001000
,
00000100
00000100
00001000
00010000
,
00010100
00011000
00010100
00011000
,
01000000
10000000
00010000
01000000
,
10100000
00010000
00110000
10000000
,
00100000
00010000
00010000
01000000
,
00010000
00001000
00000100
00000001
,
00001001
00000100
00001001
00000100
,
00000001
00001000
00000100
00000100
,
00000001
00000001
00000100
00001000
,
00010000
01000000
10000000
10000000
,
00110000
10000000
11000000
00010000
,
00110000
10000000
10000000
10000000
,
01000000
00010000
00001000
00000110
,
00000010
00000010
00000010
00000010
,
00001001
00000100
00001001
00000100
,
00000001
00001000
00000100
00000100
,
00000001
00000001
00000100
00001000
,
00010000
01000000
10000000
10000000
,
00110000
10000000
11000000
00010000
,
00110000
10000000
10000000
10000000
,
01000000
00010000
00001000
00000110
,
00001000
00010000
01000000
01000000
,
11000000
00010000
01000000
10000000
,
11000000
00010000
01000000
10000000
,
11000000
00010000
01000000
10000000
,
10010000
00000000
00000000
00000000
,
01000000
00000000
00000000
00000000
,
00100000
00000000
00000000
00000000
,
00010000
00000000
01100000
10010000
,
00010000
00001000
00000100
00001001
,
00001000
00000100
00000001
00000100
,
00001000
00010000
01000000
10010000
,
00010000
01000000
10000000
01000000
,
10000000
00100000
00001000
01000000
,
10000000
00100000
00001000
01000000
,
00100000
10000000
01000000
00010000
,
10010000
01100000
00011000
00000000
,
00000001
00000010
00010000
00000100
,
00000001
00000010
00010000
00001000
,
00000010
00000001
00000100
00001000
,
00001001
00000110
00000001
00001000
,
00010000
01000000
00001000
00000100
,
00010000
01000000
00001000
00000100
,
00010000
00010000
00010000
00010000
,
00001000
00001000
00001000
00001000
,
00000001
00000100
00001000
00000100
,
00000001
00000100
00001000
00000100
,
00000001
00000001
00000001
00000001
,
00001000
00001000
00001000
00001000
,
00000010
00001000
00000001
00000110
,
00000010
00001000
00000001
00000110
,
00001000
00010000
10000000
00010000
,
00010000
00100000
10000000
01000000
,
00100000
00010000
10000000
01100000
,
00100000
00010000
10000000
01100000
,
00010000
00001000
00000001
00001000
,
00001001
00000000
00000000
00000110
,
00000001
00000100
00010000
00001000
,
00000001
00000100
00010000
00001000
,
00001000
00010000
10000000
00010000
,
00010000
00001000
00000001
00001000
,
00000001
00000100
00010000
00001000
,
00000001
00000100
00010000
00001000
,
00011000
01100000
10010000
01100000
,
10000000
01000000
00100000
10010000
,
00010000
00010000
00010000
00010000
,
00001000
00000000
00000000
00000000
,
00000000
00000000
00000000
00000000
,
00000001
00000001
00001000
00000100
,
00010000
00010000
00100000
01000000
,
00010000
00000000
10000000
00000000
,
00010000
00000000
10000000
00000000
,
00010000
00001000
00000010
00000000
,
00000001
00000100
00001000
00000000
,
00100000
00000000
10000000
00000000
,
01000000
00000000
00010000
00000000
,
10000000
00000000
00010000
00000000
,
00001000
00000000
00000001
00000000
,
00001000
00000001
00001000
00001000
,
00010000
00001000
00010000
00010000
,
00100000
00100000
10000000
01000000
,
10000000
10000000
01000000
01000000
,
00010000
00000100
00001000
00000100
,
00001000
01000000
00010000
01000000
,
00010000
00010000
00100000
00100000
,
00001000
00001000
00000010
00000010
,
00001000
00001000
00010000
00010000
,
01000000
01000000
00010000
00010000
,
00000010
00001000
00000001
00000001
,
00000010
00000001
00001000
00001000
,
00011000
00010000
00001000
01000000
,
00000000
01000000
00000000
01000000
,
00011000
00001000
00010000
00000100
,
00000000
00000100
00000000
00000100
,
00001000
00001000
00100000
00100000
,
01000000
01000000
10000000
10000000
,
01000000
00000000
01000000
00000000
,
00001000
00000010
00000100
00000000
,
00000001
00000001
00001000
00000100
,
00010000
00010000
00001000
01000000
,
00100000
00100000
10000000
01000000
,
00010000
00010000
00001000
00001000
;

//---------------dance-double - ----------------
#NOTES:
     dance-double:
     :
     Medium:
     6:
     0.384,0.429,0.250,0.000,0.000:
00000000
00000000
00000000
00000000
,
00000000
00000000
00000000
00000000
,
00000000
00000000
00000000
00000000
,
00000000
00000000
00000000
00000000
,
00000000
00000000
00000000
00000000
,
10000000
00000000
00000000
00000000
,
00010000
00000000
00000000
00000000
,
00001000
00000000
00000001
00000000
,
00001000
00000100
00001000
00000010
,
00000100
00000000
00000100
00000000
00000100
00001000
00010000
00000000
,
01000000
00000000
10000000
00000000
00100000
01000000
00010000
00000000
,
00010000
00100000
10000000
00000000
01100000
00000000
10000000
00000000
,
00010000
00001000
00000100
00000000
00001000
00000000
00001000
00000000
,
00000001
00001000
00000100
00000000
00000010
00000000
00000010
00000000
,
00001001
00000000
00000100
00000000
00000001
00000100
00001000
00000000
,
00010000
01000000
10000000
10000000
,
00010000
01000000
10000000
00000000
00010000
10000000
01000000
00000000
,
10000000
00100000
01000000
00000000
00010000
00100000
01000000
00000000
,
00010000
00001000
00000110
00001001
,
00000001
00000100
00001000
00000000
00000001
00000000
00001000
00000000
,
00010000
01000000
11000000
00110000
,
10000000
00100000
01000000
00000000
10010000
00000000
01010000
00000000
,
10000000
00100000
00010000
00000000
00001000
00000000
01000000
00000000
,
10000000
01000000
00010000
00000000
00001000
00000000
00000100
00000000
,
00000001
00001000
00000100
00000100
,
00000001
00000100
00000010
00000000
00001000
00000100
00000010
00000000
,
00001000
00010000
01100000
10010000
,
10000000
00100000
00010000
00000000
10000000
00000000
00010000
00000000
,
00001000
00000010
00000011
00001100
,
00000001
00000100
00000010
00000000
00001001
00000000
00001010
00000000
,
00000001
00000100
00001000
00000000
00010000
00000000
00000010
00000000
,
00000001
00000010
00001000
00000000
00100000
00000000
10000000
00000000
,
00010000
00100000
00100000
01000000
,
10000000
00000000
00100000
00000000
00010000
00001000
00000010
00000000
,
00000001
00000000
00000010
00000000
00001000
00010000
00100000
00000000
,
10000000
00000000
00100000
00000000
00010000
00001000
00000010
00000000
,
00001001
00000000
00000000
00000000
,
00000100
00000000
00000000
00000000
,
00001000
00000000
00000000
00000000
,
00000100
00000000
00000000
00000000
,
00000001
00001000
00000001
00001000
,
00010000
10000000
00010000
10000000
,
00010000
00001000
00000001
00001000
,
00010000
10000000
00010000
00100000
,
10000000
00000000
01010000
00000000
00100000
10000000
01000000
00000000
,
10000000
00000000
01010000
00000000
00100000
00010000
00000100
00000000
,
00000001
00001100
00000001
00011000
,
00000010
00010000
01000000
01000000
,
00010000
00001000
00000100
00000100
,
00000001
00000000
00001000
00000000
00000001
00001000
00000100
00000000
,
00001001
00000100
00011000
00100000
,
00010000
00000000
10000000
00000000
00010000
10000000
01000000
00000000
,
00010000
00010000
00010000
00010000
,
00001000
00001000
00000100
00000001
,
00000001
00001000
00000001
00001000
,
00000010
00000000
00000010
00000000
00010000
00001000
00010000
00000000
,
00001000
00000000
00000011
00000000
00001000
00000010
00000001
00000000
,
00000001
00000000
00001100
00000000
00000001
00000100
00001000
00000000
,
00001000
00000100
00000010
00000000
00000001
00000100
00000010
00000000
,
00000110
00001000
00010000
01000000
,
10010000
00000000
10010000
00000000
10000000
01000000
10000000
00000000
,
00010000
00100000
00010000
00000000
00011000
00000000
00000100
00000000
,
00000001
00001000
00000001
00001000
,
00010000
00000000
10000000
00000000
00010000
10000000
01000000
00000000
,
10000000
00000000
01000000
00000000
00010000
01000000
00010000
00000000
,
10000000
01000000
10000000
00000000
00100000
00000000
10010000
00000000
,
10000000
00010000
00001000
00000001
,
00000010
00001000
00000010
00000000
00010000
00000000
00000110
00000000
,
00000001
00000000
00000101
00000000
00000010
00001000
00000100
00000000
,
00010000
00000000
00100000
00000000
00010000
00100000
01000000
00000000
,
10010000
00001000
10010000
00001000
,
00010000
00001000
00000100
00000001
,
00001001
00010000
00001001
00010000
,
00001000
00010000
01000000
10000000
,
00100000
00000000
00100000
00000000
10000000
01000000
10000000
00000000
,
00010000
00000000
00001000
00000000
00000001
00000010
00001000
00000000
,
00001001
00000000
00000110
00000000
00000001
00000010
00000100
00001000
,
00000001
00000000
00000000
00000000
,
00000000
00000000
00000000
00000000
,
00001001
00001001
00010000
00001000
,
00011000
00011000
10000000
01000000
,
00010000
01000000
10000000
01000000
,
00010000
01000000
10000000
01000000
,
00010000
00001000
00000010
00000001
,
00000001
00000100
00001000
00010000
,
00100000
01000000
00100000
01000000
,
00100000
01000000
00100000
01000000
,
10000000
10000000
00010000
00010000
,
00000010
00000010
00000001
00000001
,
00001000
00000001
00001000
00000001
,
00010000
00001000
00010000
00001000
,
10000000
00010000
10000000
00010000
,
10000000
01000000
00010000
00001100
,
00000001
00000100
00000001
00000100
,
00001000
00000100
00001000
00000100
,
00010000
01000000
00001000
00000100
,
00010000
01000000
00001000
00000100
,
00100000
00100000
10000000
10000000
,
01000000
01000000
00010000
00010000
,
00000010
00001000
00000001
00001000
,
00000010
00001000
00000001
00001000
,
00011000
01000000
10000000
01000000
,
10000000
01000000
00010000
00001000
,
00011000
00000100
00000001
00000100
,
00000001
00000100
00001000
00010000
,
00100000
00100000
10000000
01000000
,
10000000
01000000
01000000
00010000
,
00001000
00000100
00000001
00000001
,
00001000
00000100
00000001
00000100
,
00001001
00000100
00010000
00001000
,
00011000
00100000
10000000
01000000
,
10010000
01000000
00001000
00010000
,
00000010
00000010
00000010
00000010
;

//---------------dance-double - ----------------
#NOTES:
     dance-double:
     :
     Hard:
     8:
     0.474,0.582,0.326,0.022,0.049:
00000000
00000000
00000000
00000000
,
00000000
00000000
00000000
00000000
,
00000000
00000000
00000000
00000000
,
00000000
00000000
00000000
00000000
,
00000000
00000000
00000000
00000000
,
10000000
00000000
00000000
00000000
,
01000000
00000000
00000000
00000000
,
00001000
00000010
00000100
00000001
,
00000010
00000100
00001000
00000100
,
00000110
00000000
00001001
00000000
00000010
00001000
00010000
00000000
,
01000000
10000000
00010000
00000000
00100000
00010000
10000000
00000000
,
01000000
10000000
00100000
00000000
00100000
01000000
00010000
00000000
,
10000000
01000000
00010000
00000000
10000000
00100000
00010000
00000000
,
00001000
00010000
01000000
00010000
00001000
00000100
00000001
00000000
,
00000010
00001000
00000001
00000000
00001000
00000001
00000100
00000000
,
00001000
00000100
00000001
00000001
,
00000010
00001000
00011000
01100000
,
10000000
00100000
01000000
10000000
01000000
00010000
00100000
00000000
,
01000000
00010000
00001000
00000000
00010100
00000000
00001100
00000000
,
00000010
00001000
00000010
00000100
00000001
00000010
00000100
00000000
,
00001000
00010000
01000000
00000000
01100000
00000000
11000000
00000000
,
00010000
00100000
00010000
01000000
00100000
10000000
01000000
00000000
,
00010000
00001000
00000110
00000000
00000001
00000000
00000010
00000000
,
00000100
00001000
00000010
00001000
00000001
00000100
00000010
00000000
,
00001000
00000010
00000001
00000000
00000100
00000000
00000100
00000000
,
00000010
00001000
00000100
00000000
00000010
00001000
00000001
00000000
,
00001010
00000000
00000101
00000000
00001000
00010000
01000000
00000000
,
00100000
00010000
00100000
01000000
00100000
10000000
00100000
00000000
,
00110000
00000000
11000000
00000000
00100000
00010000
01000000
00000000
,
01100000
00000000
10000000
01000000
00010000
01000000
10000000
00000000
,
00100000
00010000
00001000
00000000
00000110
00000000
00000101
00000000
,
00001000
00000010
00000001
00000010
00000100
00000001
00000010
00001000
,
00010000
01000000
10000000
01000000
00100000
01000000
00010000
00000000
,
10000000
00000000
00000000
00100000
00000000
00000000
00010000
00000000
00000000
00001000
00000000
00000000
00010000
00000000
01000000
00000000
,
10000000
00000000
00000000
00100000
00000000
00000000
00010000
00000000
00000000
00001000
00000000
00000000
00010000
00000000
01000000
00000000
,
10000000
00000000
00000000
00100000
00000000
00000000
00010000
00000000
00000000
00001000
00000000
00000000
00010000
00000000
01000000
00000000
,
20000000
00000000
00000000
30000000
,
00000000
00000000
00000000
00000000
00000000
00000000
00000000
00001000
,
00002000
00000000
00003000
00000000
,
02000000
00000000
03000000
00000000
,
00100000
10000000
00100000
00000000
00010000
00000100
00010000
00000000
,
00000010
00000001
00000010
00000000
00010000
00001000
00010000
00000000
,
01000000
00100000
00001000
00000100
,
00000001
00000000
00000000
00000000
00000000
00001001
00000100
00000000
,
00000011
00000000
00001001
00000000
00000010
00001000
00010000
00000000
,
00001100
00000000
00011000
00000000
00010000
00100000
10000000
00000000
,
11000000
00000000
11000000
00000000
10000000
00010000
01000000
00000000
,
00001000
00010000
00001000
00000100
00000001
00000100
00000001
00000000
,
00000001
00000000
00001100
00000000
00000010
00001000
00000100
00000000
,
00010000
00001000
00010000
01000000
10000000
00100000
01000000
00000000
,
00001000
00010000
00100000
01000000
,
00001000
00000000
00000100
00000000
00010000
01000000
10000000
00000000
,
10000000
00000000
10000000
00000000
10000000
00010000
01000000
00000000
,
00010000
00000000
00010000
00000000
00010000
00000100
00001000
00000000
,
00000010
00000000
00000010
00000000
00000010
00001000
00000100
00000000
,
00000001
00000000
00000000
00011000
,
00010000
00000100
00001000
00000000
00000010
00000001
00000100
00000000
,
00000010
00010000
00001000
00000000
00100000
00010000
01000000
00000000
,
10000000
01000000
00100000
00000000
00001000
00010000
00000100
00000000
,
00000001
00000000
00000000
00011000
,
00000010
00000000
00000100
00000000
00001000
00010000
01000000
00000000
,
00100000
00000000
01000000
00000000
00010000
00001000
00000100
00000000
,
00001100
00000000
00001001
00000000
00001000
00010000
00011000
00000000
,
00000001
00001000
00000010
00000100
00001000
00000010
00000001
00000000
,
00000010
00000000
00000100
00000000
00001000
00010000
01000000
00000000
,
00100000
00000000
01000000
00000000
00010000
00001000
00000100
00000000
,
00001000
01000000
00010000
00000100
,
00000001
00000100
00000010
00001000
00000000
00011000
00000100
00000000
,
00101000
00000000
10010000
00000000
00001000
01000000
00010000
00000000
,
01001000
00000000
10100000
00000000
00010000
00100000
01000000
00000000
,
00100000
00000000
01000000
00000000
00010000
00001000
00000100
00000000
,
00000010
00000000
00000100
00000000
00001000
00010000
01000000
00000000
,
00010010
00000000
00001100
00000000
00010000
00000010
00000100
00000000
,
00010100
00000000
00000011
00000000
00001000
00000010
00000001
00000000
,
00001000
00000100
00000001
00000100
,
00000011
00000000
00001100
00000000
00000010
00000100
00010000
00000000
,
00001000
00010000
01000000
10000000
01000000
00010000
01000000
10000000
,
00020000
00000000
00000000
00030000
,
00000000
00000000
00000000
00000000
,
00001001
00000000
00000101
00000000
00000010
00001000
00000100
00000000
,
00011000
00000000
00000100
00000000
00010000
00001000
00100000
00000000
,
10010000
01000000
01010000
00001000
,
00011000
00000100
00001100
00000001
,
00001000
00000100
00000001
00000010
,
00010000
01000000
10000000
00100000
,
00010000
10000000
00100000
01000000
00010000
10000000
01000000
00010000
,
00001000
00000100
00000001
00001000
00000100
00000000
00000100
00000000
,
00001000
00000001
00000010
00000100
00001000
00000001
00000100
00001000
,
00010000
01000000
10000000
00010000
01000000
00000000
01000000
00000000
,
10000000
00100000
01000000
00000000
00010000
00100000
01000000
00000000
,
00001000
00000010
00000100
00000000
00000001
00000010
00000100
00000000
,
00001000
00100000
10000000
01000000
,
00000000
00100000
10000000
01000000
00010000
00001000
00000100
00000001
,
00000011
00000000
00000100
00000000
00000001
00000100
00001000
00000000
,
00011000
00000000
00000100
00000000
00001000
00010000
01000000
00000000
,
10010000
00000000
01000000
00000000
00010000
00001000
00000100
00000000
,
00000101
00000000
00001000
00000000
00000010
00010000
00001000
00000000
,
00000010
00001000
01000000
00010000
,
00000100
00001000
00100000
00010000
,
00000010
00001000
00011000
01000000
,
00100000
00010000
00011000
00000100
,
00011000
00000000
01000000
00000000
10000000
00010000
01000000
00000000
,
10010000
00000000
01000000
00000000
00010000
00001000
00000010
00000000
,
00000101
00000000
00001000
00000000
00001000
00010000
01000000
00000000
,
11000000
00000000
00010000
00000000
00010000
00001000
00000100
00000000
,
00000010
00000000
00000010
00000000
00000001
00000000
00001000
00000100
,
00000000
00010000
00000000
00001000
00000000
01000000
01000000
00000000
,
10010000
01000000
00010000
00001000
,
00011000
00000100
00000001
00000010
,
00000001
00000010
00000000
00000000
00000001
00000010
00000000
00000000
00000100
00001000
00000001
00000000
00000100
00000000
00000100
00000000
,
00001000
00010000
00000000
00000000
00001000
00010000
00000000
00000000
00100000
01000000
00010000
00000000
10000000
00000000
10000000
00000000
,
01000000
00010000
00000000
00000000
01000000
00010000
00000000
00000000
00100000
01000000
10000000
00000000
01000000
00000000
01000000
00000000
,
10000000
01000000
00000000
00000000
01000000
00010000
00000000
00000000
00010000
00001000
00000100
00000000
00001001
00000000
00000000
00000000
;

//---------------dance-double - ----------------
#NOTES:
     dance-double:
     :
     Challenge:
     9:
     0.513,0.704,0.315,0.033,0.125:
00000000
00000000
00000000
00000000
,
00000000
00000000
00000000
00000000
,
00000000
00000000
00000000
00000000
,
00000000
00000000
00000000
00000000
,
00000000
00000000
00000000
00000000
,
00100000
00010000
00001000
00010000
,
01000000
10000000
10000000
01000000
,
10000000
00010000
01000000
00010000
,
00100000
00010000
00001000
00000100
,
00001001
00000000
00000101
00000000
00000010
00000001
00000100
00000000
,
00001000
00010000
01000000
00000000
00010000
00001000
00000100
00000000
,
00000001
00000100
00001000
00000000
00010000
00000000
01000000
00000000
,
10000000
01000000
10000000
00000000
01000000
00000000
00000000
00000000
00100000
00000000
10000000
00000000
01000000
00000000
00000000
00000000
,
00010000
10000000
00100000
00000000
10000000
01000000
00010000
00000000
,
00001000
00000000
00010010
00000000
00000010
00001000
00000100
00000000
,
00001001
00000100
00000010
00000000
00000001
00001000
00000010
00000000
,
00001001
00000000
00010100
00000000
00000010
00000100
00001000
00000000
,
00000001
00000010
00000100
00000000
00001000
00000010
00000100
00000001
,
00000000
00001000
00000001
00000100
00000000
00001000
00000100
00000000
,
00000010
00001000
00000100
00000010
00001000
00010000
01000000
00000000
,
00001000
00010000
01000000
00100000
00010000
01000000
00100000
00000000
,
10010000
00000000
11000000
00000000
00010000
01000000
10000000
00000000
,
00100000
00010000
00001000
00010000
01000000
00010000
00001000
00000000
,
00001000
00000100
00000001
00000000
00001000
00000010
00000001
00000000
,
00001010
00001001
00000101
00001000
,
00100000
00001000
00010000
00000000
01000000
00010000
00001000
00000000
,
00000010
00001000
00010000
01000000
00000000
10000000
00010000
00000000
,
00100000
00001000
00010000
01000000
00010000
00001000
00000100
00000000
,
00000010
00001000
00000100
00000010
00001000
00010000
01000000
00000000
,
01100000
00000000
11000000
00000000
00100000
00010000
00001000
00000000
,
00000010
00001000
00010000
01000000
00010000
00001000
00000100
00000000
,
00000001
00001000
00000010
00000100
00001000
00010000
01000000
00000000
,
01100000
00101000
00110000
10000000
,
00100000
00000000
00000000
00010000
00000000
00000000
00001000
00000000
00000000
00010000
00000000
00000000
01000000
00000000
00100000
00000000
,
10000000
00000000
00000000
00100000
00000000
00000000
01000000
00000000
00000000
00010000
00000000
00000000
00001000
00000000
00010000
00000000
,
00100000
00000000
00000000
00010000
00000000
00000000
00001000
00000000
00000000
00010000
00000000
00000000
01000000
00000000
00100000
00000000
,
20000000
00000000
00000000
30000000
,
00000000
00000000
00000000
00000000
00000000
00000000
00000000
00010000
,
00020000
00000000
00030000
00000000
,
02000000
00000000
03200000
20300000
,
30100000
00000000
10000000
00000000
00100000
00000000
00000000
00010000
00000000
00010000
00000000
00000100
00010000
00000000
00000000
00000000
,
00000010
00000000
00000001
00000000
00000010
00000000
00000000
00010000
00000000
00010000
00000000
00001000
00010000
00000000
00000000
00000000
,
01000000
00000000
00100000
00000000
00001000
00000000
00000000
00000100
00000000
00000100
00000000
00000001
00000100
00000000
00000000
00000000
,
00000001
00000100
00000001
00000100
00000000
00000000
00000001
00000100
00000001
00000100
00000001
00000100
00000000
00000000
00000000
00000000
,
00000011
00000000
00001001
00000000
00000010
00001000
00010000
00000000
,
00001100
00000000
00011000
00000000
00010000
00100000
10000000
00000000
,
11000000
00000000
11000000
00000000
10000000
00010000
01000000
00000000
,
00001000
00010000
00001000
00000100
00000001
00000100
00000001
00000000
,
00000001
00000000
00001100
00000000
00000010
00001000
00000100
00000000
,
00010000
00001000
00010000
01000000
10000000
00100000
01000000
00000000
,
00001000
00010000
00100000
01000000
,
00001000
00000000
00000100
00000000
00010000
01000000
10000000
00000000
,
10000000
01000000
00010000
01000000
00100000
10000000
01000000
00010000
,
00010000
00000010
00001000
00000100
00000001
00000100
00001000
00000010
,
00000100
00000001
00000100
00001000
00000100
00000010
00001000
00000100
,
00000100
00000010
00000001
00000100
00000001
00000100
00001000
00000000
,
00010000
00000100
00001000
00000000
00000010
00000001
00000100
00000000
,
00000010
00010000
00001000
00000000
00100000
00010000
01000000
00000000
,
10000000
01000000
00100000
00000000
00001000
00010000
00000100
00000000
,
00000001
00000000
00000000
00011000
,
00000010
00000000
00000100
00000000
00001000
00010000
01000000
00000000
,
00100000
00000000
01000000
00000000
00010000
00001000
00000100
00000000
,
00001100
00000000
00001001
00000000
00001000
00010000
00011000
00000000
,
00000001
00001000
00000010
00000100
00001000
00000010
00000001
00000000
,
00000010
00000000
00000100
00000000
00001000
00010000
01000000
00000000
,
00100000
00000000
01000000
00000000
00010000
00001000
00000100
00000000
,
00001000
01000000
00010000
00000100
,
00000001
00000100
00000010
00001000
00000000
00011000
00000100
00000000
,
00101000
00000000
10010000
00000000
00001000
01000000
00010000
00000000
,
01001000
00000000
10100000
00000000
00010000
00100000
01000000
00000000
,
00100000
00000000
01000000
00000000
00010000
00001000
00000100
00000000
,
00000010
00000000
00000100
00000000
00001000
00010000
01000000
00000000
,
00010010
00000000
00001100
00000000
00010000
00000010
00000100
00000000
,
00010100
00000000
00000011
00000000
00001000
00000010
00000001
00000000
,
00001000
00000100
00000001
00000100
,
00000011
00000000
00001100
00000000
00000010
00000100
00010000
00000000
,
00001000
00010000
00001000
00010000
00001000
00000000
01000000
00010000
01000000
00010000
01000000
00000000
00100000
10000000
00100000
10000000
,
00200000
00000000
00000000
00000000
,
00300000
00000000
00000000
00000000
,
00001001
00000000
00000101
00000000
00000010
00001000
00000100
00000000
,
00011000
00000000
00000100
00000000
00010000
00001000
00100000
00000000
,
10010000
01000000
01010000
00001000
,
00011000
00000100
00001100
00000001
,
00001000
00000100
00000001
00000010
,
00010000
01000000
10000000
00100000
,
00010000
10000000
00100000
01000000
00010000
10000000
01000000
00010000
,
00001000
00000100
00000001
00001000
00000100
00000010
00000100
00000000
,
00001000
00000001
00000010
00000100
00001000
00000001
00000100
00001000
,
00010000
01000000
10000000
00010000
01000000
00100000
01000000
00000000
,
10000000
00100000
01000000
00000000
00010000
00100000
01000000
00000000
,
00001000
00000010
00000100
00000000
00000001
00000010
00000100
00000000
,
00001000
00100000
10000000
01000000
,
00000000
00100000
10000000
01000000
00010000
00001000
00000100
00000001
,
00000011
00000000
00000100
00000000
00000001
00000100
00001000
00000000
,
00011000
00000000
00000100
00000000
00001000
00010000
01000000
00000000
,
10010000
00000000
01000000
00000000
00010000
00001000
00000100
00000000
,
00000101
00000000
00001000
00000000
00000010
00010000
00001000
00000000
,
00000010
00001000
01000000
00010000
,
00000100
00001000
00100000
00010000
,
00000010
00001000
00011000
01000000
,
00100000
00010000
00011000
00000100
,
00011000
00000000
01000000
00000000
10000000
00010000
01000000
00000000
,
10010000
00000000
01000000
00000000
00010000
00001000
00000010
00000000
,
00000101
00000000
00001000
00000000
00001000
00010000
01000000
00000000
,
11000000
00000000
00010000
00000000
00010000
00001000
00000100
00000000
,
00000010
00000000
00000010
00000000
00000001
00000000
00001000
00000100
,
00000000
00010000
00000000
00001000
00000000
01000000
01000000
00000000
,
10010000
01000000
00010000
00001000
,
00011000
00000100
00000001
00000010
,
00000001
00000010
00000000
00000001
00000010
00000000
00000100
00001000
00000000
00000001
00000100
00000000
00000001
00000100
00001000
00000000
,
00010000
00001000
00000000
00010000
00001000
00000000
00100000
00010000
00000000
01000000
00010000
00000000
10000000
00010000
10000000
00000000
,
01000000
00010000
00000000
01000000
00010000
00000000
01000000
00100000
00000000
01000000
10000000
00000000
00010000
00100000
00010000
00000000
,
10000000
01000000
00000000
01000000
00010000
00000000
00010000
00001000
00000000
00001000
00000100
00000000
00000110
00000000
00000000
00000000
;

//---------------dance-single - ----------------
#NOTES:
     dance-single:
     :
     Challenge:
     9:
     0.591,0.704,0.364,0.103,0.193: // measure 1
0000
0000
0000
0000
,  // measure 2
0000
0000
0000
0000
,  // measure 3
0000
0000
0000
0000
,  // measure 4
0000
0000
0000
0000
,  // measure 5
0000
0000
0000
0000
,  // measure 6
0010
0001
0010
0001
,  // measure 7
0100
0001
0100
0001
,  // measure 8
0100
0010
0100
0010
,  // measure 9
1000
0000
0000
0000
0100
0000
0000
0000
0010
0100
0010
0000
1001
0000
0000
0000
,  // measure 10
0010
0100
0000
0000
1000
0100
0000
0000
0010
0001
0010
0000
1001
0000
0000
0000
,  // measure 11
0100
0010
0100
0000
0001
0000
0001
0000
0010
0100
0010
0000
0001
0000
0000
0000
,  // measure 12
1000
0100
1100
0000
0010
0001
0011
0000
,  // measure 13
1000
0100
1000
0000
0001
0000
0000
0000
0001
0100
0001
0000
1000
0000
0000
0000
,  // measure 14
0100
0010
0011
0000
0100
1000
1100
0000
,  // measure 15
0100
0001
0100
1000
0010
0100
0110
0000
,  // measure 16
0010
1000
1010
0000
0001
0100
0101
0000
,  // measure 17
1000
0100
0000
1000
0001
0000
1000
0010
0000
0100
0000
0000
1001
0000
0000
0000
,  // measure 18
1000
0100
0000
0000
0110
0000
0000
0000
0001
0100
0000
0000
0110
0000
0000
0000
,  // measure 19
0001
0100
0001
0010
0000
0001
1000
0001
,  // measure 20
0010
0000
0100
1000
0100
0000
0010
0000
0001
0000
0100
0000
1000
0000
0100
0000
,  // measure 21
0001
0000
0010
0100
0010
0000
0001
0000
0101
0000
0000
0000
1010
0000
0000
0000
,  // measure 22
0100
0101
1100
0100
,  // measure 23
0010
0100
0010
0001
0010
1000
1001
0000
,  // measure 24
1000
0100
0010
0000
0001
0000
0001
0000
0001
0100
0010
0000
1000
0000
1000
0000
,  // measure 25
1000
0100
0000
0000
1000
0001
0000
0000
0201
0000
0010
0000
0310
0000
0000
0000
,  // measure 26
0100
0000
0000
0000
0010
1000
0000
0000
0001
0100
0000
0000
0010
0000
0010
0000
,  // measure 27
1000
0100
0001
1000
0000
0010
0001
0100
,  // measure 28
0000
0010
1000
0100
0001
0100
0000
0010
,  // measure 29
0000
0000
0001
0000
0100
0000
0010
0000
1000
0100
1000
0000
0001
0000
0001
0000
,  // measure 30
0100
0000
0000
0000
0010
1000
0000
0000
0100
0001
0000
0000
0010
0000
0000
0000
,  // measure 31
0100
0000
1000
0000
0001
0000
0100
0000
0000
0000
0001
0100
0001
0000
1000
0000
,  // measure 32
0100
0010
0100
0000
0001
0000
0001
0000
0100
0010
0100
0000
1000
0000
1000
0000
,  // measure 33
0001
0100
0000
0000
0010
1000
0000
0000
0200
0000
0000
0000
0300
0000
0000
0000
,  // measure 34
0010
1000
0000
1000
0100
0000
0100
0010
0000
0010
0100
0000
0001
0000
0100
0000
,  // measure 35
1000
0010
0000
0010
0100
0000
0100
0001
0000
0001
1000
0000
0100
0000
0001
0000
,  // measure 36
0100
1000
0000
1000
0010
0000
0010
0100
0000
0100
0001
0000
0010
0000
0110
0000
,  // measure 37
2002
0000
0000
0000
,  // measure 38
0003
0000
0000
0000
0000
0000
0000
0001
,  // measure 39
0002
0000
0000
3000
,  // measure 40
2000
0000
3003
0000
1001
0010
1001
0000
,  // measure 41
0100
0001
0010
0000
0100
1000
0010
1000
,  // measure 42
0001
1000
0100
0000
0010
0001
1000
0001
,  // measure 43
0010
1000
1100
0000
0010
0001
0011
0000
,  // measure 44
0010
0100
0010
0100
0000
0000
0010
1000
0010
1000
0010
1000
0000
0000
0000
0000
,  // measure 45
1000
0010
0001
0000
1000
0010
0001
0100
,  // measure 46
0001
0010
1000
0000
0001
0010
1000
0100
,  // measure 47
0001
0001
0011
0000
1000
1000
1100
0000
,  // measure 48
1001
0000
0110
0000
1001
0000
0010
0100
,  // measure 49
0001
1000
0100
0000
1000
0001
0010
0100
,  // measure 50
0010
0100
0001
0000
0010
0100
1000
0000
,  // measure 51
0110
0000
0110
0000
0010
0100
0010
0100
,  // measure 52
0010
0001
0100
1000
0001
0000
0110
0000
,  // measure 53
2000
3200
0302
0203
,  // measure 54
2300
3200
0302
0203
,  // measure 55
2300
3020
0032
0023
,  // measure 56
1030
0000
0000
0000
1000
0000
0000
0000
0010
0100
0010
0100
0010
0000
0000
0000
,  // measure 57
0001
0010
1000
0000
1000
0100
0001
0010
,  // measure 58
1000
0100
0001
0000
0001
0010
1000
0100
,  // measure 59
0011
1010
1100
0101
,  // measure 60
0110
0000
0000
0000
0000
0000
0000
0000
1000
0001
1000
0001
1000
0000
0000
0000
,  // measure 61
0001
0010
0001
0000
0010
0001
1000
0100
,  // measure 62
1000
0010
1000
0000
0010
1000
0001
0100
,  // measure 63
0010
0000
1100
0000
0010
0000
0101
1000
,  // measure 64
0010
0000
1100
0000
0010
1000
0101
0000
,  // measure 65
1000
0100
0001
0000
0001
0010
1000
0000
,  // measure 66
0010
0001
0100
0000
0100
1000
0010
0000
,  // measure 67
0011
0000
0011
0000
1000
0100
1000
0100
,  // measure 68
0001
0000
0000
0000
0000
0000
0000
0000
0000
0000
0100
0010
0100
0000
0000
0000
,  // measure 69
0001
0010
0100
0000
0100
0010
1000
0100
,  // measure 70
1000
0001
0010
0000
0010
1000
0100
0001
,  // measure 71
0010
1000
0100
0001
0010
1000
0100
0000
,  // measure 72
1010
0000
0101
0000
1000
0010
0100
0001
,  // measure 73
1000
0010
0100
0000
0001
0010
0100
0010
,  // measure 74
1000
0001
0010
0000
1000
0001
0010
0100
,  // measure 75
1000
1000
0010
0000
0001
0001
0010
0000
,  // measure 76
1001
0000
0110
0000
0010
0001
0100
0000
,  // measure 77
0100
1000
0100
0010
0001
0010
0001
0100
,  // measure 78
2000
0000
0000
3000
,  // measure 79
0000
0000
0000
0000
,  // measure 80
1010
0000
0100
0001
0000
0010
0001
0010
,  // measure 81
0000
1100
0000
0011
0000
1100
0000
0000
,  // measure 82
0001
0000
1000
0100
0000
1000
0000
0010
,  // measure 83
0000
0001
0000
1000
0000
0001
0000
0010
,  // measure 84
0000
0001
0100
0000
0010
1000
0100
0000
,  // measure 85
0010
0001
0100
0000
0010
1000
0100
0000
,  // measure 86
0000
0011
0000
1000
0000
1010
0000
0100
,  // measure 87
0000
1001
0000
0101
0000
0010
0010
0000
,  // measure 88
1000
1000
0000
0001
0000
0101
0000
1000
,  // measure 89
0000
1100
0000
0011
0000
0100
0010
0000
,  // measure 90
1000
0100
0001
0000
0001
0100
1000
0000
,  // measure 91
0001
0010
0001
1000
0010
1000
0100
0000
,  // measure 92
0010
0001
1000
0000
0001
0100
0001
0000
,  // measure 93
1000
0100
1000
0100
1000
0001
1000
0000
,  // measure 94
0110
0000
1001
0000
0100
0010
0100
0000
,  // measure 95
0010
1000
0001
1000
0001
0010
0100
0000
,  // measure 96
1000
0000
0001
0000
1000
0100
0010
0000
,  // measure 97
0001
0100
0010
1000
0001
0100
0001
0000
,  // measure 98
0010
0001
0100
0000
1010
0000
0101
0000
,  // measure 99
0010
1000
0100
0000
0110
0000
1001
0000
,  // measure 100
0100
0010
0001
0000
1000
0010
1000
0000
,  // measure 101
0001
0100
0001
0010
0100
1000
0010
0000
,  // measure 102
1000
0001
1000
0100
0010
0001
1000
0100
,  // measure 103
1000
0001
0010
0001
0100
0001
0010
0100
,  // measure 104
1000
0001
1000
0001
0100
0010
1000
0100
,  // measure 105
1000
0001
0010
0001
0100
0001
1000
0100
,  // measure 106
0010
0001
1000
0100
0010
0001
1000
0100
,  // measure 107
0000
1010
0000
0101
0000
0010
0100
0000
,  // measure 108
0001
0100
1000
0000
1000
0100
0001
0000
,  // measure 109
0100
0001
1000
0100
1000
0001
0100
0000
,  // measure 110
0001
0100
0000
0001
0100
0000
1000
0100
0000
1000
0100
0000
0001
0100
0001
0000
,  // measure 111
1000
0100
0000
1000
0100
0000
0001
0100
0000
0001
0100
0000
1000
0100
1000
0000
,  // measure 112
0001
0100
0000
1000
0100
0000
0001
0100
0000
1000
0100
0000
0010
0100
0001
0000
,  // measure 113
0010
0100
0000
1000
0100
0000
1000
0001
0000
0100
0010
0000
1001
0000
0000
0000
;
