#TITLE:NONSTOP C;
#SUBTITLE:;
#ARTIST:BRILLIANT 2U -- SP-TRIP MACHINE -- PARANOIA EVOLUTION;
#TITLETRANSLIT:;
#SUBTITLETRANSLIT:;
#ARTISTTRANSLIT:;
#CREDIT:;
#BANNER:NONSTOP C.png;
#BACKGROUND:NONSTOP C-bg.png;
#LYRICSPATH:;
#CDTITLE:./CDTITLES/DANCE DANCE REVOLUTION SOLO.PNG;
#MUSIC:NONSTOP C.ogg;
#OFFSET:0.000;
#SAMPLESTART:47.988;
#SAMPLELENGTH:15.000;
#SELECTABLE:YES;
#DISPLAYBPM:150.000:200.000;
#BPMS:0.000=150.047,139.000=143.275,140.000=152.814,144.000=160.187,312.000=200.113;
#STOPS:;
#BGCHANGES:;

//---------------dance-single - ----------------
#NOTES:
     dance-single:
     :
     Easy:
     6:
     0.401,0.487,0.238,0.000,0.000:
0000
0000
0000
0000
,
0000
0000
0000
0000
,
0000
0000
0000
0000
,
0000
0000
0000
0000
,
0000
0000
0000
0000
,
0000
0010
0000
0010
,
0000
0010
0000
0010
,
0000
0010
0000
0010
,
0010
0000
0010
0000
0010
0000
0100
0100
,
0000
0100
0000
0100
,
0000
0100
0000
0100
,
0010
0000
0010
1001
,
0000
0100
0100
0100
,
0100
0001
0010
0110
,
0000
0010
0010
0010
,
0010
0100
0010
1001
,
0000
1000
1000
1000
,
0010
0000
0010
0000
,
0010
0000
0100
0000
0001
1000
0100
0000
,
0010
0001
0100
1000
,
0010
0001
0010
1000
,
0010
0000
0100
0000
0001
1000
0100
0000
,
0010
0001
0100
1000
,
0010
0001
0010
1000
,
0010
0000
0100
0000
0010
0001
1000
0000
,
0010
0100
0010
0110
,
0000
0100
0001
0100
,
0010
0100
0010
1001
,
0000
1000
0100
0001
,
0010
0001
0010
0110
,
0000
0001
0100
1000
,
0010
0100
0010
1001
,
0000
1000
1000
1000
,
0010
0010
0000
0000
0000
0000
0000
1000
,
1000
1000
0000
0010
0010
0010
0010
0010
,
0010
0100
0010
0001
,
0010
0010
0000
0010
,
0000
1000
0100
0001
,
0010
1000
0100
0000
0001
0000
1000
0000
,
0001
0100
0001
0101
,
0000
0010
0000
0010
,
0000
0001
0100
1000
,
0010
0001
0100
0000
1000
0000
0001
0000
,
1000
0100
1000
1100
,
1001
0000
0100
0000
0010
0100
0010
0000
,
1000
0000
0001
0000
0010
0100
0010
0000
,
0010
0000
0001
0000
1000
0010
0001
0000
,
0110
1001
0100
1000
,
0001
0000
0100
0000
,
1000
0000
0010
0100
,
0001
1000
0100
0100
,
0001
0001
0001
0001
,
0001
0010
0000
0000
0000
0000
0001
0100
,
0000
0010
0001
0100
0000
0000
0000
0000
,
0000
0000
0100
0000
0000
0100
0000
0000
,
0010
0001
1000
0010
,
0100
0001
1000
0100
,
0000
0100
1000
0010
1000
0100
0000
0000
,
0000
0000
0100
0000
0000
0100
0000
0000
,
1000
0001
0100
0010
,
0010
0000
0100
0000
0001
1000
0000
0000
,
0000
0010
0000
1000
0100
0000
0101
0000
,
0010
0000
0100
0000
1000
0001
0000
0010
,
0000
1000
0000
0100
1000
0100
0001
0000
,
0010
0000
0100
0000
1000
0001
0000
0000
,
0000
0010
0000
0001
0100
0000
1100
0000
,
0010
0000
0100
0000
0001
1000
0000
0010
,
0000
0001
0000
0100
0001
0100
1000
0000
,
0010
1000
0000
0100
0000
0000
0010
0000
,
0001
1000
0110
1001
,
0010
0001
0100
0001
0000
0100
0010
0000
,
0010
0100
0000
0100
0000
0100
0000
0001
,
1000
0100
0001
1000
,
0110
0001
1000
0100
,
1000
0000
0001
0000
,
1000
0001
0100
0010
,
1000
0001
0100
0010
,
1000
0001
0100
0010
,
0000
0010
0000
0010
,
0000
0010
0000
0010
,
0000
0100
0000
0100
,
0000
0001
0000
0001
,
0000
1000
0100
0001
,
0010
0100
0001
0100
,
1000
0010
0001
0100
,
1000
0010
0001
0100
,
1000
0001
1000
0001
,
1000
0001
1000
0100
,
0010
0010
0010
0010
,
0001
1000
0100
0010
,
0001
1000
0001
1000
,
0001
1000
0100
0001
,
0100
0001
0010
1000
,
0001
0010
1000
0001
,
1000
0001
0100
0010
1000
0001
0000
1000
,
0001
0100
0010
1000
0000
0000
0000
0000
,
0001
0010
0001
0010
,
1000
0010
1000
0000
,
0001
1000
0010
0100
0001
1000
0000
0001
,
1000
0010
0100
0001
0000
0000
0000
0000
,
1000
0001
0001
0000
,
0010
0000
1000
0000
0010
0100
0000
0000
,
0001
0000
1000
0010
,
0000
0001
0001
0001
,
0000
1000
1000
1000
,
1001
1000
0100
0100
,
1001
0001
0100
0100
,
1001
1000
0100
0100
,
1001
1100
0101
0000
,
1000
1001
0010
1000
,
0001
1001
0010
0001
,
1100
1001
0010
1000
,
0101
1001
0010
0001
,
1000
0100
0001
0000
1100
0000
0101
0000
,
1000
0010
0001
0001
,
0001
0100
1000
0000
0101
0000
1100
0000
,
1000
1000
1000
0000
,
1000
0010
0001
0000
1010
0000
0011
0000
,
1000
0001
1000
0010
,
0001
0010
1000
0000
0011
0000
1010
0000
,
0100
1000
0010
0000
,
0001
1000
0100
0000
1000
0000
1000
0000
,
0001
0001
0010
0010
,
1000
0001
0100
0000
0001
0000
0100
0000
,
0010
0010
0010
0000
,
0001
1000
0100
0000
1000
0000
1000
0000
,
1000
1000
0100
0100
,
1100
0101
1100
0101
,
1001
0110
1001
0000
;

//---------------dance-single - ----------------
#NOTES:
     dance-single:
     :
     Medium:
     7:
     0.460,0.522,0.384,0.000,0.000:
0000
0000
0000
0000
,
0000
0000
0000
0000
,
0000
0000
0000
0000
,
0000
0000
0000
0000
,
0000
0000
0000
0000
,
0000
0010
0000
0010
,
0000
0010
0000
0010
,
0010
0010
0010
0101
,
1000
0000
1000
0000
0100
0000
0100
0100
,
0100
0100
1000
0010
,
0001
1100
1000
0101
,
1000
0010
0001
0100
,
1000
0101
0001
1100
,
0010
0100
0010
0110
,
0010
0001
0100
1000
,
0010
0001
0100
1001
,
1000
1000
1000
1000
,
0010
0000
0010
0000
,
0001
0000
1000
0000
0001
1000
0100
0000
,
0010
0001
0011
0100
,
0010
1001
0010
1010
,
1010
0000
0101
0000
1000
0001
0100
0000
,
0010
1000
1010
0100
,
0010
1001
0010
0011
,
0010
0000
0100
0000
0010
0001
1000
0000
,
0001
0100
1000
0100
,
0001
1100
1000
0101
,
1000
0100
0001
0100
,
1000
0101
0001
1100
,
0010
0100
0010
0110
,
0010
0001
0100
1000
,
0010
0001
0100
1001
,
1000
1000
1000
1000
,
0010
1000
0000
0000
0000
0000
0000
0010
,
1000
0001
0000
0010
0001
1000
0100
0001
,
0100
0100
0100
0100
,
0010
0000
0010
0000
0000
1000
0010
0001
,
0000
1000
0010
0001
,
1000
0100
0001
0000
1000
0000
0100
0000
,
1001
0100
0010
1001
,
0010
0000
0010
0000
0000
0001
0010
1000
,
0000
0001
0010
1000
,
0001
0100
1000
0000
0001
0000
0100
0000
,
1001
0100
0010
1001
,
0001
0000
0010
0000
0100
0010
0001
0000
,
1000
0000
0010
0000
0100
0010
1000
0000
,
0001
0010
1000
0010
0000
0100
0010
0000
,
0001
1000
0101
1100
,
1001
0010
0001
1000
,
1001
1000
0001
0100
,
0001
1000
0100
0100
,
0010
0001
0100
1000
0100
0001
0010
0000
,
0001
0010
1000
0000
0000
0000
0001
0100
,
0000
1000
0001
0010
1000
0000
0000
0000
,
0010
0000
0100
0000
0000
0100
0000
0000
,
1000
0100
0010
1000
,
0001
0100
0010
0001
,
0000
0010
1000
0001
1000
0100
0000
0000
,
0000
0000
0100
0000
0000
0100
0000
0000
,
1000
0100
0010
0001
,
0010
1000
0100
0010
0001
0100
0000
0000
,
0000
0001
0000
1000
0010
0000
0101
0000
,
0010
0001
0100
0010
1000
0100
0000
0001
,
0000
1000
0000
0100
0010
0001
0100
0000
,
0010
0001
0100
0010
1000
0100
0000
0000
,
0000
1000
0000
0001
0010
0000
1100
0000
,
0010
1000
0100
0010
0001
0100
0000
1000
,
0000
0001
0000
0100
0010
1000
0100
0000
,
0001
0100
0000
1000
0000
0000
0001
0000
,
1010
0100
0010
0101
,
1000
0100
0010
0001
0000
0100
1000
0000
,
0010
0100
0000
1000
0000
0001
0000
0010
,
0100
0010
0001
0100
,
0010
1000
0100
1001
,
1000
0000
0001
0000
,
1000
0001
0010
0100
,
0001
1000
0100
0010
,
1000
0001
0010
0100
,
0000
0100
0000
0100
,
0000
0100
0000
0100
,
0000
1000
0000
0010
,
0000
1000
0000
0010
,
0001
1000
0001
1000
,
0010
0100
0001
1000
,
0100
0010
0001
0100
,
1000
0010
0001
0100
,
1000
0001
1000
1000
,
0001
0000
1000
0000
0001
0001
0000
1000
,
0000
0010
0010
0010
,
0001
1000
0100
0010
,
0001
1000
0001
0010
,
1000
0000
0001
0000
1000
0001
0000
1000
,
0000
0100
0000
0000
1000
0000
0010
0000
,
1000
1000
1000
1000
0100
0100
0100
0000
,
1000
0001
0100
0010
1000
0001
0000
1000
,
0001
0100
0010
1000
0000
0000
0000
0000
,
0001
0010
0001
0100
,
1010
0110
1001
0000
,
0001
1000
0010
0100
0001
0010
0000
1000
,
0100
0001
0010
0100
0000
0000
0000
0000
,
1000
0001
1001
0000
,
1100
0000
0101
0000
1000
0010
0000
0000
,
0001
0000
1000
1000
,
0000
0101
1100
0101
,
0000
1010
0011
1010
,
1001
0000
1000
0000
0001
0100
1000
0000
,
1001
0000
0001
0000
1000
0100
0001
0000
,
1001
0000
1000
0000
0001
0100
1000
0000
,
1001
1100
0101
0000
,
1000
0000
1001
0000
0010
0001
1000
0000
,
0001
0000
1001
0000
0010
1000
0001
0000
,
1100
0000
1001
0000
0010
1000
0001
0000
,
0101
0000
1001
0000
0010
0001
1000
0000
,
0100
0010
0001
0000
1010
0000
1001
0000
,
0100
0000
0100
0001
0000
0000
0010
0000
,
0001
0010
1000
0000
0011
0000
1100
0000
,
0010
0010
1001
0000
,
0100
0010
0001
0000
0110
0000
1010
0000
,
1000
0000
0001
1000
0000
0000
0001
0000
,
0100
0010
1000
0000
0101
0000
1100
0000
,
0010
0010
1001
0000
,
0010
0001
0100
0000
1000
0000
1000
0000
,
0001
0001
0010
0010
,
0100
1000
0100
0000
0001
0000
0100
0000
,
0010
0010
0010
0000
,
0100
0001
0100
0000
1000
0000
1000
0000
,
1000
1000
0010
0010
,
1000
0010
0001
0010
1000
0000
0001
0000
,
1100
0101
1001
0000
;

//---------------dance-single - ----------------
#NOTES:
     dance-single:
     :
     Hard:
     8:
     0.568,0.626,0.644,0.000,0.000:
0000
0000
0000
0000
,
0000
0000
0000
0000
,
0000
0000
0000
0000
,
0000
0000
0000
0000
,
0000
0000
0000
0000
,
0000
0010
0000
1010
,
0101
0010
0000
0011
,
1100
0010
0000
0011
,
1010
0000
1100
0000
0101
0000
0001
0100
,
0001
0100
0100
0100
,
0001
1100
0101
1100
,
0001
0100
0100
0100
,
1100
0101
1100
0101
,
0010
0100
0010
1010
,
0011
1010
0011
0100
,
1000
0100
0001
1000
,
1000
1000
1000
0010
,
1000
0000
0001
0010
0100
0000
0011
0000
,
1100
0000
1001
0000
0010
1000
0100
0000
,
0010
0000
0010
0000
1000
0001
0100
0000
,
1100
0000
0101
0000
1000
0001
1000
0000
,
0101
0000
1100
0000
0001
1000
0001
0000
,
0100
0100
0100
0000
1001
0000
1100
0000
,
0110
0000
1001
0000
0110
0000
0010
0100
,
0010
0100
0010
1000
,
0001
0100
1000
0100
,
0001
0000
1100
0000
0101
0000
1000
0001
,
0100
0101
1100
0101
,
1000
0000
0011
0000
1010
0000
0001
1000
,
0100
0100
0010
0110
,
0010
0010
0100
1000
,
0010
0001
0100
1000
,
0010
0001
0100
1000
,
0010
1000
0000
0000
1000
0000
0100
0010
,
0001
0010
0000
1000
0001
0010
0100
1000
,
0001
0000
1000
0100
0001
1000
0010
0000
,
0010
0100
0001
0000
0010
0100
1000
0000
,
0010
0100
0001
0010
0100
1000
0000
0000
,
0100
0010
1000
0000
0100
0010
0001
0000
,
0100
0010
1000
0100
0010
0001
0000
0000
,
1000
0100
0001
0000
0010
1000
0100
0000
,
1000
0100
0001
0010
0100
1000
0000
0000
,
1000
0100
0010
0000
0001
0100
0010
0000
,
1000
0100
0010
0001
0100
1000
0000
0000
,
0001
0010
0100
0100
0100
0010
0001
0000
,
1000
0010
0100
0100
0100
0010
1000
0000
,
0010
0001
1000
0100
0000
0001
1000
0000
,
1100
0101
0011
1010
,
1001
0000
0100
0000
0001
0001
1000
0010
,
1001
0000
1000
1000
0001
0010
0100
0000
,
0001
0000
1000
0000
0100
0100
0100
0000
,
0010
0001
1000
0010
1000
0010
0001
0010
,
0001
0100
1000
0000
0000
0000
0001
1000
,
0000
0001
1000
0100
0000
0000
0000
0000
,
0010
0001
0001
0000
0000
0100
0000
0000
,
1000
0100
0010
1000
,
0001
0100
0010
0001
,
0000
0001
0100
0010
1000
0100
0000
0000
,
0000
0000
0100
0000
0000
0100
0000
0000
,
0001
0010
0100
1000
,
0001
0010
0001
1000
0010
0001
0000
0000
,
0000
0101
0000
1010
0010
0000
1001
0000
,
1000
0010
1000
0001
0010
1000
0000
1000
,
0000
1001
0000
0000
0011
1100
0011
0000
,
0001
0010
0001
1000
0010
0001
0000
0000
,
0000
1100
0000
0011
0010
0000
1001
0000
,
1000
0010
1000
0001
0010
1000
0000
0001
,
0000
1001
0000
1000
0100
0001
0100
0000
,
0001
0100
0000
1000
0000
0000
0001
0000
,
1000
0010
0100
0001
0010
0100
0001
0000
,
1000
0100
0010
0001
0000
1000
0100
0000
,
0010
1000
0000
0101
0000
1010
0000
0010
,
0100
0000
0010
0001
0001
0000
0100
0000
,
0010
1000
1000
0000
0100
0000
0110
0000
,
1000
0000
0001
0000
,
1000
0001
0010
0001
0010
0001
0010
0100
,
0001
1000
0010
1000
0010
1000
0010
1000
,
0100
0010
0010
0010
0010
0010
0010
0010
,
1000
0010
0000
0000
0001
0010
0000
0000
,
1000
1000
0000
0000
0001
0001
0000
0000
,
0010
0100
0000
0000
1000
0001
0000
0000
,
1000
0100
0000
0000
0001
0100
0000
0000
,
1100
0011
1010
0101
,
1010
1001
0110
1001
,
1001
0110
0101
1001
,
0010
1000
0010
1000
0001
0010
0001
0010
,
1000
0000
0001
0000
1000
1000
0001
0000
,
1000
0000
0001
0000
0001
0001
1000
0000
,
1000
0000
0001
0000
1000
0010
1000
0000
,
1000
0000
0001
0100
1000
0001
0000
0000
,
0010
0000
1000
0000
0001
0010
1000
0000
,
0001
0000
1000
0000
0010
1000
0001
0000
,
0010
0000
1000
0000
0001
0010
1000
0000
,
1000
1000
1000
1000
0100
0100
0100
0000
,
1000
0001
0100
0010
1000
0100
0000
0001
,
1000
0010
0100
0001
0000
0000
0000
0000
,
0010
0001
0010
0001
,
1010
0110
1001
0000
,
0010
0100
0010
1000
0001
0100
0000
1000
,
0100
0001
0100
0010
0000
0000
0000
0000
,
1000
0001
0100
0010
1000
0001
0000
0000
,
1000
0100
0001
0000
1000
0010
0000
0000
,
0001
0010
0000
0000
1000
0010
1000
0010
,
0000
0000
0001
0100
1000
0100
0001
0000
,
0000
0000
1000
0010
0001
0010
1000
0000
,
1001
1010
0101
0010
,
0001
0000
0100
0001
1000
0001
1000
0000
,
1001
0011
1001
0110
,
1001
1100
0101
0100
,
1001
1010
0101
0010
,
0001
0000
0100
0001
1000
0001
1000
0000
,
1001
0011
1001
0110
,
1001
0000
1100
0000
0101
0000
0001
1000
,
0010
1000
0001
0000
1010
0000
0101
0000
,
1000
0100
0001
1000
0000
0000
0010
0000
,
0001
0010
0001
0000
0011
0000
1100
0000
,
1010
0011
1001
0000
,
1000
0010
1000
0000
0011
0000
0110
0000
,
1000
0010
0001
1000
0000
0000
0010
0000
,
0001
0010
0001
0000
0110
0000
1100
0000
,
1010
0011
1001
0000
,
1000
0100
0010
1000
0100
0010
1000
0100
,
0010
0000
0000
0011
0000
0000
1100
0000
,
0001
0100
0010
0001
0100
0010
0000
0001
,
1000
0100
1000
0001
0100
0010
0100
0000
,
1000
0100
0010
1000
0100
0010
1000
0100
,
0010
0000
0000
0011
0000
0000
1100
0000
,
1001
1001
0110
0011
,
1100
0110
1001
0000
;

//---------------dance-solo - ----------------
#NOTES:
     dance-solo:
     :
     Easy:
     6:
     0.402,0.487,0.249,0.000,0.000:
000000
000000
000000
000000
,
000000
000000
000000
000000
,
000000
000000
000000
000000
,
000000
000000
000000
000000
,
000000
000000
000000
000000
,
000000
000100
000000
000100
,
000000
000100
000000
000100
,
000000
000100
000000
000100
,
000100
000000
000100
000000
000100
000000
001000
001000
,
000000
001000
000000
001000
,
000000
001000
000000
001000
,
000100
000000
000100
100001
,
000000
001000
001000
001000
,
001000
000001
000100
001100
,
000000
000100
000100
000100
,
000100
001000
000100
100001
,
000000
100000
100000
100000
,
000100
000000
000100
000000
,
000100
000000
001000
000000
000001
100000
001000
000000
,
000100
000001
001000
100000
,
000100
000001
000100
100000
,
000100
000000
001000
000000
000001
100000
001000
000000
,
000100
000001
001000
100000
,
000100
000001
000100
100000
,
000100
000000
001000
000000
000100
000001
100000
000000
,
000100
001000
000100
001100
,
000000
001000
000001
001000
,
000100
001000
000100
100001
,
000000
100000
001000
000001
,
000100
000001
000100
001100
,
000000
000001
001000
100000
,
000100
001000
000100
100001
,
000000
100000
100000
100000
,
000100
000100
000000
000000
000000
000000
000000
010000
,
010000
010000
000000
010000
010000
010000
010000
010000
,
010000
010000
000100
000010
,
000100
000100
000000
000100
,
000000
100000
001000
000001
,
000100
100000
001000
000000
000001
000000
100000
000000
,
000001
001000
000001
001001
,
000000
000100
000000
000100
,
000000
000001
001000
100000
,
000100
000001
001000
000000
100000
000000
000001
000000
,
100000
001000
100000
101000
,
100001
000000
001000
000000
000100
001000
000100
000000
,
100000
000000
000001
000000
000100
001000
000100
000000
,
000100
000000
000001
000000
100000
000100
000001
000000
,
001100
100001
001000
100000
,
000001
000000
001000
000000
,
100000
000000
000100
001000
,
000001
100000
001000
001000
,
000001
000001
000001
000001
,
000001
000100
000000
000000
000000
000000
000001
001000
,
000000
000100
000001
001000
000000
000000
000000
000000
,
000000
000000
001000
000000
000000
001000
000000
000000
,
000100
000001
100000
000100
,
001000
000001
100000
001000
,
000000
001000
100000
000100
100000
001000
000000
000000
,
000000
000000
001000
000000
000000
001000
000000
000000
,
100000
000001
001000
000100
,
000100
000000
001000
000000
000001
100000
000000
000000
,
000000
000100
000000
100000
001000
000000
001001
000000
,
000100
000000
001000
000000
100000
000001
000000
000100
,
000000
100000
000000
001000
100000
001000
000001
000000
,
000100
000000
001000
000000
100000
000001
000000
000000
,
000000
000100
000000
000001
001000
000000
101000
000000
,
000100
000000
001000
000000
000001
100000
000000
000100
,
000000
000001
000000
001000
000001
001000
100000
000000
,
000100
100000
000000
001000
000000
000000
000100
000000
,
000001
100000
001100
100001
,
000100
000001
001000
000001
000000
001000
000100
000000
,
000100
001000
000000
001000
000000
001000
000000
000001
,
100000
001000
000001
100000
,
001100
000001
100000
001000
,
100000
000000
000001
000000
,
100000
000001
001000
000100
,
100000
000001
001000
000100
,
100000
000001
001000
000100
,
000000
010000
000000
000010
,
000000
100000
000000
000001
,
000000
010000
000000
010000
,
000000
000010
000000
000010
,
000000
100000
001000
000001
,
000100
001000
000001
001000
,
100000
000100
000001
001000
,
100000
000100
000001
001000
,
100000
000001
100000
000001
,
100000
000001
100000
001000
,
000100
000100
000100
000100
,
000001
100000
001000
000100
,
000010
010000
000010
010000
,
000010
100000
001000
000001
,
001000
000001
010000
100000
,
000010
000010
010000
000001
,
100000
000001
001000
000100
100000
000001
000000
100000
,
000001
001000
000100
100000
000000
000000
000000
000000
,
000010
000010
000010
000010
,
010000
010000
100000
000000
,
000001
100000
000100
001000
000001
100000
000000
000001
,
100000
000100
001000
000001
000000
000000
000000
000000
,
010000
000001
000001
000000
,
000010
000000
100000
000000
000100
001000
000000
000000
,
000010
000000
010000
010000
,
000000
000001
000001
000001
,
000000
100000
100000
100000
,
010010
100000
001000
001000
,
100001
000001
001000
001000
,
010010
100000
001000
001000
,
100001
101000
001001
000000
,
110000
100001
000100
100000
,
000011
100001
000100
000001
,
101000
100001
000010
100000
,
001001
100001
010000
000001
,
100000
001000
000001
000000
101000
000000
001001
000000
,
010000
010000
000001
000001
,
000001
001000
100000
000000
001001
000000
101000
000000
,
100000
100000
100000
000000
,
100000
000100
000001
000000
100100
000000
000101
000000
,
100000
000001
010000
000010
,
000001
000100
100000
000000
000101
000000
100100
000000
,
010000
010000
010000
000000
,
000001
100000
001000
000000
100000
000000
100000
000000
,
000001
000001
000100
000100
,
100000
000001
001000
000000
000010
000000
000010
000000
,
000100
000100
000100
000000
,
000001
100000
001000
000000
100000
000000
100000
000000
,
100000
100000
001000
001000
,
101000
001001
101000
001001
,
100001
001100
010010
000000
;

//---------------dance-solo - ----------------
#NOTES:
     dance-solo:
     :
     Medium:
     7:
     0.469,0.556,0.444,0.000,0.000:
000000
000000
000000
000000
,
000000
000000
000000
000000
,
000000
000000
000000
000000
,
000000
000000
000000
000000
,
000000
000000
000000
000000
,
000000
000100
000000
000100
,
000000
000100
000000
000100
,
000100
000100
000100
001001
,
100000
000000
100000
000000
001000
000000
001000
001000
,
001000
001000
100000
000010
,
000001
101000
100000
001001
,
100000
000010
000001
001000
,
100000
001001
000001
101000
,
000100
001000
000100
001100
,
000100
000001
001000
100000
,
000100
000001
001000
010010
,
100000
100000
100000
100000
,
000100
000000
000100
000000
,
000011
000000
110000
000000
000001
100000
001000
000000
,
000100
000001
000101
001000
,
000100
010010
000100
100100
,
100100
000000
001001
000000
100000
000001
001000
000000
,
000100
100000
100100
001000
,
000100
100001
000100
000101
,
000100
000000
001000
000000
000100
000001
100000
000000
,
000001
001000
100000
001000
,
000001
101000
100000
001001
,
100000
001000
000001
001000
,
100000
001001
000001
101000
,
000100
001000
000100
001100
,
000100
000001
001000
100000
,
000100
000001
001000
100001
,
100000
100000
100000
100000
,
010000
100000
000000
000000
000000
000000
000000
010000
,
100000
000001
000000
000010
000001
100000
001000
000001
,
001000
001000
001000
001000
,
000100
000000
000100
000000
000000
010000
000100
000010
,
000000
100000
000100
000001
,
100000
001000
000001
000000
100000
000000
001000
000000
,
100001
001000
000100
100001
,
000100
000000
000100
000000
000000
000010
000100
010000
,
000000
000001
000100
100000
,
000001
001000
100000
000000
000001
000000
001000
000000
,
100001
001000
000100
100001
,
000001
000000
000100
000000
001000
000100
000001
000000
,
100000
000000
000100
000000
001000
000100
100000
000000
,
000010
000010
010000
000100
000000
001000
000100
000000
,
000011
110000
001001
101000
,
010010
000100
000001
100000
,
100001
100000
000001
001000
,
000001
100000
001000
001000
,
000100
000001
001000
100000
001000
000001
000100
000000
,
000001
000100
100000
000000
000000
000000
000001
001000
,
000000
100000
000001
000010
010000
000000
000000
000000
,
000100
000000
001000
000000
000000
001000
000000
000000
,
100000
001000
000100
100000
,
000001
001000
000100
000001
,
000000
000010
010000
000001
100000
001000
000000
000000
,
000000
000000
001000
000000
000000
001000
000000
000000
,
100000
001000
000100
000001
,
000100
100000
001000
000100
000001
001000
000000
000000
,
000000
000001
000000
100000
000100
000000
001001
000000
,
000100
000001
001000
000100
100000
001000
000000
000001
,
000000
100000
000000
001000
000100
000001
001000
000000
,
000100
000001
001000
000100
100000
001000
000000
000000
,
000000
100000
000000
000001
000100
000000
101000
000000
,
000100
100000
001000
000100
000001
001000
000000
100000
,
000000
000001
000000
001000
000100
100000
001000
000000
,
000001
001000
000000
100000
000000
000000
000001
000000
,
100100
001000
000100
001001
,
100000
001000
000100
000001
000000
001000
100000
000000
,
000100
010000
000000
100000
000000
000001
000000
000100
,
001000
000100
000001
001000
,
000100
100000
001000
010010
,
100000
000000
000001
000000
,
010000
000010
000100
001000
,
000001
100000
001000
000100
,
010000
000010
000100
001000
,
000000
001000
000000
001000
,
000000
001000
000000
001000
,
000000
010000
000000
010000
,
000000
010000
000000
010000
,
000010
010000
000001
100000
,
000100
001000
000001
100000
,
001000
000100
000001
001000
,
100000
000100
000001
001000
,
100000
000001
100000
100000
,
000001
000000
100000
000000
000001
000001
000000
100000
,
000000
000100
000100
000100
,
000001
100000
001000
000100
,
000010
010000
000010
000010
,
010000
000000
000010
000000
010000
000001
000000
100000
,
000000
001000
000000
000000
010000
000000
010000
000000
,
100000
100000
100000
100000
001000
001000
001000
000000
,
100000
000001
001000
000100
010000
000010
000000
100000
,
000001
001000
000100
100000
000000
000000
000000
000000
,
000010
000010
000010
000010
,
010100
000110
100001
000000
,
000001
100000
000100
001000
000010
010000
000000
100000
,
001000
000001
000100
001000
000000
000000
000000
000000
,
110000
000011
100001
000000
,
101000
000000
001001
000000
010000
000010
000000
000000
,
000011
000000
110000
110000
,
000000
001001
101000
001001
,
000000
100100
000101
100100
,
010010
000000
100000
000000
000001
001000
100000
000000
,
100001
000000
000001
000000
100000
001000
000001
000000
,
010010
000000
100000
000000
000001
001000
100000
000000
,
100001
101000
001001
000000
,
110000
000000
100001
000000
000100
000001
100000
000000
,
000011
000000
100001
000000
000100
100000
000001
000000
,
101000
000000
100001
000000
000010
100000
000001
000000
,
001001
000000
100001
000000
010000
000001
100000
000000
,
010000
000100
000001
000000
100010
000000
010001
000000
,
001000
000000
001000
000001
000000
000000
000010
000000
,
000010
000100
100000
000000
010001
000000
100010
000000
,
000100
000100
010010
000000
,
010000
000100
000001
000000
000110
000000
010100
000000
,
100000
000000
000001
010000
000000
000000
000010
000000
,
000010
000100
100000
000000
001010
000000
011000
000000
,
000100
000100
010010
000000
,
000010
000001
001000
000000
100000
000000
100000
000000
,
000001
000001
000100
000100
,
010000
100000
001000
000000
000010
000000
000010
000000
,
000100
000100
000100
000000
,
000010
000001
001000
000000
100000
000000
100000
000000
,
100000
100000
000100
000100
,
010000
000100
000010
000100
100000
000000
000001
000000
,
101000
001001
010010
000000
;

//---------------dance-solo - ----------------
#NOTES:
     dance-solo:
     :
     Hard:
     8:
     0.569,0.626,0.644,0.000,0.000:
000000
000000
000000
000000
,
000000
000000
000000
000000
,
000000
000000
000000
000000
,
000000
000000
000000
000000
,
000000
000000
000000
000000
,
000000
000100
000000
100100
,
001001
000100
000000
000101
,
101000
000100
000000
000110
,
010100
000000
101000
000000
001001
000000
000001
001000
,
000001
001000
001000
001000
,
000001
101000
001001
101000
,
000001
001000
001000
001000
,
101000
001001
101000
001001
,
000100
001000
000100
100100
,
000101
100100
000101
001000
,
100000
001000
000001
100000
,
100000
100000
100000
000100
,
100000
000000
000010
000010
000010
000000
000101
000000
,
101000
000000
010010
000000
000010
100000
001000
000000
,
000100
000000
000100
000000
010000
000001
001000
000000
,
101000
000000
001001
000000
100000
000001
100000
000000
,
001001
000000
101000
000000
000001
100000
000001
000000
,
001000
001000
001000
000000
100001
000000
101000
000000
,
001100
000000
100001
000000
001100
000000
000100
001000
,
000100
001000
000100
100000
,
000001
001000
100000
001000
,
000001
000000
101000
000000
001001
000000
010000
000001
,
001000
001001
101000
001001
,
100000
000000
000101
000000
100100
000000
000010
100000
,
001000
001000
000100
001100
,
000100
000100
001000
100000
,
000100
000001
001000
100000
,
000100
000001
001000
100000
,
010000
100000
000000
000000
100000
000000
001000
000010
,
000001
000100
000000
010000
000010
000100
001000
100000
,
000001
000000
100000
001000
000001
100000
000100
000000
,
000100
001000
000001
000000
000100
001000
100000
000000
,
000100
001000
000001
000100
001000
100000
000000
000000
,
001000
000100
100000
000000
001000
000100
000001
000000
,
001000
000100
100000
001000
000100
000001
000000
000000
,
010000
001000
000001
000000
000010
100000
001000
000000
,
010000
001000
000001
000010
001000
100000
000000
000000
,
100000
001000
000010
000000
000001
001000
010000
000000
,
100000
001000
000010
000001
001000
010000
000000
000000
,
000001
000100
001000
001000
001000
000100
000001
000000
,
100000
000100
001000
001000
001000
000100
100000
000000
,
000100
000001
100000
001000
000000
000001
100000
000000
,
101000
001001
000101
100100
,
100001
000000
001000
000000
000001
000001
010000
010000
,
100001
000000
100000
100000
000010
000010
000010
000000
,
000001
000000
100000
000000
001000
001000
001000
000000
,
000100
000010
010000
000100
100000
000100
000001
000100
,
000001
001000
100000
000000
000000
000000
000001
100000
,
000000
000001
100000
001000
000000
000000
000000
000000
,
000100
000001
000001
000000
000000
001000
000000
000000
,
100000
001000
000100
100000
,
000001
001000
000100
000001
,
000000
000001
001000
000100
100000
001000
000000
000000
,
000000
000000
001000
000000
000000
001000
000000
000000
,
000001
000100
001000
100000
,
000001
000100
000010
100000
010000
000001
000000
000000
,
000000
001001
000000
100100
000100
000000
100010
000000
,
100000
000100
010000
000001
000010
100000
000000
100000
,
000000
100001
000000
000000
010001
100010
010001
000000
,
000001
000100
000010
100000
010000
000001
000000
000000
,
000000
101000
000000
000101
000100
000000
100010
000000
,
100000
000100
010000
000001
000010
100000
000000
000001
,
000000
100001
000000
100000
001000
000001
001000
000000
,
000001
001000
000000
100000
000000
000000
000001
000000
,
100000
000100
001000
000001
000100
001000
000001
000000
,
100000
001000
000100
000001
000000
100000
001000
000000
,
000100
100000
000000
001001
000000
100100
000000
000100
,
001000
000000
000100
000001
000001
000000
001000
000000
,
000100
100000
100000
000000
001000
000000
001100
000000
,
100000
000000
000001
000000
,
100000
000010
000010
000010
000010
000010
000010
000010
,
000001
010000
010000
010000
010000
010000
010000
010000
,
001000
000100
000100
000100
000100
000100
000100
000100
,
010000
010000
000000
000000
000010
000010
000000
000000
,
100000
100000
000000
000000
000001
000001
000000
000000
,
000100
001000
000000
000000
100000
000001
000000
000000
,
100000
001000
000000
000000
000001
001000
000000
000000
,
101000
000101
100100
001001
,
100010
010001
001100
010010
,
100001
011000
001010
100001
,
010000
010000
010000
010000
000010
000010
000010
000010
,
100000
000000
000001
000000
100000
100000
000001
000000
,
100000
000000
000001
000000
000001
000001
100000
000000
,
100000
000000
000001
000000
100000
010000
100000
000000
,
100000
000000
000001
001000
100000
000001
000000
000000
,
000010
000000
010000
000000
000010
000010
010000
000000
,
000010
000000
010000
000000
010000
010000
000010
000000
,
000010
000000
010000
000000
000010
000100
100000
000000
,
100000
100000
100000
100000
001000
001000
001000
000000
,
010000
000010
001000
000100
100000
001000
000000
000001
,
010000
000100
001000
000001
000000
000000
000000
000000
,
000010
000010
000010
000010
,
010100
000110
100001
000000
,
000100
001000
000100
100000
000001
001000
000000
010000
,
001000
000010
001000
000100
000000
000000
000000
000000
,
100000
000001
001000
000100
100000
000001
000000
000000
,
100000
001000
000001
000000
010000
000010
000000
000000
,
000001
000010
000000
000000
100000
010000
100000
010000
,
000000
000000
000001
001000
100000
001000
000001
000000
,
000000
000000
100000
000100
000001
000100
100000
000000
,
010010
100010
010001
000100
,
000001
000000
001000
000001
010000
000010
100000
000000
,
010010
010001
100010
001100
,
100001
101000
001001
001000
,
010010
100010
010001
000100
,
000001
000000
001000
000001
010000
000010
100000
000000
,
010010
010001
100010
001100
,
100001
000000
101000
000000
001001
000000
000001
100000
,
010000
100000
000001
000000
100010
000000
010001
000000
,
100000
001000
000001
010000
000000
000000
000010
000000
,
000001
000010
000001
000000
010001
000000
100010
000000
,
100100
000101
010010
000000
,
100000
010000
100000
000000
000110
000000
010100
000000
,
100000
000100
000001
010000
000000
000000
000010
000000
,
000001
000010
000001
000000
001010
000000
011000
000000
,
100100
000101
010010
000000
,
100000
010000
000100
100000
010000
000100
100000
010000
,
000100
000000
000000
000101
000000
000000
101000
000000
,
000001
000010
000100
000001
000010
000100
000000
000001
,
010000
001000
100000
000001
001000
000100
001000
000000
,
100000
010000
000100
100000
010000
000100
100000
010000
,
000100
000000
000000
000101
000000
000000
101000
000000
,
010010
100001
010100
000110
,
011000
001010
110011
000000
;

//---------------dance-double - ----------------
#NOTES:
     dance-double:
     :
     Hard:
     9:
     0.525,0.626,0.444,0.000,0.000:
00000000
00000000
00000000
00000000
,
00000000
00000000
00000000
00000000
,
00000000
00000000
00000000
00000000
,
00000000
00000000
00000000
00000000
,
00000000
00000000
00000000
00000000
,
00000000
10000000
00000000
00110000
,
00101000
00010000
00000000
00001010
,
00010010
00001000
00000000
00000011
,
00000101
00000000
00001001
00000000
00001010
00000000
00010000
00000100
,
00001000
00000100
00010000
00001000
,
00110000
00000000
11000000
00000000
01010000
00000000
00100000
00001000
,
00010000
00000100
00000010
00000001
,
00001100
00000000
00011000
00000000
00110000
00000000
00001000
00010000
,
00000100
00010000
00001000
00100000
,
01010000
00000000
10100000
00000000
00110000
00000000
00001000
00010000
,
00000100
00000010
00000001
00000100
,
00000010
00001000
00000100
00010000
00001000
01000000
00010000
10000000
,
01000000
00100000
00001000
00010000
,
00001000
00010000
00000100
00000010
00000001
00001000
00000100
00000000
,
00010000
00000000
00001000
00000000
00100000
00010000
01000000
00000000
,
00100000
10000000
01000000
00100000
00010000
01000000
00100000
00000000
,
10000000
00000000
01000000
00000000
00100000
00001000
00010000
00000000
,
00000100
00000010
00000001
00000100
00000010
00001000
00000100
00000000
,
00011000
00110000
11000000
00100000
,
00011000
00001010
00000101
00000010
,
00010000
00001000
01000000
00010000
,
11000000
00000000
01001000
00000000
00010010
00000000
00000100
00000010
,
00000001
00000100
00000010
00001000
,
00010100
00000000
00101000
00000000
10010000
00000000
01000000
00100000
,
00010000
01000000
00001000
00010000
,
00001100
00000000
00000011
00000000
00001010
00000000
00000100
00010000
,
00001000
00000000
00100000
00000000
01001000
10000000
00010000
00000000
,
00011000
00001001
00000110
00011000
,
00000010
00000100
00000000
00000000
00000000
00000000
00000000
00000001
,
00001000
00000100
00000000
00010000
01000000
10000000
00100000
00010000
,
00001000
00000000
00000100
00000001
00000010
00000100
00001000
00000000
,
00000001
00000010
00001000
00000000
00000000
00010000
00100000
10000000
,
00000000
01000000
00100000
00010000
01000000
00100000
10000000
01000000
,
00100000
00010000
01000000
00000000
00000000
00001000
00010000
00000010
,
00000000
00000100
00000001
00000010
00001000
00010000
00100000
10000000
,
01000000
00100000
00001000
00000000
00000000
00010000
00000100
00001000
,
00000000
00000001
00000100
00000010
00001000
00000100
00010000
00001000
,
10000000
00100000
01000000
00000000
00000000
00001000
00000100
00000001
,
00000000
00001000
00000100
00010000
00001000
00100000
01000000
10000000
,
00010000
01000000
00001000
00000000
00000000
00010000
00010000
00000000
,
00000000
00000000
00000000
00000100
00001000
00001000
00000001
00000001
,
00000100
00000010
00001000
00000000
00000000
01000000
01000000
00000000
,
00000000
10000000
00000000
00010000
00000000
01000000
00000000
00001000
,
00010000
00000100
00000010
00000000
00000000
00000001
00000001
00000000
,
00000000
00000000
00000000
00000100
00000010
00000010
00010000
00010000
,
00001000
01000000
00100000
00000000
00000000
00010000
00010000
00000000
,
00000000
00001000
00000100
00000001
00001000
00000100
00010000
00001000
,
01000000
00100000
10000000
01000000
,
00000000
00100000
00001000
00010000
00000000
00000100
00000000
00000000
,
00000000
00000000
00001001
00000000
00000000
00010100
00000000
00000000
,
00000000
00001000
00100000
00010000
10000000
01000000
00100000
00010000
,
00000000
01000000
00001000
00000000
00000100
00000000
00000001
00000000
,
00000000
00001000
00000100
00010000
00001000
00100000
00000000
00000000
,
00000000
00000000
10010000
00000000
00000000
01001000
00000000
00000000
,
00000000
00010000
00000100
00000001
00000010
00001000
00000100
00000000
,
00010000
00001000
00100000
00000000
10010000
00000000
00000000
00000000
,
00000000
01000000
00000000
01000000
00100000
00010000
01000000
00000000
,
00001000
00000100
00000001
00000000
00001100
00000000
00000000
00010000
,
00000000
00001000
00000000
00010000
00001000
00100000
01000000
00000000
,
10000000
00010000
01000000
00000000
00011000
00000000
00000000
00000000
,
00000000
00000100
00000000
00000100
00000010
00000001
00000100
00000000
,
00000010
00010000
00001000
00000000
00110000
00000000
00000000
01000000
,
00000000
01000000
00000000
10000000
00100000
01000000
00010000
00000000
,
00100000
00001000
00010000
00000100
00000000
00001000
00001000
00000000
,
00000000
00000000
00000000
00000001
00000100
00000010
00001000
00000100
,
00000000
00000000
00011000
00000000
00000000
10010000
00000000
00000000
,
00000000
00100000
00000000
01000000
00000000
00001000
00000000
00010000
,
00000100
00000010
00000001
00000000
00000000
00000100
00000100
00000000
,
00000000
00000000
00000000
00000010
00010000
00001000
01000000
00010000
,
10000000
10000000
10000000
00000000
01000000
01000000
01000000
00000000
,
00100000
00000000
00001000
00000000
00010000
00000100
00000010
00000000
,
00000001
00000000
00000100
00000000
00000010
00010000
00001000
00000000
,
01000000
00000000
00100000
00000000
10000000
01000000
00100000
00000000
,
00010000
01000000
00000000
00000000
10000000
01000000
00000000
00000000
,
00001000
00001000
00000000
00000000
00010000
00010000
00000000
00000000
,
00000100
00001000
00000000
00000000
00000100
00000001
00000000
00000000
,
00000100
00000100
00000000
00000000
00000010
00000010
00000000
00000000
,
00001100
00000011
00001010
00101000
,
01010000
10100000
11000000
01010000
,
00101000
00010100
00000110
00000011
,
00000001
00000100
00001000
00010000
01000000
00010000
00001000
00010000
,
00011000
00000000
01000000
00000000
10000000
00010000
01000000
00000000
,
00011000
00000000
00000010
00000000
00000001
00001000
00000100
00000000
,
00000110
00000000
00000001
00000000
00001000
00000100
00001000
00000000
,
00010100
00000000
00001000
00000000
00100000
00010000
01000000
00000000
,
00101000
00000000
00010000
00000000
00000010
00001000
00000100
00000000
,
00000101
00000000
00001000
00000000
00010000
00001000
01000000
00000000
,
01100000
00000000
00010000
00000000
10000000
01000000
10000000
00000000
,
00110000
00000000
01000000
00000000
00001000
00010000
00001000
00000000
,
00100000
00010000
10000000
01000000
00010000
00001000
00000000
00001000
,
00000100
00000001
00001000
00000100
00000000
00000000
00000000
00000000
,
00000000
00000010
00000000
00000010
00000000
00000000
00010000
00000000
,
00000000
01000000
00000000
01000000
00000000
00000000
00000000
00000000
,
00010000
00100000
01000000
10000000
00010000
00000000
00000000
00001000
,
00010000
00000100
00000010
00000100
00000000
00000000
00000000
00000000
,
00000000
00000010
00000000
00000010
00000000
00000000
00010000
00000000
,
00000000
01000000
00000000
01000000
00000000
00000000
00000000
00000000
,
00011000
00000000
01100000
01100000
,
00000000
10010000
10010000
10010000
,
00000000
00011000
00011000
00010100
,
00001001
00000000
00000000
00000000
,
10010000
00000000
01000000
00000000
00100000
10000000
01000000
00000000
,
00000000
00000000
00000000
00000000
,
00000110
00000000
00000001
00000000
00001000
00000100
00001000
00000000
,
00000000
00000000
00000000
00000000
,
00110000
00000000
01000000
00000000
10000000
00010000
01000000
00000000
,
00000000
00000000
00000000
00000000
,
00000101
00000000
00001000
00000000
00000010
00000001
00000100
00000000
,
00001000
00010000
00100000
10000000
01000000
00010000
00001000
00010000
,
00001000
00000100
00000001
00001000
00000100
00001000
00000100
00000010
,
00000001
00000100
00001000
00000100
00000001
00000010
00000100
00001000
,
00000100
00010000
00001000
00100000
00010000
10000000
01000000
00010000
,
01000000
10000000
00100000
01000000
00010000
10000000
00010000
00100000
,
01000000
10000000
00010000
01000000
00001000
00010000
00000010
00001000
,
00000001
00000100
00000010
00001000
00000100
00001000
00000010
00000100
,
00001000
00010000
00001000
00010000
01000000
10000000
00010000
00000000
,
10000000
01000000
00000000
00000000
00010000
01000000
00000000
00000000
,
00100000
00010000
00001000
00000100
,
00000001
00000100
00000000
00000000
00001000
00000100
00000000
00000000
,
00000001
00000100
00001000
00010000
,
01000000
10000000
00000000
00000000
00000000
01000000
00010000
00000000
,
00010000
00001000
00000100
00000001
,
00000010
00010000
00001000
00100000
00001000
00010000
00000100
00001000
,
00010000
00001000
00100000
01000000
10010000
00000000
00000000
00000000
;

//---------------dance-double - ----------------
#NOTES:
     dance-double:
     :
     Easy:
     7:
     0.363,0.556,0.179,0.000,0.000:
00000000
00000000
00000000
00000000
,
00000000
00000000
00000000
00000000
,
00000000
00000000
00000000
00000000
,
00000000
00000000
00000000
00000000
,
00000000
00000000
00000000
00000000
,
00000000
10000000
00000000
00010000
,
00000000
00001000
00000000
00000001
,
00000000
00001000
00000000
00000001
,
00000100
00000010
00001000
00000001
,
00000010
00000100
00001000
00001001
,
00000000
00001000
00000000
00010000
,
00100000
00000000
00100000
10010000
,
00000000
01000000
00100000
00010000
,
00001000
00000100
00000010
00000110
,
00000000
00000010
00000001
00000100
,
00000010
00000100
00000010
00001001
,
00000000
00001000
00010000
00011000
,
00001000
00000010
00000001
00000100
,
00000010
00000000
00000100
00000000
00000001
00001000
00000100
00000000
,
00000010
00000100
00000010
00001000
,
00010000
00100000
10000000
01000000
,
00100000
00000000
01000000
00000000
00010000
10000000
01000000
00000000
,
00100000
01000000
00100000
00010000
,
00001000
00000010
00000001
00000100
,
00000010
00000000
00000100
00000000
00000010
00000001
00001000
00000000
,
00000000
00000100
00010000
00011000
,
00000000
00010000
00000000
00001000
,
00000010
00000000
00000010
00001001
,
00000000
00000100
00000010
00001000
,
00010000
01000000
00100000
01100000
,
00000000
00100000
10000000
01000000
,
00100000
01000000
00100000
10010000
,
00000000
00010000
00001000
00000000
,
00000100
00000100
00000000
00000000
00000000
00000000
00000000
00000001
,
00000001
00000001
00000000
00000001
00000001
00000001
00000001
00000001
,
00000001
00000000
00000000
00000000
,
01000000
10000000
00100000
00010000
,
10000000
01000000
00010000
00001000
,
00000100
00000001
00000010
00001000
,
00000001
00000100
00001000
00010000
,
01000000
10000000
00010000
10000000
,
00100000
01000000
00010000
00001000
,
00000100
00000001
00001000
00000001
,
00000010
00000100
00001000
00010000
,
10010000
00000000
01000000
00000000
10000000
01000000
00010000
00000000
,
00001000
00000000
00000100
00000000
00000001
00000010
00000001
00000000
,
00000010
00000000
00000010
00000000
00000100
00000001
00000100
00000000
,
00000010
00000100
00001001
00011000
,
10010000
00100000
00100000
00100000
,
10010000
01000000
01000000
01000000
,
10010000
00010000
00100000
01000000
,
10000000
01000000
00100000
00010000
,
00100000
00010000
00000000
00000000
00000000
00000000
00001000
00000100
,
00000000
00000001
00000100
00001000
00000000
00000000
00000000
00000000
,
00000000
00000000
00000001
00000000
00000000
00000001
00000000
00000000
,
00000010
00000001
00000100
00001000
,
00010000
01000000
10000000
00100000
,
00000000
00100000
10000000
01000000
00010000
01000000
00000000
00000000
,
00000000
00000000
01000000
00000000
00000000
01000000
00000000
00000000
,
10000000
00010000
01000000
00100000
,
01000000
00000000
00010000
00000000
01000000
10000000
00000000
00000000
,
00000000
00100000
00000000
00010000
11000000
00000000
00110000
00000000
,
01000000
00000000
00010000
00000000
01000000
10000000
00000000
00100000
,
00000000
10000000
00000000
00100000
01000000
00010000
00001000
00000000
,
00000100
00000000
00000001
00000000
00000100
00001000
00000000
00000000
,
00000000
00000001
00000000
00000001
00000100
00000000
00001001
00000000
,
00000100
00000000
00000001
00000000
00000100
00001000
00000000
00000100
,
00000000
00000010
00000000
00000001
00000100
00001000
00010000
00000000
,
00100000
01000000
00000000
01000000
00000000
00000000
01000000
00000000
,
00100000
01000000
00000000
00100000
,
01000000
00100000
01000000
00100000
00000000
01000000
00100000
00000000
,
00100000
01000000
00000000
01000000
00000000
01000000
00000000
00010000
,
10000000
00000000
00100000
00000000
,
10010000
01000000
00010000
00001000
,
00000100
00000000
00000001
00000000
,
00001010
00000101
00000110
00001001
,
00000011
00001100
00000110
00001001
,
00000110
00010010
00011000
00101000
,
00000000
01000000
00000000
01000000
,
00000000
10000000
00000000
10000000
,
00000000
00100000
00000000
00100000
,
00000000
00010000
00000000
00010000
,
00001000
00001000
00001000
00001000
,
00000100
00000100
00000100
00000100
,
00000001
00000001
00000001
00000001
,
00001000
00001000
00001000
00001000
,
00001001
00000100
00000001
00000100
,
00001000
00000100
00010000
00001000
,
00100000
00100000
00100000
00100000
,
00010000
10000000
01000000
00000000
,
00010000
01000000
10000000
01000000
,
00010000
00001000
00000100
00000001
,
00000001
00000001
00000001
00000001
,
00001000
00000100
00000010
00000000
,
00001000
00000001
00000100
00000000
,
00001000
00000100
00010000
00000000
,
00010000
00000000
00100000
00000000
,
10000000
00000000
01000000
00000000
,
10000000
00010000
01000000
00000000
,
00010000
01000000
00001000
00000000
,
00001000
00000000
00000010
00000000
,
00000001
00000000
00000100
00000000
,
00001000
00000000
00010000
00010000
,
00000000
01000000
01000000
01000000
,
00000000
10000000
00010000
01000000
,
10000000
01000000
00010000
01000000
,
10000000
01000000
00010000
00010000
,
00001000
00001000
00000100
00000100
,
00000001
00000001
00000001
00000001
,
00001000
00000100
00010000
00001000
,
01000000
00010000
10000000
01000000
,
00010000
00001000
00000100
00000001
,
00001000
00000100
00000100
00000000
,
00011000
00100000
00001000
00010000
,
00000010
00000100
00000001
00000001
,
00001000
00000100
00010000
00001000
,
00100000
00010000
01000000
00000000
,
00100000
00100000
10000000
10000000
,
01000000
01000000
00010000
00010000
,
00001000
00000100
00000001
00000010
,
00000001
00000100
00001000
00000000
,
00010000
00000000
01000000
00000000
,
01000000
00000000
01000000
00000000
,
00001000
00000000
00000100
00000000
,
00000100
00000000
00000100
00000000
,
00000001
00000000
00001000
00000000
,
00000100
00000000
00000100
00000000
,
00010000
00000000
00001000
00000000
,
00100000
00010000
01000000
00000000
;

//---------------dance-double - ----------------
#NOTES:
     dance-double:
     :
     Medium:
     8:
     0.469,0.556,0.455,0.011,0.000:
00000000
00000000
00000000
00000000
,
00000000
00000000
00000000
00000000
,
00000000
00000000
00000000
00000000
,
00000000
00000000
00000000
00000000
,
00000000
00000000
00000000
00000000
,
00000000
10000000
00000000
00010000
,
00000000
00001000
00000000
00000001
,
00000000
00000100
00000000
00000010
,
00010000
00000100
00001000
00000010
,
00001010
00001100
00001001
00011000
,
00010000
01000000
10000000
01000000
,
00110000
01010000
10010000
00011000
,
00001000
00000100
00000001
00000100
,
00001010
00001100
00001001
00011000
,
00010000
01000000
10000000
01000000
,
00110000
01010000
10010000
00011000
,
00000010
00000100
00001000
00010000
,
00001000
00000010
00000001
00000100
,
00000011
00000000
00001100
00000000
00000001
00001000
00000100
00000000
,
00000010
00001000
00001100
00001000
,
00010000
00100000
10000000
01000000
,
10100000
00000000
01010000
00000000
10000000
00010000
01000000
00000000
,
00100000
10000000
00110000
00010000
,
00001000
00000010
00000001
00001010
,
00000011
00001100
00001000
00010000
,
00110000
01010000
10010000
00011000
,
00001000
00000100
00000001
00000100
,
00001010
00001100
00001001
00011000
,
00010000
01000000
10000000
01000000
,
00110000
01010000
10010000
00011000
,
00001000
00000100
00000001
00000100
,
00001010
00001100
00001001
00011000
,
00100000
01000000
00010000
00000000
,
00001000
00000010
00000000
00000000
00000000
00000000
00000000
00001000
,
00000010
00001000
00000000
00000010
00000100
00010000
00001000
00010000
,
00022000
00000000
00033000
00000000
,
01000000
00000000
00010000
00000000
00000000
01000000
10000000
00010000
,
00000000
00000000
01000000
00010000
00001000
00000100
00000001
00000000
,
00000100
00000001
00000010
00000000
00001000
00000000
00010000
00000000
,
11000000
00010000
00000100
00000001
,
00000100
00000000
00001000
00000000
00000000
00000010
00000001
00001000
,
00000000
00000000
00000100
00001000
00010000
01000000
10000000
00000000
,
01000000
10000000
00100000
00000000
00010000
00000000
00001000
00000000
,
00000101
00001000
01000000
10000000
,
01000000
00000000
11000000
00000000
00100000
00010000
11000000
00000000
,
00010000
00000000
11000000
00000000
00010000
01000000
00010000
00000000
,
00001000
00000100
00000001
00000010
00000000
00000001
00000100
00000000
,
00001100
00000011
00001001
00011000
,
10010000
00100000
01000000
00100000
,
10010000
00000000
00000100
00000001
00000010
00001000
00000010
00000000
,
00000001
00001000
00010000
00100000
,
10000000
01000000
00010000
00001000
00000100
00000001
00000001
00000000
,
00001000
00000010
00000001
00000000
00000000
00000000
00001000
00000100
,
00000000
00000010
00000100
00000001
00000000
00000000
00000000
00000000
,
00000001
00000000
00001000
00000000
00000000
00010000
00000000
00000000
,
01000000
10000000
00100000
00010000
,
01000000
00100000
00010000
01100000
,
00000000
10000000
01000000
00010000
00001000
00000100
00000000
00000000
,
00000000
00000000
00000100
00000000
00000000
00000001
00000000
00000000
,
00000100
00001000
00010000
01000000
,
00100000
10000000
00010000
01000000
00100000
00010000
00000000
00000000
,
00000000
00001000
00000000
00000100
00000001
00000000
00001000
00000000
,
00100000
00010000
01000000
00100000
10000000
01000000
00000000
00010000
,
00000000
00001000
00000000
00000100
00000001
00000010
00001000
00000000
,
00100000
10000000
00010000
01000000
00100000
00010000
00000000
00000000
,
00000000
00001000
00000000
00000100
00000001
00000000
00001000
00000000
,
00100000
00010000
01000000
00100000
10000000
01000000
00000000
00010000
,
00000000
00001000
00000000
00000100
00000001
00000010
00001000
00000000
,
00000001
00000100
00000000
00001000
00000000
00000000
00010000
00000000
,
00000001
00001000
00010000
10000000
,
00010000
01000000
00100000
10000000
00000000
00100000
00010000
00000000
,
00010000
00100000
00000000
11000000
00000000
10010000
00000000
00100000
,
01000000
01000000
00100000
01000000
,
10010000
00010000
00100000
10000000
,
10000000
00000000
01000000
00000000
,
00010000
00001000
00000100
00000001
,
00001000
00000100
00000001
00001000
,
00000100
00000001
00000100
00001000
,
00000000
00010000
00000000
00010000
,
00000000
00100000
00000000
00100000
,
00000000
10000000
00000000
10000000
,
00000000
01000000
00000000
01000000
,
00010000
00001000
00000010
00000001
,
00001000
00000001
00000100
00001000
,
00010000
00100000
10000000
00010000
,
10000000
01000000
00010000
00001000
,
00011000
01000000
10000000
00100000
,
00001000
00010000
00000100
00001100
,
00010000
00010000
00100000
00100000
,
00010000
10000000
11000000
00000000
,
00010000
01000000
10000000
01000000
,
00010000
00000000
00001000
00000000
00010000
00001000
00000000
00000100
,
00000000
00000001
00000000
00000000
00001000
00000000
00000100
00000000
,
00001000
00000001
00001000
00000001
00000010
00000100
00001000
00000000
,
00001000
00000001
00000101
00000000
,
00001000
00000100
00011000
00000000
,
00010000
00100000
10000000
01000000
,
10000000
00010000
01000000
01000000
,
00010000
10000000
01000000
00010000
01000000
10000000
00000000
00010000
,
01000000
00010000
01000000
00001000
00000000
00000000
00000000
00000000
,
00011000
00001010
00000010
00000000
,
00000001
00000000
00000100
00000100
,
00001000
00000000
00100000
01000000
,
00000000
01000000
10010000
01010000
,
00000000
00011000
00010100
00001000
,
00000110
00000000
00000101
00000000
00000001
00000100
00001000
00000000
,
01010000
00000000
01000000
00000000
00010000
10000000
01000000
00000000
,
11000000
00000000
00010000
00000000
00000010
00000001
00000100
00000000
,
00001001
00001100
00011000
00000000
,
00001000
00000000
00010100
00000000
00001000
01000000
00010000
00000000
,
01000000
00000000
00010000
00000000
10000000
01000000
10000000
00000000
,
01010000
00000000
00001000
00000000
00000100
00000010
00000001
00000000
,
00001001
00000000
00000100
00000000
00001000
00010000
00001000
00000000
,
10010000
00000000
00100000
00000000
00001000
00010000
00000100
00000000
,
00000010
00000000
00000100
00000000
00000001
00001000
00000100
00000000
,
00001000
00000100
00010000
00000000
00001000
00010000
01000000
00000000
,
10000000
00100000
01000000
00000000
01010000
00000000
00000000
00000000
,
00100000
10000000
00100000
00000000
01000000
00000000
10010000
00000000
,
01000000
01000000
00000000
00010000
,
00001000
00000000
00000100
00000000
00000001
00001000
00000010
00000000
,
00000001
00000100
00001001
00000000
,
00010000
10000000
01000000
00000000
00010000
00000000
00010000
00000000
,
00100000
00010000
00001000
00000100
,
00000001
00001000
00000100
00000000
00001000
00000000
00001000
00000000
,
00000001
00001000
00001100
00000000
,
00000010
00010000
00001000
00000000
00100000
00000000
01000000
00000000
,
00010000
00001000
00000100
00000100
,
00000010
00010000
00000100
00000000
00001000
00000001
00000100
00000000
,
00001000
00010000
00000100
00000000
00001001
00000000
00000000
00000000
;

//---------------dance-double - ----------------
#NOTES:
     dance-double:
     :
     Challenge:
     9:
     0.556,0.626,0.325,0.065,0.057:
00000000
00000000
00000000
00000000
,
00000000
00000000
00000000
00000000
,
00000000
00000000
00000000
00000000
,
00000000
00000000
00000000
00000000
,
00000000
00000000
00000000
00000000
,
00000000
10000000
00000000
00110000
,
00101000
00010000
00000000
00001010
,
00010010
00001000
00000000
00000011
,
00000101
00000000
00000000
00000000
00001001
00000000
00000000
00000000
00001010
00000000
00000000
00000000
00001000
00000100
00001000
00000100
,
00000010
00000000
00000000
00001000
00000000
00000000
00010000
00000000
00000000
00001000
00000000
00000000
00000010
00000000
00000001
00000000
,
00000200
00001000
00000010
00000301
,
00000000
00000000
00000010
00000000
00000000
00000100
00000000
00000000
00001000
00000000
00000000
00000000
00010000
00000000
01000000
00000000
,
00200000
10000000
01000000
00310000
,
00000000
00000000
00100000
00000000
00000000
00001000
00000000
00000000
00010000
00000000
00000000
00000000
00001000
00000000
00100000
00000000
,
02000000
10000000
00100000
03010000
,
00000000
00000000
10000000
00000000
00000000
01000000
00000000
00000000
00010000
00000000
00000000
00000000
00001000
00000000
00000100
00000000
,
00000020
00000001
00000100
00001030
,
00010000
00000000
00000000
01000000
00000000
00000000
10000000
00000000
00000000
00100000
00000000
00000000
00010000
00000000
00000000
00000000
,
01100000
00000000
00000000
00000000
10010000
00000000
00000000
00000000
10000000
00000000
01000000
00000000
00010000
00001000
00010000
00000000
,
00001000
00000000
00000000
00000010
00000000
00000000
00000001
00000000
00000000
00000100
00000000
00000000
00001000
00000000
00000000
00000000
,
00000110
00000000
00001001
00000000
00000001
00000010
00001000
00000000
,
00010000
00000000
00000000
01000000
00000000
00000000
10000000
00000000
00000000
00100000
00000000
00000000
00010000
00000000
00000000
00000000
,
00100000
00000000
10000000
00000000
01000000
00000000
00000000
00000000
00010000
01000000
00000000
10000000
01000000
00000000
00000000
00000000
,
00100000
00001000
00010000
00000000
00010000
01000000
00010000
00000000
,
00001000
00000010
00001000
00010000
00001000
00000100
00000001
00000000
,
00000001
00000000
00000000
00000100
00000000
00000000
00010000
00000000
00000000
00000010
00000000
00000000
00000001
00000000
00000010
00000000
,
00001000
00100000
00001000
00000000
00010000
00000010
00001000
00000000
,
00000000
00000000
00000100
00000000
00000000
00010000
00000000
00000000
00001000
00000000
00000000
00000000
00000100
00000000
00000001
00000000
,
00000010
00001000
00010000
00000000
00000010
00001000
00010000
00000000
,
00000000
00000000
01000000
00000000
00000000
10000000
00000000
00000000
00100000
00000000
00000000
00000000
00010000
00000000
00001000
00000000
,
00010000
00100000
10000000
00000000
00010000
01000000
10000000
00000000
,
00000000
00000000
00100000
00000000
00000000
00010000
00000000
00000000
00001000
00000000
00000000
00000000
00010000
00000000
01000000
00000000
,
01100000
00000000
00011000
00000000
00000010
00001000
00000100
00000010
,
00000002
00000100
00000000
00000100
00000000
00000103
00000000
00000100
,
00001000
00010000
00000000
01000000
00010000
00001000
00010000
01000000
,
10000000
00000000
01000000
00010000
00001000
00000010
00000110
00000000
,
00000001
00000010
00001000
00000000
00000000
00010000
00100000
10000000
,
00000000
01000000
00100000
00010000
01000000
00100000
10000000
01000000
,
00100000
00010000
01000000
00000000
00000000
00001000
00010000
00000010
,
00000000
00000100
00000001
00000010
00001000
00010000
00100000
10000000
,
01000000
00100000
00001000
00000000
00000000
00010000
00000100
00001000
,
00000000
00000001
00000100
00000010
00001000
00000100
00010000
00001000
,
10000000
00100000
01000000
00000000
00000000
00001000
00000100
00000001
,
00000000
00001000
00000100
00010000
00001000
00100000
01000000
10000000
,
00010000
01000000
00001000
00000000
00000000
00010000
00010000
00000000
,
00000000
00000000
00000000
00000100
00001000
00001000
00000001
00000001
,
00000100
00000010
00001000
00000000
00000000
01000000
01000000
00000000
,
00000000
10000000
00000000
00010000
00000000
01000000
00000000
00001000
,
00010000
00000100
00000010
00000000
00000000
00000001
00000001
00000000
,
00000000
00000000
00000000
00000100
00000010
00000010
00010000
00010000
,
00001000
01000000
00100000
00000000
00000000
00010000
00010000
00000000
,
00000000
00001000
00000100
00000001
00001000
00000100
00010000
00001000
,
01000000
00100000
10000000
01000000
,
00000000
00100000
00001000
00010000
00000000
00000100
00000000
00000000
,
00000000
00000000
00001001
00000000
00000000
00010100
00000000
00000000
,
00000000
00001000
00100000
00010000
10000000
01000000
00100000
00010000
,
00000000
01000000
00001000
00000000
00000100
00000000
00000001
00000000
,
00000000
00001000
00000100
00010000
00001000
00100000
00000000
00000000
,
00000000
00000000
10010000
00000000
00000000
01001000
00000000
00000000
,
00000000
00010000
00000100
00000001
00000010
00001000
00000100
00000000
,
00010000
00001000
00100000
00000000
10010000
00000000
00000000
00000000
,
00000000
01000000
00000000
01000000
00100000
00010000
01000000
00000000
,
00001000
00000100
00000001
00000000
00001100
00000000
00000000
00010000
,
00000000
00001000
00000000
00010000
00001000
00100000
01000000
00000000
,
10000000
00010000
01000000
00000000
00011000
00000000
00000000
00000000
,
00000000
00000100
00000000
00000100
00000010
00000001
00000100
00000000
,
00000010
00010000
00001000
00000000
00110000
00000000
00000000
01000000
,
00000000
01000000
00000000
10000000
00100000
01000000
00010000
00000000
,
00100000
00001000
00010000
00000100
00000000
00001000
00001000
00000000
,
00000000
00000000
00000000
00000001
00000100
00000010
00001000
00000100
,
00000000
00000000
00011000
00000000
00000000
10010000
00000000
00000000
,
00000000
00100000
00000000
01000000
00000000
00001000
00000000
00010000
,
00000100
00000010
00000001
00000000
00000000
00000100
00000100
00000000
,
00000000
00000000
00000000
00000010
00010000
00001000
01000000
00010000
,
10000000
10000000
10000000
00000000
01000000
01000000
01000000
00000000
,
00010000
00001000
00000010
00001000
00000010
00001000
00000010
00000001
,
00000100
00001000
00000100
00001000
00000100
00001000
00000100
00001000
,
00010000
00100000
10000000
00100000
10000000
00100000
10000000
01000000
,
00010000
01000000
00000000
00000000
10000000
01000000
00000000
00000000
,
00010000
00010000
00000000
00000000
00001000
00001000
00000000
00000000
,
00000100
00001000
00000000
00000000
00000100
00000001
00000000
00000000
,
00000100
00000100
00000000
00000000
00000010
00000010
00000000
00000000
,
00001100
00000011
00001010
00101000
,
01010000
10100000
11000000
01010000
,
00101000
00010100
00000110
00000011
,
00000001
00000100
00001000
00010000
01000000
00010000
00001000
00010000
,
00011000
00000000
01000000
00000000
10000000
00010000
01000000
00000000
,
00011000
00000000
00000010
00000000
00000001
00001000
00000100
00000000
,
00000110
00000000
00000001
00000000
00001000
00000100
00001000
00000000
,
00010100
00000000
00001000
00000000
00100000
00010000
01000000
00000000
,
00101000
00000000
00010000
00000000
00000010
00001000
00000100
00000000
,
00000101
00000000
00001000
00000000
00010000
00001000
01000000
00000000
,
01100000
00000000
00010000
00000000
10000000
01000000
10000000
00000000
,
00110000
00000000
01000000
00000000
00001000
00010000
00001000
00000000
,
00100000
00010000
10000000
01000000
00010000
00001000
00010000
00001000
,
00000100
00000001
00001000
00000100
00000000
00000000
00000000
00000000
,
00000000
00000010
00000000
00000010
00000000
00000000
00010000
00000000
,
00000000
01000000
00000000
02000000
00000000
03100000
00000000
00000000
,
00010000
00100000
01000000
10000000
00010000
00000000
00000000
00001000
,
00010000
00000100
00000010
00000100
00000000
00000000
00000000
00000000
,
00000000
00000010
00000000
00000010
00000000
00000000
00010000
00000000
,
00000000
01000000
00000000
02000000
00000000
03100000
00000000
00000000
,
00011000
00000000
01100000
01100000
,
00000000
10010000
10010000
10010000
,
00000000
00011000
00011000
00010100
,
00001001
00000000
00000010
00000001
00000100
00001000
00000000
00000100
,
00000001
00001000
00000100
00010000
00000000
00011000
00000000
00101000
,
00000000
00000000
00010000
01000000
10000000
01000000
00000000
01000000
,
00200000
20300000
32000000
03020000
,
00032000
00000000
00003010
00000001
00000100
00001000
00000000
00010000
,
00001000
00100000
01000000
10000000
00000000
11000000
00000000
00110000
,
00000000
00000000
00100000
00001000
00010000
00000100
00000000
00000010
,
00001000
00010000
00001000
00010000
00000000
00001000
00010000
00001000
,
00000000
00010000
00100000
10000000
01000000
00010000
00001000
00010000
,
00001000
00000100
00000001
00001000
00000100
00001000
00000100
00000010
,
00000001
00000100
00001000
00000100
00000001
00000010
00000100
00001000
,
00000100
00010000
00001000
00100000
00010000
10000000
01000000
00010000
,
01000000
10000000
00100000
01000000
00010000
10000000
00010000
00100000
,
01000000
10000000
00010000
01000000
00001000
00010000
00000010
00001000
,
00000001
00000100
00000010
00001000
00000100
00001000
00000010
00000100
,
00001000
00010000
00001000
00010000
01000000
10000000
00010000
00000000
,
10000000
01000000
00010000
01000000
,
00100000
00010000
00001000
00000100
,
00000001
00000100
00001000
00000100
,
00000001
00000100
00001000
00010000
,
01000000
10000000
01000000
00010000
,
00010000
00001000
00000100
00000001
,
00000010
00010000
00001000
00100000
00001000
00010000
00000100
00001000
,
00010000
00001000
00100000
01000000
10010000
00000000
00000000
00000000
;

//---------------dance-single - ----------------
#NOTES:
     dance-single:
     :
     Challenge:
     8:
     0.596,0.626,0.617,0.000,0.000: // measure 1
0000
0000
0000
0000
,  // measure 2
0000
0000
0000
0000
,  // measure 3
0000
0000
0000
0000
,  // measure 4
0000
0000
0000
0000
,  // measure 5
0000
0000
0000
0000
,  // measure 6
0000
0010
0000
1010
,  // measure 7
0101
0010
0000
0011
,  // measure 8
1100
0010
0000
0011
,  // measure 9
1010
0000
1100
0000
0101
0000
0001
0100
,  // measure 10
1001
0000
0110
0000
0001
1000
0100
0000
,  // measure 11
0010
1000
0100
0001
0100
1000
0001
0001
,  // measure 12
0001
0000
1001
0000
0010
1000
0100
0000
,  // measure 13
0001
0100
0010
1000
0100
0010
0001
0001
,  // measure 14
0001
0000
1100
0000
0010
1000
0100
0000
,  // measure 15
0010
0100
0001
1000
0100
0010
0001
1000
,  // measure 16
0100
0000
0101
0000
0010
1000
0100
0000
,  // measure 17
0001
1000
0100
0001
0100
1000
0001
0000
,  // measure 18
0110
0000
1001
0000
0010
0010
0010
0000
,  // measure 19
0100
0000
1001
0000
0001
1000
0100
0000
,  // measure 20
0010
1000
0010
1000
0001
0101
0101
0000
,  // measure 21
0010
1000
0100
0000
1001
0100
0010
0000
,  // measure 22
0010
0001
0010
0001
1000
1100
1100
0000
,  // measure 23
0001
1000
0100
0000
1001
0000
0101
0000
,  // measure 24
1001
0110
1001
0010
,  // measure 25
1001
0100
0010
0000
1001
0100
0010
0000
,  // measure 26
0001
0100
0001
0100
0010
1000
0100
0000
,  // measure 27
0001
0000
1000
0000
0001
0000
0110
0001
,  // measure 28
1000
0100
1000
0100
0010
0001
0100
0000
,  // measure 29
0001
0000
1000
0000
0001
0000
1001
0100
,  // measure 30
0010
0001
0010
0001
1000
0010
0100
0000
,  // measure 31
1001
0000
0110
0000
1001
0100
0010
0000
,  // measure 32
0001
1000
0100
0010
0001
0001
0100
0000
,  // measure 33
1000
0001
0100
1001
,  // measure 34
0010
1000
0100
0001
0100
0001
0100
1000
,  // measure 35
0001
0100
0001
0100
0010
1000
0100
1000
,  // measure 36
0010
0000
1000
0100
0001
1000
0010
0000
,  // measure 37
0010
0100
0001
0000
0010
0100
1000
0000
,  // measure 38
0010
0100
0001
0010
0100
1000
0000
0000
,  // measure 39
0100
0010
1000
0000
0100
0010
0001
0000
,  // measure 40
0100
0010
1000
0100
0010
0001
0000
0000
,  // measure 41
1000
0100
0001
0000
0010
1000
0100
0000
,  // measure 42
1000
0100
0001
0010
0100
1000
0000
0000
,  // measure 43
1000
0100
0010
0000
0001
0100
0010
0000
,  // measure 44
1000
0100
0010
0001
0100
1000
0000
0000
,  // measure 45
0001
0010
0100
0100
0100
0010
0001
0000
,  // measure 46
1000
0010
0100
0100
0100
0010
1000
0000
,  // measure 47
0010
0001
1000
0100
0000
0001
1000
0000
,  // measure 48
1100
0101
0011
1010
,  // measure 49
1001
0000
0100
0000
0001
0001
1000
0010
,  // measure 50
1001
0000
1000
1000
0001
0010
0100
0000
,  // measure 51
0001
0000
1000
0000
0100
0100
0100
0000
,  // measure 52
0010
0001
1000
0010
1000
0010
0001
0010
,  // measure 53
0001
0100
1000
0000
0000
0000
0001
1000
,  // measure 54
0000
0001
1000
0100
0000
0000
0000
0000
,  // measure 55
0010
0001
0001
0000
0000
0100
0000
0000
,  // measure 56
1000
0100
0010
1000
,  // measure 57
0001
0100
0010
0001
,  // measure 58
0000
0001
0100
0010
1000
0100
0000
0000
,  // measure 59
0000
0000
0100
0000
0000
0100
0000
0000
,  // measure 60
0001
0010
0100
1000
,  // measure 61
0001
0010
0001
1000
0010
0001
0000
0000
,  // measure 62
0000
0101
0000
1010
0010
0000
1001
0000
,  // measure 63
1000
0010
1000
0001
0010
1000
0000
1000
,  // measure 64
0000
1001
0000
0000
0011
1100
0011
0000
,  // measure 65
0001
0010
0001
1000
0010
0001
0000
0000
,  // measure 66
0000
1100
0000
0011
0010
0000
1001
0000
,  // measure 67
1000
0010
1000
0001
0010
1000
0000
0001
,  // measure 68
0000
1001
0000
1000
0100
0001
0100
0000
,  // measure 69
0001
0100
0000
1000
0000
0000
0001
0000
,  // measure 70
1000
0010
0100
0001
0010
0100
0001
0000
,  // measure 71
1000
0100
0010
0001
0000
1000
0100
0000
,  // measure 72
0010
1000
0000
0101
0000
1010
0000
0010
,  // measure 73
0100
0000
0010
0001
0001
0000
0100
0000
,  // measure 74
0010
1000
1000
0000
0100
0000
0110
0000
,  // measure 75
1000
0000
0001
0000
,  // measure 76
1000
0001
0010
0001
0010
0001
0010
0100
,  // measure 77
0001
1000
0010
1000
0010
1000
0010
1000
,  // measure 78
0100
0010
0010
0010
0010
0010
0010
0010
,  // measure 79
1000
0010
0000
0000
0001
0010
0000
0000
,  // measure 80
1000
1000
0000
0000
0001
0001
0000
0000
,  // measure 81
0010
0100
0000
0000
1000
0001
0000
0000
,  // measure 82
1000
0100
0000
0000
0001
0100
0000
0000
,  // measure 83
1100
0011
1010
0101
,  // measure 84
1010
1001
0110
1001
,  // measure 85
1001
0110
0101
1001
,  // measure 86
0010
1000
0010
1000
0001
0010
0001
0010
,  // measure 87
1000
0000
0001
0000
1000
1000
0001
0000
,  // measure 88
1000
0000
0001
0000
0001
0001
1000
0000
,  // measure 89
1000
0000
0001
0000
1000
0010
1000
0000
,  // measure 90
1000
0000
0001
0100
1000
0001
0000
0000
,  // measure 91
0010
0000
1000
0000
0001
0010
1000
0000
,  // measure 92
0001
0000
1000
0000
0010
1000
0001
0000
,  // measure 93
0010
0000
1000
0000
0001
0010
1000
0000
,  // measure 94
1000
1000
1000
1000
0100
0100
0100
0000
,  // measure 95
1000
0001
0100
0010
1000
0100
0000
0001
,  // measure 96
1000
0010
0100
0001
0000
0000
0000
0000
,  // measure 97
0010
0001
0010
0001
,  // measure 98
1010
0110
1001
0000
,  // measure 99
0010
0100
0010
1000
0001
0100
0000
1000
,  // measure 100
0100
0001
0100
0010
0000
0000
0000
0000
,  // measure 101
1000
0001
0100
0010
1000
0001
0000
0000
,  // measure 102
1000
0100
0001
0000
1000
0010
0000
0000
,  // measure 103
0001
0010
0000
0000
1000
0010
1000
0010
,  // measure 104
0000
0000
0001
0100
1000
0100
0001
0000
,  // measure 105
0000
0000
1000
0010
0001
0010
1000
0000
,  // measure 106
1001
1010
0101
0010
,  // measure 107
0001
0000
0100
0001
1000
0001
1000
0000
,  // measure 108
1001
0011
1001
0110
,  // measure 109
1001
1100
0101
0100
,  // measure 110
1001
1010
0101
0010
,  // measure 111
0001
0000
0100
0001
1000
0001
1000
0000
,  // measure 112
1001
0011
1001
0110
,  // measure 113
1001
0000
1100
0000
0101
0000
0001
1000
,  // measure 114
0010
1000
0001
0000
1010
0000
0101
0000
,  // measure 115
1000
0100
0001
1000
0000
0000
0010
0000
,  // measure 116
0001
0010
0001
0000
0011
0000
1100
0000
,  // measure 117
1010
0011
1001
0000
,  // measure 118
1000
0010
1000
0000
0011
0000
0110
0000
,  // measure 119
1000
0010
0001
1000
0000
0000
0010
0000
,  // measure 120
0001
0010
0001
0000
0110
0000
1100
0000
,  // measure 121
1010
0011
1001
0000
,  // measure 122
1000
0100
0010
1000
0100
0010
1000
0100
,  // measure 123
0010
0000
0000
0011
0000
0000
1100
0000
,  // measure 124
0001
0100
0010
0001
0100
0010
0000
0001
,  // measure 125
1000
0100
1000
0001
0100
0010
0100
0000
,  // measure 126
1000
0100
0010
1000
0100
0010
1000
0100
,  // measure 127
0010
0000
0000
0011
0000
0000
1100
0000
,  // measure 128
1001
1001
0110
0011
,  // measure 129
1100
0110
1001
0000
;
